  0
SECTION
  2
HEADER
  9
$ACADVER
  1
AC1018
  9
$ACADMAINTVER
 70
     0
  9
$DWGCODEPAGE
  3
ANSI_932
  9
$INSBASE
 10
0.0
 20
0.0
 30
0.0
  9
$EXTMIN
 10
3.960572271562
 20
-2.987535338945576
 30
-1.000061032362211
  9
$EXTMAX
 10
259.4110115331262
 20
192.4405803060084
 30
0.0000610416757212
  9
$LIMMIN
 10
0.0
 20
0.0
  9
$LIMMAX
 10
420.0
 20
297.0
  9
$ORTHOMODE
 70
     1
  9
$REGENMODE
 70
     1
  9
$FILLMODE
 70
     1
  9
$QTEXTMODE
 70
     0
  9
$MIRRTEXT
 70
     1
  9
$LTSCALE
 40
1.0
  9
$ATTMODE
 70
     1
  9
$TEXTSIZE
 40
3.0
  9
$TRACEWID
 40
1.0
  9
$TEXTSTYLE
  7
STYLE3
  9
$CLAYER
  8
寸法線
  9
$CELTYPE
  6
BYLAYER
  9
$CECOLOR
 62
   256
  9
$CELTSCALE
 40
1.0
  9
$DISPSILH
 70
     0
  9
$DIMSCALE
 40
1.0
  9
$DIMASZ
 40
2.5
  9
$DIMEXO
 40
0.0
  9
$DIMDLI
 40
3.75
  9
$DIMRND
 40
0.0
  9
$DIMDLE
 40
0.0
  9
$DIMEXE
 40
1.25
  9
$DIMTP
 40
0.0
  9
$DIMTM
 40
0.0
  9
$DIMTXT
 40
2.5
  9
$DIMCEN
 40
2.5
  9
$DIMTSZ
 40
0.0
  9
$DIMTOL
 70
     0
  9
$DIMLIM
 70
     0
  9
$DIMTIH
 70
     0
  9
$DIMTOH
 70
     0
  9
$DIMSE1
 70
     0
  9
$DIMSE2
 70
     0
  9
$DIMTAD
 70
     1
  9
$DIMZIN
 70
     8
  9
$DIMBLK
  1

  9
$DIMASO
 70
     1
  9
$DIMSHO
 70
     1
  9
$DIMPOST
  1

  9
$DIMAPOST
  1

  9
$DIMALT
 70
     0
  9
$DIMALTD
 70
     4
  9
$DIMALTF
 40
0.0394
  9
$DIMLFAC
 40
1.0
  9
$DIMTOFL
 70
     1
  9
$DIMTVP
 40
0.0
  9
$DIMTIX
 70
     0
  9
$DIMSOXD
 70
     0
  9
$DIMSAH
 70
     1
  9
$DIMBLK1
  1
OPEN
  9
$DIMBLK2
  1
OPEN
  9
$DIMSTYLE
  2
STYLE3
  9
$DIMCLRD
 70
     2
  9
$DIMCLRE
 70
     2
  9
$DIMCLRT
 70
     6
  9
$DIMTFAC
 40
1.0
  9
$DIMGAP
 40
0.625
  9
$DIMJUST
 70
     0
  9
$DIMSD1
 70
     0
  9
$DIMSD2
 70
     0
  9
$DIMTOLJ
 70
     1
  9
$DIMTZIN
 70
     0
  9
$DIMALTZ
 70
     0
  9
$DIMALTTZ
 70
     0
  9
$DIMUPT
 70
     0
  9
$DIMDEC
 70
     2
  9
$DIMTDEC
 70
     4
  9
$DIMALTU
 70
     8
  9
$DIMALTTD
 70
     4
  9
$DIMTXSTY
  7
STYLE3
  9
$DIMAUNIT
 70
     0
  9
$DIMADEC
 70
     0
  9
$DIMALTRND
 40
0.0
  9
$DIMAZIN
 70
     0
  9
$DIMDSEP
 70
    46
  9
$DIMATFIT
 70
     3
  9
$DIMFRAC
 70
     0
  9
$DIMLDRBLK
  1

  9
$DIMLUNIT
 70
     2
  9
$DIMLWD
 70
    -2
  9
$DIMLWE
 70
    -2
  9
$DIMTMOVE
 70
     0
  9
$LUNITS
 70
     2
  9
$LUPREC
 70
     4
  9
$SKETCHINC
 40
1.0
  9
$FILLETRAD
 40
0.5
  9
$AUNITS
 70
     0
  9
$AUPREC
 70
     0
  9
$MENU
  1
.
  9
$ELEVATION
 40
0.0
  9
$PELEVATION
 40
0.0
  9
$THICKNESS
 40
0.0
  9
$LIMCHECK
 70
     0
  9
$CHAMFERA
 40
0.3
  9
$CHAMFERB
 40
0.3
  9
$CHAMFERC
 40
20.0
  9
$CHAMFERD
 40
0.0
  9
$SKPOLY
 70
     0
  9
$TDCREATE
 40
2451451.663712269
  9
$TDUCREATE
 40
2451451.288712269
  9
$TDUPDATE
 40
2455364.423292639
  9
$TDUUPDATE
 40
2455364.048292639
  9
$TDINDWG
 40
0.6069417477
  9
$TDUSRTIMER
 40
0.6069417477
  9
$USRTIMER
 70
     1
  9
$ANGBASE
 50
0.0
  9
$ANGDIR
 70
     0
  9
$PDMODE
 70
     0
  9
$PDSIZE
 40
0.0
  9
$PLINEWID
 40
0.0
  9
$SPLFRAME
 70
     0
  9
$SPLINETYPE
 70
     6
  9
$SPLINESEGS
 70
     8
  9
$HANDSEED
  5
29E4
  9
$SURFTAB1
 70
     6
  9
$SURFTAB2
 70
     6
  9
$SURFTYPE
 70
     6
  9
$SURFU
 70
     6
  9
$SURFV
 70
     6
  9
$UCSBASE
  2

  9
$UCSNAME
  2

  9
$UCSORG
 10
0.0
 20
0.0
 30
0.0
  9
$UCSXDIR
 10
1.0
 20
0.0
 30
0.0
  9
$UCSYDIR
 10
0.0
 20
1.0
 30
0.0
  9
$UCSORTHOREF
  2

  9
$UCSORTHOVIEW
 70
     0
  9
$UCSORGTOP
 10
0.0
 20
0.0
 30
0.0
  9
$UCSORGBOTTOM
 10
0.0
 20
0.0
 30
0.0
  9
$UCSORGLEFT
 10
0.0
 20
0.0
 30
0.0
  9
$UCSORGRIGHT
 10
0.0
 20
0.0
 30
0.0
  9
$UCSORGFRONT
 10
0.0
 20
0.0
 30
0.0
  9
$UCSORGBACK
 10
0.0
 20
0.0
 30
0.0
  9
$PUCSBASE
  2

  9
$PUCSNAME
  2

  9
$PUCSORG
 10
0.0
 20
0.0
 30
0.0
  9
$PUCSXDIR
 10
1.0
 20
0.0
 30
0.0
  9
$PUCSYDIR
 10
0.0
 20
1.0
 30
0.0
  9
$PUCSORTHOREF
  2

  9
$PUCSORTHOVIEW
 70
     0
  9
$PUCSORGTOP
 10
0.0
 20
0.0
 30
0.0
  9
$PUCSORGBOTTOM
 10
0.0
 20
0.0
 30
0.0
  9
$PUCSORGLEFT
 10
0.0
 20
0.0
 30
0.0
  9
$PUCSORGRIGHT
 10
0.0
 20
0.0
 30
0.0
  9
$PUCSORGFRONT
 10
0.0
 20
0.0
 30
0.0
  9
$PUCSORGBACK
 10
0.0
 20
0.0
 30
0.0
  9
$USERI1
 70
     0
  9
$USERI2
 70
     0
  9
$USERI3
 70
     0
  9
$USERI4
 70
     0
  9
$USERI5
 70
     0
  9
$USERR1
 40
0.0
  9
$USERR2
 40
0.0
  9
$USERR3
 40
0.0
  9
$USERR4
 40
0.0
  9
$USERR5
 40
0.0
  9
$WORLDVIEW
 70
     1
  9
$SHADEDGE
 70
     3
  9
$SHADEDIF
 70
    70
  9
$TILEMODE
 70
     1
  9
$MAXACTVP
 70
    48
  9
$PINSBASE
 10
0.0
 20
0.0
 30
0.0
  9
$PLIMCHECK
 70
     0
  9
$PEXTMIN
 10
-0.2
 20
-0.2
 30
0.0
  9
$PEXTMAX
 10
255.2
 20
195.2
 30
0.0
  9
$PLIMMIN
 10
0.0
 20
0.0
  9
$PLIMMAX
 10
420.0
 20
297.0
  9
$UNITMODE
 70
     0
  9
$VISRETAIN
 70
     1
  9
$PLINEGEN
 70
     0
  9
$PSLTSCALE
 70
     1
  9
$TREEDEPTH
 70
  3020
  9
$CMLSTYLE
  2
STANDARD
  9
$CMLJUST
 70
     0
  9
$CMLSCALE
 40
20.0
  9
$PROXYGRAPHICS
 70
     1
  9
$MEASUREMENT
 70
     1
  9
$CELWEIGHT
370
    -1
  9
$ENDCAPS
280
     0
  9
$JOINSTYLE
280
     0
  9
$LWDISPLAY
290
     0
  9
$INSUNITS
 70
     0
  9
$HYPERLINKBASE
  1

  9
$STYLESHEET
  1
AutoCAD LT 98.ctb
  9
$XEDIT
290
     1
  9
$CEPSNTYPE
380
     0
  9
$PSTYLEMODE
290
     1
  9
$FINGERPRINTGUID
  2
{E0E841A2-89CC-4546-8304-A48D374282A5}
  9
$VERSIONGUID
  2
{4E325DA0-EC17-4DE8-9E8A-8F1DA1A65FB8}
  9
$EXTNAMES
290
     1
  9
$PSVPSCALE
 40
0.0
  9
$OLESTARTUP
290
     0
  9
$SORTENTS
280
    96
  9
$INDEXCTL
280
     0
  9
$HIDETEXT
280
     0
  9
$XCLIPFRAME
290
     0
  9
$HALOGAP
280
     0
  9
$OBSCOLOR
 70
   257
  9
$OBSLTYPE
280
     0
  9
$INTERSECTIONDISPLAY
280
     0
  9
$INTERSECTIONCOLOR
 70
   257
  9
$DIMASSOC
280
     1
  9
$PROJECTNAME
  1

  0
ENDSEC
  0
SECTION
  2
CLASSES
  0
CLASS
  1
HATCH
  2
AcDbHatch
  3
ObjectDBX Classes
 90
        0
 91
       72
280
     0
281
     1
  0
CLASS
  1
IMAGEDEF
  2
AcDbRasterImageDef
  3
ISM
 90
        0
 91
        1
280
     0
281
     0
  0
CLASS
  1
LWPOLYLINE
  2
AcDbPolyline
  3
ObjectDBX Classes
 90
        0
 91
       11
280
     0
281
     1
  0
CLASS
  1
DICTIONARYVAR
  2
AcDbDictionaryVar
  3
ObjectDBX Classes
 90
        0
 91
        2
280
     0
281
     0
  0
CLASS
  1
ACDBDICTIONARYWDFLT
  2
AcDbDictionaryWithDefault
  3
ObjectDBX Classes
 90
        0
 91
        1
280
     0
281
     0
  0
CLASS
  1
TABLESTYLE
  2
AcDbTableStyle
  3
ObjectDBX Classes
 90
     2047
 91
        1
280
     0
281
     0
  0
CLASS
  1
SORTENTSTABLE
  2
AcDbSortentsTable
  3
ObjectDBX Classes
 90
        0
 91
        1
280
     0
281
     0
  0
ENDSEC
  0
SECTION
  2
TABLES
  0
TABLE
  2
VPORT
  5
8
330
0
100
AcDbSymbolTable
 70
     2
  0
VPORT
  5
29E3
330
8
100
AcDbSymbolTableRecord
100
AcDbViewportTableRecord
  2
*Active
 70
     0
 10
0.0
 20
0.0
 11
1.0
 21
1.0
 12
131.6857919023441
 22
94.72652248353142
 13
0.0
 23
0.0
 14
10.0
 24
10.0
 15
10.0
 25
10.0
 16
0.0
 26
0.0
 36
1.0
 17
0.0
 27
0.0
 37
0.0
 40
196.9142610110753
 41
1.530456852791878
 42
50.0
 43
0.0
 44
0.0
 50
0.0
 51
0.0
 71
     0
 72
   100
 73
     1
 74
     1
 75
     0
 76
     0
 77
     0
 78
     0
281
     0
 65
     1
110
0.0
120
0.0
130
0.0
111
1.0
121
0.0
131
0.0
112
0.0
122
1.0
132
0.0
 79
     0
146
0.0
  0
ENDTAB
  0
TABLE
  2
LTYPE
  5
5
330
0
100
AcDbSymbolTable
 70
    12
  0
LTYPE
  5
12
330
5
100
AcDbSymbolTableRecord
100
AcDbLinetypeTableRecord
  2
BYBLOCK
 70
     0
  3

 72
    65
 73
     0
 40
0.0
  0
LTYPE
  5
13
330
5
100
AcDbSymbolTableRecord
100
AcDbLinetypeTableRecord
  2
BYLAYER
 70
     0
  3

 72
    65
 73
     0
 40
0.0
  0
LTYPE
  5
14
330
5
100
AcDbSymbolTableRecord
100
AcDbLinetypeTableRecord
  2
CONTINUOUS
 70
     0
  3
Solid line
 72
    65
 73
     0
 40
0.0
  0
LTYPE
  5
22
330
5
100
AcDbSymbolTableRecord
100
AcDbLinetypeTableRecord
  2
CENTER2
 70
     0
  3
Center (.5x) ___ _ ___ _ ___ _ ___ _ ___ _ ___
 72
    65
 73
     4
 40
28.575
 49
19.05
 74
     0
 49
-3.174999999999999
 74
     0
 49
3.174999999999999
 74
     0
 49
-3.174999999999999
 74
     0
  0
LTYPE
  5
23
330
5
100
AcDbSymbolTableRecord
100
AcDbLinetypeTableRecord
  2
HIDDEN2
 70
     0
  3
Hidden (.5x) _ _ _ _ _ _ _ _ _ _ _ _ _ _ _ _ _
 72
    65
 73
     2
 40
4.762499999999999
 49
3.174999999999999
 74
     0
 49
-1.587499999999999
 74
     0
  0
ENDTAB
  0
TABLE
  2
LAYER
  5
2
330
0
100
AcDbSymbolTable
 70
    15
  0
LAYER
  5
E
330
2
100
AcDbSymbolTableRecord
100
AcDbLayerTableRecord
  2
0
 70
     0
 62
     7
  6
CONTINUOUS
370
    -3
390
1EF6
  0
LAYER
  5
25
330
2
100
AcDbSymbolTableRecord
100
AcDbLayerTableRecord
  2
外形線
 70
     0
 62
     7
  6
CONTINUOUS
370
    -3
390
1EF6
  0
LAYER
  5
26
330
2
100
AcDbSymbolTableRecord
100
AcDbLayerTableRecord
  2
寸法線
 70
     0
 62
     2
  6
CONTINUOUS
370
    -3
390
1EF6
  0
LAYER
  5
27
330
2
100
AcDbSymbolTableRecord
100
AcDbLayerTableRecord
  2
中心線
 70
     0
 62
     4
  6
CENTER2
370
    -3
390
1EF6
  0
LAYER
  5
2A
330
2
100
AcDbSymbolTableRecord
100
AcDbLayerTableRecord
  2
ﾊｯﾁﾝｸ
 70
     0
 62
     6
  6
CONTINUOUS
370
    -3
390
1EF6
  0
LAYER
  5
2B
330
2
100
AcDbSymbolTableRecord
100
AcDbLayerTableRecord
  2
文字
 70
     0
 62
     6
  6
CONTINUOUS
370
    -3
390
1EF6
  0
LAYER
  5
2C
330
2
100
AcDbSymbolTableRecord
100
AcDbLayerTableRecord
  2
目盛
 70
     0
 62
    70
  6
CONTINUOUS
370
    -3
390
1EF6
  0
LAYER
  5
2D
330
2
100
AcDbSymbolTableRecord
100
AcDbLayerTableRecord
  2
針
 70
     0
 62
     5
  6
CONTINUOUS
370
    -3
390
1EF6
  0
LAYER
  5
53
330
2
100
AcDbSymbolTableRecord
100
AcDbLayerTableRecord
  2
DEFPOINTS
 70
     0
 62
     7
  6
CONTINUOUS
290
     0
370
    -3
390
1EF6
  0
LAYER
  5
A5
330
2
100
AcDbSymbolTableRecord
100
AcDbLayerTableRecord
  2
C
 70
     0
 62
     7
  6
CONTINUOUS
370
    -3
390
1EF6
  0
LAYER
  5
16A
330
2
100
AcDbSymbolTableRecord
100
AcDbLayerTableRecord
  2
隠れ線2
 70
     0
 62
     1
  6
HIDDEN2
370
    -3
390
1EF6
  0
LAYER
  5
2DB
330
2
100
AcDbSymbolTableRecord
100
AcDbLayerTableRecord
  2
ROGO
 70
     0
 62
     6
  6
CONTINUOUS
370
    -3
390
1EF6
  0
ENDTAB
  0
TABLE
  2
STYLE
  5
3
330
0
100
AcDbSymbolTable
 70
     6
  0
STYLE
  5
F
330
3
100
AcDbSymbolTableRecord
100
AcDbTextStyleTableRecord
  2
STANDARD
 70
     0
 40
0.0
 41
1.0
 50
0.0
 71
     0
 42
2.5
  3
txt
  4

  0
STYLE
  5
3F
330
3
100
AcDbSymbolTableRecord
100
AcDbTextStyleTableRecord
  2
STYLE3
 70
     0
 40
0.0
 41
1.0
 50
0.0
 71
     0
 42
3.0
  3
romans.shx
  4
bigfont.shx
  0
ENDTAB
  0
TABLE
  2
VIEW
  5
6
330
0
100
AcDbSymbolTable
 70
     0
  0
ENDTAB
  0
TABLE
  2
UCS
  5
7
330
0
100
AcDbSymbolTable
 70
     0
  0
ENDTAB
  0
TABLE
  2
APPID
  5
9
330
0
100
AcDbSymbolTable
 70
     2
  0
APPID
  5
10
330
9
100
AcDbSymbolTableRecord
100
AcDbRegAppTableRecord
  2
ACAD
 70
     0
  0
APPID
  5
28D8
330
9
100
AcDbSymbolTableRecord
100
AcDbRegAppTableRecord
  2
ACAD_PSEXT
 70
     0
  0
ENDTAB
  0
TABLE
  2
DIMSTYLE
  5
A
330
0
100
AcDbSymbolTable
 70
     4
100
AcDbDimStyleTable
 71
     1
340
8F
  0
DIMSTYLE
105
1D
330
A
100
AcDbSymbolTableRecord
100
AcDbDimStyleTableRecord
  2
STANDARD
 70
     0
 41
2.5
 42
0.625
 43
3.75
 44
1.25
 73
     0
 74
     0
 77
     1
 78
     8
140
2.5
141
2.5
143
0.0394
147
0.625
171
     4
172
     1
273
     8
274
     4
277
     6
340
F
  0
DIMSTYLE
105
8F
102
{ACAD_REACTORS
330
1AAB
330
1D25
330
1D31
330
1D3D
330
1D99
330
1DA5
330
1925
330
193A
330
24E3
330
24F0
330
2708
102
}
330
A
100
AcDbSymbolTableRecord
100
AcDbDimStyleTableRecord
  2
STYLE3
 70
     0
 41
2.5
 42
0.0
 43
3.75
 44
1.25
 73
     0
 74
     0
 77
     1
 78
     8
140
2.5
141
2.5
143
0.0394
147
0.625
171
     4
172
     1
173
     1
176
     2
177
     2
178
     6
271
     1
273
     8
274
     4
340
3F
341
45
343
45
344
45
  0
ENDTAB
  0
TABLE
  2
BLOCK_RECORD
  5
1
330
0
100
AcDbSymbolTable
 70
    23
  0
BLOCK_RECORD
  5
18
102
{ACAD_XDICTIONARY
360
26A5
102
}
330
1
100
AcDbSymbolTableRecord
100
AcDbBlockTableRecord
  2
*MODEL_SPACE
340
1EFD
  0
BLOCK_RECORD
  5
15
330
1
100
AcDbSymbolTableRecord
100
AcDbBlockTableRecord
  2
*PAPER_SPACE
340
1EFE
  0
BLOCK_RECORD
  5
45
330
1
100
AcDbSymbolTableRecord
100
AcDbBlockTableRecord
  2
_OPEN
340
0
102
{BLKREFS
331
1ECB
331
1ECC
331
A19
331
A1A
331
A20
331
A21
331
A27
331
A28
331
A2E
331
A2F
331
A37
331
A38
331
A42
331
A43
331
A48
331
A49
331
A4F
331
A50
331
AEE
331
AEF
331
B00
331
B01
331
B06
331
B07
331
B20
331
B21
331
B28
331
B29
331
BC4
331
BC5
331
BCD
331
BCE
331
C14
331
C15
331
C45
331
C46
331
1314
331
1315
331
131C
331
131D
331
1327
331
1328
331
1335
331
1336
331
1341
331
1342
331
134A
331
134B
331
1353
331
1354
331
1364
331
1365
331
1384
331
1385
331
138E
331
138F
331
1397
331
1398
331
139F
331
13A0
331
13A7
331
13A8
331
13E4
331
13E5
331
1893
331
1894
331
189F
331
18A0
331
1C5F
331
1C61
331
27BE
331
27BF
331
298F
331
2990
331
2998
331
2999
331
29A0
331
29A1
331
29A9
331
29AA
331
29B1
331
29B2
331
29B9
331
29BA
331
29C1
331
29C2
331
29CA
331
29CB
331
29D3
331
29D4
102
}
  0
BLOCK_RECORD
  5
18A7
330
1
100
AcDbSymbolTableRecord
100
AcDbBlockTableRecord
  2
12
340
0
102
{BLKREFS
331
1A8A
331
1919
102
}
  0
BLOCK_RECORD
  5
1C04
330
1
100
AcDbSymbolTableRecord
100
AcDbBlockTableRecord
  2
*D12
340
0
  0
BLOCK_RECORD
  5
1D1A
330
1
100
AcDbSymbolTableRecord
100
AcDbBlockTableRecord
  2
*D14
340
0
  0
BLOCK_RECORD
  5
1D26
330
1
100
AcDbSymbolTableRecord
100
AcDbBlockTableRecord
  2
*D15
340
0
  0
BLOCK_RECORD
  5
1D32
330
1
100
AcDbSymbolTableRecord
100
AcDbBlockTableRecord
  2
*D16
340
0
  0
BLOCK_RECORD
  5
1D8D
330
1
100
AcDbSymbolTableRecord
100
AcDbBlockTableRecord
  2
*D17
340
0
  0
BLOCK_RECORD
  5
1D9A
330
1
100
AcDbSymbolTableRecord
100
AcDbBlockTableRecord
  2
*D18
340
0
  0
BLOCK_RECORD
  5
24E4
330
1
100
AcDbSymbolTableRecord
100
AcDbBlockTableRecord
  2
*D19
340
0
  0
BLOCK_RECORD
  5
24F1
330
1
100
AcDbSymbolTableRecord
100
AcDbBlockTableRecord
  2
*D20
340
0
  0
BLOCK_RECORD
  5
2709
330
1
100
AcDbSymbolTableRecord
100
AcDbBlockTableRecord
  2
*D21
340
0
  0
ENDTAB
  0
ENDSEC
  0
SECTION
  2
BLOCKS
  0
BLOCK
  5
19
330
18
100
AcDbEntity
  8
0
100
AcDbBlockBegin
  2
*MODEL_SPACE
 70
     0
 10
0.0
 20
0.0
 30
0.0
  3
*MODEL_SPACE
  1

  0
ENDBLK
  5
1A
330
18
100
AcDbEntity
  8
0
100
AcDbBlockEnd
  0
BLOCK
  5
16
330
15
100
AcDbEntity
 67
     1
  8
0
100
AcDbBlockBegin
  2
*PAPER_SPACE
 70
     0
 10
0.0
 20
0.0
 30
0.0
  3
*PAPER_SPACE
  1

  0
ENDBLK
  5
17
330
15
100
AcDbEntity
 67
     1
  8
0
100
AcDbBlockEnd
  0
BLOCK
  5
46
330
45
100
AcDbEntity
  8
0
100
AcDbBlockBegin
  2
_OPEN
 70
     0
 10
0.0
 20
0.0
 30
0.0
  3
_OPEN
  1

  0
LINE
  5
47
330
45
100
AcDbEntity
  8
0
  6
ByBlock
 62
     0
100
AcDbLine
 10
-1.0
 20
0.1666666666666666
 30
0.0
 11
0.0
 21
0.0
 31
0.0
  0
LINE
  5
48
330
45
100
AcDbEntity
  8
0
  6
ByBlock
 62
     0
100
AcDbLine
 10
0.0
 20
0.0
 30
0.0
 11
-1.0
 21
-0.1666666666666666
 31
0.0
  0
LINE
  5
49
330
45
100
AcDbEntity
  8
0
  6
ByBlock
 62
     0
100
AcDbLine
 10
0.0
 20
0.0
 30
0.0
 11
-1.0
 21
0.0
 31
0.0
  0
ENDBLK
  5
4A
330
45
100
AcDbEntity
  8
0
100
AcDbBlockEnd
  0
BLOCK
  5
1916
330
18A7
100
AcDbEntity
  8
0
100
AcDbBlockBegin
  2
12
 70
     0
 10
0.0
 20
0.0
 30
0.0
  3
12
  1

  0
TEXT
  5
18A8
330
18A7
100
AcDbEntity
  8
文字
100
AcDbText
 10
-12.99252466379442
 20
13.40997501355684
 30
0.0
 40
2.5
  1
90
  7
STYLE3
100
AcDbText
  0
TEXT
  5
18A9
330
18A7
100
AcDbEntity
  8
文字
100
AcDbText
 10
-19.18697334178108
 20
4.509387238967633
 30
0.0
 40
2.5
  1
80
  7
STYLE3
100
AcDbText
  0
TEXT
  5
18AA
330
18A7
100
AcDbEntity
  8
文字
100
AcDbText
 10
-19.29265411071986
 20
-7.2251438858367
 30
0.0
 40
2.5
  1
70
  7
STYLE3
100
AcDbText
  0
LINE
  5
18AB
330
18A7
100
AcDbEntity
  8
目盛
100
AcDbLine
 10
-15.74458343635967
 20
16.76627843069252
 30
0.0
 11
-14.58085335628095
 21
15.52703176407613
 31
0.0
  0
LINE
  5
18AC
330
18A7
100
AcDbEntity
  8
目盛
100
AcDbLine
 10
-21.8742998747885
 20
-7.107390870623817
 30
0.0
 11
-19.30644728079158
 21
-6.273044985811452
 31
0.0
  0
LINE
  5
18AD
330
18A7
100
AcDbEntity
  8
目盛
100
AcDbLine
 10
-21.38485917542971
 20
-8.466864711747462
 30
0.0
 11
-19.80423914941968
 21
-7.84105297218349
 31
0.0
  0
LINE
  5
18AE
330
18A7
100
AcDbEntity
  8
目盛
100
AcDbLine
 10
-22.5926067667599
 20
-4.309770235471432
 30
0.0
 11
-20.92271844052107
 21
-3.991222000675747
 31
0.0
  0
LINE
  5
18AF
330
18A7
100
AcDbEntity
  8
目盛
100
AcDbLine
 10
-22.8186381302329
 20
-2.882664371978876
 30
0.0
 11
-21.13204313799838
 21
-2.669597874919531
 31
0.0
  0
LINE
  5
18B0
330
18A7
100
AcDbEntity
  8
目盛
100
AcDbLine
 10
-22.95461475385019
 20
-1.444181949174094
 30
0.0
 11
-21.25796931552219
 21
-1.337438065974254
 31
0.0
  0
LINE
  5
18B1
330
18A7
100
AcDbEntity
  8
目盛
100
AcDbLine
 10
-22.27741270595857
 20
-5.719867404791443
 30
0.0
 11
-20.63082133203989
 21
-5.297094596611259
 31
0.0
  0
LINE
  5
18B2
330
18A7
100
AcDbEntity
  8
目盛
100
AcDbLine
 10
-22.8186381302329
 20
2.882664371979217
 30
0.0
 11
-21.13204313799827
 21
2.669597874919872
 31
0.0
  0
LINE
  5
18B3
330
18A7
100
AcDbEntity
  8
目盛
100
AcDbLine
 10
-22.59260676675967
 20
4.309770235471773
 30
0.0
 11
-20.92271844052095
 21
3.991222000676089
 31
0.0
  0
LINE
  5
18B4
330
18A7
100
AcDbEntity
  8
目盛
100
AcDbLine
 10
-22.99999999999989
 20
0.0
 30
0.0
 11
-20.2999999999999
 21
0.0
 31
0.0
  0
LINE
  5
18B5
330
18A7
100
AcDbEntity
  8
目盛
100
AcDbLine
 10
-22.95461475385014
 20
1.444181949174435
 30
0.0
 11
-21.25796931552208
 21
1.337438065974538
 31
0.0
  0
LINE
  5
18B6
330
18A7
100
AcDbEntity
  8
目盛
100
AcDbLine
 10
-20.15505364100875
 20
11.08033450433953
 30
0.0
 11
-18.66533228493421
 21
10.26135325836668
 31
0.0
  0
LINE
  5
18B7
330
18A7
100
AcDbEntity
  8
目盛
100
AcDbLine
 10
-20.81102220671835
 20
9.792923705996884
 30
0.0
 11
-19.2728162175261
 21
9.069098910336208
 31
0.0
  0
LINE
  5
18B8
330
18A7
100
AcDbEntity
  8
目盛
100
AcDbLine
 10
-21.87429987478845
 20
7.10739087062376
 30
0.0
 11
-19.30644728079153
 21
6.273044985811452
 31
0.0
  0
LINE
  5
18B9
330
18A7
100
AcDbEntity
  8
目盛
100
AcDbLine
 10
-22.27741270595834
 20
5.719867404791784
 30
0.0
 11
-20.63082133203971
 21
5.297094596611543
 31
0.0
  0
LINE
  5
18BA
330
18A7
100
AcDbEntity
  8
目盛
100
AcDbLine
 10
-21.38485917542965
 20
8.466864711747803
 30
0.0
 11
-19.80423914941968
 21
7.841052972183774
 31
0.0
  0
LINE
  5
18BB
330
18A7
100
AcDbEntity
  8
目盛
100
AcDbLine
 10
-19.41954228654617
 20
12.32401628451703
 30
0.0
 11
-17.98418481319277
 21
11.41311073305274
 31
0.0
  0
LINE
  5
18BC
330
18A7
100
AcDbEntity
  8
目盛
100
AcDbLine
 10
-16.76627843069229
 20
15.74458343636002
 30
0.0
 11
-15.5270317640759
 21
14.58085335628118
 31
0.0
  0
LINE
  5
18BD
330
18A7
100
AcDbEntity
  8
目盛
100
AcDbLine
 10
-18.6073908706237
 20
13.51906080272687
 30
0.0
 11
-16.42304498581143
 21
11.93204062153722
 31
0.0
  0
LINE
  5
18BE
330
18A7
100
AcDbEntity
  8
目盛
100
AcDbLine
 10
-17.72180458384298
 20
14.66075176422004
 30
0.0
 11
-16.41193207112417
 21
13.5771309816472
 31
0.0
  0
LINE
  5
18BF
330
18A7
100
AcDbEntity
  8
目盛
100
AcDbLine
 10
-14.66075176421969
 20
17.72180458384321
 30
0.0
 11
-13.57713098164697
 21
16.41193207112439
 31
0.0
  0
LINE
  5
18C0
330
18A7
100
AcDbEntity
  8
目盛
100
AcDbLine
 10
-12.32401628451697
 20
-19.41954228654623
 30
0.0
 11
-11.41311073305269
 21
-17.98418481319282
 31
0.0
  0
LINE
  5
18C1
330
18A7
100
AcDbEntity
  8
目盛
100
AcDbLine
 10
-13.51906080272687
 20
-18.60739087062382
 30
0.0
 11
-11.93204062153722
 21
-16.42304498581143
 31
0.0
  0
LINE
  5
18C2
330
18A7
100
AcDbEntity
  8
目盛
100
AcDbLine
 10
-9.792923705996827
 20
-20.81102220671835
 30
0.0
 11
-9.069098910336151
 21
-19.27281621752615
 31
0.0
  0
LINE
  5
18C3
330
18A7
100
AcDbEntity
  8
目盛
100
AcDbLine
 10
-11.08033450433947
 20
-20.15505364100881
 30
0.0
 11
-10.26135325836662
 21
-18.66533228493426
 31
0.0
  0
LINE
  5
18C4
330
18A7
100
AcDbEntity
  8
目盛
100
AcDbLine
 10
-15.74458343636002
 20
-16.76627843069235
 30
0.0
 11
-14.58085335628118
 21
-15.5270317640759
 31
0.0
  0
LINE
  5
18C5
330
18A7
100
AcDbEntity
  8
目盛
100
AcDbLine
 10
-18.6073908706237
 20
-13.51906080272687
 30
0.0
 11
-16.42304498581131
 21
-11.93204062153722
 31
0.0
  0
LINE
  5
18C6
330
18A7
100
AcDbEntity
  8
目盛
100
AcDbLine
 10
-16.76627843069252
 20
-15.74458343635973
 30
0.0
 11
-15.52703176407613
 21
-14.58085335628095
 31
0.0
  0
LINE
  5
18C7
330
18A7
100
AcDbEntity
  8
目盛
100
AcDbLine
 10
-17.72180458384321
 20
-14.66075176421975
 30
0.0
 11
-16.41193207112439
 21
-13.57713098164697
 31
0.0
  0
LINE
  5
18C8
330
18A7
100
AcDbEntity
  8
目盛
100
AcDbLine
 10
-20.15505364100892
 20
-11.08033450433925
 30
0.0
 11
-18.66533228493432
 21
-10.2613532583664
 31
0.0
  0
LINE
  5
18C9
330
18A7
100
AcDbEntity
  8
目盛
100
AcDbLine
 10
-20.81102220671835
 20
-9.792923705996543
 30
0.0
 11
-19.27281621752621
 21
-9.069098910335924
 31
0.0
  0
LINE
  5
18CA
330
18A7
100
AcDbEntity
  8
目盛
100
AcDbLine
 10
-19.4195422865464
 20
-12.32401628451669
 30
0.0
 11
-17.98418481319288
 21
-11.41311073305246
 31
0.0
  0
TEXT
  5
18CB
330
18A7
100
AcDbEntity
  8
文字
100
AcDbText
 10
-13.55831700926097
 20
-15.81039448861065
 30
0.0
 40
2.5
  1
60
  7
STYLE3
100
AcDbText
  0
LINE
  5
18CC
330
18A7
100
AcDbEntity
  8
目盛
100
AcDbLine
 10
-14.66075176421998
 20
-17.72180458384298
 30
0.0
 11
-13.5771309816472
 21
-16.41193207112417
 31
0.0
  0
LINE
  5
18CD
330
18A7
100
AcDbEntity
  8
目盛
100
AcDbLine
 10
13.51906080272692
 20
-18.60739087062382
 30
0.0
 11
11.93204062153722
 21
-16.42304498581149
 31
0.0
  0
LINE
  5
18CE
330
18A7
100
AcDbEntity
  8
目盛
100
AcDbLine
 10
12.3240162845168
 20
-19.41954228654651
 30
0.0
 11
11.41311073305257
 21
-17.98418481319311
 31
0.0
  0
TEXT
  5
18CF
330
18A7
100
AcDbEntity
  8
文字
100
AcDbText
 10
-2.313247467148755
 20
-19.68288727335846
 30
0.0
 40
2.5
  1
50
  7
STYLE3
100
AcDbText
  0
LINE
  5
18D0
330
18A7
100
AcDbEntity
  8
目盛
100
AcDbLine
 10
-7.10739087062376
 20
-21.8742998747885
 30
0.0
 11
-6.273044985811395
 21
-19.30644728079158
 31
0.0
  0
LINE
  5
18D1
330
18A7
100
AcDbEntity
  8
目盛
100
AcDbLine
 10
-8.466864711747803
 20
-21.38485917542971
 30
0.0
 11
-7.841052972183774
 21
-19.80423914941968
 31
0.0
  0
LINE
  5
18D2
330
18A7
100
AcDbEntity
  8
目盛
100
AcDbLine
 10
-4.30977023547166
 20
-22.59260676675973
 30
0.0
 11
-3.991222000675975
 21
-20.92271844052101
 31
0.0
  0
LINE
  5
18D3
330
18A7
100
AcDbEntity
  8
目盛
100
AcDbLine
 10
-5.719867404791671
 20
-22.2774127059584
 30
0.0
 11
-5.29709459661143
 21
-20.63082133203977
 31
0.0
  0
LINE
  5
18D4
330
18A7
100
AcDbEntity
  8
目盛
100
AcDbLine
 10
-2.882664371979103
 20
-22.81863813023296
 30
0.0
 11
-2.669597874919759
 21
-21.13204313799832
 31
0.0
  0
LINE
  5
18D5
330
18A7
100
AcDbEntity
  8
目盛
100
AcDbLine
 10
9.792923705996599
 20
-20.81102220671852
 30
0.0
 11
9.069098910335981
 21
-19.27281621752638
 31
0.0
  0
LINE
  5
18D6
330
18A7
100
AcDbEntity
  8
目盛
100
AcDbLine
 10
5.719867404791557
 20
-22.27741270595857
 30
0.0
 11
5.297094596611373
 21
-20.63082133203989
 31
0.0
  0
LINE
  5
18D7
330
18A7
100
AcDbEntity
  8
目盛
100
AcDbLine
 10
4.309770235471603
 20
-22.5926067667599
 30
0.0
 11
3.991222000675861
 21
-20.92271844052107
 31
0.0
  0
LINE
  5
18D8
330
18A7
100
AcDbEntity
  8
目盛
100
AcDbLine
 10
2.882664371978989
 20
-22.8186381302329
 30
0.0
 11
2.669597874919645
 21
-21.13204313799838
 31
0.0
  0
LINE
  5
18D9
330
18A7
100
AcDbEntity
  8
目盛
100
AcDbLine
 10
8.466864711747518
 20
-21.38485917542983
 30
0.0
 11
7.841052972183604
 21
-19.80423914941986
 31
0.0
  0
LINE
  5
18DA
330
18A7
100
AcDbEntity
  8
目盛
100
AcDbLine
 10
7.10739087062393
 20
-21.8742998747885
 30
0.0
 11
6.273044985811566
 21
-19.30644728079158
 31
0.0
  0
LINE
  5
18DB
330
18A7
100
AcDbEntity
  8
目盛
100
AcDbLine
 10
11.08033450433936
 20
-20.15505364100909
 30
0.0
 11
10.2613532583664
 21
-18.66533228493449
 31
0.0
  0
LINE
  5
18DC
330
18A7
100
AcDbEntity
  8
目盛
100
AcDbLine
 10
1.444181949174208
 20
-22.95461475385019
 30
0.0
 11
1.337438065974367
 21
-21.25796931552213
 31
0.0
  0
LINE
  5
18DD
330
18A7
100
AcDbEntity
  8
目盛
100
AcDbLine
 10
0.0000000000001137
 20
-22.99999999999994
 30
0.0
 11
0.0000000000001137
 21
-20.29999999999995
 31
0.0
  0
LINE
  5
18DE
330
18A7
100
AcDbEntity
  8
目盛
100
AcDbLine
 10
-1.444181949174321
 20
-22.95461475385019
 30
0.0
 11
-1.337438065974424
 21
-21.25796931552213
 31
0.0
  0
LINE
  5
18DF
330
18A7
100
AcDbEntity
  8
目盛
100
AcDbLine
 10
15.74458343635979
 20
-16.76627843069252
 30
0.0
 11
14.58085335628107
 21
-15.52703176407613
 31
0.0
  0
LINE
  5
18E0
330
18A7
100
AcDbEntity
  8
目盛
100
AcDbLine
 10
14.66075176421975
 20
-17.72180458384321
 30
0.0
 11
13.57713098164708
 21
-16.41193207112439
 31
0.0
  0
TEXT
  5
18E1
330
18A7
100
AcDbEntity
  8
文字
100
AcDbText
 10
8.589307254844754
 20
-15.87242910647626
 30
0.0
 40
2.5
  1
40
  7
STYLE3
100
AcDbText
  0
LINE
  5
18E2
330
18A7
100
AcDbEntity
  8
目盛
100
AcDbLine
 10
18.60739087062382
 20
-13.51906080272687
 30
0.0
 11
16.42304498581149
 21
-11.93204062153722
 31
0.0
  0
LINE
  5
18E3
330
18A7
100
AcDbEntity
  8
目盛
100
AcDbLine
 10
17.72180458384309
 20
-14.66075176421998
 30
0.0
 11
16.41193207112428
 21
-13.5771309816472
 31
0.0
  0
LINE
  5
18E4
330
18A7
100
AcDbEntity
  8
目盛
100
AcDbLine
 10
16.76627843069241
 20
-15.74458343636002
 30
0.0
 11
15.52703176407601
 21
-14.58085335628118
 31
0.0
  0
LINE
  5
18E5
330
18A7
100
AcDbEntity
  8
目盛
100
AcDbLine
 10
20.81102220671841
 20
-9.792923705996827
 30
0.0
 11
19.27281621752615
 21
-9.069098910336151
 31
0.0
  0
LINE
  5
18E6
330
18A7
100
AcDbEntity
  8
目盛
100
AcDbLine
 10
20.15505364100881
 20
-11.08033450433947
 30
0.0
 11
18.66533228493426
 21
-10.26135325836662
 31
0.0
  0
LINE
  5
18E7
330
18A7
100
AcDbEntity
  8
目盛
100
AcDbLine
 10
19.41954228654629
 20
-12.32401628451703
 30
0.0
 11
17.98418481319288
 21
-11.41311073305269
 31
0.0
  0
TEXT
  5
18E8
330
18A7
100
AcDbEntity
  8
文字
100
AcDbText
 10
14.38687239322024
 20
-7.248829071035743
 30
0.0
 40
2.5
  1
30
  7
STYLE3
100
AcDbText
  0
LINE
  5
18E9
330
18A7
100
AcDbEntity
  8
目盛
100
AcDbLine
 10
21.87429987478856
 20
-7.10739087062376
 30
0.0
 11
19.30644728079164
 21
-6.273044985811395
 31
0.0
  0
LINE
  5
18EA
330
18A7
100
AcDbEntity
  8
目盛
100
AcDbLine
 10
21.38485917542971
 20
-8.466864711747803
 30
0.0
 11
19.80423914941974
 21
-7.841052972183774
 31
0.0
  0
LINE
  5
18EB
330
18A7
100
AcDbEntity
  8
目盛
100
AcDbLine
 10
22.81863813023307
 20
-2.882664371979217
 30
0.0
 11
21.13204313799844
 21
-2.669597874919872
 31
0.0
  0
LINE
  5
18EC
330
18A7
100
AcDbEntity
  8
目盛
100
AcDbLine
 10
22.59260676675984
 20
-4.309770235471773
 30
0.0
 11
20.92271844052112
 21
-3.991222000676089
 31
0.0
  0
LINE
  5
18ED
330
18A7
100
AcDbEntity
  8
目盛
100
AcDbLine
 10
22.27741270595851
 20
-5.719867404791784
 30
0.0
 11
20.63082133203989
 21
-5.297094596611543
 31
0.0
  0
LINE
  5
18EE
330
18A7
100
AcDbEntity
  8
目盛
100
AcDbLine
 10
22.95461475385031
 20
-1.444181949174435
 30
0.0
 11
21.25796931552224
 21
-1.337438065974538
 31
0.0
  0
LINE
  5
18EF
330
18A7
100
AcDbEntity
  8
目盛
100
AcDbLine
 10
17.72180458384332
 20
14.66075176421975
 30
0.0
 11
16.41193207112445
 21
13.57713098164697
 31
0.0
  0
LINE
  5
18F0
330
18A7
100
AcDbEntity
  8
目盛
100
AcDbLine
 10
18.60739087062387
 20
13.51906080272681
 30
0.0
 11
16.42304498581149
 21
11.93204062153717
 31
0.0
  0
TEXT
  5
18F1
330
18A7
100
AcDbEntity
  8
文字
100
AcDbText
 10
15.15460443586102
 20
3.229167086961638
 30
0.0
 40
2.5
  1
20
  7
STYLE3
100
AcDbText
  0
LINE
  5
18F2
330
18A7
100
AcDbEntity
  8
目盛
100
AcDbLine
 10
15.74458343636007
 20
16.76627843069229
 30
0.0
 11
14.58085335628129
 21
15.5270317640759
 31
0.0
  0
LINE
  5
18F3
330
18A7
100
AcDbEntity
  8
目盛
100
AcDbLine
 10
14.66075176422015
 20
17.72180458384298
 30
0.0
 11
13.57713098164731
 21
16.41193207112417
 31
0.0
  0
LINE
  5
18F4
330
18A7
100
AcDbEntity
  8
目盛
100
AcDbLine
 10
16.76627843069258
 20
15.74458343635973
 30
0.0
 11
15.5270317640763
 21
14.58085335628095
 31
0.0
  0
LINE
  5
18F5
330
18A7
100
AcDbEntity
  8
目盛
100
AcDbLine
 10
22.59260676676001
 20
4.309770235471432
 30
0.0
 11
20.92271844052124
 21
3.991222000675747
 31
0.0
  0
LINE
  5
18F6
330
18A7
100
AcDbEntity
  8
目盛
100
AcDbLine
 10
22.81863813023307
 20
2.882664371978876
 30
0.0
 11
21.13204313799855
 21
2.669597874919475
 31
0.0
  0
LINE
  5
18F7
330
18A7
100
AcDbEntity
  8
目盛
100
AcDbLine
 10
22.95461475385031
 20
1.444181949174094
 30
0.0
 11
21.2579693155223
 21
1.337438065974254
 31
0.0
  0
LINE
  5
18F8
330
18A7
100
AcDbEntity
  8
目盛
100
AcDbLine
 10
23.00000000000006
 20
0.0
 30
0.0
 11
20.30000000000007
 21
0.0
 31
0.0
  0
LINE
  5
18F9
330
18A7
100
AcDbEntity
  8
目盛
100
AcDbLine
 10
20.15505364100909
 20
11.08033450433925
 30
0.0
 11
18.66533228493449
 21
10.26135325836634
 31
0.0
  0
LINE
  5
18FA
330
18A7
100
AcDbEntity
  8
目盛
100
AcDbLine
 10
21.87429987478862
 20
7.10739087062376
 30
0.0
 11
19.3064472807917
 21
6.273044985811452
 31
0.0
  0
LINE
  5
18FB
330
18A7
100
AcDbEntity
  8
目盛
100
AcDbLine
 10
22.27741270595874
 20
5.719867404791443
 30
0.0
 11
20.63082133204
 21
5.297094596611259
 31
0.0
  0
LINE
  5
18FC
330
18A7
100
AcDbEntity
  8
目盛
100
AcDbLine
 10
20.81102220671852
 20
9.792923705996543
 30
0.0
 11
19.27281621752633
 21
9.069098910335924
 31
0.0
  0
LINE
  5
18FD
330
18A7
100
AcDbEntity
  8
目盛
100
AcDbLine
 10
21.38485917542988
 20
8.466864711747462
 30
0.0
 11
19.80423914941986
 21
7.84105297218349
 31
0.0
  0
LINE
  5
18FE
330
18A7
100
AcDbEntity
  8
目盛
100
AcDbLine
 10
19.41954228654657
 20
12.32401628451669
 30
0.0
 11
17.98418481319311
 21
11.41311073305246
 31
0.0
  0
LINE
  5
18FF
330
18A7
100
AcDbEntity
  8
目盛
100
AcDbLine
 10
13.51906080272698
 20
18.60739087062382
 30
0.0
 11
11.93204062153728
 21
16.42304498581143
 31
0.0
  0
TEXT
  5
1900
330
18A7
100
AcDbEntity
  8
文字
100
AcDbText
 10
8.199900625285465
 20
12.81951309573424
 30
0.0
 40
2.5
  1
10
  7
STYLE3
100
AcDbText
  0
LINE
  5
1901
330
18A7
100
AcDbEntity
  8
目盛
100
AcDbLine
 10
12.32401628451708
 20
19.41954228654617
 30
0.0
 11
11.4131107330528
 21
17.98418481319282
 31
0.0
  0
LINE
  5
1902
330
18A7
100
AcDbEntity
  8
目盛
100
AcDbLine
 10
9.79292370599694
 20
20.81102220671835
 30
0.0
 11
9.069098910336265
 21
19.27281621752615
 31
0.0
  0
LINE
  5
1903
330
18A7
100
AcDbEntity
  8
目盛
100
AcDbLine
 10
8.466864711747859
 20
21.38485917542971
 30
0.0
 11
7.841052972183831
 21
19.80423914941968
 31
0.0
  0
LINE
  5
1904
330
18A7
100
AcDbEntity
  8
目盛
100
AcDbLine
 10
11.08033450433953
 20
20.15505364100875
 30
0.0
 11
10.26135325836668
 21
18.66533228493426
 31
0.0
  0
LINE
  5
1905
330
18A7
100
AcDbEntity
  8
目盛
100
AcDbLine
 10
-13.51906080272681
 20
18.60739087062376
 30
0.0
 11
-11.93204062153717
 21
16.42304498581149
 31
0.0
  0
LINE
  5
1906
330
18A7
100
AcDbEntity
  8
目盛
100
AcDbLine
 10
-7.107390870623703
 20
21.8742998747885
 30
0.0
 11
-6.273044985811338
 21
19.30644728079158
 31
0.0
  0
LINE
  5
1907
330
18A7
100
AcDbEntity
  8
目盛
100
AcDbLine
 10
-12.32401628451669
 20
19.41954228654646
 30
0.0
 11
-11.41311073305246
 21
17.98418481319299
 31
0.0
  0
LINE
  5
1908
330
18A7
100
AcDbEntity
  8
目盛
100
AcDbLine
 10
-11.08033450433925
 20
20.15505364100903
 30
0.0
 11
-10.26135325836634
 21
18.66533228493443
 31
0.0
  0
LINE
  5
1909
330
18A7
100
AcDbEntity
  8
目盛
100
AcDbLine
 10
-9.792923705996486
 20
20.81102220671846
 30
0.0
 11
-9.069098910335867
 21
19.27281621752633
 31
0.0
  0
LINE
  5
190A
330
18A7
100
AcDbEntity
  8
目盛
100
AcDbLine
 10
-8.466864711747405
 20
21.38485917542983
 30
0.0
 11
-7.841052972183433
 21
19.80423914941986
 31
0.0
  0
LINE
  5
190B
330
18A7
100
AcDbEntity
  8
目盛
100
AcDbLine
 10
-4.309770235471432
 20
22.5926067667599
 30
0.0
 11
-3.991222000675747
 21
20.92271844052112
 31
0.0
  0
LINE
  5
190C
330
18A7
100
AcDbEntity
  8
目盛
100
AcDbLine
 10
-2.882664371978819
 20
22.81863813023301
 30
0.0
 11
-2.669597874919475
 21
21.13204313799844
 31
0.0
  0
LINE
  5
190D
330
18A7
100
AcDbEntity
  8
目盛
100
AcDbLine
 10
-1.44418194917398
 20
22.95461475385019
 30
0.0
 11
-1.337438065974197
 21
21.25796931552219
 31
0.0
  0
LINE
  5
190E
330
18A7
100
AcDbEntity
  8
目盛
100
AcDbLine
 10
0.0000000000000568
 20
23.0
 30
0.0
 11
0.0000000000000568
 21
20.30000000000001
 31
0.0
  0
LINE
  5
190F
330
18A7
100
AcDbEntity
  8
目盛
100
AcDbLine
 10
-5.719867404791386
 20
22.27741270595863
 30
0.0
 11
-5.297094596611202
 21
20.63082133203989
 31
0.0
  0
TEXT
  5
1910
330
18A7
100
AcDbEntity
  8
文字
100
AcDbText
 10
-1.214310522448897
 20
16.74100786367
 30
0.0
 40
2.5
  1
0
  7
STYLE3
100
AcDbText
  0
LINE
  5
1911
330
18A7
100
AcDbEntity
  8
目盛
100
AcDbLine
 10
1.444181949174492
 20
22.95461475385025
 30
0.0
 11
1.337438065974595
 21
21.25796931552219
 31
0.0
  0
LINE
  5
1912
330
18A7
100
AcDbEntity
  8
目盛
100
AcDbLine
 10
2.882664371979274
 20
22.81863813023301
 30
0.0
 11
2.669597874919929
 21
21.13204313799838
 31
0.0
  0
LINE
  5
1913
330
18A7
100
AcDbEntity
  8
目盛
100
AcDbLine
 10
4.30977023547183
 20
22.59260676675979
 30
0.0
 11
3.991222000676145
 21
20.92271844052107
 31
0.0
  0
LINE
  5
1914
330
18A7
100
AcDbEntity
  8
目盛
100
AcDbLine
 10
5.719867404791841
 20
22.27741270595846
 30
0.0
 11
5.2970945966116
 21
20.63082133203983
 31
0.0
  0
LINE
  5
1915
330
18A7
100
AcDbEntity
  8
目盛
100
AcDbLine
 10
7.107390870623873
 20
21.8742998747885
 30
0.0
 11
6.273044985811509
 21
19.30644728079158
 31
0.0
  0
ENDBLK
  5
1917
330
18A7
100
AcDbEntity
  8
0
100
AcDbBlockEnd
  0
BLOCK
  5
1EE8
330
1C04
100
AcDbEntity
  8
0
100
AcDbBlockBegin
  2
*D12
 70
     1
 10
0.0
 20
0.0
 30
0.0
  3
*D12
  1

  0
LINE
  5
298C
330
1C04
100
AcDbEntity
  8
文字
 62
     2
370
    -2
100
AcDbLine
 10
59.23850031649004
 20
156.8760835782028
 30
0.0
 11
74.19064253138606
 21
156.8760835782028
 31
0.0
  0
LINE
  5
298D
330
1C04
100
AcDbEntity
  8
文字
 62
     2
370
    -2
100
AcDbLine
 10
59.23850031649004
 20
104.0760835782029
 30
0.0
 11
74.19064253138606
 21
104.0760835782029
 31
0.0
  0
LINE
  5
298E
330
1C04
100
AcDbEntity
  8
文字
 62
     2
370
    -2
100
AcDbLine
 10
72.94064253138606
 20
154.3760835782028
 30
0.0
 11
72.94064253138606
 21
106.5760835782029
 31
0.0
  0
INSERT
  5
298F
330
1C04
100
AcDbEntity
  8
文字
 62
     2
370
    -2
100
AcDbBlockReference
  2
_OPEN
 10
72.94064253138606
 20
156.8760835782028
 30
0.0
 41
2.5
 42
2.5
 43
2.5
 50
90.0
  0
INSERT
  5
2990
330
1C04
100
AcDbEntity
  8
文字
 62
     2
370
    -2
100
AcDbBlockReference
  2
_OPEN
 10
72.94064253138606
 20
104.0760835782029
 30
0.0
 41
2.5
 42
2.5
 43
2.5
 50
270.0
  0
MTEXT
  5
2991
330
1C04
100
AcDbEntity
  8
文字
 62
     6
100
AcDbMText
 10
71.06564253138604
 20
130.4760835782028
 30
0.0
 40
2.5
 41
0.0
 71
     5
 72
     1
  1
\A1;φ53
  7
STYLE3
 11
0.0000000000000001
 21
1.0
 31
0.0
 73
     1
 44
1.0
  0
POINT
  5
2992
330
1C04
100
AcDbEntity
  8
DEFPOINTS
 62
     0
100
AcDbPoint
 10
59.23850031649004
 20
156.8760835782028
 30
0.0
  0
POINT
  5
2993
330
1C04
100
AcDbEntity
  8
DEFPOINTS
 62
     0
100
AcDbPoint
 10
59.23850031649004
 20
104.0760835782029
 30
0.0
  0
POINT
  5
2994
330
1C04
100
AcDbEntity
  8
DEFPOINTS
 62
     0
100
AcDbPoint
 10
72.94064253138606
 20
104.0760835782029
 30
0.0
  0
ENDBLK
  5
1EF2
330
1C04
100
AcDbEntity
  8
0
100
AcDbBlockEnd
  0
BLOCK
  5
1D1B
330
1D1A
100
AcDbEntity
  8
0
100
AcDbBlockBegin
  2
*D14
 70
     1
 10
0.0
 20
0.0
 30
0.0
  3
*D14
  1

  0
LINE
  5
29B7
330
1D1A
100
AcDbEntity
  8
外形線
 62
     2
370
    -2
100
AcDbLine
 10
136.7955151163244
 20
83.47608357820286
 30
0.0
 11
110.4867200009025
 21
83.47608357820286
 31
0.0
  0
LINE
  5
29B8
330
1D1A
100
AcDbEntity
  8
外形線
 62
     2
370
    -2
100
AcDbLine
 10
111.7367200009026
 20
98.97608357820287
 30
0.0
 11
111.7367200009025
 21
85.97608357820286
 31
0.0
  0
INSERT
  5
29B9
330
1D1A
100
AcDbEntity
  8
外形線
 62
     2
370
    -2
100
AcDbBlockReference
  2
_OPEN
 10
111.7367200009026
 20
101.4760835782028
 30
0.0
 41
2.5
 42
2.5
 43
2.5
 50
90.0
  0
INSERT
  5
29BA
330
1D1A
100
AcDbEntity
  8
外形線
 62
     2
370
    -2
100
AcDbBlockReference
  2
_OPEN
 10
111.7367200009025
 20
83.47608357820286
 30
0.0
 41
2.5
 42
2.5
 43
2.5
 50
270.0
  0
MTEXT
  5
29BB
330
1D1A
100
AcDbEntity
  8
外形線
 62
     6
100
AcDbMText
 10
109.8617200009025
 20
92.47608357820288
 30
0.0
 40
2.5
 41
0.0
 71
     5
 72
     1
  1
\A1;18
  7
STYLE3
 11
0.0000000000000001
 21
1.0
 31
0.0
 73
     1
 44
1.0
  0
POINT
  5
29BC
330
1D1A
100
AcDbEntity
  8
DEFPOINTS
 62
     0
100
AcDbPoint
 10
136.7955151163244
 20
101.4760835782028
 30
0.0
  0
POINT
  5
29BD
330
1D1A
100
AcDbEntity
  8
DEFPOINTS
 62
     0
100
AcDbPoint
 10
136.7955151163244
 20
83.47608357820286
 30
0.0
  0
POINT
  5
29BE
330
1D1A
100
AcDbEntity
  8
DEFPOINTS
 62
     0
100
AcDbPoint
 10
111.7367200009025
 20
83.47608357820286
 30
0.0
  0
ENDBLK
  5
1D24
330
1D1A
100
AcDbEntity
  8
0
100
AcDbBlockEnd
  0
BLOCK
  5
1D27
330
1D26
100
AcDbEntity
  8
0
100
AcDbBlockBegin
  2
*D15
 70
     1
 10
0.0
 20
0.0
 30
0.0
  3
*D15
  1

  0
LINE
  5
29BF
330
1D26
100
AcDbEntity
  8
外形線
 62
     2
370
    -2
100
AcDbLine
 10
137.9297765830498
 20
53.47608357820286
 30
0.0
 11
110.4867200009025
 21
53.47608357820287
 31
0.0
  0
LINE
  5
29C0
330
1D26
100
AcDbEntity
  8
外形線
 62
     2
370
    -2
100
AcDbLine
 10
111.7367200009025
 20
80.97608357820286
 30
0.0
 11
111.7367200009025
 21
55.97608357820287
 31
0.0
  0
INSERT
  5
29C1
330
1D26
100
AcDbEntity
  8
外形線
 62
     2
370
    -2
100
AcDbBlockReference
  2
_OPEN
 10
111.7367200009025
 20
83.47608357820286
 30
0.0
 41
2.5
 42
2.5
 43
2.5
 50
90.0
  0
INSERT
  5
29C2
330
1D26
100
AcDbEntity
  8
外形線
 62
     2
370
    -2
100
AcDbBlockReference
  2
_OPEN
 10
111.7367200009025
 20
53.47608357820287
 30
0.0
 41
2.5
 42
2.5
 43
2.5
 50
270.0
  0
MTEXT
  5
29C3
330
1D26
100
AcDbEntity
  8
外形線
 62
     6
100
AcDbMText
 10
109.8617200009025
 20
68.47608357820289
 30
0.0
 40
2.5
 41
0.0
 71
     5
 72
     1
  1
\A1;30
  7
STYLE3
 11
0.0000000000000001
 21
1.0
 31
0.0
 73
     1
 44
1.0
  0
POINT
  5
29C4
330
1D26
100
AcDbEntity
  8
DEFPOINTS
 62
     0
100
AcDbPoint
 10
136.7955151163244
 20
83.47608357820286
 30
0.0
  0
POINT
  5
29C5
330
1D26
100
AcDbEntity
  8
DEFPOINTS
 62
     0
100
AcDbPoint
 10
137.9297765830498
 20
53.47608357820286
 30
0.0
  0
POINT
  5
29C6
330
1D26
100
AcDbEntity
  8
DEFPOINTS
 62
     0
100
AcDbPoint
 10
111.7367200009025
 20
53.47608357820287
 30
0.0
  0
ENDBLK
  5
1D30
330
1D26
100
AcDbEntity
  8
0
100
AcDbBlockEnd
  0
BLOCK
  5
1D33
330
1D32
100
AcDbEntity
  8
0
100
AcDbBlockBegin
  2
*D16
 70
     1
 10
0.0
 20
0.0
 30
0.0
  3
*D16
  1

  0
LINE
  5
299E
330
1D32
100
AcDbEntity
  8
外形線
 62
     2
370
    -2
100
AcDbLine
 10
195.7955151163244
 20
44.47608357820286
 30
0.0
 11
110.4867200009025
 21
44.47608357820288
 31
0.0
  0
LINE
  5
299F
330
1D32
100
AcDbEntity
  8
外形線
 62
     2
370
    -2
100
AcDbLine
 10
111.7367200009025
 20
50.97608357820287
 30
0.0
 11
111.7367200009025
 21
46.97608357820288
 31
0.0
  0
INSERT
  5
29A0
330
1D32
100
AcDbEntity
  8
外形線
 62
     2
370
    -2
100
AcDbBlockReference
  2
_OPEN
 10
111.7367200009025
 20
53.47608357820287
 30
0.0
 41
2.5
 42
2.5
 43
2.5
 50
90.0
  0
INSERT
  5
29A1
330
1D32
100
AcDbEntity
  8
外形線
 62
     2
370
    -2
100
AcDbBlockReference
  2
_OPEN
 10
111.7367200009025
 20
44.47608357820288
 30
0.0
 41
2.5
 42
2.5
 43
2.5
 50
270.0
  0
MTEXT
  5
29A2
330
1D32
100
AcDbEntity
  8
外形線
 62
     6
100
AcDbMText
 10
109.8617200009025
 20
48.97608357820289
 30
0.0
 40
2.5
 41
0.0
 71
     5
 72
     1
  1
\A1;9
  7
STYLE3
 11
0.0000000000000001
 21
1.0
 31
0.0
 73
     1
 44
1.0
  0
POINT
  5
29A3
330
1D32
100
AcDbEntity
  8
DEFPOINTS
 62
     0
100
AcDbPoint
 10
137.9297765830498
 20
53.47608357820286
 30
0.0
  0
POINT
  5
29A4
330
1D32
100
AcDbEntity
  8
DEFPOINTS
 62
     0
100
AcDbPoint
 10
195.7955151163244
 20
44.47608357820286
 30
0.0
  0
POINT
  5
29A5
330
1D32
100
AcDbEntity
  8
DEFPOINTS
 62
     0
100
AcDbPoint
 10
111.7367200009025
 20
44.47608357820288
 30
0.0
  0
ENDBLK
  5
1D3C
330
1D32
100
AcDbEntity
  8
0
100
AcDbBlockEnd
  0
BLOCK
  5
1D8E
330
1D8D
100
AcDbEntity
  8
0
100
AcDbBlockBegin
  2
*D17
 70
     1
 10
0.0
 20
0.0
 30
0.0
  3
*D17
  1

  0
LINE
  5
29A6
330
1D8D
100
AcDbEntity
  8
外形線
 62
     2
370
    -2
100
AcDbLine
 10
145.7955151163244
 20
47.93827822733505
 30
0.0
 11
145.7955151163244
 21
36.49928361175824
 31
0.0
  0
LINE
  5
29A7
330
1D8D
100
AcDbEntity
  8
外形線
 62
     2
370
    -2
100
AcDbLine
 10
195.7955151163244
 20
44.47608357820286
 30
0.0
 11
195.7955151163244
 21
36.49928361175824
 31
0.0
  0
LINE
  5
29A8
330
1D8D
100
AcDbEntity
  8
外形線
 62
     2
370
    -2
100
AcDbLine
 10
148.2955151163244
 20
37.74928361175824
 30
0.0
 11
193.2955151163244
 21
37.74928361175824
 31
0.0
  0
INSERT
  5
29A9
330
1D8D
100
AcDbEntity
  8
外形線
 62
     2
370
    -2
100
AcDbBlockReference
  2
_OPEN
 10
145.7955151163244
 20
37.74928361175824
 30
0.0
 41
2.5
 42
2.5
 43
2.5
 50
180.0
  0
INSERT
  5
29AA
330
1D8D
100
AcDbEntity
  8
外形線
 62
     2
370
    -2
100
AcDbBlockReference
  2
_OPEN
 10
195.7955151163244
 20
37.74928361175824
 30
0.0
 41
2.5
 42
2.5
 43
2.5
  0
MTEXT
  5
29AB
330
1D8D
100
AcDbEntity
  8
外形線
 62
     6
100
AcDbMText
 10
170.7955151163244
 20
39.62428361175824
 30
0.0
 40
2.5
 41
0.0
 71
     5
 72
     1
  1
\A1;50
  7
STYLE3
 73
     1
 44
1.0
  0
POINT
  5
29AC
330
1D8D
100
AcDbEntity
  8
DEFPOINTS
 62
     0
100
AcDbPoint
 10
145.7955151163244
 20
47.93827822733505
 30
0.0
  0
POINT
  5
29AD
330
1D8D
100
AcDbEntity
  8
DEFPOINTS
 62
     0
100
AcDbPoint
 10
195.7955151163244
 20
44.47608357820286
 30
0.0
  0
POINT
  5
29AE
330
1D8D
100
AcDbEntity
  8
DEFPOINTS
 62
     0
100
AcDbPoint
 10
195.7955151163244
 20
37.74928361175824
 30
0.0
  0
ENDBLK
  5
1D98
330
1D8D
100
AcDbEntity
  8
0
100
AcDbBlockEnd
  0
BLOCK
  5
1D9B
330
1D9A
100
AcDbEntity
  8
0
100
AcDbBlockBegin
  2
*D18
 70
     1
 10
0.0
 20
0.0
 30
0.0
  3
*D18
  1

  0
LINE
  5
29AF
330
1D9A
100
AcDbEntity
  8
外形線
 62
     2
370
    -2
100
AcDbLine
 10
213.7955151163244
 20
44.47608357820286
 30
0.0
 11
213.7955151163244
 21
36.49928361175824
 31
0.0
  0
LINE
  5
29B0
330
1D9A
100
AcDbEntity
  8
外形線
 62
     2
370
    -2
100
AcDbLine
 10
198.2955151163244
 20
37.74928361175824
 30
0.0
 11
211.2955151163244
 21
37.74928361175824
 31
0.0
  0
INSERT
  5
29B1
330
1D9A
100
AcDbEntity
  8
外形線
 62
     2
370
    -2
100
AcDbBlockReference
  2
_OPEN
 10
195.7955151163244
 20
37.74928361175824
 30
0.0
 41
2.5
 42
2.5
 43
2.5
 50
180.0
  0
INSERT
  5
29B2
330
1D9A
100
AcDbEntity
  8
外形線
 62
     2
370
    -2
100
AcDbBlockReference
  2
_OPEN
 10
213.7955151163244
 20
37.74928361175824
 30
0.0
 41
2.5
 42
2.5
 43
2.5
  0
MTEXT
  5
29B3
330
1D9A
100
AcDbEntity
  8
外形線
 62
     6
100
AcDbMText
 10
204.7955151163244
 20
39.62428361175824
 30
0.0
 40
2.5
 41
0.0
 71
     5
 72
     1
  1
\A1;18
  7
STYLE3
 73
     1
 44
1.0
  0
POINT
  5
29B4
330
1D9A
100
AcDbEntity
  8
DEFPOINTS
 62
     0
100
AcDbPoint
 10
195.7955151163244
 20
44.47608357820286
 30
0.0
  0
POINT
  5
29B5
330
1D9A
100
AcDbEntity
  8
DEFPOINTS
 62
     0
100
AcDbPoint
 10
213.7955151163244
 20
44.47608357820286
 30
0.0
  0
POINT
  5
29B6
330
1D9A
100
AcDbEntity
  8
DEFPOINTS
 62
     0
100
AcDbPoint
 10
213.7955151163244
 20
37.74928361175824
 30
0.0
  0
ENDBLK
  5
1DA4
330
1D9A
100
AcDbEntity
  8
0
100
AcDbBlockEnd
  0
BLOCK
  5
24EE
330
24E4
100
AcDbEntity
  8
0
100
AcDbBlockBegin
  2
*D19
 70
     1
 10
0.0
 20
0.0
 30
0.0
  3
*D19
  1

  0
LINE
  5
29D0
330
24E4
100
AcDbEntity
  8
外形線
 62
     2
370
    -2
100
AcDbLine
 10
136.7955151163244
 20
101.4760835782028
 30
0.0
 11
110.4867200009025
 21
101.4760835782028
 31
0.0
  0
LINE
  5
29D1
330
24E4
100
AcDbEntity
  8
外形線
 62
     2
370
    -2
100
AcDbLine
 10
115.2153279420821
 20
130.4760835782028
 30
0.0
 11
110.4867200009025
 21
130.4760835782028
 31
0.0
  0
LINE
  5
29D2
330
24E4
100
AcDbEntity
  8
外形線
 62
     2
370
    -2
100
AcDbLine
 10
111.7367200009025
 20
103.9760835782028
 30
0.0
 11
111.7367200009025
 21
127.9760835782028
 31
0.0
  0
INSERT
  5
29D3
330
24E4
100
AcDbEntity
  8
外形線
 62
     2
370
    -2
100
AcDbBlockReference
  2
_OPEN
 10
111.7367200009025
 20
101.4760835782028
 30
0.0
 41
2.5
 42
2.5
 43
2.5
 50
270.0
  0
INSERT
  5
29D4
330
24E4
100
AcDbEntity
  8
外形線
 62
     2
370
    -2
100
AcDbBlockReference
  2
_OPEN
 10
111.7367200009025
 20
130.4760835782028
 30
0.0
 41
2.5
 42
2.5
 43
2.5
 50
90.0
  0
MTEXT
  5
29D5
330
24E4
100
AcDbEntity
  8
外形線
 62
     6
100
AcDbMText
 10
109.8617200009025
 20
115.9760835782029
 30
0.0
 40
2.5
 41
0.0
 71
     5
 72
     1
  1
\A1;29
  7
STYLE3
 11
0.0000000000000001
 21
1.0
 31
0.0
 73
     1
 44
1.0
  0
POINT
  5
29D6
330
24E4
100
AcDbEntity
  8
DEFPOINTS
 62
     0
100
AcDbPoint
 10
136.7955151163244
 20
101.4760835782028
 30
0.0
  0
POINT
  5
29D7
330
24E4
100
AcDbEntity
  8
DEFPOINTS
 62
     0
100
AcDbPoint
 10
115.2153279420821
 20
130.4760835782028
 30
0.0
  0
POINT
  5
29D8
330
24E4
100
AcDbEntity
  8
DEFPOINTS
 62
     0
100
AcDbPoint
 10
111.7367200009025
 20
130.4760835782028
 30
0.0
  0
ENDBLK
  5
24EF
330
24E4
100
AcDbEntity
  8
0
100
AcDbBlockEnd
  0
BLOCK
  5
24FB
330
24F1
100
AcDbEntity
  8
0
100
AcDbBlockBegin
  2
*D20
 70
     1
 10
0.0
 20
0.0
 30
0.0
  3
*D20
  1

  0
LINE
  5
2995
330
24F1
100
AcDbEntity
  8
外形線
 62
     2
370
    -2
100
AcDbLine
 10
115.2153279420821
 20
130.4760835782028
 30
0.0
 11
102.9872278953184
 21
130.4760835782028
 31
0.0
  0
LINE
  5
2996
330
24F1
100
AcDbEntity
  8
外形線
 62
     2
370
    -2
100
AcDbLine
 10
195.7955151163244
 20
44.47608357820286
 30
0.0
 11
102.9872278953183
 21
44.47608357820288
 31
0.0
  0
LINE
  5
2997
330
24F1
100
AcDbEntity
  8
外形線
 62
     2
370
    -2
100
AcDbLine
 10
104.2372278953183
 20
127.9760835782028
 30
0.0
 11
104.2372278953183
 21
46.97608357820288
 31
0.0
  0
INSERT
  5
2998
330
24F1
100
AcDbEntity
  8
外形線
 62
     2
370
    -2
100
AcDbBlockReference
  2
_OPEN
 10
104.2372278953183
 20
130.4760835782028
 30
0.0
 41
2.5
 42
2.5
 43
2.5
 50
90.0
  0
INSERT
  5
2999
330
24F1
100
AcDbEntity
  8
外形線
 62
     2
370
    -2
100
AcDbBlockReference
  2
_OPEN
 10
104.2372278953183
 20
44.47608357820288
 30
0.0
 41
2.5
 42
2.5
 43
2.5
 50
270.0
  0
MTEXT
  5
299A
330
24F1
100
AcDbEntity
  8
外形線
 62
     6
100
AcDbMText
 10
102.3622278953183
 20
87.4760835782029
 30
0.0
 40
2.5
 41
0.0
 71
     5
 72
     1
  1
\A1;86
  7
STYLE3
 11
0.0000000000000001
 21
1.0
 31
0.0
 73
     1
 44
1.0
  0
POINT
  5
299B
330
24F1
100
AcDbEntity
  8
DEFPOINTS
 62
     0
100
AcDbPoint
 10
115.2153279420821
 20
130.4760835782028
 30
0.0
  0
POINT
  5
299C
330
24F1
100
AcDbEntity
  8
DEFPOINTS
 62
     0
100
AcDbPoint
 10
195.7955151163244
 20
44.47608357820286
 30
0.0
  0
POINT
  5
299D
330
24F1
100
AcDbEntity
  8
DEFPOINTS
 62
     0
100
AcDbPoint
 10
104.2372278953183
 20
44.47608357820288
 30
0.0
  0
ENDBLK
  5
24FC
330
24F1
100
AcDbEntity
  8
0
100
AcDbBlockEnd
  0
BLOCK
  5
2713
330
2709
100
AcDbEntity
  8
0
100
AcDbBlockBegin
  2
*D21
 70
     1
 10
0.0
 20
0.0
 30
0.0
  3
*D21
  1

  0
LINE
  5
29C7
330
2709
100
AcDbEntity
  8
外形線
 62
     2
370
    -2
100
AcDbLine
 10
143.2955151163244
 20
67.87608357820286
 30
0.0
 11
136.3575165257241
 21
67.87608357820286
 31
0.0
  0
LINE
  5
29C8
330
2709
100
AcDbEntity
  8
外形線
 62
     2
370
    -2
100
AcDbLine
 10
144.6455151163244
 20
57.87608357820286
 30
0.0
 11
136.3575165257241
 21
57.87608357820287
 31
0.0
  0
LINE
  5
29C9
330
2709
100
AcDbEntity
  8
外形線
 62
     2
370
    -2
100
AcDbLine
 10
137.6075165257241
 20
65.37608357820286
 30
0.0
 11
137.6075165257241
 21
60.37608357820287
 31
0.0
  0
INSERT
  5
29CA
330
2709
100
AcDbEntity
  8
外形線
 62
     2
370
    -2
100
AcDbBlockReference
  2
_OPEN
 10
137.6075165257241
 20
67.87608357820286
 30
0.0
 41
2.5
 42
2.5
 43
2.5
 50
90.0
  0
INSERT
  5
29CB
330
2709
100
AcDbEntity
  8
外形線
 62
     2
370
    -2
100
AcDbBlockReference
  2
_OPEN
 10
137.6075165257241
 20
57.87608357820287
 30
0.0
 41
2.5
 42
2.5
 43
2.5
 50
270.0
  0
MTEXT
  5
29CC
330
2709
100
AcDbEntity
  8
外形線
 62
     6
100
AcDbMText
 10
135.7325165257241
 20
62.87608357820289
 30
0.0
 40
2.5
 41
0.0
 71
     5
 72
     1
  1
\A1;10
  7
STYLE3
 11
0.0000000000000001
 21
1.0
 31
0.0
 73
     1
 44
1.0
  0
POINT
  5
29CD
330
2709
100
AcDbEntity
  8
DEFPOINTS
 62
     0
100
AcDbPoint
 10
143.2955151163244
 20
67.87608357820286
 30
0.0
  0
POINT
  5
29CE
330
2709
100
AcDbEntity
  8
DEFPOINTS
 62
     0
100
AcDbPoint
 10
144.6455151163244
 20
57.87608357820286
 30
0.0
  0
POINT
  5
29CF
330
2709
100
AcDbEntity
  8
DEFPOINTS
 62
     0
100
AcDbPoint
 10
137.6075165257241
 20
57.87608357820287
 30
0.0
  0
ENDBLK
  5
2714
330
2709
100
AcDbEntity
  8
0
100
AcDbBlockEnd
  0
ENDSEC
  0
SECTION
  2
ENTITIES
  0
LWPOLYLINE
  5
26C
330
18
100
AcDbEntity
  8
C
100
AcDbPolyline
 90
        5
 70
     0
 43
0.4
 10
4.19236175246749
 20
192.2307722122489
 10
259.1923617524675
 20
192.2307722122489
 10
259.1923617524675
 20
-2.769227787751106
 10
4.19236175246749
 20
-2.769227787751106
 10
4.19236175246749
 20
192.2307722122489
  0
MTEXT
  5
638
330
18
100
AcDbEntity
  8
DEFPOINTS
  6
Continuous
100
AcDbMText
 10
925.5233116574627
 20
355.2589711284398
 30
0.0
 40
1.0
 41
0.0
 71
     4
 72
     1
  1
\A1;
 73
     1
 44
1.0
  0
MTEXT
  5
691
330
18
100
AcDbEntity
  8
文字
100
AcDbMText
 10
492.6625212154621
 20
381.3369533666739
 30
0.0
 40
1.0
 41
6.927999999999999
 71
     1
 72
     5
  1

  7
STYLE3
 73
     1
 44
1.0
  0
MTEXT
  5
6F0
330
18
100
AcDbEntity
  8
DEFPOINTS
  6
Continuous
100
AcDbMText
 10
814.3983308706037
 20
304.5845046541248
 30
0.0
 40
0.35
 41
0.0
 71
     4
 72
     1
  1
\A1;
 73
     1
 44
1.0
  0
MTEXT
  5
CC5
330
18
100
AcDbEntity
  8
DEFPOINTS
  6
Continuous
100
AcDbMText
 10
710.4729546088115
 20
331.694457677123
 30
0.0
 40
1.0
 41
0.0
 71
     4
 72
     1
  1
\A1;
 73
     1
 44
1.0
  0
MTEXT
  5
D1E
330
18
100
AcDbEntity
  8
文字
100
AcDbMText
 10
277.612164166811
 20
357.7724399153571
 30
0.0
 40
1.0
 41
6.927999999999999
 71
     1
 72
     5
  1

  7
STYLE3
 73
     1
 44
1.0
  0
MTEXT
  5
D7D
330
18
100
AcDbEntity
  8
DEFPOINTS
  6
Continuous
100
AcDbMText
 10
599.3479738219526
 20
281.019991202808
 30
0.0
 40
0.35
 41
0.0
 71
     4
 72
     1
  1
\A1;
 73
     1
 44
1.0
  0
MTEXT
  5
14A5
330
18
100
AcDbEntity
  8
DEFPOINTS
  6
Continuous
100
AcDbMText
 10
1025.567307082712
 20
154.6779584459976
 30
0.0
 40
1.0
 41
0.0
 71
     4
 72
     1
  1
\A1;
 73
     1
 44
1.0
  0
MTEXT
  5
14A9
330
18
100
AcDbEntity
  8
文字
100
AcDbMText
 10
592.7065166407121
 20
180.7559406842317
 30
0.0
 40
1.0
 41
6.927999999999999
 71
     1
 72
     5
  1

  7
STYLE3
 73
     1
 44
1.0
  0
MTEXT
  5
14AA
330
18
100
AcDbEntity
  8
DEFPOINTS
  6
Continuous
100
AcDbMText
 10
914.4423262958536
 20
104.0034919716825
 30
0.0
 40
0.35
 41
0.0
 71
     4
 72
     1
  1
\A1;
 73
     1
 44
1.0
  0
MTEXT
  5
1591
330
18
100
AcDbEntity
  8
DEFPOINTS
  6
Continuous
100
AcDbMText
 10
1120.36654932847
 20
257.9884247945498
 30
0.0
 40
1.0
 41
0.0
 71
     4
 72
     1
  1
\A1;
 73
     1
 44
1.0
  0
MTEXT
  5
1595
330
18
100
AcDbEntity
  8
文字
100
AcDbMText
 10
687.5057588864692
 20
284.0664070327839
 30
0.0
 40
1.0
 41
6.927999999999999
 71
     1
 72
     5
  1

  7
STYLE3
 73
     1
 44
1.0
  0
MTEXT
  5
1596
330
18
100
AcDbEntity
  8
DEFPOINTS
  6
Continuous
100
AcDbMText
 10
1009.24156854161
 20
207.3139583202348
 30
0.0
 40
0.35
 41
0.0
 71
     4
 72
     1
  1
\A1;
 73
     1
 44
1.0
  0
MTEXT
  5
1597
330
18
100
AcDbEntity
  8
DEFPOINTS
  6
Continuous
100
AcDbMText
 10
1620.80519670057
 20
433.2016133035515
 30
0.0
 40
1.0
 41
0.0
 71
     4
 72
     1
  1
\A1;
 73
     1
 44
1.0
  0
MTEXT
  5
1598
330
18
100
AcDbEntity
  8
文字
100
AcDbMText
 10
1187.94440625857
 20
459.2795955417855
 30
0.0
 40
1.0
 41
6.927999999999999
 71
     1
 72
     5
  1

  7
STYLE3
 73
     1
 44
1.0
  0
MTEXT
  5
1599
330
18
100
AcDbEntity
  8
DEFPOINTS
  6
Continuous
100
AcDbMText
 10
1509.680215913711
 20
382.5271468292364
 30
0.0
 40
0.35
 41
0.0
 71
     4
 72
     1
  1
\A1;
 73
     1
 44
1.0
  0
LINE
  5
177F
330
18
100
AcDbEntity
  8
外形線
100
AcDbLine
 10
143.2955151163244
 20
67.87608357820286
 30
0.0
 11
148.2955151163244
 21
67.87608357820286
 31
0.0
  0
LINE
  5
1806
330
18
100
AcDbEntity
  8
外形線
100
AcDbLine
 10
136.7955151163244
 20
83.47608357820286
 30
0.0
 11
179.7955151163244
 21
83.47608357820284
 31
0.0
  0
LINE
  5
1807
330
18
100
AcDbEntity
  8
外形線
100
AcDbLine
 10
136.7955151163244
 20
101.4760835782028
 30
0.0
 11
183.5844125653964
 21
101.4760835782029
 31
0.0
  0
LINE
  5
1808
330
18
100
AcDbEntity
  8
外形線
100
AcDbLine
 10
195.7955151163244
 20
44.47608357820286
 30
0.0
 11
213.7955151163244
 21
44.47608357820286
 31
0.0
  0
LINE
  5
1809
330
18
100
AcDbEntity
  8
外形線
100
AcDbLine
 10
195.7955151163244
 20
67.47608357820285
 30
0.0
 11
195.7955151163244
 21
57.87608357820284
 31
0.0
  0
LINE
  5
180A
330
18
100
AcDbEntity
  8
外形線
100
AcDbLine
 10
213.7955151163244
 20
76.50241761719257
 30
0.0
 11
213.7955151163244
 21
44.47608357820286
 31
0.0
  0
ARC
  5
180B
330
18
100
AcDbEntity
  8
外形線
100
AcDbCircle
 10
179.7955151163244
 20
67.47608357820285
 30
0.0
 40
16.0
100
AcDbArc
 50
0.0
 51
90.0
  0
ARC
  5
180E
330
18
100
AcDbEntity
  8
外形線
100
AcDbCircle
 10
136.7955151163244
 20
92.47608357820286
 30
0.0
 40
9.0
100
AcDbArc
 50
90.0
 51
270.0
  0
ARC
  5
1851
330
18
100
AcDbEntity
  8
外形線
100
AcDbCircle
 10
190.7955151163244
 20
113.4760835782028
 30
0.0
 40
14.0
100
AcDbArc
 50
71.56367643519127
 51
250.8125959134064
  0
ARC
  5
1852
330
18
100
AcDbEntity
  8
外形線
100
AcDbCircle
 10
209.7955151163244
 20
95.47608357820285
 30
0.0
 40
14.0
100
AcDbArc
 50
202.4095549452795
 51
19.95400247547718
  0
ARC
  5
1853
330
18
100
AcDbEntity
  8
外形線
100
AcDbCircle
 10
190.7955151163244
 20
113.4760835782028
 30
0.0
 40
20.0
100
AcDbArc
 50
70.9649960125727
 51
161.3885360334642
  0
ARC
  5
1854
330
18
100
AcDbEntity
  8
外形線
100
AcDbCircle
 10
209.7955151163244
 20
95.47608357820285
 30
0.0
 40
20.0
100
AcDbArc
 50
311.8103148957786
 51
23.49897501304052
  0
ARC
  5
1858
330
18
100
AcDbEntity
  8
外形線
100
AcDbCircle
 10
146.2534002136842
 20
128.4760835782028
 30
0.0
 40
27.0
100
AcDbArc
 50
270.0
 51
341.3885360334643
  0
ARC
  5
185A
330
18
100
AcDbEntity
  8
外形線
100
AcDbCircle
 10
180.2120760296678
 20
83.27689787562091
 30
0.0
 40
18.0
100
AcDbArc
 50
22.40955494527958
 51
70.68676045267626
  0
ARC
  5
1860
330
18
100
AcDbEntity
  8
外形線
100
AcDbCircle
 10
180.7316773286903
 20
83.83412111647723
 30
0.0
 40
45.30363425044876
100
AcDbArc
 50
21.24989293474472
 51
71.34484107462398
  0
ARC
  5
1861
330
18
100
AcDbEntity
  8
外形線
100
AcDbCircle
 10
180.7316773286903
 20
83.83412111647723
 30
0.0
 40
51.30363425044876
100
AcDbArc
 50
21.24989293474472
 51
71.34484107462398
  0
ARC
  5
1862
330
18
100
AcDbEntity
  8
外形線
100
AcDbCircle
 10
241.7955151163244
 20
59.69899593820622
 30
0.0
 40
28.0
100
AcDbArc
 50
131.8103148957786
 51
180.0
  0
ARC
  5
1865
330
18
100
AcDbEntity
  8
外形線
100
AcDbCircle
 10
208.7955151163244
 20
76.50241761719257
 30
0.0
 40
5.0
100
AcDbArc
 50
0.0
 51
86.98303869018424
  0
LINE
  5
1866
330
18
100
AcDbEntity
  8
中心線
100
AcDbLine
 10
48.93850031649004
 20
173.919459243767
 30
0.0
 11
48.93850031649003
 21
41.84252130757124
 31
0.0
  0
ARC
  5
1868
330
18
100
AcDbEntity
  8
外形線
100
AcDbCircle
 10
48.93850031649003
 20
53.47608357820286
 30
0.0
 40
9.0
100
AcDbArc
 50
141.7867892982618
 51
38.2132107017382
  0
LINE
  5
1869
330
18
100
AcDbEntity
  8
外形線
100
AcDbLine
 10
54.93850031649003
 20
101.4760835782028
 30
0.0
 11
54.93850031649003
 21
62.13633761604723
 31
0.0
  0
LINE
  5
186A
330
18
100
AcDbEntity
  8
外形線
100
AcDbLine
 10
42.93850031649003
 20
101.4760835782028
 30
0.0
 11
42.93850031649003
 21
62.13633761604725
 31
0.0
  0
ARC
  5
186C
330
18
100
AcDbEntity
  8
外形線
100
AcDbCircle
 10
37.93850031649004
 20
62.13633761604725
 30
0.0
 40
5.0
100
AcDbArc
 50
321.7867892982618
 51
0.0
  0
ARC
  5
186D
330
18
100
AcDbEntity
  8
外形線
100
AcDbCircle
 10
59.93850031649003
 20
62.13633761604723
 30
0.0
 40
5.0
100
AcDbArc
 50
180.0
 51
218.2132107017381
  0
LINE
  5
186E
330
18
100
AcDbEntity
  8
外形線
100
AcDbLine
 10
54.93850031649003
 20
83.47608357820288
 30
0.0
 11
49.68850031649004
 21
83.47608357820284
 31
0.0
  0
LINE
  5
186F
330
18
100
AcDbEntity
  8
外形線
100
AcDbLine
 10
54.93850031649003
 20
101.4760835782028
 30
0.0
 11
49.68850031649004
 21
101.4760835782029
 31
0.0
  0
LINE
  5
1872
330
18
100
AcDbEntity
  8
外形線
100
AcDbLine
 10
53.93850031649003
 20
105.9760835782028
 30
0.0
 11
53.93850031649003
 21
101.4760835782028
 31
0.0
  0
LINE
  5
1873
330
18
100
AcDbEntity
  8
外形線
100
AcDbLine
 10
43.93850031649003
 20
105.9760835782028
 30
0.0
 11
43.93850031649003
 21
101.4760835782028
 31
0.0
  0
LINE
  5
1877
330
18
100
AcDbEntity
  8
中心線
100
AcDbLine
 10
137.9297765830498
 20
53.47608357820286
 30
0.0
 11
216.9825520608273
 21
53.47608357820286
 31
0.0
  0
LINE
  5
1878
330
18
100
AcDbEntity
  8
隠れ線2
100
AcDbLine
 10
195.7955151163244
 20
57.97608357820286
 30
0.0
 11
213.7955151163244
 21
57.97608357820283
 31
0.0
  0
LINE
  5
1879
330
18
100
AcDbEntity
  8
隠れ線2
100
AcDbLine
 10
195.7955151163244
 20
48.97608357820286
 30
0.0
 11
213.7955151163244
 21
48.97608357820286
 31
0.0
  0
LINE
  5
187A
330
18
100
AcDbEntity
  8
中心線
100
AcDbLine
 10
145.7955151163244
 20
166.7427509358371
 30
0.0
 11
145.7955151163244
 21
47.66150958669666
 31
0.0
  0
CIRCLE
  5
187B
330
18
100
AcDbEntity
  8
外形線
100
AcDbCircle
 10
136.7955151163244
 20
92.47608357820286
 30
0.0
 40
4.5
  0
LINE
  5
187C
330
18
100
AcDbEntity
  8
中心線
 48
0.3
100
AcDbLine
 10
129.9658825792167
 20
92.47608357820286
 30
0.0
 11
143.625147653432
 21
92.47608357820286
 31
0.0
  0
LINE
  5
187D
330
18
100
AcDbEntity
  8
中心線
 48
0.3
100
AcDbLine
 10
136.7955151163244
 20
85.64645104109519
 30
0.0
 11
136.7955151163244
 21
99.30571611531053
 31
0.0
  0
LINE
  5
187E
330
18
100
AcDbEntity
  8
外形線
100
AcDbLine
 10
49.68850031649004
 20
101.4760835782029
 30
0.0
 11
49.68850031649004
 21
83.47608357820284
 31
0.0
  0
LINE
  5
187F
330
18
100
AcDbEntity
  8
外形線
100
AcDbLine
 10
48.18850031649003
 20
101.4760835782029
 30
0.0
 11
48.18850031649003
 21
83.47608357820284
 31
0.0
  0
LINE
  5
1880
330
18
100
AcDbEntity
  8
外形線
100
AcDbLine
 10
48.18850031649003
 20
101.4760835782029
 30
0.0
 11
42.93850031649003
 21
101.4760835782028
 31
0.0
  0
LINE
  5
1881
330
18
100
AcDbEntity
  8
外形線
100
AcDbLine
 10
48.18850031649003
 20
83.47608357820284
 30
0.0
 11
42.93850031649003
 21
83.47608357820286
 31
0.0
  0
LINE
  5
1882
330
18
100
AcDbEntity
  8
中心線
 48
0.7
100
AcDbLine
 10
37.30493804585842
 20
53.47608357820286
 30
0.0
 11
60.57206258712165
 21
53.47608357820286
 31
0.0
  0
LINE
  5
1885
330
18
100
AcDbEntity
  8
隠れ線2
100
AcDbLine
 10
141.7955151163244
 20
101.4760835782028
 30
0.0
 11
141.7955151163244
 21
83.47608357820284
 31
0.0
  0
LINE
  5
1886
330
18
100
AcDbEntity
  8
中心線
100
AcDbLine
 10
114.6521795816558
 20
130.4760835782028
 30
0.0
 11
176.938850650993
 21
130.4760835782028
 31
0.0
  0
INSERT
  5
1A8A
330
18
100
AcDbEntity
  8
文字
100
AcDbBlockReference
  2
12
 10
145.7955151163244
 20
130.4760835782028
 30
0.0
  0
LINE
  5
1A8B
330
18
100
AcDbEntity
  8
外形線
100
AcDbLine
 10
152.5142127969344
 20
162.7082655899668
 30
0.0
 11
167.4277461428884
 21
164.3165327130247
 31
0.0
  0
ARC
  5
1A8C
330
18
100
AcDbEntity
  8
外形線
100
AcDbCircle
 10
159.7955151163245
 20
160.4760835782028
 30
0.0
 40
2.0
100
AcDbArc
 50
0.0
 51
180.0
  0
LINE
  5
1A8D
330
18
100
AcDbEntity
  8
中心線
 48
0.5
100
AcDbLine
 10
156.6740765286807
 20
160.4760835782028
 30
0.0
 11
162.918584780864
 21
160.4760835782028
 31
0.0
  0
LINE
  5
1A8E
330
18
100
AcDbEntity
  8
外形線
100
AcDbLine
 10
153.9778130820551
 20
155.5760835782029
 30
0.0
 11
161.7955151163245
 21
155.5760835782029
 31
0.0
  0
CIRCLE
  5
1A90
330
18
100
AcDbEntity
  8
外形線
100
AcDbCircle
 10
145.7955151163244
 20
130.4760835782028
 30
0.0
 40
15.5
  0
CIRCLE
  5
1A91
330
18
100
AcDbEntity
  8
外形線
100
AcDbCircle
 10
145.7955151163244
 20
130.4760835782028
 30
0.0
 40
23.0
  0
CIRCLE
  5
1A92
330
18
100
AcDbEntity
  8
外形線
100
AcDbCircle
 10
145.7955151163244
 20
130.4760835782028
 30
0.0
 40
26.4
  0
DIMENSION
  5
1AAB
330
18
100
AcDbEntity
  8
文字
100
AcDbDimension
  2
*D12
 10
72.94064253138606
 20
104.0760835782029
 30
0.0
 11
71.06564253138604
 21
130.4760835782028
 31
0.0
 70
    32
  1
φ53
 71
     5
 42
52.79999999999994
  3
STYLE3
100
AcDbAlignedDimension
 13
59.23850031649004
 23
156.8760835782028
 33
0.0
 14
59.23850031649004
 24
104.0760835782029
 34
0.0
 50
90.0
100
AcDbRotatedDimension
1001
ACAD
1000
DSTYLE
1002
{
1070
   271
1070
     2
1002
}
  0
ARC
  5
1AAD
330
18
100
AcDbEntity
  8
外形線
  6
Continuous
100
AcDbCircle
 10
-42.22816635017625
 20
130.4760835782028
 30
0.0
 40
105.6666666666664
100
AcDbArc
 50
346.3144531747381
 51
13.68554682526192
  0
LINE
  5
1AAE
330
18
100
AcDbEntity
  8
中心線
100
AcDbLine
 10
66.23045858057373
 20
130.4760835782028
 30
0.0
 11
37.5964020833685
 21
130.4760835782028
 31
0.0
  0
LINE
  5
1AAF
330
18
100
AcDbEntity
  8
外形線
  6
Continuous
100
AcDbLine
 10
53.93850031649009
 20
155.4760835782028
 30
0.0
 11
53.93850031649009
 21
105.4760835782028
 31
0.0
  0
LINE
  5
1AB0
330
18
100
AcDbEntity
  8
外形線
100
AcDbLine
 10
42.43850031648997
 20
154.9760835782029
 30
0.0
 11
42.43850031648997
 21
105.9760835782028
 31
0.0
  0
LINE
  5
1AB1
330
18
100
AcDbEntity
  8
外形線
100
AcDbLine
 10
41.33850031649006
 20
153.4760835782028
 30
0.0
 11
41.33850031649006
 21
107.4760835782028
 31
0.0
  0
LINE
  5
1AB2
330
18
100
AcDbEntity
  8
外形線
  6
Continuous
100
AcDbLine
 10
55.43850031649008
 20
156.8760835782028
 30
0.0
 11
55.43850031649008
 21
104.0760835782029
 31
0.0
  0
LINE
  5
1AB3
330
18
100
AcDbEntity
  8
外形線
  6
Continuous
100
AcDbLine
 10
59.23850031649004
 20
156.8760835782028
 30
0.0
 11
59.23850031649004
 21
104.0760835782029
 31
0.0
  0
LINE
  5
1AB4
330
18
100
AcDbEntity
  8
外形線
  6
Continuous
100
AcDbLine
 10
60.43850031649008
 20
155.4760835782028
 30
0.0
 11
60.43850031649008
 21
105.4760835782028
 31
0.0
  0
LINE
  5
1AB6
330
18
100
AcDbEntity
  8
外形線
100
AcDbLine
 10
53.93850031649009
 20
105.9760835782028
 30
0.0
 11
42.43850031648997
 21
105.9760835782028
 31
0.0
  0
LINE
  5
1AB8
330
18
100
AcDbEntity
  8
外形線
100
AcDbLine
 10
42.43850031648991
 20
107.4760835782028
 30
0.0
 11
41.33850031649006
 21
107.4760835782028
 31
0.0
  0
LINE
  5
1ABD
330
18
100
AcDbEntity
  8
外形線
  6
Continuous
 62
     4
100
AcDbLine
 10
59.23850031649004
 20
105.0760835782029
 30
0.0
 11
55.43850031649008
 21
105.0760835782029
 31
0.0
  0
LINE
  5
1ABE
330
18
100
AcDbEntity
  8
外形線
  6
Continuous
100
AcDbLine
 10
59.23850031649004
 20
104.0760835782029
 30
0.0
 11
55.43850031649008
 21
104.0760835782029
 31
0.0
  0
LINE
  5
1ABF
330
18
100
AcDbEntity
  8
外形線
  6
CENTER2
100
AcDbLine
 10
53.93850031649009
 20
105.4760835782028
 30
0.0
 11
55.43850031649008
 21
105.4760835782028
 31
0.0
  0
LINE
  5
1AC0
330
18
100
AcDbEntity
  8
外形線
  6
Continuous
100
AcDbLine
 10
59.23850031649004
 20
104.9760835782028
 30
0.0
 11
60.43850031649008
 21
105.4760835782028
 31
0.0
  0
POINT
  5
1AC1
330
18
100
AcDbEntity
  8
DEFPOINTS
  6
ByBlock
 62
     0
100
AcDbPoint
 10
59.23850031649004
 20
104.0760835782029
 30
0.0
  0
POINT
  5
1AC2
330
18
100
AcDbEntity
  8
DEFPOINTS
  6
ByBlock
 62
     0
100
AcDbPoint
 10
59.23850031649004
 20
104.0760835782029
 30
0.0
  0
LINE
  5
1AC3
330
18
100
AcDbEntity
  8
外形線
  6
Continuous
 62
     4
100
AcDbLine
 10
59.23850031649004
 20
106.0760835782029
 30
0.0
 11
55.43850031649008
 21
106.0760835782029
 31
0.0
  0
LINE
  5
1AC4
330
18
100
AcDbEntity
  8
外形線
  6
Continuous
 62
     4
100
AcDbLine
 10
59.23850031649004
 20
109.0760835782029
 30
0.0
 11
55.43850031649008
 21
109.0760835782029
 31
0.0
  0
LINE
  5
1AC5
330
18
100
AcDbEntity
  8
外形線
  6
Continuous
 62
     4
100
AcDbLine
 10
59.23850031649004
 20
107.0760835782029
 30
0.0
 11
55.43850031649008
 21
107.0760835782029
 31
0.0
  0
LINE
  5
1AC6
330
18
100
AcDbEntity
  8
外形線
  6
Continuous
 62
     4
100
AcDbLine
 10
59.23850031649004
 20
108.0760835782029
 30
0.0
 11
55.43850031649008
 21
108.0760835782029
 31
0.0
  0
LINE
  5
1AC7
330
18
100
AcDbEntity
  8
外形線
  6
Continuous
 62
     4
100
AcDbLine
 10
55.43850031649008
 20
128.4760835782028
 30
0.0
 11
59.23850031649004
 21
128.4760835782028
 31
0.0
  0
LINE
  5
1AC8
330
18
100
AcDbEntity
  8
外形線
  6
Continuous
 62
     4
100
AcDbLine
 10
55.43850031649008
 20
132.4760835782028
 30
0.0
 11
59.23850031649004
 21
132.4760835782028
 31
0.0
  0
LINE
  5
1AC9
330
18
100
AcDbEntity
  8
外形線
  6
Continuous
 62
     4
100
AcDbLine
 10
55.43850031649008
 20
133.4760835782028
 30
0.0
 11
59.23850031649004
 21
133.4760835782028
 31
0.0
  0
LINE
  5
1ACA
330
18
100
AcDbEntity
  8
外形線
  6
Continuous
 62
     4
100
AcDbLine
 10
55.43850031649008
 20
131.4760835782028
 30
0.0
 11
59.23850031649004
 21
131.4760835782028
 31
0.0
  0
LINE
  5
1ACB
330
18
100
AcDbEntity
  8
外形線
  6
Continuous
 62
     4
100
AcDbLine
 10
55.43850031649008
 20
130.4760835782028
 30
0.0
 11
59.23850031649004
 21
130.4760835782028
 31
0.0
  0
LINE
  5
1ACC
330
18
100
AcDbEntity
  8
外形線
  6
Continuous
 62
     4
100
AcDbLine
 10
55.43850031649008
 20
129.4760835782028
 30
0.0
 11
59.23850031649004
 21
129.4760835782028
 31
0.0
  0
LINE
  5
1ACD
330
18
100
AcDbEntity
  8
外形線
100
AcDbLine
 10
53.18850031649014
 20
164.276083578203
 30
0.0
 11
53.18850031648992
 21
162.6760835782029
 31
0.0
  0
LINE
  5
1ACE
330
18
100
AcDbEntity
  8
外形線
100
AcDbLine
 10
44.68850031649014
 20
164.276083578203
 30
0.0
 11
44.68850031649014
 21
162.6760835782028
 31
0.0
  0
LINE
  5
1ACF
330
18
100
AcDbEntity
  8
外形線
100
AcDbLine
 10
53.18850031648992
 20
164.276083578203
 30
0.0
 11
53.18850031648992
 21
162.6760835782028
 31
0.0
  0
LINE
  5
1AD0
330
18
100
AcDbEntity
  8
外形線
100
AcDbLine
 10
44.68850031648991
 20
164.276083578203
 30
0.0
 11
44.68850031649014
 21
162.6760835782029
 31
0.0
  0
LINE
  5
1AD1
330
18
100
AcDbEntity
  8
外形線
100
AcDbLine
 10
44.93850031649002
 20
154.9760835782029
 30
0.0
 11
42.43850031648997
 21
154.9760835782029
 31
0.0
  0
ARC
  5
1AD2
330
18
100
AcDbEntity
  8
外形線
100
AcDbCircle
 10
44.62600031648997
 20
154.982073161534
 30
0.0
 40
3.59401041666899
100
AcDbArc
 50
85.01182040284382
 51
113.5763665982022
  0
ARC
  5
1AD3
330
18
100
AcDbEntity
  8
外形線
100
AcDbCircle
 10
44.62600031648997
 20
160.1700939948722
 30
0.0
 40
3.59401041666899
100
AcDbArc
 50
246.4236334017978
 51
274.988179597156
  0
LINE
  5
1AD4
330
18
100
AcDbEntity
  8
中心線
 48
0.5
100
AcDbLine
 10
41.65657439638302
 20
160.4760835782032
 30
0.0
 11
56.22042623659708
 21
160.4760835782031
 31
0.0
  0
LINE
  5
1AD5
330
18
100
AcDbEntity
  8
外形線
100
AcDbLine
 10
43.18850031648997
 20
158.276083578203
 30
0.0
 11
43.18850031648997
 21
156.876083578203
 31
0.0
  0
POINT
  5
1AD6
330
18
100
AcDbEntity
  8
DEFPOINTS
  6
ByBlock
 62
     0
100
AcDbPoint
 10
41.33850031649006
 20
153.4760835782028
 30
0.0
  0
POINT
  5
1AD7
330
18
100
AcDbEntity
  8
DEFPOINTS
  6
ByBlock
 62
     0
100
AcDbPoint
 10
41.33850031649006
 20
153.4760835782028
 30
0.0
  0
LINE
  5
1AD8
330
18
100
AcDbEntity
  8
外形線
100
AcDbLine
 10
42.43850031648997
 20
153.4760835782028
 30
0.0
 11
41.33850031649006
 21
153.4760835782028
 31
0.0
  0
LINE
  5
1AD9
330
18
100
AcDbEntity
  8
外形線
  6
Continuous
 62
     4
100
AcDbLine
 10
59.23850031649004
 20
151.8760835782028
 30
0.0
 11
55.43850031649008
 21
151.8760835782028
 31
0.0
  0
LINE
  5
1ADA
330
18
100
AcDbEntity
  8
外形線
100
AcDbLine
 10
44.88850031649018
 20
162.4760835782029
 30
0.0
 11
52.98850031648987
 21
162.476083578203
 31
0.0
  0
LINE
  5
1ADB
330
18
100
AcDbEntity
  8
外形線
100
AcDbLine
 10
52.98850031648987
 20
162.4760835782029
 30
0.0
 11
44.88850031649018
 21
162.476083578203
 31
0.0
  0
LINE
  5
1ADC
330
18
100
AcDbEntity
  8
外形線
100
AcDbLine
 10
52.93850031649003
 20
155.7898511823877
 30
0.0
 11
51.93850031648997
 21
155.7898511823877
 31
0.0
  0
LINE
  5
1ADD
330
18
100
AcDbEntity
  8
外形線
100
AcDbLine
 10
52.93850031649003
 20
154.9109225327836
 30
0.0
 11
51.93850031649002
 21
154.9109225327836
 31
0.0
  0
LINE
  5
1ADE
330
18
100
AcDbEntity
  8
外形線
100
AcDbLine
 10
45.93850031649003
 20
162.4760835782029
 30
0.0
 11
45.93850031649003
 21
154.9109225327836
 31
0.0
  0
LINE
  5
1ADF
330
18
100
AcDbEntity
  8
外形線
100
AcDbLine
 10
51.93850031649002
 20
162.476083578203
 30
0.0
 11
51.93850031649002
 21
154.9109225327836
 31
0.0
  0
LINE
  5
1AE0
330
18
100
AcDbEntity
  8
外形線
100
AcDbLine
 10
44.93850031649002
 20
162.4760835782029
 30
0.0
 11
44.93850031649002
 21
154.9109225327836
 31
0.0
  0
LINE
  5
1AE1
330
18
100
AcDbEntity
  8
外形線
100
AcDbLine
 10
51.81350031649008
 20
156.8760835782029
 30
0.0
 11
51.81350031649008
 21
158.2760835782031
 31
0.0
  0
LINE
  5
1AE2
330
18
100
AcDbEntity
  8
外形線
100
AcDbLine
 10
46.06350031648997
 20
156.8760835782029
 30
0.0
 11
46.06350031648997
 21
158.2760835782031
 31
0.0
  0
LINE
  5
1AE3
330
18
100
AcDbEntity
  8
外形線
100
AcDbLine
 10
51.93850031649002
 20
154.9760835782029
 30
0.0
 11
45.93850031649003
 21
154.9760835782029
 31
0.0
  0
LINE
  5
1AE4
330
18
100
AcDbEntity
  8
外形線
100
AcDbLine
 10
45.93850031649003
 20
156.5760835782032
 30
0.0
 11
51.93850031649002
 21
156.5760835782032
 31
0.0
  0
ARC
  5
1AE5
330
18
100
AcDbEntity
  8
外形線
100
AcDbCircle
 10
48.93850031648997
 20
170.5021252448692
 30
0.0
 40
13.92604166666615
100
AcDbArc
 50
258.0857377705831
 51
270.0000000000002
  0
LINE
  5
1AE6
330
18
100
AcDbEntity
  8
外形線
100
AcDbLine
 10
44.62600031648997
 20
156.5760835782032
 30
0.0
 11
44.93850031649002
 21
156.5760835782032
 31
0.0
  0
LINE
  5
1AE7
330
18
100
AcDbEntity
  8
外形線
100
AcDbLine
 10
44.33850031649006
 20
156.5876012000259
 30
0.0
 11
44.33850031649006
 21
156.5760835782032
 31
0.0
  0
LINE
  5
1AE8
330
18
100
AcDbEntity
  8
外形線
100
AcDbLine
 10
45.93850031649003
 20
155.7898511823877
 30
0.0
 11
44.93850031649002
 21
155.7898511823877
 31
0.0
  0
LINE
  5
1AE9
330
18
100
AcDbEntity
  8
外形線
100
AcDbLine
 10
45.93850031649003
 20
154.9109225327836
 30
0.0
 11
44.93850031649002
 21
154.9109225327836
 31
0.0
  0
LINE
  5
1AEA
330
18
100
AcDbEntity
  8
外形線
100
AcDbLine
 10
46.63850031648961
 20
156.5760835782032
 30
0.0
 11
46.63850031649024
 21
154.9760835782031
 31
0.0
  0
ARC
  5
1AEB
330
18
100
AcDbEntity
  8
外形線
100
AcDbCircle
 10
44.62600031648997
 20
160.1700939948722
 30
0.0
 40
3.59401041666899
100
AcDbArc
 50
291.4193332207172
 51
293.576366598201
  0
ARC
  5
1AEC
330
18
100
AcDbEntity
  8
外形線
100
AcDbCircle
 10
48.93850031649009
 20
170.5021252448692
 30
0.0
 40
13.92604166666615
100
AcDbArc
 50
269.9999999999998
 51
281.9142622294169
  0
ARC
  5
1AED
330
18
100
AcDbEntity
  8
外形線
100
AcDbCircle
 10
53.25100031649008
 20
160.1700939948722
 30
0.0
 40
3.59401041666899
100
AcDbArc
 50
246.4236334017989
 51
248.580666779283
  0
LINE
  5
1AEE
330
18
100
AcDbEntity
  8
外形線
100
AcDbLine
 10
51.23850031649038
 20
156.5760835782032
 30
0.0
 11
51.23850031648981
 21
154.9760835782031
 31
0.0
  0
LINE
  5
1AEF
330
18
100
AcDbEntity
  8
外形線
100
AcDbLine
 10
45.93850031649003
 20
158.5760835782029
 30
0.0
 11
51.93850031649002
 21
158.5760835782029
 31
0.0
  0
LINE
  5
1AF0
330
18
100
AcDbEntity
  8
外形線
100
AcDbLine
 10
46.93850031649009
 20
162.4760835782032
 30
0.0
 11
50.93850031649008
 21
162.4760835782032
 31
0.0
  0
ARC
  5
1AF1
330
18
100
AcDbEntity
  8
外形線
100
AcDbCircle
 10
48.93850031649009
 20
144.6500419115369
 30
0.0
 40
13.92604166666615
100
AcDbArc
 50
78.08573777058317
 51
101.9142622294168
  0
LINE
  5
1AF2
330
18
100
AcDbEntity
  8
外形線
100
AcDbLine
 10
44.62600031648997
 20
158.576083578203
 30
0.0
 11
44.93850031649002
 21
158.576083578203
 31
0.0
  0
LINE
  5
1AF3
330
18
100
AcDbEntity
  8
外形線
100
AcDbLine
 10
46.63850031648996
 20
162.476083578203
 30
0.0
 11
46.63850031648996
 21
158.576083578203
 31
0.0
  0
LINE
  5
1AF4
330
18
100
AcDbEntity
  8
外形線
100
AcDbLine
 10
46.63850031648996
 20
159.9948287433348
 30
0.0
 11
46.63850031648996
 21
158.576083578203
 31
0.0
  0
LINE
  5
1AF5
330
18
100
AcDbEntity
  8
外形線
100
AcDbLine
 10
44.68850031649014
 20
162.6760835782028
 30
0.0
 11
44.88850031649018
 21
162.4760835782029
 31
0.0
  0
LINE
  5
1AF6
330
18
100
AcDbEntity
  8
外形線
100
AcDbLine
 10
44.88850031649018
 20
162.476083578203
 30
0.0
 11
44.68850031649014
 21
162.6760835782029
 31
0.0
  0
ARC
  5
1AF7
330
18
100
AcDbEntity
  8
外形線
100
AcDbCircle
 10
44.62600031649008
 20
154.982073161534
 30
0.0
 40
3.59401041666899
100
AcDbArc
 50
66.42363340179895
 51
68.58066677928448
  0
LINE
  5
1AF8
330
18
100
AcDbEntity
  8
外形線
100
AcDbLine
 10
44.33850031649006
 20
162.4760835782031
 30
0.0
 11
44.33850031649006
 21
158.5645659563802
 31
0.0
  0
LINE
  5
1AF9
330
18
100
AcDbEntity
  8
外形線
100
AcDbLine
 10
45.33850031649006
 20
162.4760835782031
 30
0.0
 11
44.33850031649006
 21
162.4760835782031
 31
0.0
  0
LINE
  5
1AFA
330
18
100
AcDbEntity
  8
外形線
100
AcDbLine
 10
51.23850031649009
 20
161.0475729639627
 30
0.0
 11
51.23850031649009
 21
161.0303594216197
 31
0.0
  0
LINE
  5
1AFB
330
18
100
AcDbEntity
  8
外形線
100
AcDbLine
 10
51.23850031649004
 20
162.4760835782029
 30
0.0
 11
51.23850031649009
 21
158.576083578203
 31
0.0
  0
LINE
  5
1AFC
330
18
100
AcDbEntity
  8
外形線
100
AcDbLine
 10
51.23850031649009
 20
159.9948287433348
 30
0.0
 11
51.23850031649009
 21
158.576083578203
 31
0.0
  0
ARC
  5
1AFD
330
18
100
AcDbEntity
  8
外形線
100
AcDbCircle
 10
53.25100031649008
 20
154.982073161534
 30
0.0
 40
3.59401041666899
100
AcDbArc
 50
111.419333220717
 51
113.576366598201
  0
LINE
  5
1AFE
330
18
100
AcDbEntity
  8
外形線
100
AcDbLine
 10
52.93850031649003
 20
162.476083578203
 30
0.0
 11
52.93850031649003
 21
154.9109225327836
 31
0.0
  0
LINE
  5
1AFF
330
18
100
AcDbEntity
  8
外形線
100
AcDbLine
 10
54.68850031649008
 20
158.276083578203
 30
0.0
 11
54.68850031649008
 21
156.876083578203
 31
0.0
  0
LINE
  5
1B00
330
18
100
AcDbEntity
  8
外形線
  6
Continuous
100
AcDbLine
 10
59.23850031649004
 20
156.8760835782028
 30
0.0
 11
55.43850031649008
 21
156.8760835782028
 31
0.0
  0
LINE
  5
1B01
330
18
100
AcDbEntity
  8
外形線
  6
Continuous
 62
     4
100
AcDbLine
 10
59.23850031649004
 20
155.8760835782028
 30
0.0
 11
55.43850031649008
 21
155.8760835782028
 31
0.0
  0
LINE
  5
1B02
330
18
100
AcDbEntity
  8
外形線
  6
Continuous
 62
     4
100
AcDbLine
 10
59.23850031649004
 20
154.8760835782028
 30
0.0
 11
55.43850031649008
 21
154.8760835782028
 31
0.0
  0
LINE
  5
1B03
330
18
100
AcDbEntity
  8
外形線
  6
Continuous
 62
     4
100
AcDbLine
 10
59.23850031649004
 20
153.8760835782028
 30
0.0
 11
55.43850031649008
 21
153.8760835782028
 31
0.0
  0
LINE
  5
1B04
330
18
100
AcDbEntity
  8
外形線
  6
Continuous
 62
     4
100
AcDbLine
 10
59.23850031649004
 20
152.8760835782028
 30
0.0
 11
55.43850031649008
 21
152.8760835782028
 31
0.0
  0
LINE
  5
1B05
330
18
100
AcDbEntity
  8
外形線
100
AcDbLine
 10
52.93850031649003
 20
156.5760835782032
 30
0.0
 11
53.25100031649008
 21
156.5760835782032
 31
0.0
  0
LINE
  5
1B06
330
18
100
AcDbEntity
  8
外形線
100
AcDbLine
 10
53.53850031648999
 20
156.5876012000259
 30
0.0
 11
53.53850031648999
 21
156.5760835782032
 31
0.0
  0
ARC
  5
1B07
330
18
100
AcDbEntity
  8
外形線
100
AcDbCircle
 10
53.25100031649008
 20
160.1700939948722
 30
0.0
 40
3.59401041666899
100
AcDbArc
 50
265.0118204028446
 51
293.5763665982022
  0
LINE
  5
1B08
330
18
100
AcDbEntity
  8
外形線
100
AcDbLine
 10
53.93850031649009
 20
154.9760835782028
 30
0.0
 11
52.93850031649003
 21
154.9760835782029
 31
0.0
  0
LINE
  5
1B09
330
18
100
AcDbEntity
  8
外形線
  6
CENTER2
100
AcDbLine
 10
53.93850031649009
 20
155.4760835782028
 30
0.0
 11
55.43850031649008
 21
155.4760835782028
 31
0.0
  0
LINE
  5
1B0A
330
18
100
AcDbEntity
  8
外形線
  6
Continuous
100
AcDbLine
 10
59.23850031649004
 20
155.9760835782028
 30
0.0
 11
60.43850031649008
 21
155.4760835782028
 31
0.0
  0
POINT
  5
1B0B
330
18
100
AcDbEntity
  8
DEFPOINTS
  6
ByBlock
 62
     0
100
AcDbPoint
 10
59.23850031649004
 20
156.8760835782028
 30
0.0
  0
LINE
  5
1B0C
330
18
100
AcDbEntity
  8
外形線
100
AcDbLine
 10
52.93850031649003
 20
158.5760835782029
 30
0.0
 11
53.25100031649008
 21
158.576083578203
 31
0.0
  0
LINE
  5
1B0D
330
18
100
AcDbEntity
  8
外形線
100
AcDbLine
 10
52.98850031648987
 20
162.476083578203
 30
0.0
 11
53.18850031648992
 21
162.6760835782029
 31
0.0
  0
LINE
  5
1B0E
330
18
100
AcDbEntity
  8
外形線
100
AcDbLine
 10
53.18850031648992
 20
162.6760835782028
 30
0.0
 11
52.98850031648987
 21
162.4760835782029
 31
0.0
  0
ARC
  5
1B0F
330
18
100
AcDbEntity
  8
外形線
100
AcDbCircle
 10
53.25100031649008
 20
154.982073161534
 30
0.0
 40
3.59401041666899
100
AcDbArc
 50
66.42363340179779
 51
94.98817959715561
  0
LINE
  5
1B10
330
18
100
AcDbEntity
  8
外形線
100
AcDbLine
 10
53.53850031648999
 20
162.4760835782031
 30
0.0
 11
53.53850031648999
 21
158.5645659563802
 31
0.0
  0
LINE
  5
1B11
330
18
100
AcDbEntity
  8
外形線
100
AcDbLine
 10
52.53850031648999
 20
162.4760835782031
 30
0.0
 11
53.53850031648999
 21
162.4760835782031
 31
0.0
  0
ARC
  5
1B12
330
18
100
AcDbEntity
  8
外形線
100
AcDbCircle
 10
46.01931247568727
 20
166.5956084076387
 30
0.0
 40
2.896155846903953
100
AcDbArc
 50
181.6649218613851
 51
242.6445160037918
  0
ELLIPSE
  5
1B13
330
18
100
AcDbEntity
  8
外形線
100
AcDbEllipse
 10
48.93850031649009
 20
166.8903301560038
 30
0.0
 11
-5.834642661603116
 21
0.0000000000000068
 31
0.0
210
0.0
220
0.0
230
1.0
 40
0.7748925521716198
 41
3.05769667350001
 42
6.367081287269371
  0
LINE
  5
1B14
330
18
100
AcDbEntity
  8
外形線
100
AcDbLine
 10
44.88850031648996
 20
164.4760835782029
 30
0.0
 11
52.9885003164901
 21
164.4760835782029
 31
0.0
  0
LINE
  5
1B15
330
18
100
AcDbEntity
  8
外形線
100
AcDbLine
 10
52.9885003164901
 20
164.4760835782029
 30
0.0
 11
44.88850031648996
 21
164.4760835782029
 31
0.0
  0
LINE
  5
1B16
330
18
100
AcDbEntity
  8
外形線
100
AcDbLine
 10
44.68850031649014
 20
164.276083578203
 30
0.0
 11
44.88850031648996
 21
164.4760835782029
 31
0.0
  0
LINE
  5
1B17
330
18
100
AcDbEntity
  8
外形線
100
AcDbLine
 10
44.88850031648996
 20
164.4760835782029
 30
0.0
 11
44.68850031648991
 21
164.276083578203
 31
0.0
  0
POINT
  5
1B18
330
18
100
AcDbEntity
  8
DEFPOINTS
  6
ByBlock
 62
     0
100
AcDbPoint
 10
48.93850031648991
 20
164.4760835782029
 30
0.0
 50
180.0
  0
LINE
  5
1B19
330
18
100
AcDbEntity
  8
外形線
100
AcDbLine
 10
52.9885003164901
 20
164.4760835782029
 30
0.0
 11
53.18850031649014
 21
164.276083578203
 31
0.0
  0
LINE
  5
1B1A
330
18
100
AcDbEntity
  8
外形線
100
AcDbLine
 10
53.18850031648992
 20
164.276083578203
 30
0.0
 11
52.9885003164901
 21
164.4760835782029
 31
0.0
  0
ARC
  5
1B1B
330
18
100
AcDbEntity
  8
外形線
100
AcDbCircle
 10
51.85768815729289
 20
166.5956084076387
 30
0.0
 40
2.896155846903953
100
AcDbArc
 50
297.3554839962098
 51
358.3350781386148
  0
POINT
  5
1B23
330
18
100
AcDbEntity
  8
DEFPOINTS
  6
ByBlock
 62
     0
100
AcDbPoint
 10
63.43850031649014
 20
130.4760835782028
 30
0.0
  0
LINE
  5
1B24
102
{ACAD_REACTORS
330
1B2D
102
}
330
18
100
AcDbEntity
  8
ROGO
 62
     4
100
AcDbLine
 10
152.7806649909101
 20
139.6764912872578
 30
0.0
 11
154.0235737362413
 21
140.7024306797108
 31
0.0
  0
LINE
  5
1B25
102
{ACAD_REACTORS
330
1B38
102
}
330
18
100
AcDbEntity
  8
ROGO
 62
     4
100
AcDbLine
 10
147.7630181175293
 20
140.7024306797108
 30
0.0
 11
147.5193988169887
 21
140.213855627494
 31
0.0
  0
SPLINE
  5
1B26
102
{ACAD_REACTORS
330
1B28
102
}
330
18
100
AcDbEntity
  8
ROGO
 62
     4
100
AcDbSpline
210
0.0
220
0.0
230
1.0
 70
     8
 71
     3
 72
    26
 73
    22
 74
    20
 42
0.0000000001
 43
0.0000000001
 44
0.0000000001
 40
0.0
 40
0.0
 40
0.0
 40
0.0
 40
0.2382195346591896
 40
0.397689067266058
 40
0.5126795869787176
 40
0.5985392873135238
 40
0.7099038249250041
 40
0.7911890807494602
 40
0.9379713068544059
 40
1.057449928673177
 40
1.138714535893296
 40
1.218398644003487
 40
1.36093802187034
 40
1.461730374800238
 40
1.51601484410804
 40
1.593124329220486
 40
1.648806818593696
 40
1.729472362005543
 40
1.775122082164332
 40
1.874460993765135
 40
1.919820003751196
 40
1.919820003751196
 40
1.919820003751196
 40
1.919820003751196
 10
150.6790515463509
 20
140.7024306797108
 30
0.0
 10
150.5981961555922
 20
140.6976067084457
 30
0.0
 10
150.4632143415262
 20
140.689553461949
 30
0.0
 10
150.3150051308145
 20
140.5995179580907
 30
0.0
 10
150.2064183864043
 20
140.5471752727482
 30
0.0
 10
150.1289744519801
 20
140.4760198513286
 30
0.0
 10
150.0722077341126
 20
140.4025214988073
 30
0.0
 10
150.000642629415
 20
140.3149487506819
 30
0.0
 10
149.9422833315091
 20
140.2129738292173
 30
0.0
 10
149.9125644889759
 20
140.100579688154
 30
0.0
 10
149.8862398203222
 20
140.0110009055951
 30
0.0
 10
149.8667170053492
 20
139.9111770427026
 30
0.0
 10
149.8716841621622
 20
139.8033321545804
 30
0.0
 10
149.8787973580467
 20
139.7031713435766
 30
0.0
 10
149.9105560479706
 20
139.6316715206499
 30
0.0
 10
149.9467235703607
 20
139.5807685737206
 30
0.0
 10
149.9910102062156
 20
139.5247046210218
 30
0.0
 10
150.0394694705331
 20
139.4875736466916
 30
0.0
 10
150.0795492376436
 20
139.420308391551
 30
0.0
 10
150.1497075179061
 20
139.4117248598749
 30
0.0
 10
150.1943029119819
 20
139.3946410699979
 30
0.0
 10
150.2082824004433
 20
139.3892857491533
 30
0.0
 11
150.6790515463509
 21
140.7024306797108
 31
0.0
 11
150.443666973397
 21
140.6657884976171
 31
0.0
 11
150.301009470022
 21
140.5945188086837
 31
0.0
 11
150.2011494227362
 21
140.5375031040063
 31
0.0
 11
150.1369538538325
 21
140.4804871669824
 31
0.0
 11
150.0656253072217
 21
140.394963493793
 31
0.0
 11
150.0156952835787
 21
140.3308207969877
 31
0.0
 11
149.9443663268145
 21
140.2025351710304
 31
0.0
 11
149.9087022585858
 21
140.0885035293291
 31
0.0
 11
149.8873037356179
 21
140.0101068482678
 31
0.0
 11
149.8730377802037
 21
139.9317101672064
 31
0.0
 11
149.8730377802037
 21
139.7891707893396
 31
0.0
 11
149.8873037356179
 21
139.6893931318943
 31
0.0
 11
149.9087022585858
 21
139.6395041869984
 31
0.0
 11
149.9514993045216
 21
139.575361490193
 31
0.0
 11
149.9871637829038
 21
139.5325995374251
 31
0.0
 11
150.0442263741003
 21
139.4755838327477
 31
0.0
 11
150.0727578747754
 21
139.4399488721078
 31
0.0
 11
150.1654853545075
 21
139.4043141438143
 31
0.0
 11
150.2082824004433
 21
139.3892857491533
 31
0.0
  0
LINE
  5
1B27
102
{ACAD_REACTORS
330
1B28
102
}
330
18
100
AcDbEntity
  8
ROGO
 62
     4
100
AcDbLine
 10
151.9940878884571
 20
140.7024306797108
 30
0.0
 11
151.7504685879166
 21
140.213855627494
 31
0.0
  0
HATCH
  5
1B28
330
18
100
AcDbEntity
  8
ROGO
 62
     4
100
AcDbHatch
 10
0.0
 20
0.0
 30
0.0
210
0.0
220
0.0
230
1.0
  2
SOLID
 70
     1
 71
     1
 91
        1
 92
        5
 93
        8
 72
     4
 94
        3
 73
     0
 74
     0
 95
       26
 96
       22
 40
0.0
 40
0.0
 40
0.0
 40
0.0
 40
0.2382195346591896
 40
0.397689067266058
 40
0.5126795869787176
 40
0.5985392873135238
 40
0.7099038249250041
 40
0.7911890807494602
 40
0.9379713068544059
 40
1.057449928673177
 40
1.138714535893296
 40
1.218398644003487
 40
1.36093802187034
 40
1.461730374800238
 40
1.51601484410804
 40
1.593124329220486
 40
1.648806818593696
 40
1.729472362005543
 40
1.775122082164332
 40
1.874460993765135
 40
1.919820003751196
 40
1.919820003751196
 40
1.919820003751196
 40
1.919820003751196
 10
150.6790515463509
 20
140.7024306797108
 10
150.5981961555922
 20
140.6976067084457
 10
150.4632143415262
 20
140.689553461949
 10
150.3150051308145
 20
140.5995179580907
 10
150.2064183864043
 20
140.5471752727482
 10
150.1289744519801
 20
140.4760198513286
 10
150.0722077341126
 20
140.4025214988073
 10
150.000642629415
 20
140.3149487506819
 10
149.9422833315091
 20
140.2129738292173
 10
149.9125644889759
 20
140.100579688154
 10
149.8862398203222
 20
140.0110009055951
 10
149.8667170053492
 20
139.9111770427026
 10
149.8716841621622
 20
139.8033321545804
 10
149.8787973580467
 20
139.7031713435766
 10
149.9105560479706
 20
139.6316715206499
 10
149.9467235703607
 20
139.5807685737206
 10
149.9910102062156
 20
139.5247046210218
 10
150.0394694705331
 20
139.4875736466916
 10
150.0795492376436
 20
139.420308391551
 10
150.1497075179061
 20
139.4117248598749
 10
150.1943029119819
 20
139.3946410699979
 10
150.2082824004433
 20
139.3892857491533
 72
     1
 10
150.2082824004434
 20
139.3892857491533
 11
151.3393114154479
 21
139.3892857491533
 72
     1
 10
151.3393114154479
 20
139.3892857491533
 11
151.5829281361268
 21
139.877855627494
 72
     1
 10
151.5829281361268
 20
139.877855627494
 11
150.7432471152546
 21
139.877855627494
 72
     4
 94
        3
 73
     0
 74
     0
 95
       16
 96
       12
 40
0.0
 40
0.0
 40
0.0
 40
0.0
 40
0.0719416665231652
 40
0.1446253590759511
 40
0.1879779149910863
 40
0.229544093610429
 40
0.2751936323958108
 40
0.3070718656052417
 40
0.3373215422371831
 40
0.3986635435213285
 40
0.5242542460842448
 40
0.5242542460842448
 40
0.5242542460842448
 40
0.5242542460842448
 10
150.7432471152546
 20
139.8778556274939
 10
150.7179193765829
 20
139.8853074195825
 10
150.6670026620138
 20
139.9002878635818
 10
150.6627413441663
 20
139.9729075527191
 10
150.668546773228
 20
140.0246550236783
 10
150.6928599231053
 20
140.0623302043944
 10
150.7223559909658
 20
140.0897438554301
 10
150.7333386852174
 20
140.1254458496122
 10
150.7656213143416
 20
140.1524053219287
 10
150.8228670657326
 20
140.1977204289044
 10
150.886170956944
 20
140.20737153419
 10
150.9287016645654
 20
140.213855627494
 72
     1
 10
150.9287016645654
 20
140.213855627494
 11
151.7504685879166
 21
140.213855627494
 72
     1
 10
151.7504685879166
 20
140.213855627494
 11
151.9940878884571
 21
140.7024306797108
 72
     1
 10
151.9940878884571
 20
140.7024306797108
 11
150.6790515463509
 21
140.7024306797109
 97
        8
330
1BCE
330
1B26
330
1B72
330
1BBB
330
1BBC
330
1BBA
330
1BBD
330
1B27
 75
     0
 76
     1
 47
0.0514683685270805
 98
        1
 10
150.9059689760357
 20
140.4619893765318
450
        0
451
        0
460
0.0
461
0.0
452
        0
462
0.0
453
        0
470

  0
SPLINE
  5
1B29
102
{ACAD_REACTORS
330
1B2B
102
}
330
18
100
AcDbEntity
  8
ROGO
 62
     4
100
AcDbSpline
210
0.0
220
0.0
230
1.0
 70
     8
 71
     3
 72
    38
 73
    34
 74
    32
 42
0.0000000001
 43
0.0000000001
 44
0.0000000001
 40
0.0
 40
0.0
 40
0.0
 40
0.0
 40
0.1807680148264315
 40
0.2375392910068956
 40
0.3104865209606157
 40
0.3712759982447458
 40
0.422566754387306
 40
0.490692583720658
 40
0.5255021974951946
 40
0.5647069597052371
 40
0.622487401681883
 40
0.6879401044674746
 40
0.7303986317551266
 40
0.7765228362185534
 40
0.8277951442290254
 40
0.9056034697002209
 40
0.9795294930264187
 40
1.013897332332996
 40
1.053089255536027
 40
1.099518741889647
 40
1.132570569820733
 40
1.160277520290299
 40
1.19983678629386
 40
1.243305643169139
 40
1.286774258016964
 40
1.324809356515675
 40
1.411916492917645
 40
1.446284332224223
 40
1.5150200516612
 40
1.575779369908399
 40
1.69209852953623
 40
1.835624328519098
 40
2.042896467983898
 40
2.042896467983898
 40
2.042896467983898
 40
2.042896467983898
 10
148.4922434375721
 20
140.7079078988832
 30
0.0
 10
148.4319880399464
 20
140.7036512797823
 30
0.0
 10
148.3528090743253
 20
140.6980578439951
 30
0.0
 10
148.2522703018157
 20
140.6705132177902
 30
0.0
 10
148.1974655473747
 20
140.6376986983323
 30
0.0
 10
148.1404302460575
 20
140.6135784536318
 30
0.0
 10
148.0918023396724
 20
140.5778611543825
 30
0.0
 10
148.0426162389766
 20
140.5594563741891
 30
0.0
 10
148.0081746256008
 20
140.5262692658165
 30
0.0
 10
147.9683112674679
 20
140.5059971476415
 30
0.0
 10
147.9365673676325
 20
140.4606222536271
 30
0.0
 10
147.9010866911008
 20
140.4181983719687
 30
0.0
 10
147.8599246426937
 20
140.3872308303912
 30
0.0
 10
147.8261423971343
 20
140.3547058514288
 30
0.0
 10
147.7951518842099
 20
140.3045100362449
 30
0.0
 10
147.7768103116388
 20
140.2378146615594
 30
0.0
 10
147.7251084972295
 20
140.1957056072742
 30
0.0
 10
147.7173238227464
 20
140.1450779595981
 30
0.0
 10
147.6887259725507
 20
140.1152084994074
 30
0.0
 10
147.6762906270948
 20
140.0766513174223
 30
0.0
 10
147.671554648971
 20
140.0413261281016
 30
0.0
 10
147.6658703459285
 20
140.0083348466734
 30
0.0
 10
147.651001285696
 20
139.9736294759355
 30
0.0
 10
147.6558545982574
 20
139.9307591970005
 30
0.0
 10
147.6544720352153
 20
139.889246482974
 30
0.0
 10
147.6552856751885
 20
139.8332030263626
 30
0.0
 10
147.6523491358425
 20
139.7786378294431
 30
0.0
 10
147.6757668863576
 20
139.7192579532747
 30
0.0
 10
147.6896247339604
 20
139.6663290086082
 30
0.0
 10
147.727576703904
 20
139.5930424663567
 30
0.0
 10
147.7930430567219
 20
139.5084856426477
 30
0.0
 10
147.9175328027394
 20
139.405849679355
 30
0.0
 10
148.0372333332987
 20
139.3954377386376
 30
0.0
 10
148.1079594760289
 20
139.3892857491533
 30
0.0
 11
148.4922434375721
 21
140.7079078988832
 31
0.0
 11
148.3127868006248
 21
140.6861733494318
 31
0.0
 11
148.2584060144966
 21
140.6698728003845
 31
0.0
 11
148.1931493274886
 21
140.6372712182348
 31
0.0
 11
148.1387685413605
 21
140.6101033944618
 31
0.0
 11
148.0952640833552
 21
140.5829353286613
 31
0.0
 11
148.0354453467871
 21
140.5503339885392
 31
0.0
 11
148.0082547401014
 21
140.5285996811153
 31
0.0
 11
147.975626182976
 21
140.5068651316638
 31
0.0
 11
147.9375596754105
 21
140.463396516816
 31
0.0
 11
147.8940552174052
 21
140.4144943856191
 31
0.0
 11
147.8614266602797
 21
140.3873263198186
 31
0.0
 11
147.8287985303972
 21
140.3547249796964
 31
0.0
 11
147.8016079237116
 21
140.3112563648486
 31
0.0
 11
147.7689797938292
 21
140.2406196842003
 31
0.0
 11
147.7254749085808
 21
140.1808502782777
 31
0.0
 11
147.714599007701
 21
140.1482486961281
 31
0.0
 11
147.6928467786983
 21
140.1156473560059
 31
0.0
 11
147.6765325001356
 21
140.0721784991306
 31
0.0
 11
147.6710941224526
 21
140.0395771590084
 31
0.0
 11
147.6656561720127
 21
140.012409093208
 31
0.0
 11
147.6547802711329
 21
139.9743742367367
 31
0.0
 11
147.6547802711329
 21
139.9309053798614
 31
0.0
 11
147.6547802711329
 21
139.8874367650136
 31
0.0
 11
147.6547802711329
 21
139.8494016665149
 31
0.0
 11
147.6602182215729
 21
139.7624644368192
 31
0.0
 11
147.6710941224526
 21
139.7298628546696
 31
0.0
 11
147.6928467786983
 21
139.6646599323978
 31
0.0
 11
147.7200369581409
 21
139.6103240428243
 31
0.0
 11
147.7907320228318
 21
139.5179532967795
 31
0.0
 11
147.9049315455281
 21
139.4310158250564
 31
0.0
 11
148.1079594760289
 21
139.3892857491533
 31
0.0
  0
SPLINE
  5
1B2A
102
{ACAD_REACTORS
330
1B2B
102
}
330
18
100
AcDbEntity
  8
ROGO
 62
     4
100
AcDbSpline
210
0.0
220
0.0
230
1.0
 70
     8
 71
     3
 72
    25
 73
    21
 74
     0
 42
0.0000000001
 43
0.0000000001
 40
0.0
 40
0.0
 40
0.0
 40
0.0
 40
0.4087168505087288
 40
0.6887487002771746
 40
0.9415836120477687
 40
1.17452070575514
 40
1.41154617586699
 40
1.599156012919487
 40
1.80099909059943
 40
2.178735911501585
 40
2.521686161369157
 40
2.762704659361267
 40
3.06256558063785
 40
3.222432137207705
 40
3.399493810628493
 40
3.567459719866414
 40
3.743172740007509
 40
3.995988754699505
 40
4.17170091132118
 40
4.337226830236035
 40
4.337226830236035
 40
4.337226830236035
 40
4.337226830236035
 10
149.2426972607574
 20
140.7079078988832
 30
0.0
 10
149.291917311183
 20
140.706326509427
 30
0.0
 10
149.3748604189015
 20
140.703661632921
 30
0.0
 10
149.4639100775226
 20
140.6340589435455
 30
0.0
 10
149.532048298282
 20
140.5763529812305
 30
0.0
 10
149.5804136531426
 20
140.5065891748964
 30
0.0
 10
149.622807241785
 20
140.4424450712192
 30
0.0
 10
149.6507414025542
 20
140.3747236565531
 30
0.0
 10
149.688737380229
 20
140.2934641610163
 30
0.0
 10
149.7044658378762
 20
140.1847510285852
 30
0.0
 10
149.6938393945395
 20
140.0723859755397
 30
0.0
 10
149.6661093390421
 20
139.9727846918362
 30
0.0
 10
149.637022740342
 20
139.8963729266921
 30
0.0
 10
149.6027407214247
 20
139.8298517447015
 30
0.0
 10
149.5618721741206
 20
139.7867792742024
 30
0.0
 10
149.5335192185816
 20
139.7320130478549
 30
0.0
 10
149.4790568178643
 20
139.6872172149815
 30
0.0
 10
149.4349066580577
 20
139.6319454445275
 30
0.0
 10
149.384805421418
 20
139.5845050961888
 30
0.0
 10
149.3565581221141
 20
139.5552349729672
 30
0.0
 10
149.3416654647204
 20
139.5429282290215
 30
0.0
  0
HATCH
  5
1B2B
330
18
100
AcDbEntity
  8
ROGO
 62
     4
100
AcDbHatch
 10
0.0
 20
0.0
 30
0.0
210
0.0
220
0.0
230
1.0
  2
SOLID
 70
     1
 71
     1
 91
        1
 92
        5
 93
        6
 72
     4
 94
        3
 73
     0
 74
     0
 95
       38
 96
       34
 40
0.0
 40
0.0
 40
0.0
 40
0.0
 40
0.1807680148264315
 40
0.2375392910068956
 40
0.3104865209606157
 40
0.3712759982447458
 40
0.422566754387306
 40
0.490692583720658
 40
0.5255021974951946
 40
0.5647069597052371
 40
0.622487401681883
 40
0.6879401044674746
 40
0.7303986317551266
 40
0.7765228362185534
 40
0.8277951442290254
 40
0.9056034697002209
 40
0.9795294930264187
 40
1.013897332332996
 40
1.053089255536027
 40
1.099518741889647
 40
1.132570569820733
 40
1.160277520290299
 40
1.19983678629386
 40
1.243305643169139
 40
1.286774258016964
 40
1.324809356515675
 40
1.411916492917645
 40
1.446284332224223
 40
1.5150200516612
 40
1.575779369908399
 40
1.69209852953623
 40
1.835624328519098
 40
2.042896467983898
 40
2.042896467983898
 40
2.042896467983898
 40
2.042896467983898
 10
148.4922434375721
 20
140.7079078988832
 10
148.4319880399464
 20
140.7036512797823
 10
148.3528090743253
 20
140.6980578439951
 10
148.2522703018157
 20
140.6705132177902
 10
148.1974655473747
 20
140.6376986983323
 10
148.1404302460575
 20
140.6135784536318
 10
148.0918023396724
 20
140.5778611543825
 10
148.0426162389766
 20
140.5594563741891
 10
148.0081746256008
 20
140.5262692658165
 10
147.9683112674679
 20
140.5059971476415
 10
147.9365673676325
 20
140.4606222536271
 10
147.9010866911008
 20
140.4181983719687
 10
147.8599246426937
 20
140.3872308303912
 10
147.8261423971343
 20
140.3547058514288
 10
147.7951518842099
 20
140.3045100362449
 10
147.7768103116388
 20
140.2378146615594
 10
147.7251084972295
 20
140.1957056072742
 10
147.7173238227464
 20
140.1450779595981
 10
147.6887259725507
 20
140.1152084994074
 10
147.6762906270948
 20
140.0766513174223
 10
147.671554648971
 20
140.0413261281016
 10
147.6658703459285
 20
140.0083348466734
 10
147.651001285696
 20
139.9736294759355
 10
147.6558545982574
 20
139.9307591970005
 10
147.6544720352153
 20
139.889246482974
 10
147.6552856751885
 20
139.8332030263626
 10
147.6523491358425
 20
139.7786378294431
 10
147.6757668863576
 20
139.7192579532747
 10
147.6896247339604
 20
139.6663290086082
 10
147.727576703904
 20
139.5930424663567
 10
147.7930430567219
 20
139.5084856426477
 10
147.9175328027394
 20
139.405849679355
 10
148.0372333332987
 20
139.3954377386376
 10
148.1079594760289
 20
139.3892857491533
 72
     1
 10
148.1079594760288
 20
139.3892857491533
 11
148.8584132992143
 21
139.3892857491533
 72
     4
 94
        3
 73
     0
 74
     0
 95
       11
 96
        7
 40
0.1647869275458135
 40
0.1647869275458135
 40
0.1647869275458135
 40
0.1647869275458135
 40
0.2545010798212315
 40
0.5111620267764023
 40
0.7602998271033902
 40
0.8850764140209603
 40
0.8850764140209603
 40
0.8850764140209603
 40
0.8850764140209603
 10
148.8584132992143
 20
139.3892857491533
 10
148.8688851995342
 20
139.3890839335104
 10
148.9093158943628
 20
139.3883047486036
 10
148.9784124364591
 20
139.3982312791882
 10
149.0511112035972
 20
139.4077436735616
 10
149.0944522150314
 20
139.4146712633455
 10
149.1084307578323
 20
139.418562196062
 72
     4
 94
        3
 73
     0
 74
     0
 95
        9
 96
        5
 40
0.0
 40
0.0
 40
0.0
 40
0.0
 40
0.1135793343552172
 40
0.2662938392177403
 40
0.2662938392177403
 40
0.2662938392177403
 40
0.2662938392177403
 10
149.1084307578323
 20
139.418562196062
 10
149.1449157261503
 20
139.4297245357852
 10
149.2304570118277
 20
139.4558953380391
 10
149.3011337090645
 20
139.5112076558136
 10
149.3416654647204
 20
139.5429282290215
 72
     4
 94
        3
 73
     0
 74
     0
 95
       25
 96
       21
 40
0.0
 40
0.0
 40
0.0
 40
0.0
 40
0.165525918914855
 40
0.3412380755365305
 40
0.5940540902285263
 40
0.7697671103696209
 40
0.9377330196075423
 40
1.11479469302833
 40
1.274661249598185
 40
1.574522170874768
 40
1.815540668866877
 40
2.15849091873445
 40
2.536227739636605
 40
2.738070817316548
 40
2.925680654369045
 40
3.162706124480894
 40
3.395643218188267
 40
3.648478129958861
 40
3.928509979727306
 40
4.337226830236035
 40
4.337226830236035
 40
4.337226830236035
 40
4.337226830236035
 10
149.3416654647204
 20
139.5429282290215
 10
149.3565581221141
 20
139.5552349729672
 10
149.384805421418
 20
139.5845050961888
 10
149.4349066580577
 20
139.6319454445275
 10
149.4790568178643
 20
139.6872172149815
 10
149.5335192185816
 20
139.7320130478549
 10
149.5618721741206
 20
139.7867792742024
 10
149.6027407214247
 20
139.8298517447015
 10
149.637022740342
 20
139.8963729266921
 10
149.6661093390421
 20
139.9727846918362
 10
149.6938393945395
 20
140.0723859755397
 10
149.7044658378762
 20
140.1847510285852
 10
149.688737380229
 20
140.2934641610163
 10
149.6507414025542
 20
140.3747236565531
 10
149.622807241785
 20
140.4424450712192
 10
149.5804136531426
 20
140.5065891748964
 10
149.532048298282
 20
140.5763529812305
 10
149.4639100775226
 20
140.6340589435455
 10
149.3748604189015
 20
140.703661632921
 10
149.291917311183
 20
140.706326509427
 10
149.2426972607574
 20
140.7079078988832
 72
     1
 10
149.2426972607575
 20
140.7079078988832
 11
148.4922434375721
 21
140.7079078988832
 97
        6
330
1B2A
330
1BD1
330
1B29
330
1B88
330
1B89
330
1B8A
 75
     0
 76
     1
 47
0.088756267210375
 98
        1
 10
148.7171331079714
 20
140.3436991769882
450
        0
451
        0
460
0.0
461
0.0
452
        0
462
0.0
453
        0
470

  0
LINE
  5
1B2C
102
{ACAD_REACTORS
330
1B2D
102
}
330
18
100
AcDbEntity
  8
ROGO
 62
     4
100
AcDbLine
 10
152.2691150175793
 20
140.7024306797108
 30
0.0
 11
151.2459819859094
 21
138.6505518948049
 31
0.0
  0
HATCH
  5
1B2D
330
18
100
AcDbEntity
  8
ROGO
 62
     4
100
AcDbHatch
 10
0.0
 20
0.0
 30
0.0
210
0.0
220
0.0
230
1.0
  2
SOLID
 70
     1
 71
     1
 91
        1
 92
        7
 72
     0
 73
     1
 93
       11
 10
151.2459819859094
 20
138.6505518948049
 10
152.0020657284137
 20
138.6505518948049
 10
152.2691150175793
 20
139.1861154569244
 10
152.536164306745
 20
138.6505518948049
 10
153.292231506745
 20
138.6505518948049
 10
152.7806649909101
 20
139.6764912872578
 10
154.0235737362413
 20
140.7024306797108
 10
153.2675065362413
 20
140.7024306797108
 10
152.9134934531625
 20
140.4784072708892
 10
153.0251987600835
 20
140.7024306797108
 10
152.2691150175793
 20
140.7024306797109
 97
       11
330
1BD5
330
1BD4
330
1BD3
330
1BD2
330
1B2C
330
1B4C
330
1BBE
330
1BB7
330
1BB9
330
1BB8
330
1B24
 75
     0
 76
     1
 47
0.0514683685270805
 98
        1
 10
152.2040437711754
 20
139.8221346962693
450
        0
451
        0
460
0.0
461
0.0
452
        0
462
0.0
453
        0
470

  0
LINE
  5
1B2E
102
{ACAD_REACTORS
330
1B37
102
}
330
18
100
AcDbEntity
  8
ROGO
 62
     4
100
AcDbLine
 10
143.4693444561572
 20
140.7024306797108
 30
0.0
 11
143.3205102604226
 21
140.4016283490188
 31
0.0
  0
LINE
  5
1B2F
102
{ACAD_REACTORS
330
1B32
102
}
330
18
100
AcDbEntity
  8
ROGO
 62
     4
100
AcDbLine
 10
143.9838387213549
 20
140.7024306797108
 30
0.0
 11
143.0369043912558
 21
139.3892857491533
 31
0.0
  0
SPLINE
  5
1B30
102
{ACAD_REACTORS
330
1B38
102
}
330
18
100
AcDbEntity
  8
ROGO
 62
     4
100
AcDbSpline
210
0.0
220
0.0
230
1.0
 70
     8
 71
     3
 72
    26
 73
    22
 74
    20
 42
0.0000000001
 43
0.0000000001
 44
0.0000000001
 40
0.0
 40
0.0
 40
0.0
 40
0.0
 40
0.2382195346591896
 40
0.397689067266058
 40
0.5126795869787669
 40
0.5985392873135731
 40
0.7099038249249733
 40
0.7911890807494741
 40
0.9379713068543702
 40
1.057449928673087
 40
1.138714535893316
 40
1.218398644003506
 40
1.36093802187036
 40
1.461730374800257
 40
1.516014844108008
 40
1.593124329220501
 40
1.648806818593631
 40
1.729472362005518
 40
1.775122082164342
 40
1.874460993765092
 40
1.919820003751207
 40
1.919820003751207
 40
1.919820003751207
 40
1.919820003751207
 10
146.447981775423
 20
140.7024306797108
 30
0.0
 10
146.3671263846644
 20
140.6976067084457
 30
0.0
 10
146.2321445705984
 20
140.689553461949
 30
0.0
 10
146.0839353598867
 20
140.5995179580906
 30
0.0
 10
145.9753486154764
 20
140.5471752727483
 30
0.0
 10
145.8979046810522
 20
140.4760198513286
 30
0.0
 10
145.8411379631847
 20
140.4025214988073
 30
0.0
 10
145.7695728584872
 20
140.3149487506819
 30
0.0
 10
145.7112135605813
 20
140.2129738292174
 30
0.0
 10
145.6814947180481
 20
140.100579688154
 30
0.0
 10
145.6551700493944
 20
140.0110009055951
 30
0.0
 10
145.6356472344214
 20
139.9111770427027
 30
0.0
 10
145.6406143912343
 20
139.8033321545804
 30
0.0
 10
145.6477275871189
 20
139.7031713435766
 30
0.0
 10
145.6794862770428
 20
139.63167152065
 30
0.0
 10
145.7156537994328
 20
139.5807685737206
 30
0.0
 10
145.7599404352877
 20
139.5247046210219
 30
0.0
 10
145.8083996996052
 20
139.4875736466916
 30
0.0
 10
145.8484794667158
 20
139.420308391551
 30
0.0
 10
145.9186377469783
 20
139.4117248598748
 30
0.0
 10
145.963233141054
 20
139.3946410699978
 30
0.0
 10
145.9772126295155
 20
139.3892857491533
 30
0.0
 11
146.447981775423
 21
140.7024306797108
 31
0.0
 11
146.2125972024692
 21
140.6657884976171
 31
0.0
 11
146.0699396990942
 21
140.5945188086837
 31
0.0
 11
145.9700796518083
 21
140.5375031040063
 31
0.0
 11
145.9058840829046
 21
140.4804871669824
 31
0.0
 11
145.8345555362939
 21
140.3949634937931
 31
0.0
 11
145.7846255126509
 21
140.3308207969877
 31
0.0
 11
145.7132965558867
 21
140.2025351710305
 31
0.0
 11
145.6776324876579
 21
140.0885035293292
 31
0.0
 11
145.6562339646901
 21
140.0101068482678
 31
0.0
 11
145.6419680092758
 21
139.9317101672064
 31
0.0
 11
145.6419680092758
 21
139.7891707893396
 31
0.0
 11
145.6562339646901
 21
139.6893931318943
 31
0.0
 11
145.6776324876579
 21
139.6395041869985
 31
0.0
 11
145.7204295335937
 21
139.575361490193
 31
0.0
 11
145.7560940119759
 21
139.5325995374252
 31
0.0
 11
145.8131566031724
 21
139.4755838327477
 31
0.0
 11
145.8416881038475
 21
139.4399488721078
 31
0.0
 11
145.9344155835796
 21
139.4043141438143
 31
0.0
 11
145.9772126295155
 21
139.3892857491533
 31
0.0
  0
LINE
  5
1B31
102
{ACAD_REACTORS
330
1B32
102
}
330
18
100
AcDbEntity
  8
ROGO
 62
     4
100
AcDbLine
 10
145.0342422041264
 20
140.7024306797108
 30
0.0
 11
145.6175932145096
 21
139.3892857491533
 31
0.0
  0
HATCH
  5
1B32
330
18
100
AcDbEntity
  8
ROGO
 62
     4
100
AcDbHatch
 10
0.0
 20
0.0
 30
0.0
210
0.0
220
0.0
230
1.0
  2
SOLID
 70
     1
 71
     1
 91
        2
 92
        7
 72
     0
 73
     1
 93
        8
 10
145.0342422041263
 20
140.7024306797109
 10
143.9838387213549
 20
140.7024306797108
 10
143.0369043912558
 20
139.3892857491533
 10
143.7641516429474
 20
139.3892857491533
 10
143.9444420805283
 20
139.6393004192442
 10
144.7743190693126
 20
139.6393004192442
 10
144.8853854923815
 20
139.3892857491533
 10
145.6175932145096
 20
139.3892857491534
 97
        8
330
1BD0
330
1B2F
330
1B84
330
1B83
330
1B81
330
1B87
330
1B85
330
1B31
 92
       22
 72
     0
 73
     1
 93
        3
 10
144.657173963712
 20
139.9029984309403
 10
144.1345998416734
 20
139.9029984309403
 10
144.4579665779866
 20
140.3514217027592
 97
        3
330
1B82
330
1B80
330
1B86
 75
     0
 76
     1
 47
0.0128389261915577
 98
        2
 10
144.9519873116306
 20
140.3873887629018
 10
144.9519873116306
 20
140.3873887629018
450
        0
451
        0
460
0.0
461
0.0
452
        0
462
0.0
453
        0
470

  0
LINE
  5
1B33
102
{ACAD_REACTORS
330
1B36
102
}
330
18
100
AcDbEntity
  8
ROGO
 62
     4
100
AcDbLine
 10
139.1281390014825
 20
140.7024306797108
 30
0.0
 11
138.1128884613899
 21
138.6505518948048
 31
0.0
  0
SPLINE
  5
1B34
102
{ACAD_REACTORS
330
1B36
102
}
330
18
100
AcDbEntity
  8
ROGO
 62
     4
100
AcDbSpline
210
0.0
220
0.0
230
1.0
 70
     8
 71
     3
 72
    18
 73
    14
 74
     0
 42
0.0000000001
 43
0.0000000001
 40
0.1087402787915014
 40
0.1087402787915014
 40
0.1087402787915014
 40
0.1087402787915014
 40
0.5992371417938475
 40
1.083176791562496
 40
1.448211145705696
 40
1.714037220764907
 40
2.164002567013297
 40
2.740236056362883
 40
3.395137510199602
 40
4.071816045172726
 40
4.784906178399433
 40
5.506895915094292
 40
6.060470601257719
 40
6.060470601257719
 40
6.060470601257719
 40
6.060470601257719
 10
140.7406373144677
 20
140.7024306797109
 30
0.0
 10
140.7922968521038
 20
140.6834983248632
 30
0.0
 10
140.8938847999542
 20
140.6434724335479
 30
0.0
 10
141.0178700355014
 20
140.5521201237565
 30
0.0
 10
141.0854862294262
 20
140.4466613465837
 30
0.0
 10
141.1505254379692
 20
140.3427506042809
 30
0.0
 10
141.1596275564801
 20
140.1936730701244
 30
0.0
 10
141.144717671433
 20
140.0052029345527
 30
0.0
 10
141.0484608005569
 20
139.808553797032
 30
0.0
 10
140.8939628614755
 20
139.6365567662302
 30
0.0
 10
140.7021428883825
 20
139.4988925858885
 30
0.0
 10
140.4998621102753
 20
139.3908297493931
 30
0.0
 10
140.3552717532217
 20
139.3897530287845
 30
0.0
 10
140.292521836327
 20
139.3892857491533
 30
0.0
  0
LINE
  5
1B35
102
{ACAD_REACTORS
330
1B37
102
}
330
18
100
AcDbEntity
  8
ROGO
 62
     4
100
AcDbLine
 10
141.6932613076733
 20
140.7024306797108
 30
0.0
 11
141.0435294084132
 21
139.3892857491533
 31
0.0
  0
HATCH
  5
1B36
330
18
100
AcDbEntity
  8
ROGO
 62
     4
100
AcDbHatch
 10
0.0
 20
0.0
 30
0.0
210
0.0
220
0.0
230
1.0
  2
SOLID
 70
     1
 71
     1
 91
        2
 92
        5
 93
        6
 72
     1
 10
138.1128884613899
 20
138.6505518948049
 11
139.0666894173264
 21
138.6505518948049
 72
     1
 10
139.0666894173264
 20
138.6505518948049
 11
139.4009135681548
 21
139.3892857491533
 72
     1
 10
139.4009135681548
 20
139.3892857491533
 11
140.2925218363271
 21
139.3892857491533
 72
     4
 94
        3
 73
     0
 74
     0
 95
       18
 96
       14
 40
0.108740278791501
 40
0.108740278791501
 40
0.108740278791501
 40
0.108740278791501
 40
0.6623149649549278
 40
1.384304701649787
 40
2.097394834876493
 40
2.774073369849618
 40
3.428974823686337
 40
4.005208313035923
 40
4.455173659284313
 40
4.720999734343524
 40
5.086034088486724
 40
5.569973738255373
 40
6.060470601257719
 40
6.060470601257719
 40
6.060470601257719
 40
6.060470601257719
 10
140.292521836327
 20
139.3892857491533
 10
140.3552717532217
 20
139.3897530287845
 10
140.4998621102753
 20
139.3908297493931
 10
140.7021428883825
 20
139.4988925858885
 10
140.8939628614755
 20
139.6365567662302
 10
141.0484608005569
 20
139.808553797032
 10
141.144717671433
 20
140.0052029345527
 10
141.1596275564801
 20
140.1936730701244
 10
141.1505254379692
 20
140.3427506042809
 10
141.0854862294262
 20
140.4466613465837
 10
141.0178700355014
 20
140.5521201237565
 10
140.8938847999542
 20
140.6434724335479
 10
140.7922968521038
 20
140.6834983248632
 10
140.7406373144677
 20
140.7024306797109
 72
     1
 10
140.7406373144678
 20
140.7024306797108
 11
139.1281390014825
 21
140.7024306797108
 72
     1
 10
139.1281390014825
 20
140.7024306797108
 11
138.1128884613899
 21
138.6505518948049
 97
        6
330
1B34
330
1BCA
330
1B33
330
1B4C
330
1B65
330
1B60
 92
       20
 93
        4
 72
     1
 10
139.607278060465
 20
139.8454120836121
 11
139.7652758568224
 21
140.1946337684975
 72
     1
 10
139.7652758568224
 20
140.1946337684975
 11
140.1712628559199
 21
140.1946337684975
 72
     4
 94
        3
 73
     0
 74
     0
 95
       15
 96
       11
 40
0.0
 40
0.0
 40
0.0
 40
0.0
 40
0.1539705029175028
 40
0.2241725832587281
 40
0.3038566179396687
 40
0.3581410872474193
 40
0.443992538467216
 40
0.4954152125469665
 40
0.5836396705646186
 40
0.6130478420065743
 40
0.6130478420065743
 40
0.6130478420065743
 40
0.6130478420065743
 10
140.1712628559198
 20
140.1946337684975
 10
140.229091190979
 20
140.1948986531399
 10
140.3132860660371
 20
140.1952843106096
 10
140.3593268224017
 20
140.0911350066801
 10
140.3386891601682
 20
140.0240791020427
 10
140.3127459367442
 20
139.9552335877949
 10
140.2668983852018
 20
139.9084520225256
 10
140.2053642556066
 20
139.8633934888886
 10
140.1472115625509
 20
139.8579389516291
 10
140.1093897635783
 20
139.8479174581749
 10
140.099934309309
 20
139.8454120836121
 72
     1
 10
140.099934309309
 20
139.8454120836121
 11
139.607278060465
 21
139.8454120836121
 97
        4
330
1B61
330
1B63
330
1B62
330
1B64
 75
     0
 76
     1
 47
0.0514683685270805
 98
        2
 10
139.1367575547895
 20
140.0642419228219
 10
139.1367575547895
 20
140.0642419228219
450
        0
451
        0
460
0.0
461
0.0
452
        0
462
0.0
453
        0
470

  0
HATCH
  5
1B37
330
18
100
AcDbEntity
  8
ROGO
 62
     4
100
AcDbHatch
 10
0.0
 20
0.0
 30
0.0
210
0.0
220
0.0
230
1.0
  2
SOLID
 70
     1
 71
     1
 91
        1
 92
        1
 93
       12
 72
     1
 10
141.6932613076733
 20
140.7024306797108
 11
143.4693444561572
 21
140.7024306797109
 72
     1
 10
143.4693444561572
 20
140.7024306797108
 11
143.3205102604226
 21
140.4016283490188
 72
     1
 10
143.3205102604226
 20
140.4016283490188
 11
142.3870458382047
 21
140.4016283490188
 72
     1
 10
142.3870458382047
 20
140.4016283490188
 11
142.2706759921282
 21
140.1664383058346
 72
     1
 10
142.2706759921282
 20
140.1664383058346
 11
143.2041404143461
 21
140.1664383058346
 72
     1
 10
143.2041404143461
 20
140.1664383058346
 11
143.0848140387223
 21
139.9252729491534
 72
     1
 10
143.0848140387223
 20
139.9252729491534
 11
142.1513496165044
 21
139.9252729491534
 72
     1
 10
142.1513496165044
 20
139.9252729491534
 11
142.034974843888
 21
139.6900729491534
 72
     1
 10
142.034974843888
 20
139.6900729491534
 11
142.968439266106
 21
139.6900729491534
 72
     1
 10
142.968439266106
 20
139.6900729491534
 11
142.8196125568971
 21
139.3892857491533
 72
     1
 10
142.8196125568971
 20
139.3892857491533
 11
141.0435294084132
 21
139.3892857491533
 72
     1
 10
141.0435294084132
 20
139.3892857491533
 11
141.6932613076733
 21
140.7024306797108
 97
       12
330
1BC7
330
1B2E
330
1B48
330
1B66
330
1B49
330
1B7E
330
1B4B
330
1B67
330
1B4A
330
1B7F
330
1B47
330
1B35
 75
     0
 76
     1
 98
        1
 10
69.04313232896436
 20
49.90433463159956
450
        0
451
        0
460
0.0
461
0.0
452
        0
462
0.0
453
        0
470

  0
HATCH
  5
1B38
330
18
100
AcDbEntity
  8
ROGO
 62
     4
100
AcDbHatch
 10
0.0
 20
0.0
 30
0.0
210
0.0
220
0.0
230
1.0
  2
SOLID
 70
     1
 71
     1
 91
        1
 92
        5
 93
        8
 72
     1
 10
147.5193988169887
 20
140.213855627494
 11
147.7630181175293
 21
140.7024306797109
 72
     1
 10
147.7630181175293
 20
140.7024306797109
 11
146.4479817754233
 21
140.7024306797109
 72
     4
 94
        3
 73
     0
 74
     0
 95
       26
 96
       22
 40
0.0
 40
0.0
 40
0.0
 40
0.0
 40
0.2382195346591896
 40
0.397689067266058
 40
0.5126795869787669
 40
0.5985392873135731
 40
0.7099038249249733
 40
0.7911890807494741
 40
0.9379713068543702
 40
1.057449928673087
 40
1.138714535893316
 40
1.218398644003506
 40
1.36093802187036
 40
1.461730374800257
 40
1.516014844108008
 40
1.593124329220501
 40
1.648806818593631
 40
1.729472362005518
 40
1.775122082164342
 40
1.874460993765092
 40
1.919820003751207
 40
1.919820003751207
 40
1.919820003751207
 40
1.919820003751207
 10
146.447981775423
 20
140.7024306797108
 10
146.3671263846644
 20
140.6976067084457
 10
146.2321445705984
 20
140.689553461949
 10
146.0839353598867
 20
140.5995179580906
 10
145.9753486154764
 20
140.5471752727483
 10
145.8979046810522
 20
140.4760198513286
 10
145.8411379631847
 20
140.4025214988073
 10
145.7695728584872
 20
140.3149487506819
 10
145.7112135605813
 20
140.2129738292174
 10
145.6814947180481
 20
140.100579688154
 10
145.6551700493944
 20
140.0110009055951
 10
145.6356472344214
 20
139.9111770427027
 10
145.6406143912343
 20
139.8033321545804
 10
145.6477275871189
 20
139.7031713435766
 10
145.6794862770428
 20
139.63167152065
 10
145.7156537994328
 20
139.5807685737206
 10
145.7599404352877
 20
139.5247046210219
 10
145.8083996996052
 20
139.4875736466916
 10
145.8484794667158
 20
139.420308391551
 10
145.9186377469783
 20
139.4117248598748
 10
145.963233141054
 20
139.3946410699978
 10
145.9772126295155
 20
139.3892857491533
 72
     1
 10
145.9772126295155
 20
139.3892857491534
 11
147.1082416445201
 21
139.3892857491533
 72
     1
 10
147.1082416445201
 20
139.3892857491533
 11
147.3518583651989
 21
139.877855627494
 72
     1
 10
147.3518583651989
 20
139.877855627494
 11
146.5121773443268
 21
139.877855627494
 72
     4
 94
        3
 73
     0
 74
     0
 95
       16
 96
       12
 40
0.0
 40
0.0
 40
0.0
 40
0.0
 40
0.0719416665231651
 40
0.1446253590759065
 40
0.1879779149910977
 40
0.2295440936104405
 40
0.2751936323958134
 40
0.3070718656052443
 40
0.3373215422372259
 40
0.3986635435212919
 40
0.5242542460842631
 40
0.5242542460842631
 40
0.5242542460842631
 40
0.5242542460842631
 10
146.5121773443268
 20
139.877855627494
 10
146.4868496056551
 20
139.8853074195826
 10
146.435932891086
 20
139.9002878635819
 10
146.4316715732384
 20
139.9729075527192
 10
146.4374770023001
 20
140.0246550236783
 10
146.4617901521774
 20
140.0623302043944
 10
146.491286220038
 20
140.0897438554301
 10
146.5022689142896
 20
140.1254458496123
 10
146.5345515434137
 20
140.1524053219287
 10
146.5917972948048
 20
140.1977204289045
 10
146.6551011860162
 20
140.20737153419
 10
146.6976318936376
 20
140.213855627494
 72
     1
 10
146.6976318936376
 20
140.213855627494
 11
147.5193988169887
 21
140.213855627494
 97
        8
330
1BCF
330
1B30
330
1B7B
330
1B8D
330
1B7D
330
1B7C
330
1B8C
330
1B25
 75
     0
 76
     1
 47
0.0514683685270805
 98
        1
 10
146.90789867263
 20
140.4101092233639
450
        0
451
        0
460
0.0
461
0.0
452
        0
462
0.0
453
        0
470

  0
HATCH
  5
1B39
330
18
100
AcDbEntity
  8
針
100
AcDbHatch
 10
0.0
 20
0.0
 30
0.0
210
0.0
220
0.0
230
1.0
  2
SOLID
 70
     1
 71
     0
 91
        2
 92
        7
 72
     1
 73
     1
 93
        5
 10
145.8855151163243
 20
152.4760835782029
 42
0.0
 10
145.7955151163244
 20
152.4760835782029
 42
0.0
 10
145.7055151163244
 20
152.4760835782029
 42
0.0
 10
145.5300681838294
 20
145.9738104413925
 42
-0.0085634322047721
 10
146.0609620488193
 20
145.9738104413924
 42
0.0
 97
        0
 92
        7
 72
     1
 73
     1
 93
        6
 10
146.0609620488193
 20
145.9738104413924
 42
0.0085634322047721
 10
145.5300681838294
 20
145.9738104413925
 42
0.0
 10
145.1955151163242
 20
133.5748736646715
 42
-0.1293106770632391
 10
144.8072966310719
 20
132.0988664427307
 42
-0.2805221108582334
 10
146.7837336015769
 20
132.0988664427307
 42
-0.1293106770632486
 10
146.3955151163244
 20
133.5748736646716
 42
0.0
 97
        0
 75
     0
 76
     1
 47
0.0423559757596284
 98
        2
 10
145.75495235386
 20
146.6020644535518
 10
145.8821184712515
 20
142.1970429500726
450
        0
451
        0
460
0.0
461
0.0
452
        0
462
0.0
453
        0
470

  0
LINE
  5
1B3A
330
18
100
AcDbEntity
  8
針
100
AcDbLine
 10
145.7055151163244
 20
152.4760835782029
 30
0.0
 11
145.1955151163243
 21
133.574873664672
 31
0.0
  0
LINE
  5
1B3B
330
18
100
AcDbEntity
  8
針
100
AcDbLine
 10
145.8855151163243
 20
152.4760835782029
 30
0.0
 11
146.3955151163244
 21
133.574873664672
 31
0.0
  0
TEXT
  5
1B3C
330
18
100
AcDbEntity
  8
文字
100
AcDbText
 10
144.1863641827626
 20
117.1503688897913
 30
0.0
 40
1.0
  1
6
  7
STYLE3
100
AcDbText
  0
TEXT
  5
1B3D
330
18
100
AcDbEntity
  8
文字
100
AcDbText
 10
139.9389013189054
 20
117.0593823452827
 30
0.0
 40
1.0
  1
4
  7
STYLE3
100
AcDbText
  0
TEXT
  5
1B3E
330
18
100
AcDbEntity
  8
文字
100
AcDbText
 10
142.0775634934723
 20
116.4792194563199
 30
0.0
 40
1.0
  1
5
  7
STYLE3
100
AcDbText
  0
LINE
  5
1B3F
330
18
100
AcDbEntity
  8
中心線
 48
0.2
100
AcDbLine
 10
142.5955151163243
 20
126.7655730845593
 30
0.0
 11
142.5955151163243
 21
114.0386512488185
 31
0.0
  0
CIRCLE
  5
1B40
330
18
100
AcDbEntity
  8
外形線
100
AcDbCircle
 10
142.5955151163243
 20
120.4021121666889
 30
0.0
 40
4.75
  0
LINE
  5
1B43
330
18
100
AcDbEntity
  8
目盛
100
AcDbLine
 10
139.803535167935
 20
116.5592814434079
 30
0.0
 11
140.0974277940812
 21
116.9637899405954
 31
0.0
  0
LINE
  5
1B45
330
18
100
AcDbEntity
  8
目盛
100
AcDbLine
 10
142.5955151163243
 20
115.6521121666889
 30
0.0
 11
142.5955151163243
 21
116.1521121666889
 31
0.0
  0
LINE
  5
1B46
330
18
100
AcDbEntity
  8
目盛
100
AcDbLine
 10
145.3874950647136
 20
116.5592814434079
 30
0.0
 11
145.0936024385673
 21
116.9637899405954
 31
0.0
  0
LINE
  5
1B47
102
{ACAD_REACTORS
330
1B37
102
}
330
18
100
AcDbEntity
  8
ROGO
 62
     4
100
AcDbLine
 10
141.0435294084132
 20
139.3892857491533
 30
0.0
 11
142.8196125568971
 21
139.3892857491533
 31
0.0
  0
LINE
  5
1B48
102
{ACAD_REACTORS
330
1B37
102
}
330
18
100
AcDbEntity
  8
ROGO
 62
     4
100
AcDbLine
 10
142.3870458382047
 20
140.4016283490188
 30
0.0
 11
143.3205102604226
 21
140.4016283490188
 31
0.0
  0
LINE
  5
1B49
102
{ACAD_REACTORS
330
1B37
102
}
330
18
100
AcDbEntity
  8
ROGO
 62
     4
100
AcDbLine
 10
142.2706759921282
 20
140.1664383058346
 30
0.0
 11
143.2041404143461
 21
140.1664383058346
 31
0.0
  0
LINE
  5
1B4A
102
{ACAD_REACTORS
330
1B37
102
}
330
18
100
AcDbEntity
  8
ROGO
 62
     4
100
AcDbLine
 10
142.034974843888
 20
139.6900729491534
 30
0.0
 11
142.968439266106
 21
139.6900729491534
 31
0.0
  0
LINE
  5
1B4B
102
{ACAD_REACTORS
330
1B37
102
}
330
18
100
AcDbEntity
  8
ROGO
 62
     4
100
AcDbLine
 10
142.1513496165044
 20
139.9252729491534
 30
0.0
 11
143.0848140387223
 21
139.9252729491534
 31
0.0
  0
LINE
  5
1B4C
102
{ACAD_REACTORS
330
1B2D
330
1B36
102
}
330
18
100
AcDbEntity
  8
ROGO
 62
     4
100
AcDbLine
 10
138.1128884613899
 20
138.6505518948049
 30
0.0
 11
152.0020657284137
 21
138.6505518948049
 31
0.0
  0
LINE
  5
1B4D
330
18
100
AcDbEntity
  8
ROGO
 62
     4
100
AcDbLine
 10
139.1454770058317
 20
138.8562221010961
 30
0.0
 11
151.3485357932956
 21
138.8562221010961
 31
0.0
  0
HATCH
  5
1B4E
330
18
100
AcDbEntity
  8
ROGO
 62
     4
100
AcDbHatch
 10
0.0
 20
0.0
 30
0.0
210
0.0
220
0.0
230
1.0
  2
SOLID
 70
     1
 71
     0
 91
        1
 92
        7
 72
     0
 73
     1
 93
        4
 10
139.1597404527484
 20
138.8562221010961
 10
139.0666894173264
 20
138.6505518948049
 10
151.2459819859094
 20
138.6505518948049
 10
151.3485357932956
 20
138.8562221010961
 97
        0
 75
     0
 76
     1
 47
0.0514683685270805
 98
        1
 10
146.8559757136366
 20
138.8018256368913
450
        0
451
        0
460
0.0
461
0.0
452
        0
462
0.0
453
        0
470

  0
TEXT
  5
1B4F
330
18
100
AcDbEntity
  8
文字
100
AcDbText
 10
142.109138677194
 20
123.4298860951638
 30
0.0
 40
1.0
  1
0
  7
STYLE3
100
AcDbText
  0
LINE
  5
1B50
330
18
100
AcDbEntity
  8
文字
100
AcDbLine
 10
142.6955151163243
 20
125.1021121666889
 30
0.0
 11
142.4955151163243
 21
125.1021121666889
 31
0.0
  0
HATCH
  5
1B52
330
18
100
AcDbEntity
  8
針
100
AcDbHatch
 10
0.0
 20
0.0
 30
0.0
210
0.0
220
0.0
230
1.0
  2
SOLID
 70
     1
 71
     0
 91
        2
 92
        7
 72
     1
 73
     1
 93
        5
 10
142.9481894059685
 20
119.3601808611682
 42
0.31735696877887
 10
143.6953879561006
 20
120.3853868468878
 42
0.0
 10
143.3340572788179
 20
120.6520948969799
 42
0.0
 10
143.3059228246338
 20
120.6425719096281
 42
-0.4142135623731173
 10
142.8359748592635
 20
119.6917044583793
 42
0.0
 97
        0
 92
        7
 72
     1
 73
     1
 93
        4
 10
142.9481894059685
 20
119.3601808611682
 42
0.0
 10
142.8359748592635
 20
119.6917044583793
 42
-0.4142135623730728
 10
141.8851074080148
 20
120.1616524237496
 42
0.0
 10
141.5535838108037
 20
120.0494378770446
 42
0.4142135623730844
 97
        0
 75
     0
 76
     1
 47
0.0161501285364394
 98
        2
 10
143.2570621281504
 20
119.7057823642853
 10
142.5782670572332
 20
119.4930728223346
450
        0
451
        0
460
0.0
461
0.0
452
        0
462
0.0
453
        0
470

  0
HATCH
  5
1B53
330
18
100
AcDbEntity
  8
針
100
AcDbHatch
 10
0.0
 20
0.0
 30
0.0
210
0.0
220
0.0
230
1.0
  2
SOLID
 70
     1
 71
     0
 91
        4
 92
        7
 72
     1
 73
     1
 93
        4
 10
141.5075976666261
 20
120.5647025189315
 42
0.0
 10
141.8537532188028
 20
120.5129692250362
 42
-0.4142135623730951
 10
142.7063721746714
 20
121.1438740642103
 42
0.0
 10
142.7581054685668
 20
121.490029616387
 42
0.4142135623730996
 97
        0
 92
        7
 72
     1
 73
     1
 93
        5
 10
141.8537532188028
 20
120.5129692250362
 42
0.0
 10
141.5075976666261
 20
120.5647025189315
 42
0.3173569687788799
 10
142.0778897479547
 20
119.431512363464
 42
0.0
 10
142.4802677581639
 20
119.6309740871846
 42
0.0
 10
142.484658057977
 20
119.6603502691674
 42
-0.4142135623730839
 97
        0
 92
        7
 72
     1
 73
     1
 93
        4
 10
142.7581054685668
 20
121.490029616387
 42
0.0
 10
142.7063721746714
 20
121.1438740642103
 42
-0.4142135623730951
 10
143.3372770138458
 20
120.2912551083417
 42
0.0
 10
143.6834325660224
 20
120.2395218144464
 42
0.4142135623730996
 97
        0
 92
        7
 72
     1
 73
     1
 93
        4
 10
143.3372770138458
 20
120.2912551083417
 42
-0.1036385141593389
 10
143.230385183737
 20
120.0028127833894
 42
0.0
 10
143.6813868216151
 20
120.2263775951077
 42
0.003023315109616
 10
143.6834325660224
 20
120.2395218144464
 42
0.0
 97
        0
 75
     0
 76
     1
 47
0.0223982890607777
 98
        4
 10
142.0914596153252
 20
121.2538673547576
 10
141.7641046280627
 20
120.1242281536545
 10
143.0228949655164
 20
121.2733158255642
 10
143.4087664222458
 20
120.218401378851
450
        0
451
        0
460
0.0
461
0.0
452
        0
462
0.0
453
        0
470

  0
CIRCLE
  5
1B54
330
18
100
AcDbEntity
  8
針
100
AcDbCircle
 10
142.5955151163243
 20
120.4021121666889
 30
0.0
 40
1.1
  0
CIRCLE
  5
1B55
330
18
100
AcDbEntity
  8
針
100
AcDbCircle
 10
142.5955151163243
 20
120.4021121666889
 30
0.0
 40
0.75
  0
CIRCLE
  5
1B56
330
18
100
AcDbEntity
  8
針
 62
     4
100
AcDbCircle
 10
142.5955151163243
 20
120.4021121666889
 30
0.0
 40
0.4
  0
HATCH
  5
1B57
330
18
100
AcDbEntity
  8
針
100
AcDbHatch
 10
0.0
 20
0.0
 30
0.0
210
0.0
220
0.0
230
1.0
  2
SOLID
 70
     1
 71
     0
 91
        1
 92
        7
 72
     1
 73
     1
 93
        7
 10
142.6955151163244
 20
125.102112166689
 42
0.0
 10
142.5955151163243
 20
125.1021121666889
 42
0.0
 10
142.4955151163243
 20
125.1021121666889
 42
0.0
 10
142.4506067586859
 20
121.8594815120185
 42
-0.2935495917910092
 10
142.1521735821491
 20
121.4088138524303
 42
-0.2104432563350663
 10
143.0388559708822
 20
121.4088141517271
 42
-0.2935491884945053
 10
142.7404234739627
 20
121.8594815120185
 42
0.0
 97
        0
 75
     0
 76
     1
 47
0.0140573597042523
 98
        1
 10
142.6541168322217
 20
123.2966722119892
450
        0
451
        0
460
0.0
461
0.0
452
        0
462
0.0
453
        0
470

  0
LINE
  5
1B58
330
18
100
AcDbEntity
  8
中心線
 48
0.2
100
AcDbLine
 10
136.2320541984539
 20
120.4021121666889
 30
0.0
 11
148.9589760341947
 21
120.4021121666889
 31
0.0
  0
TEXT
  5
1B59
330
18
100
AcDbEntity
  8
文字
100
AcDbText
 10
140.1690249024969
 20
122.6135957918715
 30
0.0
 40
1.0
  1
1
  7
STYLE3
100
AcDbText
  0
LINE
  5
1B5A
330
18
100
AcDbEntity
  8
針
100
AcDbLine
 10
142.4506067586859
 20
121.8594815120185
 30
0.0
 11
142.4955151163243
 21
125.1021121666889
 31
0.0
  0
LINE
  5
1B5B
330
18
100
AcDbEntity
  8
目盛
100
AcDbLine
 10
138.0779966639222
 20
121.8699428899699
 30
0.0
 11
138.55352492207
 21
121.7154343927824
 31
0.0
  0
LINE
  5
1B5C
330
18
100
AcDbEntity
  8
目盛
100
AcDbLine
 10
138.0779966639222
 20
118.9342814434079
 30
0.0
 11
138.5535249220698
 21
119.0887899405954
 31
0.0
  0
TEXT
  5
1B5D
330
18
100
AcDbEntity
  8
文字
100
AcDbText
 10
138.7902628344814
 20
118.6575959539978
 30
0.0
 40
1.0
  1
3
  7
STYLE3
100
AcDbText
  0
TEXT
  5
1B5E
330
18
100
AcDbEntity
  8
文字
100
AcDbText
 10
138.8439131607462
 20
120.881710903014
 30
0.0
 40
1.0
  1
2
  7
STYLE3
100
AcDbText
  0
LINE
  5
1B5F
330
18
100
AcDbEntity
  8
目盛
100
AcDbLine
 10
139.803535167935
 20
124.2449428899699
 30
0.0
 11
140.0974277940813
 21
123.8404343927824
 31
0.0
  0
LINE
  5
1B60
102
{ACAD_REACTORS
330
1B36
102
}
330
18
100
AcDbEntity
  8
ROGO
 62
     4
100
AcDbLine
 10
140.2925218366361
 20
139.3892857491533
 30
0.0
 11
139.4009135681548
 21
139.3892857491533
 31
0.0
  0
LINE
  5
1B61
102
{ACAD_REACTORS
330
1B36
102
}
330
18
100
AcDbEntity
  8
ROGO
 62
     4
100
AcDbLine
 10
139.7652758568224
 20
140.1946337684975
 30
0.0
 11
139.607278060465
 21
139.8454120836121
 31
0.0
  0
SPLINE
  5
1B62
102
{ACAD_REACTORS
330
1B36
102
}
330
18
100
AcDbEntity
  8
ROGO
 62
     4
100
AcDbSpline
210
0.0
220
0.0
230
1.0
 70
     8
 71
     3
 72
    15
 73
    11
 74
     9
 42
0.0000000001
 43
0.0000000001
 44
0.0000000001
 40
0.0
 40
0.0
 40
0.0
 40
0.0
 40
0.1539705029175028
 40
0.2241725832587281
 40
0.3038566179396687
 40
0.3581410872474193
 40
0.443992538467216
 40
0.4954152125469665
 40
0.5836396705646186
 40
0.6130478420065743
 40
0.6130478420065743
 40
0.6130478420065743
 40
0.6130478420065743
 10
140.1712628559198
 20
140.1946337684975
 30
0.0
 10
140.229091190979
 20
140.1948986531399
 30
0.0
 10
140.3132860660371
 20
140.1952843106096
 30
0.0
 10
140.3593268224017
 20
140.0911350066801
 30
0.0
 10
140.3386891601682
 20
140.0240791020427
 30
0.0
 10
140.3127459367442
 20
139.9552335877949
 30
0.0
 10
140.2668983852018
 20
139.9084520225256
 30
0.0
 10
140.2053642556066
 20
139.8633934888886
 30
0.0
 10
140.1472115625509
 20
139.8579389516291
 30
0.0
 10
140.1093897635783
 20
139.8479174581749
 30
0.0
 10
140.099934309309
 20
139.8454120836121
 30
0.0
 11
140.1712628559198
 21
140.1946337684975
 31
0.0
 11
140.3210529268486
 21
140.1589988078575
 31
0.0
 11
140.3495844275236
 21
140.0948561110522
 31
0.0
 11
140.3353188822628
 21
140.0164594299908
 31
0.0
 11
140.3139203592949
 21
139.9665704850949
 31
0.0
 11
140.2568573579449
 21
139.9024277882896
 31
0.0
 11
140.214060312009
 21
139.8739198197776
 31
0.0
 11
140.128465809984
 21
139.8525390757401
 31
0.0
 11
140.099934309309
 21
139.8454120836121
 31
0.0
  0
LINE
  5
1B63
102
{ACAD_REACTORS
330
1B36
102
}
330
18
100
AcDbEntity
  8
ROGO
 62
     4
100
AcDbLine
 10
140.1712628559199
 20
140.1946337684975
 30
0.0
 11
139.7652758568224
 21
140.1946337684975
 31
0.0
  0
LINE
  5
1B64
102
{ACAD_REACTORS
330
1B36
102
}
330
18
100
AcDbEntity
  8
ROGO
 62
     4
100
AcDbLine
 10
140.0999343093091
 20
139.8454120836121
 30
0.0
 11
139.607278060465
 21
139.8454120836121
 31
0.0
  0
LINE
  5
1B65
102
{ACAD_REACTORS
330
1B36
102
}
330
18
100
AcDbEntity
  8
ROGO
 62
     4
100
AcDbLine
 10
139.4009135681548
 20
139.3892857491533
 30
0.0
 11
139.0666894173264
 21
138.6505518948049
 31
0.0
  0
LINE
  5
1B66
102
{ACAD_REACTORS
330
1B37
102
}
330
18
100
AcDbEntity
  8
ROGO
 62
     4
100
AcDbLine
 10
142.3870458382047
 20
140.4016283490188
 30
0.0
 11
142.2706759921282
 21
140.1664383058346
 31
0.0
  0
LINE
  5
1B67
102
{ACAD_REACTORS
330
1B37
102
}
330
18
100
AcDbEntity
  8
ROGO
 62
     4
100
AcDbLine
 10
142.1513496165044
 20
139.9252729491534
 30
0.0
 11
142.034974843888
 21
139.6900729491534
 31
0.0
  0
TEXT
  5
1B69
330
18
100
AcDbEntity
  8
文字
100
AcDbText
 10
144.2134574407923
 20
122.6576601949933
 30
0.0
 40
1.0
  1
9
  7
STYLE3
100
AcDbText
  0
LINE
  5
1B6A
330
18
100
AcDbEntity
  8
針
100
AcDbLine
 10
142.7404234739627
 20
121.8594815120185
 30
0.0
 11
142.6955151163243
 21
125.1021121666889
 31
0.0
  0
TEXT
  5
1B6B
330
18
100
AcDbEntity
  8
文字
100
AcDbText
 10
145.5946783956624
 20
118.5995832463924
 30
0.0
 40
1.0
  1
7
  7
STYLE3
100
AcDbText
  0
TEXT
  5
1B6D
330
18
100
AcDbEntity
  8
文字
100
AcDbText
 10
145.6441012415348
 20
121.0122200944429
 30
0.0
 40
1.0
  1
8
  7
STYLE3
100
AcDbText
  0
LINE
  5
1B6E
330
18
100
AcDbEntity
  8
目盛
100
AcDbLine
 10
147.1130335687262
 20
118.9342814434079
 30
0.0
 11
146.6375053105787
 21
119.0887899405954
 31
0.0
  0
LINE
  5
1B6F
330
18
100
AcDbEntity
  8
目盛
100
AcDbLine
 10
147.1130335687262
 20
121.8699428899699
 30
0.0
 11
146.6375053105787
 21
121.7154343927824
 31
0.0
  0
LINE
  5
1B70
330
18
100
AcDbEntity
  8
目盛
100
AcDbLine
 10
142.5955151163243
 20
125.1521121666889
 30
0.0
 11
142.5955151163243
 21
124.6521121666889
 31
0.0
  0
LINE
  5
1B71
330
18
100
AcDbEntity
  8
目盛
100
AcDbLine
 10
145.3874950647135
 20
124.2449428899699
 30
0.0
 11
145.0936024385673
 21
123.8404343927824
 31
0.0
  0
LINE
  5
1B72
102
{ACAD_REACTORS
330
1B28
102
}
330
18
100
AcDbEntity
  8
ROGO
 62
     4
100
AcDbLine
 10
150.2082824004433
 20
139.3892857491533
 30
0.0
 11
151.339311415448
 21
139.3892857491533
 31
0.0
  0
POINT
  5
1B74
330
18
100
AcDbEntity
  8
DEFPOINTS
  6
ByBlock
 62
     0
100
AcDbPoint
 10
145.7955151163243
 20
130.4760835782029
 30
0.0
  0
POINT
  5
1B75
330
18
100
AcDbEntity
  8
DEFPOINTS
  6
ByBlock
 62
     0
100
AcDbPoint
 10
145.7955151163243
 20
130.4760835782029
 30
0.0
  0
POINT
  5
1B76
330
18
100
AcDbEntity
  8
DEFPOINTS
  6
ByBlock
 62
     0
100
AcDbPoint
 10
145.7955151163244
 20
130.4760835782028
 30
0.0
  0
POINT
  5
1B77
330
18
100
AcDbEntity
  8
DEFPOINTS
  6
ByBlock
 62
     0
100
AcDbPoint
 10
145.7955151163244
 20
130.4760835782028
 30
0.0
  0
CIRCLE
  5
1B78
330
18
100
AcDbEntity
  8
針
100
AcDbCircle
 10
145.7955151163243
 20
130.4760835782028
 30
0.0
 40
0.475
  0
ARC
  5
1B79
330
18
100
AcDbEntity
  8
針
100
AcDbCircle
 10
142.1955151163243
 20
133.574873664672
 30
0.0
 40
3.0
100
AcDbArc
 50
330.5277208229603
 51
0.0
  0
ARC
  5
1B7A
330
18
100
AcDbEntity
  8
針
100
AcDbCircle
 10
149.3955151163244
 20
133.574873664672
 30
0.0
 40
3.0
100
AcDbArc
 50
180.0
 51
209.4722791770395
  0
LINE
  5
1B7B
102
{ACAD_REACTORS
330
1B38
102
}
330
18
100
AcDbEntity
  8
ROGO
 62
     4
100
AcDbLine
 10
145.9772126295154
 20
139.3892857491533
 30
0.0
 11
147.1082416445201
 21
139.3892857491533
 31
0.0
  0
SPLINE
  5
1B7C
102
{ACAD_REACTORS
330
1B38
102
}
330
18
100
AcDbEntity
  8
ROGO
 62
     4
100
AcDbSpline
210
0.0
220
0.0
230
1.0
 70
     8
 71
     3
 72
    16
 73
    12
 74
    10
 42
0.0000000001
 43
0.0000000001
 44
0.0000000001
 40
0.0
 40
0.0
 40
0.0
 40
0.0
 40
0.1255907025629711
 40
0.1869327038470372
 40
0.2171823804790188
 40
0.2490606136884497
 40
0.2947101524738226
 40
0.3362763310931653
 40
0.3796288870083566
 40
0.452312579561098
 40
0.5242542460842631
 40
0.5242542460842631
 40
0.5242542460842631
 40
0.5242542460842631
 10
146.6976318936376
 20
140.213855627494
 30
0.0
 10
146.6551011860162
 20
140.20737153419
 30
0.0
 10
146.5917972948048
 20
140.1977204289045
 30
0.0
 10
146.5345515434137
 20
140.1524053219287
 30
0.0
 10
146.5022689142896
 20
140.1254458496123
 30
0.0
 10
146.491286220038
 20
140.0897438554301
 30
0.0
 10
146.4617901521774
 20
140.0623302043944
 30
0.0
 10
146.4374770023001
 20
140.0246550236783
 30
0.0
 10
146.4316715732384
 20
139.9729075527192
 30
0.0
 10
146.435932891086
 20
139.9002878635819
 30
0.0
 10
146.4868496056551
 20
139.8853074195826
 30
0.0
 10
146.5121773443268
 20
139.877855627494
 30
0.0
 11
146.6976318936376
 21
140.213855627494
 31
0.0
 11
146.5763733233838
 21
140.1811541946466
 31
0.0
 11
146.5264432997409
 21
140.145519466353
 31
0.0
 11
146.5050447767731
 21
140.124138489969
 31
0.0
 11
146.4907788213588
 21
140.0956305214571
 31
0.0
 11
146.4622473206838
 21
140.0599957931637
 31
0.0
 11
146.4408487977159
 21
140.0243608325238
 31
0.0
 11
146.4337158200088
 21
139.9815991121023
 31
0.0
 11
146.447981775423
 21
139.9103291908225
 31
0.0
 11
146.5121773443268
 21
139.877855627494
 31
0.0
  0
LINE
  5
1B7D
102
{ACAD_REACTORS
330
1B38
102
}
330
18
100
AcDbEntity
  8
ROGO
 62
     4
100
AcDbLine
 10
146.5121773443267
 20
139.877855627494
 30
0.0
 11
147.3518583651989
 21
139.877855627494
 31
0.0
  0
LINE
  5
1B7E
102
{ACAD_REACTORS
330
1B37
102
}
330
18
100
AcDbEntity
  8
ROGO
 62
     4
100
AcDbLine
 10
143.2041404143461
 20
140.1664383058346
 30
0.0
 11
143.0848140387223
 21
139.9252729491534
 31
0.0
  0
LINE
  5
1B7F
102
{ACAD_REACTORS
330
1B37
102
}
330
18
100
AcDbEntity
  8
ROGO
 62
     4
100
AcDbLine
 10
142.968439266106
 20
139.6900729491534
 30
0.0
 11
142.8196125568971
 21
139.3892857491533
 31
0.0
  0
LINE
  5
1B80
102
{ACAD_REACTORS
330
1B32
102
}
330
18
100
AcDbEntity
  8
ROGO
 62
     4
100
AcDbLine
 10
144.4579665779866
 20
140.3514217027591
 30
0.0
 11
144.1345998416734
 21
139.9029984309402
 31
0.0
  0
LINE
  5
1B81
102
{ACAD_REACTORS
330
1B32
102
}
330
18
100
AcDbEntity
  8
ROGO
 62
     4
100
AcDbLine
 10
143.9444420805283
 20
139.6393004192442
 30
0.0
 11
144.7743190693126
 21
139.6393004192442
 31
0.0
  0
LINE
  5
1B82
102
{ACAD_REACTORS
330
1B32
102
}
330
18
100
AcDbEntity
  8
ROGO
 62
     4
100
AcDbLine
 10
144.1345998416734
 20
139.9029984309402
 30
0.0
 11
144.657173963712
 21
139.9029984309402
 31
0.0
  0
LINE
  5
1B83
102
{ACAD_REACTORS
330
1B32
102
}
330
18
100
AcDbEntity
  8
ROGO
 62
     4
100
AcDbLine
 10
143.9444420805283
 20
139.6393004192442
 30
0.0
 11
143.7641516429474
 21
139.3892857491534
 31
0.0
  0
LINE
  5
1B84
102
{ACAD_REACTORS
330
1B32
102
}
330
18
100
AcDbEntity
  8
ROGO
 62
     4
100
AcDbLine
 10
143.0369043912558
 20
139.3892857491533
 30
0.0
 11
143.7641516429473
 21
139.3892857491533
 31
0.0
  0
LINE
  5
1B85
102
{ACAD_REACTORS
330
1B32
102
}
330
18
100
AcDbEntity
  8
ROGO
 62
     4
100
AcDbLine
 10
145.6175932145096
 20
139.3892857491534
 30
0.0
 11
144.8853854923815
 21
139.3892857491533
 31
0.0
  0
LINE
  5
1B86
102
{ACAD_REACTORS
330
1B32
102
}
330
18
100
AcDbEntity
  8
ROGO
 62
     4
100
AcDbLine
 10
144.4579665779866
 20
140.3514217027591
 30
0.0
 11
144.657173963712
 21
139.9029984309402
 31
0.0
  0
LINE
  5
1B87
102
{ACAD_REACTORS
330
1B32
102
}
330
18
100
AcDbEntity
  8
ROGO
 62
     4
100
AcDbLine
 10
144.7743190693126
 20
139.6393004192442
 30
0.0
 11
144.8853854923815
 21
139.3892857491533
 31
0.0
  0
LINE
  5
1B88
102
{ACAD_REACTORS
330
1B2B
102
}
330
18
100
AcDbEntity
  8
ROGO
 62
     4
100
AcDbLine
 10
148.1079594760289
 20
139.3892857491533
 30
0.0
 11
148.8584132992143
 21
139.3892857491533
 31
0.0
  0
SPLINE
  5
1B89
102
{ACAD_REACTORS
330
1B2B
102
}
330
18
100
AcDbEntity
  8
ROGO
 62
     4
100
AcDbSpline
210
0.0
220
0.0
230
1.0
 70
     8
 71
     3
 72
    11
 73
     7
 74
     0
 42
0.0000000001
 43
0.0000000001
 40
0.1647869275458134
 40
0.1647869275458134
 40
0.1647869275458134
 40
0.1647869275458134
 40
0.2895635144633836
 40
0.5387013147903714
 40
0.7953622617455423
 40
0.8850764140209602
 40
0.8850764140209602
 40
0.8850764140209602
 40
0.8850764140209602
 10
149.1084307578323
 20
139.418562196062
 30
0.0
 10
149.0944522150314
 20
139.4146712633455
 30
0.0
 10
149.0511112035972
 20
139.4077436735616
 30
0.0
 10
148.9784124364591
 20
139.3982312791882
 30
0.0
 10
148.9093158943628
 20
139.3883047486036
 30
0.0
 10
148.8688851995342
 20
139.3890839335104
 30
0.0
 10
148.8584132992143
 20
139.3892857491533
 30
0.0
  0
SPLINE
  5
1B8A
102
{ACAD_REACTORS
330
1B2B
102
}
330
18
100
AcDbEntity
  8
ROGO
 62
     4
100
AcDbSpline
210
0.0
220
0.0
230
1.0
 70
     8
 71
     3
 72
     9
 73
     5
 74
     3
 42
0.0000000001
 43
0.0000000001
 44
0.0000000001
 40
0.0
 40
0.0
 40
0.0
 40
0.0
 40
0.1135793343552172
 40
0.2662938392177403
 40
0.2662938392177403
 40
0.2662938392177403
 40
0.2662938392177403
 10
149.1084307578323
 20
139.418562196062
 30
0.0
 10
149.1449157261503
 20
139.4297245357852
 30
0.0
 10
149.2304570118277
 20
139.4558953380391
 30
0.0
 10
149.3011337090645
 20
139.5112076558136
 30
0.0
 10
149.3416654647204
 20
139.5429282290215
 30
0.0
 11
149.1084307578323
 21
139.418562196062
 31
0.0
 11
149.2151815220569
 21
139.4573505903317
 31
0.0
 11
149.3416654647204
 21
139.5429282290215
 31
0.0
  0
ELLIPSE
  5
1B8B
330
18
100
AcDbEntity
  8
ROGO
 62
     4
100
AcDbEllipse
 10
148.6647018322028
 20
140.0302119066642
 30
0.0
 11
0.1782847090673272
 21
0.156779092184061
 31
0.0
210
0.0
220
0.0
230
1.0
 40
0.6788083417438792
 41
0.0
 42
6.283185307179586
  0
LINE
  5
1B8C
102
{ACAD_REACTORS
330
1B38
102
}
330
18
100
AcDbEntity
  8
ROGO
 62
     4
100
AcDbLine
 10
146.6976318936375
 20
140.213855627494
 30
0.0
 11
147.5193988169887
 21
140.213855627494
 31
0.0
  0
LINE
  5
1B8D
102
{ACAD_REACTORS
330
1B38
102
}
330
18
100
AcDbEntity
  8
ROGO
 62
     4
100
AcDbLine
 10
147.3518583651989
 20
139.877855627494
 30
0.0
 11
147.1082416445201
 21
139.3892857491533
 31
0.0
  0
TEXT
  5
1B8E
330
18
100
AcDbEntity
  8
文字
100
AcDbText
 10
151.8640504365782
 20
130.0405601742886
 30
0.0
 40
1.0
  1
0.01mm
  7
STYLE3
100
AcDbText
  0
LINE
  5
1BB7
102
{ACAD_REACTORS
330
1B2D
102
}
330
18
100
AcDbEntity
  8
ROGO
 62
     4
100
AcDbLine
 10
152.2691150175793
 20
139.1861154569244
 30
0.0
 11
152.536164306745
 21
138.6505518948049
 31
0.0
  0
LINE
  5
1BB8
102
{ACAD_REACTORS
330
1B2D
102
}
330
18
100
AcDbEntity
  8
ROGO
 62
     4
100
AcDbLine
 10
152.7806649909101
 20
139.6764912872578
 30
0.0
 11
153.292231506745
 21
138.6505518948049
 31
0.0
  0
LINE
  5
1BB9
102
{ACAD_REACTORS
330
1B2D
102
}
330
18
100
AcDbEntity
  8
ROGO
 62
     4
100
AcDbLine
 10
152.536164306745
 20
138.6505518948049
 30
0.0
 11
153.292231506745
 21
138.6505518948049
 31
0.0
  0
SPLINE
  5
1BBA
102
{ACAD_REACTORS
330
1B28
102
}
330
18
100
AcDbEntity
  8
ROGO
 62
     4
100
AcDbSpline
210
0.0
220
0.0
230
1.0
 70
     8
 71
     3
 72
    16
 73
    12
 74
    10
 42
0.0000000001
 43
0.0000000001
 44
0.0000000001
 40
0.0
 40
0.0
 40
0.0
 40
0.0
 40
0.1255907025629163
 40
0.1869327038470616
 40
0.217182380479003
 40
0.2490606136884339
 40
0.2947101524738157
 40
0.3362763310931585
 40
0.3796288870082937
 40
0.4523125795610796
 40
0.5242542460842448
 40
0.5242542460842448
 40
0.5242542460842448
 40
0.5242542460842448
 10
150.9287016645654
 20
140.213855627494
 30
0.0
 10
150.886170956944
 20
140.20737153419
 30
0.0
 10
150.8228670657326
 20
140.1977204289044
 30
0.0
 10
150.7656213143416
 20
140.1524053219287
 30
0.0
 10
150.7333386852174
 20
140.1254458496122
 30
0.0
 10
150.7223559909658
 20
140.0897438554301
 30
0.0
 10
150.6928599231053
 20
140.0623302043944
 30
0.0
 10
150.668546773228
 20
140.0246550236783
 30
0.0
 10
150.6627413441663
 20
139.9729075527191
 30
0.0
 10
150.6670026620138
 20
139.9002878635818
 30
0.0
 10
150.7179193765829
 20
139.8853074195825
 30
0.0
 10
150.7432471152546
 20
139.8778556274939
 30
0.0
 11
150.9287016645654
 21
140.213855627494
 31
0.0
 11
150.8074430943117
 21
140.1811541946466
 31
0.0
 11
150.7575130706688
 21
140.145519466353
 31
0.0
 11
150.7361145477009
 21
140.124138489969
 31
0.0
 11
150.7218485922867
 21
140.0956305214571
 31
0.0
 11
150.6933170916117
 21
140.0599957931636
 31
0.0
 11
150.6719185686437
 21
140.0243608325237
 31
0.0
 11
150.6647855909367
 21
139.9815991121023
 31
0.0
 11
150.6790515463509
 21
139.9103291908225
 31
0.0
 11
150.7432471152546
 21
139.8778556274939
 31
0.0
  0
LINE
  5
1BBB
102
{ACAD_REACTORS
330
1B28
102
}
330
18
100
AcDbEntity
  8
ROGO
 62
     4
100
AcDbLine
 10
151.5829281361268
 20
139.877855627494
 30
0.0
 11
151.3393114154479
 21
139.3892857491533
 31
0.0
  0
LINE
  5
1BBC
102
{ACAD_REACTORS
330
1B28
102
}
330
18
100
AcDbEntity
  8
ROGO
 62
     4
100
AcDbLine
 10
150.7432471152546
 20
139.877855627494
 30
0.0
 11
151.5829281361268
 21
139.877855627494
 31
0.0
  0
LINE
  5
1BBD
102
{ACAD_REACTORS
330
1B28
102
}
330
18
100
AcDbEntity
  8
ROGO
 62
     4
100
AcDbLine
 10
150.9287016645654
 20
140.213855627494
 30
0.0
 11
151.7504685879166
 21
140.213855627494
 31
0.0
  0
LINE
  5
1BBE
102
{ACAD_REACTORS
330
1B2D
102
}
330
18
100
AcDbEntity
  8
ROGO
 62
     4
100
AcDbLine
 10
152.2691150175793
 20
139.1861154569244
 30
0.0
 11
152.0020657284137
 21
138.6505518948049
 31
0.0
  0
LINE
  5
1BBF
330
18
100
AcDbEntity
  8
外形線
100
AcDbLine
 10
141.5455151163243
 20
164.2760835782029
 30
0.0
 11
141.5455151163245
 21
162.6760835782029
 31
0.0
  0
LINE
  5
1BC0
330
18
100
AcDbEntity
  8
外形線
100
AcDbLine
 10
150.0455151163243
 20
164.2760835782029
 30
0.0
 11
150.0455151163243
 21
162.6760835782028
 31
0.0
  0
LINE
  5
1BC1
330
18
100
AcDbEntity
  8
外形線
100
AcDbLine
 10
141.5455151163245
 20
164.2760835782029
 30
0.0
 11
141.5455151163245
 21
162.6760835782028
 31
0.0
  0
LINE
  5
1BC2
330
18
100
AcDbEntity
  8
外形線
100
AcDbLine
 10
150.0455151163245
 20
164.2760835782029
 30
0.0
 11
150.0455151163243
 21
162.6760835782029
 31
0.0
  0
ARC
  5
1BC3
330
18
100
AcDbEntity
  8
外形線
100
AcDbCircle
 10
158.9472812891659
 20
103.0541322061496
 30
0.0
 40
60.0
100
AcDbArc
 50
96.15495908808656
 51
118.4866040973081
  0
LINE
  5
1BC4
330
18
100
AcDbEntity
  8
外形線
100
AcDbLine
 10
149.8455151163242
 20
162.4760835782028
 30
0.0
 11
141.7455151163245
 21
162.476083578203
 31
0.0
  0
LINE
  5
1BC5
330
18
100
AcDbEntity
  8
外形線
100
AcDbLine
 10
141.7455151163245
 20
162.4760835782028
 30
0.0
 11
149.8455151163242
 21
162.476083578203
 31
0.0
  0
ARC
  5
1BC6
330
18
100
AcDbEntity
  8
外形線
100
AcDbCircle
 10
158.9472812891659
 20
103.0541322061496
 30
0.0
 40
59.0
100
AcDbArc
 50
96.15495908808656
 51
118.4866040973081
  0
LINE
  5
1BC7
102
{ACAD_REACTORS
330
1B37
102
}
330
18
100
AcDbEntity
  8
ROGO
 62
     4
100
AcDbLine
 10
141.6932613076733
 20
140.7024306797108
 30
0.0
 11
143.4693444561572
 21
140.7024306797109
 31
0.0
  0
LINE
  5
1BC8
330
18
100
AcDbEntity
  8
針
100
AcDbLine
 10
145.7955151163243
 20
152.4760835782029
 30
0.0
 11
145.7055151163244
 21
152.4760835782029
 31
0.0
  0
LINE
  5
1BC9
330
18
100
AcDbEntity
  8
針
100
AcDbLine
 10
145.7955151163244
 20
152.4760835782029
 30
0.0
 11
145.8855151163243
 21
152.4760835782029
 31
0.0
  0
LINE
  5
1BCA
102
{ACAD_REACTORS
330
1B36
102
}
330
18
100
AcDbEntity
  8
ROGO
 62
     4
100
AcDbLine
 10
139.1281390014825
 20
140.7024306797108
 30
0.0
 11
140.7406373144677
 21
140.7024306797108
 31
0.0
  0
LINE
  5
1BCB
330
18
100
AcDbEntity
  8
外形線
100
AcDbLine
 10
130.3300846399614
 20
155.7898511823877
 30
0.0
 11
130.8070379174481
 21
154.9109225327836
 31
0.0
  0
LINE
  5
1BCC
330
18
100
AcDbEntity
  8
外形線
100
AcDbLine
 10
141.7455151163245
 20
162.476083578203
 30
0.0
 11
141.5455151163245
 21
162.6760835782029
 31
0.0
  0
LINE
  5
1BCD
330
18
100
AcDbEntity
  8
外形線
100
AcDbLine
 10
141.5455151163245
 20
162.6760835782028
 30
0.0
 11
141.7455151163245
 21
162.4760835782028
 31
0.0
  0
LINE
  5
1BCE
102
{ACAD_REACTORS
330
1B28
102
}
330
18
100
AcDbEntity
  8
ROGO
 62
     4
100
AcDbLine
 10
150.6790515463512
 20
140.7024306797108
 30
0.0
 11
151.9940878884571
 21
140.7024306797108
 31
0.0
  0
LINE
  5
1BCF
102
{ACAD_REACTORS
330
1B38
102
}
330
18
100
AcDbEntity
  8
ROGO
 62
     4
100
AcDbLine
 10
146.4479817754234
 20
140.7024306797109
 30
0.0
 11
147.7630181175293
 21
140.7024306797109
 31
0.0
  0
LINE
  5
1BD0
102
{ACAD_REACTORS
330
1B32
102
}
330
18
100
AcDbEntity
  8
ROGO
 62
     4
100
AcDbLine
 10
143.9838387213549
 20
140.7024306797108
 30
0.0
 11
145.0342422041264
 21
140.7024306797109
 31
0.0
  0
LINE
  5
1BD1
102
{ACAD_REACTORS
330
1B2B
102
}
330
18
100
AcDbEntity
  8
ROGO
 62
     4
100
AcDbLine
 10
148.4922434375721
 20
140.7079078988832
 30
0.0
 11
149.2426972607574
 21
140.7079078988832
 31
0.0
  0
LINE
  5
1BD2
102
{ACAD_REACTORS
330
1B2D
102
}
330
18
100
AcDbEntity
  8
ROGO
 62
     4
100
AcDbLine
 10
152.2691150175793
 20
140.7024306797108
 30
0.0
 11
153.0251987600835
 21
140.7024306797108
 31
0.0
  0
LINE
  5
1BD3
102
{ACAD_REACTORS
330
1B2D
102
}
330
18
100
AcDbEntity
  8
ROGO
 62
     4
100
AcDbLine
 10
153.0251987600835
 20
140.7024306797108
 30
0.0
 11
152.9134934531625
 21
140.4784072708892
 31
0.0
  0
LINE
  5
1BD4
102
{ACAD_REACTORS
330
1B2D
102
}
330
18
100
AcDbEntity
  8
ROGO
 62
     4
100
AcDbLine
 10
152.9134934531625
 20
140.4784072708892
 30
0.0
 11
153.2675065362413
 21
140.7024306797108
 31
0.0
  0
LINE
  5
1BD5
102
{ACAD_REACTORS
330
1B2D
102
}
330
18
100
AcDbEntity
  8
ROGO
 62
     4
100
AcDbLine
 10
153.2675065362413
 20
140.7024306797108
 30
0.0
 11
154.0235737362413
 21
140.7024306797108
 31
0.0
  0
LINE
  5
1BD6
330
18
100
AcDbEntity
  8
外形線
100
AcDbLine
 10
149.7641420829221
 20
156.5760835782027
 30
0.0
 11
157.7955151163245
 21
156.5760835782029
 31
0.0
  0
LINE
  5
1BD7
330
18
100
AcDbEntity
  8
外形線
100
AcDbLine
 10
143.4955151163243
 20
159.9948287433347
 30
0.0
 11
143.4955151163243
 21
156.7757033473174
 31
0.0
  0
LINE
  5
1BD8
330
18
100
AcDbEntity
  8
外形線
100
AcDbLine
 10
143.4955151163243
 20
159.9948287433349
 30
0.0
 11
143.4955151163243
 21
156.7757033473174
 31
0.0
  0
LINE
  5
1BD9
330
18
100
AcDbEntity
  8
外形線
100
AcDbLine
 10
148.0955151163244
 20
159.9948287433347
 30
0.0
 11
148.0955151163244
 21
156.7757033473174
 31
0.0
  0
LINE
  5
1BDA
330
18
100
AcDbEntity
  8
外形線
100
AcDbLine
 10
148.0955151163244
 20
161.0475729639626
 30
0.0
 11
148.0955151163244
 21
156.7757033473174
 31
0.0
  0
LINE
  5
1BDB
330
18
100
AcDbEntity
  8
外形線
100
AcDbLine
 10
143.4955151163243
 20
162.476083578203
 30
0.0
 11
143.4955151163243
 21
162.0646327202951
 31
0.0
  0
LINE
  5
1BDC
330
18
100
AcDbEntity
  8
外形線
100
AcDbLine
 10
143.4955151163243
 20
161.0475729639626
 30
0.0
 11
143.4955151163243
 21
161.0303594216198
 31
0.0
  0
LINE
  5
1BDD
330
18
100
AcDbEntity
  8
外形線
100
AcDbLine
 10
143.4955151163243
 20
162.476083578203
 30
0.0
 11
143.4955151163243
 21
161.0303594216196
 31
0.0
  0
LINE
  5
1BDE
330
18
100
AcDbEntity
  8
外形線
100
AcDbLine
 10
150.0455151163243
 20
162.6760835782028
 30
0.0
 11
149.8455151163242
 21
162.4760835782028
 31
0.0
  0
LINE
  5
1BDF
330
18
100
AcDbEntity
  8
外形線
100
AcDbLine
 10
148.0955151163244
 20
162.476083578203
 30
0.0
 11
148.0955151163244
 21
162.0646327202951
 31
0.0
  0
LINE
  5
1BE0
330
18
100
AcDbEntity
  8
外形線
100
AcDbLine
 10
149.8455151163242
 20
162.476083578203
 30
0.0
 11
150.0455151163243
 21
162.6760835782029
 31
0.0
  0
LINE
  5
1BE1
330
18
100
AcDbEntity
  8
外形線
100
AcDbLine
 10
149.8748745345282
 20
162.3642614900956
 30
0.0
 11
149.996809020116
 21
161.3712741642476
 31
0.0
  0
LINE
  5
1BE2
330
18
100
AcDbEntity
  8
外形線
100
AcDbLine
 10
148.0955151163244
 20
161.0475729639626
 30
0.0
 11
148.0955151163244
 21
161.0303594216196
 31
0.0
  0
LINE
  5
1BE3
330
18
100
AcDbEntity
  8
外形線
100
AcDbLine
 10
157.7955151163245
 20
160.4760835782028
 30
0.0
 11
157.7955151163245
 21
155.5760835782029
 31
0.0
  0
LINE
  5
1BE4
330
18
100
AcDbEntity
  8
外形線
100
AcDbLine
 10
152.6214306051382
 20
161.7140300335697
 30
0.0
 11
157.5926083871228
 21
162.250119074589
 31
0.0
  0
LINE
  5
1BE5
330
18
100
AcDbEntity
  8
外形線
100
AcDbLine
 10
157.8070440035304
 20
160.2616479617951
 30
0.0
 11
157.485390578919
 21
163.244354630986
 31
0.0
  0
LINE
  5
1BE6
330
18
100
AcDbEntity
  8
外形線
100
AcDbLine
 10
149.8455151163244
 20
164.4760835782028
 30
0.0
 11
141.7455151163243
 21
164.4760835782028
 31
0.0
  0
LINE
  5
1BE7
330
18
100
AcDbEntity
  8
外形線
100
AcDbLine
 10
141.7455151163243
 20
164.4760835782028
 30
0.0
 11
149.8455151163244
 21
164.4760835782028
 31
0.0
  0
LINE
  5
1BE8
330
18
100
AcDbEntity
  8
外形線
100
AcDbLine
 10
141.7455151163243
 20
164.4760835782028
 30
0.0
 11
141.5455151163243
 21
164.2760835782029
 31
0.0
  0
LINE
  5
1BE9
330
18
100
AcDbEntity
  8
外形線
100
AcDbLine
 10
141.5455151163245
 20
164.2760835782029
 30
0.0
 11
141.7455151163243
 21
164.4760835782028
 31
0.0
  0
POINT
  5
1BEA
330
18
100
AcDbEntity
  8
DEFPOINTS
  6
ByBlock
 62
     0
100
AcDbPoint
 10
145.7955151163243
 20
164.4760835782028
 30
0.0
 50
180.0
  0
LINE
  5
1BEB
330
18
100
AcDbEntity
  8
外形線
100
AcDbLine
 10
150.0455151163243
 20
164.2760835782029
 30
0.0
 11
149.8455151163244
 21
164.4760835782028
 31
0.0
  0
LINE
  5
1BEC
330
18
100
AcDbEntity
  8
外形線
100
AcDbLine
 10
149.8455151163244
 20
164.4760835782028
 30
0.0
 11
150.0455151163245
 21
164.2760835782029
 31
0.0
  0
LINE
  5
1BEF
330
18
100
AcDbEntity
  8
外形線
100
AcDbLine
 10
168.8306883016593
 20
164.5013923726507
 30
0.0
 11
169.095299724432
 21
163.530764088816
 31
0.0
  0
ARC
  5
1BF0
330
18
100
AcDbEntity
  8
外形線
100
AcDbCircle
 10
164.2112118967724
 20
194.1435994049332
 30
0.0
 40
31.0
100
AcDbArc
 50
276.1549590880868
 51
310.7350802207004
  0
ARC
  5
1BF1
330
18
100
AcDbEntity
  8
外形線
100
AcDbCircle
 10
164.2112118967724
 20
194.1435994049332
 30
0.0
 40
30.0
100
AcDbArc
 50
276.1549590880868
 51
310.7350802207004
  0
LINE
  5
1BF2
330
18
100
AcDbEntity
  8
中心線
 48
0.5
100
AcDbLine
 10
159.7955151163245
 20
164.2733770569185
 30
0.0
 11
159.7955151163245
 21
154.5282157320817
 31
0.0
  0
LINE
  5
1BF3
330
18
100
AcDbEntity
  8
外形線
100
AcDbLine
 10
161.5695506127107
 20
162.6789903074045
 30
0.0
 11
167.5349639510922
 21
163.3222971566276
 31
0.0
  0
LINE
  5
1BF4
330
18
100
AcDbEntity
  8
外形線
100
AcDbLine
 10
161.7955151163245
 20
160.4760835782028
 30
0.0
 11
161.7955151163245
 21
155.5760835782029
 31
0.0
  0
CIRCLE
  5
1BF5
330
18
100
AcDbEntity
  8
外形線
100
AcDbCircle
 10
159.7955151163245
 20
160.4760835782028
 30
0.0
 40
0.8
  0
LINE
  5
1BF6
330
18
100
AcDbEntity
  8
外形線
100
AcDbLine
 10
161.7839862291183
 20
160.6905191946106
 30
0.0
 11
161.4623328045067
 21
163.6732258638013
 31
0.0
  0
LINE
  5
1BF7
330
18
100
AcDbEntity
  8
外形線
100
AcDbLine
 10
183.7880857256654
 20
171.4115512990626
 30
0.0
 11
184.4406481866284
 21
170.6538163622002
 31
0.0
  0
LINE
  5
1C6D
330
18
100
AcDbEntity
  8
外形線
100
AcDbLine
 10
141.7955151163244
 20
104.3808732897227
 30
0.0
 11
141.7955151163244
 21
101.4760835782028
 31
0.0
  0
LINE
  5
1C6E
330
18
100
AcDbEntity
  8
外形線
100
AcDbLine
 10
149.7955151163244
 20
104.3808732897227
 30
0.0
 11
149.7955151163244
 21
101.7094360104461
 31
0.0
  0
LINE
  5
1C6F
330
18
100
AcDbEntity
  8
隠れ線2
100
AcDbLine
 10
141.9455151163244
 20
88.47608357820288
 30
0.0
 11
149.6455151163244
 21
88.47608357820284
 31
0.0
  0
LINE
  5
1C70
330
18
100
AcDbEntity
  8
隠れ線2
100
AcDbLine
 10
142.1955151163244
 20
87.47608357820281
 30
0.0
 11
149.3955151163244
 21
87.47608357820288
 31
0.0
  0
LINE
  5
1C71
330
18
100
AcDbEntity
  8
隠れ線2
100
AcDbLine
 10
141.7955151163244
 20
89.97608357820281
 30
0.0
 11
149.7955151163244
 21
89.97608357820288
 31
0.0
  0
LINE
  5
1C72
330
18
100
AcDbEntity
  8
隠れ線2
100
AcDbLine
 10
142.3955151163243
 20
85.47608357820282
 30
0.0
 11
149.1955151163244
 21
85.47608357820282
 31
0.0
  0
LINE
  5
1C73
330
18
100
AcDbEntity
  8
隠れ線2
100
AcDbLine
 10
142.1955151163244
 20
87.47608357820285
 30
0.0
 11
142.1955151163244
 21
85.67608357820281
 31
0.0
  0
LINE
  5
1C74
330
18
100
AcDbEntity
  8
隠れ線2
100
AcDbLine
 10
142.1955151163244
 20
85.67608357820281
 30
0.0
 11
142.3955151163243
 21
85.47608357820282
 31
0.0
  0
ARC
  5
1C75
330
18
100
AcDbEntity
  8
隠れ線2
100
AcDbCircle
 10
142.0705151163244
 20
87.97608357820285
 30
0.0
 40
0.5153882032022076
100
AcDbArc
 50
284.0362434679264
 51
104.0362434679264
  0
LINE
  5
1C76
330
18
100
AcDbEntity
  8
隠れ線2
100
AcDbLine
 10
141.9455151163244
 20
89.97608357820285
 30
0.0
 11
141.9455151163244
 21
88.47608357820284
 31
0.0
  0
LINE
  5
1C77
330
18
100
AcDbEntity
  8
隠れ線2
100
AcDbLine
 10
149.3955151163244
 20
85.67608357820281
 30
0.0
 11
149.3955151163244
 21
87.47608357820285
 31
0.0
  0
LINE
  5
1C78
330
18
100
AcDbEntity
  8
隠れ線2
100
AcDbLine
 10
149.3955151163244
 20
85.67608357820281
 30
0.0
 11
149.1955151163244
 21
85.47608357820282
 31
0.0
  0
ARC
  5
1C79
330
18
100
AcDbEntity
  8
隠れ線2
100
AcDbCircle
 10
149.5205151163244
 20
87.97608357820285
 30
0.0
 40
0.5153882032022076
100
AcDbArc
 50
75.96375653207353
 51
255.9637565320735
  0
LINE
  5
1C7A
330
18
100
AcDbEntity
  8
隠れ線2
100
AcDbLine
 10
149.6455151163244
 20
89.97608357820285
 30
0.0
 11
149.6455151163244
 21
88.47608357820284
 31
0.0
  0
LINE
  5
1C85
330
18
100
AcDbEntity
  8
隠れ線2
100
AcDbLine
 10
147.7955151163243
 20
85.47608357820285
 30
0.0
 11
147.7955151163243
 21
83.47608357820286
 31
0.0
  0
LINE
  5
1C86
330
18
100
AcDbEntity
  8
隠れ線2
100
AcDbLine
 10
143.7955151163244
 20
85.47608357820285
 30
0.0
 11
143.7955151163244
 21
83.47608357820286
 31
0.0
  0
LINE
  5
1C87
330
18
100
AcDbEntity
  8
隠れ線2
100
AcDbLine
 10
149.7955151163244
 20
101.7094360104461
 30
0.0
 11
149.7955151163244
 21
83.47608357820284
 31
0.0
  0
LINE
  5
1CE5
330
18
100
AcDbEntity
  8
外形線
100
AcDbLine
 10
50.93850031648992
 20
83.47608357820284
 30
0.0
 11
50.93850031648992
 21
67.87608357820286
 31
0.0
  0
LINE
  5
1CE6
330
18
100
AcDbEntity
  8
外形線
100
AcDbLine
 10
46.93850031649003
 20
83.47608357820284
 30
0.0
 11
46.93850031649003
 21
67.87608357820286
 31
0.0
  0
LINE
  5
1CE7
330
18
100
AcDbEntity
  8
外形線
100
AcDbLine
 10
48.18850031649003
 20
83.47608357820282
 30
0.0
 11
49.68850031649004
 21
83.47608357820282
 31
0.0
  0
LINE
  5
1CE9
330
18
100
AcDbEntity
  8
外形線
100
AcDbLine
 10
48.18850031649003
 20
85.47608357820283
 30
0.0
 11
49.68850031649004
 21
85.47608357820285
 31
0.0
  0
LINE
  5
1CF3
330
18
100
AcDbEntity
  8
中心線
 48
0.5
100
AcDbLine
 10
40.31874756252503
 20
92.47608357820286
 30
0.0
 11
58.13846818639254
 21
92.47608357820286
 31
0.0
  0
LINE
  5
1CF4
330
18
100
AcDbEntity
  8
外形線
100
AcDbLine
 10
48.18850031649003
 20
94.97608357820286
 30
0.0
 11
49.68850031649004
 21
94.97608357820288
 31
0.0
  0
LINE
  5
1CF5
330
18
100
AcDbEntity
  8
外形線
100
AcDbLine
 10
48.18850031649003
 20
89.97608357820286
 30
0.0
 11
49.68850031649004
 21
89.97608357820288
 31
0.0
  0
LINE
  5
1CF6
330
18
100
AcDbEntity
  8
中心線
 48
0.5
100
AcDbLine
 10
48.18850031649003
 20
94.47608357820286
 30
0.0
 11
49.68850031649004
 21
94.47608357820287
 31
0.0
  0
LINE
  5
1CF7
330
18
100
AcDbEntity
  8
中心線
 48
0.5
100
AcDbLine
 10
48.18850031649003
 20
90.47608357820285
 30
0.0
 11
49.68850031649004
 21
90.47608357820287
 31
0.0
  0
LINE
  5
1CF8
330
18
100
AcDbEntity
  8
外形線
100
AcDbLine
 10
55.43850031649004
 20
96.97608357820286
 30
0.0
 11
54.93850031649003
 21
96.97608357820286
 31
0.0
  0
LINE
  5
1CF9
330
18
100
AcDbEntity
  8
外形線
100
AcDbLine
 10
55.43850031649004
 20
87.97608357820285
 30
0.0
 11
54.93850031649003
 21
87.97608357820285
 31
0.0
  0
LINE
  5
1CFA
330
18
100
AcDbEntity
  8
外形線
100
AcDbLine
 10
56.43850031649003
 20
95.97608357820286
 30
0.0
 11
56.43850031649003
 21
88.97608357820287
 31
0.0
  0
ARC
  5
1CFB
330
18
100
AcDbEntity
  8
外形線
100
AcDbCircle
 10
55.43850031649004
 20
95.97608357820286
 30
0.0
 40
1.0
100
AcDbArc
 50
0.0
 51
90.0
  0
ARC
  5
1CFC
330
18
100
AcDbEntity
  8
外形線
100
AcDbCircle
 10
55.43850031649004
 20
88.97608357820287
 30
0.0
 40
1.0
100
AcDbArc
 50
270.0
 51
0.0
  0
LINE
  5
1CFD
330
18
100
AcDbEntity
  8
隠れ線2
 48
0.1
100
AcDbLine
 10
55.60880234382421
 20
92.47608357820286
 30
0.0
 11
56.43850031649003
 21
93.3057815508687
 31
0.0
  0
LINE
  5
1CFE
330
18
100
AcDbEntity
  8
隠れ線2
 48
0.1
100
AcDbLine
 10
55.60880234382421
 20
92.47608357820286
 30
0.0
 11
56.43850031649003
 21
91.64638560553703
 31
0.0
  0
LINE
  5
1CFF
330
18
100
AcDbEntity
  8
外形線
100
AcDbLine
 10
138.6937930565977
 20
90.57780563792952
 30
0.0
 11
134.8972371760511
 21
94.37436151847618
 31
0.0
  0
LINE
  5
1D00
330
18
100
AcDbEntity
  8
外形線
100
AcDbLine
 10
134.897237176051
 20
90.57780563792954
 30
0.0
 11
138.6937930565977
 21
94.37436151847618
 31
0.0
  0
DIMENSION
  5
1D25
330
18
100
AcDbEntity
  8
外形線
100
AcDbDimension
  2
*D14
 10
111.7367200009025
 20
83.47608357820286
 30
0.0
 11
109.8617200009025
 21
92.47608357820288
 31
0.0
 70
    32
 71
     5
 42
18.0
  3
STYLE3
100
AcDbAlignedDimension
 13
136.7955151163244
 23
101.4760835782028
 33
0.0
 14
136.7955151163244
 24
83.47608357820286
 34
0.0
 50
90.0
100
AcDbRotatedDimension
1001
ACAD
1000
DSTYLE
1002
{
1070
    75
1070
     1
1070
   271
1070
     2
1070
   279
1070
     1
1002
}
  0
DIMENSION
  5
1D31
330
18
100
AcDbEntity
  8
外形線
100
AcDbDimension
  2
*D15
 10
111.7367200009025
 20
53.47608357820287
 30
0.0
 11
109.8617200009025
 21
68.47608357820289
 31
0.0
 70
    32
 71
     5
 42
30.0
  3
STYLE3
100
AcDbAlignedDimension
 13
136.7955151163244
 23
83.47608357820286
 33
0.0
 14
137.9297765830498
 24
53.47608357820286
 34
0.0
 50
90.0
100
AcDbRotatedDimension
1001
ACAD
1000
DSTYLE
1002
{
1070
    75
1070
     1
1070
   271
1070
     2
1070
   279
1070
     1
1002
}
  0
DIMENSION
  5
1D3D
330
18
100
AcDbEntity
  8
外形線
100
AcDbDimension
  2
*D16
 10
111.7367200009025
 20
44.47608357820288
 30
0.0
 11
109.8617200009025
 21
48.97608357820289
 31
0.0
 70
    32
 71
     5
 42
8.999999999999985
  3
STYLE3
100
AcDbAlignedDimension
 13
137.9297765830498
 23
53.47608357820286
 33
0.0
 14
195.7955151163244
 24
44.47608357820286
 34
0.0
 50
90.0
100
AcDbRotatedDimension
1001
ACAD
1000
DSTYLE
1002
{
1070
    75
1070
     1
1070
   271
1070
     2
1070
   279
1070
     1
1002
}
  0
POINT
  5
1D8A
330
18
100
AcDbEntity
  8
DEFPOINTS
  6
ByBlock
 62
     0
100
AcDbPoint
 10
145.7955151163244
 20
50.97608357820286
 30
0.0
  0
DIMENSION
  5
1D99
330
18
100
AcDbEntity
  8
外形線
100
AcDbDimension
  2
*D17
 10
195.7955151163244
 20
37.74928361175824
 30
0.0
 11
170.7955151163244
 21
39.62428361175824
 31
0.0
 70
    32
 71
     5
 42
50.0
  3
STYLE3
100
AcDbAlignedDimension
 13
145.7955151163244
 23
47.93827822733505
 33
0.0
 14
195.7955151163244
 24
44.47608357820286
 34
0.0
100
AcDbRotatedDimension
1001
ACAD
1000
DSTYLE
1002
{
1070
   271
1070
     2
1002
}
  0
DIMENSION
  5
1DA5
330
18
100
AcDbEntity
  8
外形線
100
AcDbDimension
  2
*D18
 10
213.7955151163244
 20
37.74928361175824
 30
0.0
 11
204.7955151163244
 21
39.62428361175824
 31
0.0
 70
    32
 71
     5
 42
18.00000000000003
  3
STYLE3
100
AcDbAlignedDimension
 13
195.7955151163244
 23
44.47608357820286
 33
0.0
 14
213.7955151163244
 24
44.47608357820286
 34
0.0
100
AcDbRotatedDimension
1001
ACAD
1000
DSTYLE
1002
{
1070
    75
1070
     1
1070
   271
1070
     2
1070
   279
1070
     1
1002
}
  0
LINE
  5
1DA6
330
18
100
AcDbEntity
  8
外形線
100
AcDbLine
 10
195.7955151163244
 20
62.47608357820286
 30
0.0
 11
213.9335736147029
 21
62.47608357820286
 31
0.0
  0
LINE
  5
1E48
330
18
100
AcDbEntity
  8
外形線
100
AcDbLine
 10
140.7955151163244
 20
57.87608357820286
 30
0.0
 11
140.7955151163244
 21
49.07608357820286
 31
0.0
  0
LINE
  5
1E49
330
18
100
AcDbEntity
  8
外形線
100
AcDbLine
 10
150.7955151163244
 20
57.87608357820286
 30
0.0
 11
150.7955151163244
 21
57.87608357820286
 31
0.0
  0
LINE
  5
1E4A
330
18
100
AcDbEntity
  8
外形線
100
AcDbLine
 10
140.7955151163244
 20
57.87608357820286
 30
0.0
 11
150.7955151163244
 21
57.87608357820286
 31
0.0
  0
LINE
  5
1E4B
330
18
100
AcDbEntity
  8
外形線
100
AcDbLine
 10
140.7955151163244
 20
49.07608357820286
 30
0.0
 11
150.7955151163244
 21
49.07608357820286
 31
0.0
  0
LINE
  5
1E4E
330
18
100
AcDbEntity
  8
外形線
100
AcDbLine
 10
151.2955151163244
 20
57.37608357820286
 30
0.0
 11
195.2955151163244
 21
57.37608357820284
 31
0.0
  0
LINE
  5
1E4F
330
18
100
AcDbEntity
  8
外形線
100
AcDbLine
 10
151.2955151163244
 20
49.57608357820285
 30
0.0
 11
195.2955151163244
 21
49.57608357820285
 31
0.0
  0
LINE
  5
1E51
330
18
100
AcDbEntity
  8
外形線
100
AcDbLine
 10
150.7955151163244
 20
49.07608357820286
 30
0.0
 11
150.7955151163244
 21
49.07608357820286
 31
0.0
  0
LINE
  5
1E52
330
18
100
AcDbEntity
  8
外形線
100
AcDbLine
 10
150.7955151163244
 20
57.87608357820289
 30
0.0
 11
150.7955151163244
 21
49.07608357820286
 31
0.0
  0
ARC
  5
1E53
330
18
100
AcDbEntity
  8
外形線
100
AcDbCircle
 10
151.2955151163244
 20
49.07608357820286
 30
0.0
 40
0.5
100
AcDbArc
 50
89.99999999999998
 51
180.0
  0
ARC
  5
1E54
330
18
100
AcDbEntity
  8
外形線
100
AcDbCircle
 10
151.2955151163244
 20
57.87608357820286
 30
0.0
 40
0.5
100
AcDbArc
 50
180.0
 51
270.0
  0
LINE
  5
1E56
330
18
100
AcDbEntity
  8
外形線
100
AcDbLine
 10
195.7955151163244
 20
57.87608357820284
 30
0.0
 11
195.7955151163244
 21
47.71263085145193
 31
0.0
  0
LINE
  5
1E57
330
18
100
AcDbEntity
  8
外形線
100
AcDbLine
 10
195.7955151163244
 20
47.69652349517889
 30
0.0
 11
195.7955151163244
 21
44.47608357820286
 31
0.0
  0
ARC
  5
1E58
330
18
100
AcDbEntity
  8
外形線
100
AcDbCircle
 10
195.2955151163244
 20
49.07608357820286
 30
0.0
 40
0.5
100
AcDbArc
 50
0.0
 51
90.0
  0
ARC
  5
1E59
330
18
100
AcDbEntity
  8
外形線
100
AcDbCircle
 10
195.2955151163244
 20
57.87608357820284
 30
0.0
 40
0.5
100
AcDbArc
 50
270.0
 51
0.0
  0
CIRCLE
  5
1E9A
330
18
100
AcDbEntity
  8
外形線
100
AcDbCircle
 10
48.93850031649003
 20
53.47608357820286
 30
0.0
 40
4.4
  0
LINE
  5
1EC7
330
18
100
AcDbEntity
  8
0
  6
ByBlock
 62
     2
100
AcDbLine
 10
140.7955151163244
 20
57.87608357820286
 30
0.0
 11
129.5213987313367
 21
57.87608357820286
 31
0.0
  0
LINE
  5
1EC8
330
18
100
AcDbEntity
  8
0
  6
ByBlock
 62
     2
100
AcDbLine
 10
140.7955151163244
 20
49.07608357820286
 30
0.0
 11
129.5213987313367
 21
49.07608357820286
 31
0.0
  0
LINE
  5
1EC9
330
18
100
AcDbEntity
  8
0
  6
ByBlock
 62
     2
100
AcDbLine
 10
130.7713987313367
 20
55.37608357820286
 30
0.0
 11
130.7713987313367
 21
51.57608357820286
 31
0.0
  0
LINE
  5
1ECA
330
18
100
AcDbEntity
  8
0
  6
ByBlock
 62
     2
100
AcDbLine
 10
130.7713987313367
 20
66.86839388496344
 30
0.0
 11
130.7713987313367
 21
57.87608357820286
 31
0.0
  0
INSERT
  5
1ECB
330
18
100
AcDbEntity
  8
0
  6
ByBlock
 62
     2
100
AcDbBlockReference
  2
_OPEN
 10
130.7713987313367
 20
57.87608357820286
 30
0.0
 41
2.5
 42
2.5
 43
2.5
 50
90.0
  0
INSERT
  5
1ECC
330
18
100
AcDbEntity
  8
0
  6
ByBlock
 62
     2
100
AcDbBlockReference
  2
_OPEN
 10
130.7713987313367
 20
49.07608357820286
 30
0.0
 41
2.5
 42
2.5
 43
2.5
 50
270.0
  0
MTEXT
  5
1ECD
330
18
100
AcDbEntity
  8
0
  6
ByBlock
 62
     6
100
AcDbMText
 10
129.0844405507754
 20
62.83431137954704
 30
0.0
 40
2.5
 41
0.0
 71
     5
 72
     1
  1
\A1;φ8.8
  7
STYLE3
 11
0.0000000000000001
 21
1.0
 31
0.0
 73
     1
 44
1.0
  0
POINT
  5
1ECF
330
18
100
AcDbEntity
  8
DEFPOINTS
  6
ByBlock
 62
     0
100
AcDbPoint
 10
140.7955151163244
 20
49.07608357820286
 30
0.0
  0
POINT
  5
1ED0
330
18
100
AcDbEntity
  8
DEFPOINTS
  6
ByBlock
 62
     0
100
AcDbPoint
 10
130.7713987313367
 20
49.07608357820286
 30
0.0
  0
LINE
  5
24BC
330
18
100
AcDbEntity
  8
外形線
100
AcDbLine
 10
145.7955151163244
 20
57.87608357820286
 30
0.0
 11
144.6455151163244
 21
57.87608357820286
 31
0.0
  0
LINE
  5
24BD
330
18
100
AcDbEntity
  8
外形線
100
AcDbLine
 10
145.7955151163244
 20
62.87608357820286
 30
0.0
 11
143.2955151163244
 21
62.87608357820286
 31
0.0
  0
LINE
  5
24BE
330
18
100
AcDbEntity
  8
外形線
100
AcDbLine
 10
143.2955151163244
 20
62.87608357820286
 30
0.0
 11
144.6455151163244
 21
57.87608357820286
 31
0.0
  0
LINE
  5
24BF
330
18
100
AcDbEntity
  8
外形線
100
AcDbLine
 10
148.2955151163244
 20
62.87608357820286
 30
0.0
 11
146.9455151163244
 21
57.87608357820286
 31
0.0
  0
LINE
  5
24C0
330
18
100
AcDbEntity
  8
外形線
100
AcDbLine
 10
145.7955151163244
 20
62.87608357820286
 30
0.0
 11
148.2955151163244
 21
62.87608357820286
 31
0.0
  0
LINE
  5
24C1
330
18
100
AcDbEntity
  8
外形線
100
AcDbLine
 10
145.7955151163244
 20
57.87608357820286
 30
0.0
 11
146.9455151163244
 21
57.87608357820286
 31
0.0
  0
LINE
  5
24C2
330
18
100
AcDbEntity
  8
外形線
100
AcDbLine
 10
143.2955151163244
 20
67.87608357820286
 30
0.0
 11
148.2955151163244
 21
67.87608357820286
 31
0.0
  0
LINE
  5
24C3
330
18
100
AcDbEntity
  8
外形線
100
AcDbLine
 10
148.2955151163244
 20
67.87608357820286
 30
0.0
 11
148.2955151163244
 21
62.87608357820286
 31
0.0
  0
LINE
  5
24C4
330
18
100
AcDbEntity
  8
外形線
100
AcDbLine
 10
143.2955151163244
 20
67.87608357820286
 30
0.0
 11
143.2955151163244
 21
62.87608357820286
 31
0.0
  0
LINE
  5
24C5
330
18
100
AcDbEntity
  8
ﾊｯﾁﾝｸ
 62
     4
100
AcDbLine
 10
143.2955151163244
 20
66.7489054100517
 30
0.0
 11
143.9462917351311
 21
67.87608357820286
 31
0.0
  0
LINE
  5
24C6
330
18
100
AcDbEntity
  8
ﾊｯﾁﾝｸ
 62
     4
100
AcDbLine
 10
143.2955151163244
 20
64.84390541005173
 30
0.0
 11
145.0461439979374
 21
67.87608357820286
 31
0.0
  0
LINE
  5
24C7
330
18
100
AcDbEntity
  8
ﾊｯﾁﾝｸ
 62
     4
100
AcDbLine
 10
143.2955151163244
 20
62.93890541005175
 30
0.0
 11
145.7955151163244
 21
67.26903242897392
 31
0.0
  0
LINE
  5
24C8
330
18
100
AcDbEntity
  8
ﾊｯﾁﾝｸ
 62
     4
100
AcDbLine
 10
144.3590971776017
 20
62.87608357820286
 30
0.0
 11
145.7955151163244
 21
65.36403242897392
 31
0.0
  0
LINE
  5
24C9
330
18
100
AcDbEntity
  8
ﾊｯﾁﾝｸ
 62
     4
100
AcDbLine
 10
145.458949440408
 20
62.87608357820284
 30
0.0
 11
145.7955151163244
 21
63.45903242897396
 31
0.0
  0
LINE
  5
24CA
330
18
100
AcDbEntity
  8
ﾊｯﾁﾝｸ
 62
     4
100
AcDbLine
 10
144.2988954385056
 20
62.87608357820286
 30
0.0
 11
143.2955151163244
 21
65.02783962302351
 31
0.0
  0
LINE
  5
24CB
330
18
100
AcDbEntity
  8
ﾊｯﾁﾝｸ
 62
     4
100
AcDbLine
 10
145.3498629063174
 20
62.87608357820286
 30
0.0
 11
143.2955151163244
 21
67.28164663097622
 31
0.0
  0
LINE
  5
24CC
330
18
100
AcDbEntity
  8
ﾊｯﾁﾝｸ
 62
     4
100
AcDbLine
 10
145.7955151163244
 20
64.17418633765513
 30
0.0
 11
144.0692920833542
 21
67.87608357820286
 31
0.0
  0
LINE
  5
24CD
330
18
100
AcDbEntity
  8
ﾊｯﾁﾝｸ
 62
     4
100
AcDbLine
 10
145.7955151163244
 20
66.42799334560786
 30
0.0
 11
145.1202595511659
 21
67.87608357820286
 31
0.0
  0
POINT
  5
24CE
330
18
100
AcDbEntity
  8
DEFPOINTS
  6
ByBlock
 62
     0
100
AcDbPoint
 10
144.6455151163244
 20
57.87608357820286
 30
0.0
  0
DIMENSION
  5
24E3
330
18
100
AcDbEntity
  8
外形線
100
AcDbDimension
  2
*D19
 10
111.7367200009025
 20
130.4760835782028
 30
0.0
 11
109.8617200009025
 21
115.9760835782029
 31
0.0
 70
    32
 71
     5
 42
29.0
  3
STYLE3
100
AcDbAlignedDimension
 13
136.7955151163244
 23
101.4760835782028
 33
0.0
 14
115.2153279420821
 24
130.4760835782028
 34
0.0
 50
90.0
100
AcDbRotatedDimension
1001
ACAD
1000
DSTYLE
1002
{
1070
   271
1070
     2
1070
   341
1005
0
1002
}
  0
DIMENSION
  5
24F0
330
18
100
AcDbEntity
  8
外形線
100
AcDbDimension
  2
*D20
 10
104.2372278953183
 20
44.47608357820288
 30
0.0
 11
102.3622278953183
 21
87.4760835782029
 31
0.0
 70
    32
 71
     5
 42
85.99999999999999
  3
STYLE3
100
AcDbAlignedDimension
 13
115.2153279420821
 23
130.4760835782028
 33
0.0
 14
195.7955151163244
 24
44.47608357820286
 34
0.0
 50
90.0
100
AcDbRotatedDimension
1001
ACAD
1000
DSTYLE
1002
{
1070
   271
1070
     2
1070
   341
1005
0
1002
}
  0
HATCH
  5
251C
330
18
100
AcDbEntity
  8
針
100
AcDbHatch
 10
0.0
 20
0.0
 30
0.0
210
0.0
220
0.0
230
1.0
  2
SOLID
 70
     1
 71
     0
 91
        2
 92
        7
 72
     1
 73
     1
 93
        5
 10
145.8855151163243
 20
152.4760835782029
 42
0.0
 10
145.7955151163244
 20
152.4760835782029
 42
0.0
 10
145.7055151163244
 20
152.4760835782029
 42
0.0
 10
145.5300681838294
 20
145.9738104413925
 42
-0.0085634322047721
 10
146.0609620488193
 20
145.9738104413924
 42
0.0
 97
        0
 92
        7
 72
     1
 73
     1
 93
        6
 10
146.0609620488193
 20
145.9738104413924
 42
0.0085634322047721
 10
145.5300681838294
 20
145.9738104413925
 42
0.0
 10
145.1955151163242
 20
133.5748736646715
 42
-0.1293106770632391
 10
144.8072966310719
 20
132.0988664427307
 42
-0.2805221108582334
 10
146.7837336015769
 20
132.0988664427307
 42
-0.1293106770632486
 10
146.3955151163244
 20
133.5748736646716
 42
0.0
 97
        0
 75
     0
 76
     1
 47
0.0423559757596284
 98
        2
 10
145.75495235386
 20
146.6020644535518
 10
145.8821184712515
 20
142.1970429500726
450
        0
451
        0
460
0.0
461
0.0
452
        0
462
0.0
453
        0
470

  0
LINE
  5
251D
330
18
100
AcDbEntity
  8
針
100
AcDbLine
 10
145.7055151163244
 20
152.4760835782029
 30
0.0
 11
145.1955151163242
 21
133.574873664672
 31
0.0
  0
POINT
  5
2520
330
18
100
AcDbEntity
  8
DEFPOINTS
  6
ByBlock
 62
     0
100
AcDbPoint
 10
145.7955151163243
 20
130.4760835782029
 30
0.0
  0
POINT
  5
2521
330
18
100
AcDbEntity
  8
DEFPOINTS
  6
ByBlock
 62
     0
100
AcDbPoint
 10
145.7955151163243
 20
130.4760835782029
 30
0.0
  0
POINT
  5
2522
330
18
100
AcDbEntity
  8
DEFPOINTS
  6
ByBlock
 62
     0
100
AcDbPoint
 10
145.7955151163243
 20
130.4760835782029
 30
0.0
  0
POINT
  5
2523
330
18
100
AcDbEntity
  8
DEFPOINTS
  6
ByBlock
 62
     0
100
AcDbPoint
 10
145.7955151163243
 20
130.4760835782029
 30
0.0
  0
CIRCLE
  5
2524
330
18
100
AcDbEntity
  8
針
100
AcDbCircle
 10
145.7955151163243
 20
130.4760835782029
 30
0.0
 40
0.475
  0
ARC
  5
2525
330
18
100
AcDbEntity
  8
針
100
AcDbCircle
 10
142.1955151163243
 20
133.574873664672
 30
0.0
 40
3.0
100
AcDbArc
 50
330.5277208229603
 51
0.0
  0
ARC
  5
2526
330
18
100
AcDbEntity
  8
針
100
AcDbCircle
 10
149.3955151163244
 20
133.574873664672
 30
0.0
 40
3.0
100
AcDbArc
 50
180.0
 51
209.4722791770395
  0
LINE
  5
26A4
330
18
100
AcDbEntity
  8
外形線
100
AcDbLine
 10
143.7955151163244
 20
83.47608357820286
 30
0.0
 11
143.7955151163244
 21
67.87608357820286
 31
0.0
  0
LINE
  5
26A7
330
18
100
AcDbEntity
  8
外形線
100
AcDbLine
 10
147.7955151163243
 20
83.47608357820288
 30
0.0
 11
147.7955151163243
 21
67.87608357820286
 31
0.0
  0
LINE
  5
26BF
330
18
100
AcDbEntity
  8
外形線
100
AcDbLine
 10
49.68850031649004
 20
85.47608357820285
 30
0.0
 11
48.18850031649003
 21
85.47608357820285
 31
0.0
  0
LINE
  5
26C6
330
18
100
AcDbEntity
  8
外形線
100
AcDbLine
 10
49.68850031649003
 20
88.47608357820284
 30
0.0
 11
48.18850031649003
 21
88.47608357820286
 31
0.0
  0
LINE
  5
26CA
330
18
100
AcDbEntity
  8
外形線
100
AcDbLine
 10
49.68850031649003
 20
89.97608357820283
 30
0.0
 11
48.18850031649003
 21
89.97608357820285
 31
0.0
  0
LINE
  5
26CE
330
18
100
AcDbEntity
  8
外形線
100
AcDbLine
 10
49.68850031649004
 20
87.47608357820283
 30
0.0
 11
48.18850031649003
 21
87.47608357820283
 31
0.0
  0
LINE
  5
26D5
330
18
100
AcDbEntity
  8
外形線
100
AcDbLine
 10
46.43850031649003
 20
67.87608357820286
 30
0.0
 11
51.43850031649003
 21
67.87608357820286
 31
0.0
  0
LINE
  5
26D6
330
18
100
AcDbEntity
  8
外形線
100
AcDbLine
 10
48.93850031649003
 20
57.87608357820286
 30
0.0
 11
47.78850031649006
 21
57.87608357820286
 31
0.0
  0
LINE
  5
26D7
330
18
100
AcDbEntity
  8
外形線
100
AcDbLine
 10
48.93850031649003
 20
62.87608357820286
 30
0.0
 11
46.43850031649003
 21
62.87608357820286
 31
0.0
  0
LINE
  5
26D8
330
18
100
AcDbEntity
  8
外形線
100
AcDbLine
 10
46.43850031649003
 20
62.87608357820286
 30
0.0
 11
47.78850031649006
 21
57.87608357820286
 31
0.0
  0
LINE
  5
26D9
330
18
100
AcDbEntity
  8
外形線
100
AcDbLine
 10
51.43850031649003
 20
62.87608357820286
 30
0.0
 11
50.08850031649007
 21
57.87608357820286
 31
0.0
  0
LINE
  5
26DA
330
18
100
AcDbEntity
  8
外形線
100
AcDbLine
 10
48.93850031649009
 20
62.87608357820286
 30
0.0
 11
51.43850031649003
 21
62.87608357820286
 31
0.0
  0
LINE
  5
26DB
330
18
100
AcDbEntity
  8
外形線
100
AcDbLine
 10
48.93850031649003
 20
57.87608357820286
 30
0.0
 11
50.08850031649007
 21
57.87608357820286
 31
0.0
  0
LINE
  5
26DC
330
18
100
AcDbEntity
  8
外形線
100
AcDbLine
 10
46.43850031649003
 20
67.87608357820286
 30
0.0
 11
51.43850031649003
 21
67.87608357820286
 31
0.0
  0
LINE
  5
26DD
330
18
100
AcDbEntity
  8
外形線
100
AcDbLine
 10
51.43850031649003
 20
67.87608357820286
 30
0.0
 11
51.43850031649003
 21
62.87608357820286
 31
0.0
  0
LINE
  5
26DE
330
18
100
AcDbEntity
  8
外形線
100
AcDbLine
 10
46.43850031649003
 20
67.87608357820286
 30
0.0
 11
46.43850031649003
 21
62.87608357820286
 31
0.0
  0
LINE
  5
26DF
330
18
100
AcDbEntity
  8
ﾊｯﾁﾝｸ
 62
     4
100
AcDbLine
 10
46.43850031649003
 20
66.7489054100517
 30
0.0
 11
47.08927693529676
 21
67.87608357820286
 31
0.0
  0
LINE
  5
26E0
330
18
100
AcDbEntity
  8
ﾊｯﾁﾝｸ
 62
     4
100
AcDbLine
 10
46.43850031649003
 20
64.84390541005173
 30
0.0
 11
48.18912919810305
 21
67.87608357820286
 31
0.0
  0
LINE
  5
26E1
330
18
100
AcDbEntity
  8
ﾊｯﾁﾝｸ
 62
     4
100
AcDbLine
 10
46.43850031649003
 20
62.93890541005175
 30
0.0
 11
48.93850031649003
 21
67.26903242897392
 31
0.0
  0
LINE
  5
26E2
330
18
100
AcDbEntity
  8
ﾊｯﾁﾝｸ
 62
     4
100
AcDbLine
 10
47.50208237776734
 20
62.87608357820286
 30
0.0
 11
48.93850031649003
 21
65.36403242897392
 31
0.0
  0
LINE
  5
26E3
330
18
100
AcDbEntity
  8
ﾊｯﾁﾝｸ
 62
     4
100
AcDbLine
 10
48.60193464057363
 20
62.87608357820284
 30
0.0
 11
48.93850031649003
 21
63.45903242897396
 31
0.0
  0
LINE
  5
26E4
330
18
100
AcDbEntity
  8
ﾊｯﾁﾝｸ
 62
     4
100
AcDbLine
 10
47.44188063867125
 20
62.87608357820286
 30
0.0
 11
46.43850031649003
 21
65.02783962302351
 31
0.0
  0
LINE
  5
26E5
330
18
100
AcDbEntity
  8
ﾊｯﾁﾝｸ
 62
     4
100
AcDbLine
 10
48.49284810648305
 20
62.87608357820286
 30
0.0
 11
46.43850031649003
 21
67.28164663097622
 31
0.0
  0
LINE
  5
26E6
330
18
100
AcDbEntity
  8
ﾊｯﾁﾝｸ
 62
     4
100
AcDbLine
 10
48.93850031649003
 20
64.17418633765513
 30
0.0
 11
47.21227728351983
 21
67.87608357820286
 31
0.0
  0
LINE
  5
26E7
330
18
100
AcDbEntity
  8
ﾊｯﾁﾝｸ
 62
     4
100
AcDbLine
 10
48.93850031649003
 20
66.42799334560786
 30
0.0
 11
48.26324475133157
 21
67.87608357820286
 31
0.0
  0
POINT
  5
26E8
330
18
100
AcDbEntity
  8
DEFPOINTS
  6
ByBlock
 62
     0
100
AcDbPoint
 10
47.78850031649006
 20
57.87608357820286
 30
0.0
  0
DIMENSION
  5
2708
330
18
100
AcDbEntity
  8
外形線
100
AcDbDimension
  2
*D21
 10
137.6075165257241
 20
57.87608357820287
 30
0.0
 11
135.7325165257241
 21
62.87608357820289
 31
0.0
 70
    32
 71
     5
 42
9.999999999999992
  3
STYLE3
100
AcDbAlignedDimension
 13
143.2955151163244
 23
67.87608357820286
 33
0.0
 14
144.6455151163244
 24
57.87608357820286
 34
0.0
 50
90.0
100
AcDbRotatedDimension
1001
ACAD
1000
DSTYLE
1002
{
1070
   271
1070
     2
1070
   341
1005
0
1002
}
  0
HATCH
  5
2720
330
18
100
AcDbEntity
  8
針
100
AcDbHatch
 10
0.0
 20
0.0
 30
0.0
210
0.0
220
0.0
230
1.0
  2
SOLID
 70
     1
 71
     0
 91
        2
 92
        7
 72
     1
 73
     1
 93
        5
 10
145.8855151163243
 20
152.4760835782029
 42
0.0
 10
145.7955151163244
 20
152.4760835782029
 42
0.0
 10
145.7055151163244
 20
152.4760835782029
 42
0.0
 10
145.5300681838294
 20
145.9738104413925
 42
-0.0085634322047721
 10
146.0609620488193
 20
145.9738104413924
 42
0.0
 97
        0
 92
        7
 72
     1
 73
     1
 93
        6
 10
146.0609620488193
 20
145.9738104413924
 42
0.0085634322047721
 10
145.5300681838294
 20
145.9738104413925
 42
0.0
 10
145.1955151163242
 20
133.5748736646715
 42
-0.1293106770632391
 10
144.8072966310719
 20
132.0988664427307
 42
-0.2805221108582334
 10
146.7837336015769
 20
132.0988664427307
 42
-0.1293106770632486
 10
146.3955151163244
 20
133.5748736646716
 42
0.0
 97
        0
 75
     0
 76
     1
 47
0.0423559757596284
 98
        2
 10
145.75495235386
 20
146.6020644535518
 10
145.8821184712515
 20
142.1970429500726
450
        0
451
        0
460
0.0
461
0.0
452
        0
462
0.0
453
        0
470

  0
LINE
  5
2721
330
18
100
AcDbEntity
  8
針
100
AcDbLine
 10
145.7055151163244
 20
152.4760835782029
 30
0.0
 11
145.1955151163243
 21
133.574873664672
 31
0.0
  0
ARC
  5
2724
330
18
100
AcDbEntity
  8
針
100
AcDbCircle
 10
142.1955151163243
 20
133.574873664672
 30
0.0
 40
3.0
100
AcDbArc
 50
330.5277208229603
 51
0.0
  0
ARC
  5
2725
330
18
100
AcDbEntity
  8
針
100
AcDbCircle
 10
149.3955151163244
 20
133.574873664672
 30
0.0
 40
3.0
100
AcDbArc
 50
180.0
 51
209.4722791770395
  0
HATCH
  5
2726
330
18
100
AcDbEntity
  8
針
100
AcDbHatch
 10
0.0
 20
0.0
 30
0.0
210
0.0
220
0.0
230
1.0
  2
SOLID
 70
     1
 71
     0
 91
        2
 92
        7
 72
     1
 73
     1
 93
        5
 10
145.8855151163243
 20
152.4760835782029
 42
0.0
 10
145.7955151163244
 20
152.4760835782029
 42
0.0
 10
145.7055151163244
 20
152.4760835782029
 42
0.0
 10
145.5300681838294
 20
145.9738104413925
 42
-0.0085634322047721
 10
146.0609620488193
 20
145.9738104413924
 42
0.0
 97
        0
 92
        7
 72
     1
 73
     1
 93
        6
 10
146.0609620488193
 20
145.9738104413924
 42
0.0085634322047721
 10
145.5300681838294
 20
145.9738104413925
 42
0.0
 10
145.1955151163242
 20
133.5748736646715
 42
-0.1293106770632391
 10
144.8072966310719
 20
132.0988664427307
 42
-0.2805221108582334
 10
146.7837336015769
 20
132.0988664427307
 42
-0.1293106770632486
 10
146.3955151163244
 20
133.5748736646716
 42
0.0
 97
        0
 75
     0
 76
     1
 47
0.0423559757596284
 98
        2
 10
145.75495235386
 20
146.6020644535518
 10
145.8821184712515
 20
142.1970429500726
450
        0
451
        0
460
0.0
461
0.0
452
        0
462
0.0
453
        0
470

  0
LINE
  5
2727
330
18
100
AcDbEntity
  8
針
100
AcDbLine
 10
145.7055151163244
 20
152.4760835782029
 30
0.0
 11
145.1955151163242
 21
133.574873664672
 31
0.0
  0
ARC
  5
272A
330
18
100
AcDbEntity
  8
針
100
AcDbCircle
 10
142.1955151163243
 20
133.574873664672
 30
0.0
 40
3.0
100
AcDbArc
 50
330.5277208229603
 51
0.0
  0
ARC
  5
272B
330
18
100
AcDbEntity
  8
針
100
AcDbCircle
 10
149.3955151163244
 20
133.574873664672
 30
0.0
 40
3.0
100
AcDbArc
 50
180.0
 51
209.4722791770395
  0
LINE
  5
27B9
330
18
100
AcDbEntity
  8
寸法線
 62
     2
100
AcDbLine
 10
144.6455151163244
 20
57.87608357820285
 30
0.0
 11
154.3394416863637
 21
67.5700101482422
 31
0.0
  0
LINE
  5
27BA
330
18
100
AcDbEntity
  8
寸法線
 62
     2
100
AcDbLine
 10
146.9455151163244
 20
57.87608357820285
 30
0.0
 11
156.6394416863637
 21
67.5700101482422
 31
0.0
  0
LINE
  5
27BB
330
18
100
AcDbEntity
  8
寸法線
 62
     2
100
AcDbLine
 10
151.2459409385923
 20
66.97650940047079
 30
0.0
 11
149.3064229949779
 21
66.97650940047079
 31
0.0
  0
LINE
  5
27BC
330
18
100
AcDbEntity
  8
寸法線
 62
     2
100
AcDbLine
 10
158.5459409385923
 20
66.97650940047079
 30
0.0
 11
166.8146299319197
 21
66.97650940047079
 31
0.0
  0
LINE
  5
27BD
330
18
100
AcDbEntity
  8
寸法線
 62
     2
100
AcDbLine
 10
153.7459409385923
 20
66.97650940047079
 30
0.0
 11
156.0459409385923
 21
66.97650940047079
 31
0.0
  0
INSERT
  5
27BE
330
18
100
AcDbEntity
  8
寸法線
 62
     2
100
AcDbBlockReference
  2
_OPEN
 10
153.7459409385923
 20
66.97650940047079
 30
0.0
 41
2.5
 42
2.5
 43
2.5
  0
INSERT
  5
27BF
330
18
100
AcDbEntity
  8
寸法線
 62
     2
100
AcDbBlockReference
  2
_OPEN
 10
156.0459409385923
 20
66.97650940047079
 30
0.0
 41
2.5
 42
2.5
 43
2.5
 50
180.0
  0
MTEXT
  5
27C0
330
18
100
AcDbEntity
  8
寸法線
 62
     6
100
AcDbMText
 10
162.5981297016428
 20
68.85150940047079
 30
0.0
 40
2.5
 41
0.0
 71
     5
 72
     1
  1
\A1;φ2.3
  7
STYLE3
 73
     1
 44
1.0
  0
HATCH
  5
27D9
330
18
100
AcDbEntity
  8
針
100
AcDbHatch
 10
0.0
 20
0.0
 30
0.0
210
0.0
220
0.0
230
1.0
  2
SOLID
 70
     1
 71
     0
 91
        2
 92
        7
 72
     1
 73
     1
 93
        5
 10
145.8855151163243
 20
152.4760835782029
 42
0.0
 10
145.7955151163244
 20
152.4760835782029
 42
0.0
 10
145.7055151163244
 20
152.4760835782029
 42
0.0
 10
145.5300681838294
 20
145.9738104413925
 42
-0.0085634322047721
 10
146.0609620488193
 20
145.9738104413924
 42
0.0
 97
        0
 92
        7
 72
     1
 73
     1
 93
        6
 10
146.0609620488193
 20
145.9738104413924
 42
0.0085634322047721
 10
145.5300681838294
 20
145.9738104413925
 42
0.0
 10
145.1955151163242
 20
133.5748736646715
 42
-0.1293106770632391
 10
144.8072966310719
 20
132.0988664427307
 42
-0.2805221108582334
 10
146.7837336015769
 20
132.0988664427307
 42
-0.1293106770632486
 10
146.3955151163244
 20
133.5748736646716
 42
0.0
 97
        0
 75
     0
 76
     1
 47
0.0423559757596284
 98
        2
 10
145.75495235386
 20
146.6020644535518
 10
145.8821184712515
 20
142.1970429500726
450
        0
451
        0
460
0.0
461
0.0
452
        0
462
0.0
453
        0
470

  0
CIRCLE
  5
27DA
330
18
100
AcDbEntity
  8
針
100
AcDbCircle
 10
145.7955151163243
 20
130.4760835782028
 30
0.0
 40
1.9
  0
CIRCLE
  5
27DB
330
18
100
AcDbEntity
  8
針
100
AcDbCircle
 10
145.7955151163243
 20
130.4760835782028
 30
0.0
 40
1.5
  0
ARC
  5
27DC
330
18
100
AcDbEntity
  8
針
100
AcDbCircle
 10
142.1955151163243
 20
133.574873664672
 30
0.0
 40
3.0
100
AcDbArc
 50
330.5277208229603
 51
0.0
  0
ARC
  5
27DD
330
18
100
AcDbEntity
  8
針
100
AcDbCircle
 10
149.3955151163244
 20
133.574873664672
 30
0.0
 40
3.0
100
AcDbArc
 50
180.0
 51
209.4722791770395
  0
HATCH
  5
27DE
330
18
100
AcDbEntity
  8
針
100
AcDbHatch
 10
0.0
 20
0.0
 30
0.0
210
0.0
220
0.0
230
1.0
  2
SOLID
 70
     1
 71
     0
 91
        2
 92
        7
 72
     1
 73
     1
 93
        5
 10
145.8855151163243
 20
152.4760835782029
 42
0.0
 10
145.7955151163244
 20
152.4760835782029
 42
0.0
 10
145.7055151163244
 20
152.4760835782029
 42
0.0
 10
145.5300681838294
 20
145.9738104413925
 42
-0.0085634322047721
 10
146.0609620488193
 20
145.9738104413924
 42
0.0
 97
        0
 92
        7
 72
     1
 73
     1
 93
        6
 10
146.0609620488193
 20
145.9738104413924
 42
0.0085634322047721
 10
145.5300681838294
 20
145.9738104413925
 42
0.0
 10
145.1955151163242
 20
133.5748736646715
 42
-0.1293106770632391
 10
144.8072966310719
 20
132.0988664427307
 42
-0.2805221108582334
 10
146.7837336015769
 20
132.0988664427307
 42
-0.1293106770632486
 10
146.3955151163244
 20
133.5748736646716
 42
0.0
 97
        0
 75
     0
 76
     1
 47
0.0423559757596284
 98
        2
 10
145.75495235386
 20
146.6020644535518
 10
145.8821184712515
 20
142.1970429500726
450
        0
451
        0
460
0.0
461
0.0
452
        0
462
0.0
453
        0
470

  0
CIRCLE
  5
27DF
330
18
100
AcDbEntity
  8
針
100
AcDbCircle
 10
145.7955151163243
 20
130.4760835782029
 30
0.0
 40
1.9
  0
ARC
  5
27E1
330
18
100
AcDbEntity
  8
針
100
AcDbCircle
 10
142.1955151163243
 20
133.574873664672
 30
0.0
 40
3.0
100
AcDbArc
 50
330.5277208229603
 51
0.0
  0
ARC
  5
27E2
330
18
100
AcDbEntity
  8
針
100
AcDbCircle
 10
149.3955151163244
 20
133.574873664672
 30
0.0
 40
3.0
100
AcDbArc
 50
180.0
 51
209.4722791770395
  0
HATCH
  5
27E3
330
18
100
AcDbEntity
  8
針
100
AcDbHatch
 10
0.0
 20
0.0
 30
0.0
210
0.0
220
0.0
230
1.0
  2
SOLID
 70
     1
 71
     0
 91
        2
 92
        7
 72
     1
 73
     1
 93
        5
 10
145.8855151163243
 20
152.4760835782029
 42
0.0
 10
145.7955151163244
 20
152.4760835782029
 42
0.0
 10
145.7055151163244
 20
152.4760835782029
 42
0.0
 10
145.5300681838294
 20
145.9738104413925
 42
-0.0085634322047721
 10
146.0609620488193
 20
145.9738104413924
 42
0.0
 97
        0
 92
        7
 72
     1
 73
     1
 93
        6
 10
146.0609620488193
 20
145.9738104413924
 42
0.0085634322047721
 10
145.5300681838294
 20
145.9738104413925
 42
0.0
 10
145.1955151163242
 20
133.5748736646715
 42
-0.1293106770632391
 10
144.8072966310719
 20
132.0988664427307
 42
-0.2805221108582334
 10
146.7837336015769
 20
132.0988664427307
 42
-0.1293106770632486
 10
146.3955151163244
 20
133.5748736646716
 42
0.0
 97
        0
 75
     0
 76
     1
 47
0.0423559757596284
 98
        2
 10
145.75495235386
 20
146.6020644535518
 10
145.8821184712515
 20
142.1970429500726
450
        0
451
        0
460
0.0
461
0.0
452
        0
462
0.0
453
        0
470

  0
CIRCLE
  5
27E4
330
18
100
AcDbEntity
  8
針
100
AcDbCircle
 10
145.7955151163243
 20
130.4760835782028
 30
0.0
 40
1.9
  0
ARC
  5
27E6
330
18
100
AcDbEntity
  8
針
100
AcDbCircle
 10
142.1955151163243
 20
133.574873664672
 30
0.0
 40
3.0
100
AcDbArc
 50
330.5277208229603
 51
0.0
  0
ARC
  5
27E7
330
18
100
AcDbEntity
  8
針
100
AcDbCircle
 10
149.3955151163244
 20
133.574873664672
 30
0.0
 40
3.0
100
AcDbArc
 50
180.0
 51
209.4722791770395
  0
HATCH
  5
27E8
330
18
100
AcDbEntity
  8
針
100
AcDbHatch
 10
0.0
 20
0.0
 30
0.0
210
0.0
220
0.0
230
1.0
  2
SOLID
 70
     1
 71
     0
 91
        2
 92
        7
 72
     1
 73
     1
 93
        5
 10
145.8855151163243
 20
152.4760835782029
 42
0.0
 10
145.7955151163244
 20
152.4760835782029
 42
0.0
 10
145.7055151163244
 20
152.4760835782029
 42
0.0
 10
145.5300681838294
 20
145.9738104413925
 42
-0.0085634322047721
 10
146.0609620488193
 20
145.9738104413924
 42
0.0
 97
        0
 92
        7
 72
     1
 73
     1
 93
        6
 10
146.0609620488193
 20
145.9738104413924
 42
0.0085634322047721
 10
145.5300681838294
 20
145.9738104413925
 42
0.0
 10
145.1955151163242
 20
133.5748736646715
 42
-0.1293106770632391
 10
144.8072966310719
 20
132.0988664427307
 42
-0.2805221108582334
 10
146.7837336015769
 20
132.0988664427307
 42
-0.1293106770632486
 10
146.3955151163244
 20
133.5748736646716
 42
0.0
 97
        0
 75
     0
 76
     1
 47
0.0423559757596284
 98
        2
 10
145.75495235386
 20
146.6020644535518
 10
145.8821184712515
 20
142.1970429500726
450
        0
451
        0
460
0.0
461
0.0
452
        0
462
0.0
453
        0
470

  0
ARC
  5
27EB
330
18
100
AcDbEntity
  8
針
100
AcDbCircle
 10
142.1955151163243
 20
133.574873664672
 30
0.0
 40
3.0
100
AcDbArc
 50
330.5277208229603
 51
0.0
  0
ARC
  5
27EC
330
18
100
AcDbEntity
  8
針
100
AcDbCircle
 10
149.3955151163244
 20
133.574873664672
 30
0.0
 40
3.0
100
AcDbArc
 50
180.0
 51
209.4722791770395
  0
HATCH
  5
2868
330
18
100
AcDbEntity
  8
針
100
AcDbHatch
 10
0.0
 20
0.0
 30
0.0
210
0.0
220
0.0
230
1.0
  2
SOLID
 70
     1
 71
     0
 91
        2
 92
        7
 72
     1
 73
     1
 93
        5
 10
145.8855151163243
 20
152.4760835782029
 42
0.0
 10
145.7955151163244
 20
152.4760835782029
 42
0.0
 10
145.7055151163244
 20
152.4760835782029
 42
0.0
 10
145.5300681838294
 20
145.9738104413925
 42
-0.0085634322047721
 10
146.0609620488193
 20
145.9738104413924
 42
0.0
 97
        0
 92
        7
 72
     1
 73
     1
 93
        6
 10
146.0609620488193
 20
145.9738104413924
 42
0.0085634322047721
 10
145.5300681838294
 20
145.9738104413925
 42
0.0
 10
145.1955151163242
 20
133.5748736646715
 42
-0.1293106770632391
 10
144.8072966310719
 20
132.0988664427307
 42
-0.2805221108582334
 10
146.7837336015769
 20
132.0988664427307
 42
-0.1293106770632486
 10
146.3955151163244
 20
133.5748736646716
 42
0.0
 97
        0
 75
     0
 76
     1
 47
0.0423559757596284
 98
        2
 10
145.75495235386
 20
146.6020644535518
 10
145.8821184712515
 20
142.1970429500726
450
        0
451
        0
460
0.0
461
0.0
452
        0
462
0.0
453
        0
470

  0
LINE
  5
2869
330
18
100
AcDbEntity
  8
針
100
AcDbLine
 10
145.7055151163243
 20
152.476083578203
 30
0.0
 11
145.1955151163242
 21
133.5748736646721
 31
0.0
  0
ARC
  5
286C
330
18
100
AcDbEntity
  8
針
100
AcDbCircle
 10
142.1955151163242
 20
133.5748736646721
 30
0.0
 40
3.0
100
AcDbArc
 50
330.5277208229603
 51
0.0
  0
ARC
  5
286D
330
18
100
AcDbEntity
  8
針
100
AcDbCircle
 10
149.3955151163244
 20
133.5748736646721
 30
0.0
 40
3.0
100
AcDbArc
 50
180.0
 51
209.4722791770395
  0
HATCH
  5
286E
330
18
100
AcDbEntity
  8
針
100
AcDbHatch
 10
0.0
 20
0.0
 30
0.0
210
0.0
220
0.0
230
1.0
  2
SOLID
 70
     1
 71
     0
 91
        2
 92
        7
 72
     1
 73
     1
 93
        5
 10
145.8855151163243
 20
152.4760835782029
 42
0.0
 10
145.7955151163244
 20
152.4760835782029
 42
0.0
 10
145.7055151163244
 20
152.4760835782029
 42
0.0
 10
145.5300681838294
 20
145.9738104413925
 42
-0.0085634322047721
 10
146.0609620488193
 20
145.9738104413924
 42
0.0
 97
        0
 92
        7
 72
     1
 73
     1
 93
        6
 10
146.0609620488193
 20
145.9738104413924
 42
0.0085634322047721
 10
145.5300681838294
 20
145.9738104413925
 42
0.0
 10
145.1955151163242
 20
133.5748736646715
 42
-0.1293106770632391
 10
144.8072966310719
 20
132.0988664427307
 42
-0.2805221108582334
 10
146.7837336015769
 20
132.0988664427307
 42
-0.1293106770632486
 10
146.3955151163244
 20
133.5748736646716
 42
0.0
 97
        0
 75
     0
 76
     1
 47
0.0423559757596284
 98
        2
 10
145.75495235386
 20
146.6020644535518
 10
145.8821184712515
 20
142.1970429500726
450
        0
451
        0
460
0.0
461
0.0
452
        0
462
0.0
453
        0
470

  0
LINE
  5
286F
330
18
100
AcDbEntity
  8
針
100
AcDbLine
 10
145.7055151163243
 20
152.476083578203
 30
0.0
 11
145.1955151163241
 21
133.5748736646722
 31
0.0
  0
ARC
  5
2872
330
18
100
AcDbEntity
  8
針
100
AcDbCircle
 10
142.1955151163242
 20
133.5748736646722
 30
0.0
 40
3.0
100
AcDbArc
 50
330.5277208229603
 51
0.0
  0
ARC
  5
2873
330
18
100
AcDbEntity
  8
針
100
AcDbCircle
 10
149.3955151163243
 20
133.5748736646722
 30
0.0
 40
3.0
100
AcDbArc
 50
180.0
 51
209.4722791770395
  0
HATCH
  5
2874
330
18
100
AcDbEntity
  8
針
100
AcDbHatch
 10
0.0
 20
0.0
 30
0.0
210
0.0
220
0.0
230
1.0
  2
SOLID
 70
     1
 71
     0
 91
        2
 92
        7
 72
     1
 73
     1
 93
        5
 10
145.8855151163243
 20
152.4760835782029
 42
0.0
 10
145.7955151163244
 20
152.4760835782029
 42
0.0
 10
145.7055151163244
 20
152.4760835782029
 42
0.0
 10
145.5300681838294
 20
145.9738104413925
 42
-0.0085634322047721
 10
146.0609620488193
 20
145.9738104413924
 42
0.0
 97
        0
 92
        7
 72
     1
 73
     1
 93
        6
 10
146.0609620488193
 20
145.9738104413924
 42
0.0085634322047721
 10
145.5300681838294
 20
145.9738104413925
 42
0.0
 10
145.1955151163242
 20
133.5748736646715
 42
-0.1293106770632391
 10
144.8072966310719
 20
132.0988664427307
 42
-0.2805221108582334
 10
146.7837336015769
 20
132.0988664427307
 42
-0.1293106770632486
 10
146.3955151163244
 20
133.5748736646716
 42
0.0
 97
        0
 75
     0
 76
     1
 47
0.0423559757596284
 98
        2
 10
145.75495235386
 20
146.6020644535518
 10
145.8821184712515
 20
142.1970429500726
450
        0
451
        0
460
0.0
461
0.0
452
        0
462
0.0
453
        0
470

  0
LINE
  5
2875
330
18
100
AcDbEntity
  8
針
100
AcDbLine
 10
145.7055151163243
 20
152.476083578203
 30
0.0
 11
145.1955151163242
 21
133.5748736646721
 31
0.0
  0
ARC
  5
2878
330
18
100
AcDbEntity
  8
針
100
AcDbCircle
 10
142.1955151163242
 20
133.5748736646721
 30
0.0
 40
3.0
100
AcDbArc
 50
330.5277208229603
 51
0.0
  0
ARC
  5
2879
330
18
100
AcDbEntity
  8
針
100
AcDbCircle
 10
149.3955151163244
 20
133.5748736646721
 30
0.0
 40
3.0
100
AcDbArc
 50
180.0
 51
209.4722791770395
  0
HATCH
  5
287A
330
18
100
AcDbEntity
  8
針
100
AcDbHatch
 10
0.0
 20
0.0
 30
0.0
210
0.0
220
0.0
230
1.0
  2
SOLID
 70
     1
 71
     0
 91
        2
 92
        7
 72
     1
 73
     1
 93
        5
 10
145.8855151163243
 20
152.4760835782029
 42
0.0
 10
145.7955151163244
 20
152.4760835782029
 42
0.0
 10
145.7055151163244
 20
152.4760835782029
 42
0.0
 10
145.5300681838294
 20
145.9738104413925
 42
-0.0085634322047721
 10
146.0609620488193
 20
145.9738104413924
 42
0.0
 97
        0
 92
        7
 72
     1
 73
     1
 93
        6
 10
146.0609620488193
 20
145.9738104413924
 42
0.0085634322047721
 10
145.5300681838294
 20
145.9738104413925
 42
0.0
 10
145.1955151163242
 20
133.5748736646715
 42
-0.1293106770632391
 10
144.8072966310719
 20
132.0988664427307
 42
-0.2805221108582334
 10
146.7837336015769
 20
132.0988664427307
 42
-0.1293106770632486
 10
146.3955151163244
 20
133.5748736646716
 42
0.0
 97
        0
 75
     0
 76
     1
 47
0.0423559757596284
 98
        2
 10
145.75495235386
 20
146.6020644535518
 10
145.8821184712515
 20
142.1970429500726
450
        0
451
        0
460
0.0
461
0.0
452
        0
462
0.0
453
        0
470

  0
LINE
  5
287B
330
18
100
AcDbEntity
  8
針
100
AcDbLine
 10
145.7055151163243
 20
152.476083578203
 30
0.0
 11
145.1955151163241
 21
133.5748736646722
 31
0.0
  0
ARC
  5
287E
330
18
100
AcDbEntity
  8
針
100
AcDbCircle
 10
142.1955151163242
 20
133.5748736646722
 30
0.0
 40
3.0
100
AcDbArc
 50
330.5277208229603
 51
0.0
  0
ARC
  5
287F
330
18
100
AcDbEntity
  8
針
100
AcDbCircle
 10
149.3955151163243
 20
133.5748736646722
 30
0.0
 40
3.0
100
AcDbArc
 50
180.0
 51
209.4722791770395
  0
HATCH
  5
2880
330
18
100
AcDbEntity
  8
針
100
AcDbHatch
 10
0.0
 20
0.0
 30
0.0
210
0.0
220
0.0
230
1.0
  2
SOLID
 70
     1
 71
     0
 91
        2
 92
        7
 72
     1
 73
     1
 93
        5
 10
145.8855151163243
 20
152.4760835782029
 42
0.0
 10
145.7955151163244
 20
152.4760835782029
 42
0.0
 10
145.7055151163244
 20
152.4760835782029
 42
0.0
 10
145.5300681838294
 20
145.9738104413925
 42
-0.0085634322047721
 10
146.0609620488193
 20
145.9738104413924
 42
0.0
 97
        0
 92
        7
 72
     1
 73
     1
 93
        6
 10
146.0609620488193
 20
145.9738104413924
 42
0.0085634322047721
 10
145.5300681838294
 20
145.9738104413925
 42
0.0
 10
145.1955151163242
 20
133.5748736646715
 42
-0.1293106770632391
 10
144.8072966310719
 20
132.0988664427307
 42
-0.2805221108582334
 10
146.7837336015769
 20
132.0988664427307
 42
-0.1293106770632486
 10
146.3955151163244
 20
133.5748736646716
 42
0.0
 97
        0
 75
     0
 76
     1
 47
0.0423559757596284
 98
        2
 10
145.75495235386
 20
146.6020644535518
 10
145.8821184712515
 20
142.1970429500726
450
        0
451
        0
460
0.0
461
0.0
452
        0
462
0.0
453
        0
470

  0
ARC
  5
2883
330
18
100
AcDbEntity
  8
針
100
AcDbCircle
 10
142.1955151163242
 20
133.5748736646721
 30
0.0
 40
3.0
100
AcDbArc
 50
330.5277208229603
 51
0.0
  0
ARC
  5
2884
330
18
100
AcDbEntity
  8
針
100
AcDbCircle
 10
149.3955151163244
 20
133.5748736646721
 30
0.0
 40
3.0
100
AcDbArc
 50
180.0
 51
209.4722791770395
  0
HATCH
  5
2885
330
18
100
AcDbEntity
  8
針
100
AcDbHatch
 10
0.0
 20
0.0
 30
0.0
210
0.0
220
0.0
230
1.0
  2
SOLID
 70
     1
 71
     0
 91
        2
 92
        7
 72
     1
 73
     1
 93
        5
 10
145.8855151163243
 20
152.4760835782029
 42
0.0
 10
145.7955151163244
 20
152.4760835782029
 42
0.0
 10
145.7055151163244
 20
152.4760835782029
 42
0.0
 10
145.5300681838294
 20
145.9738104413925
 42
-0.0085634322047721
 10
146.0609620488193
 20
145.9738104413924
 42
0.0
 97
        0
 92
        7
 72
     1
 73
     1
 93
        6
 10
146.0609620488193
 20
145.9738104413924
 42
0.0085634322047721
 10
145.5300681838294
 20
145.9738104413925
 42
0.0
 10
145.1955151163242
 20
133.5748736646715
 42
-0.1293106770632391
 10
144.8072966310719
 20
132.0988664427307
 42
-0.2805221108582334
 10
146.7837336015769
 20
132.0988664427307
 42
-0.1293106770632486
 10
146.3955151163244
 20
133.5748736646716
 42
0.0
 97
        0
 75
     0
 76
     1
 47
0.0423559757596284
 98
        2
 10
145.75495235386
 20
146.6020644535518
 10
145.8821184712515
 20
142.1970429500726
450
        0
451
        0
460
0.0
461
0.0
452
        0
462
0.0
453
        0
470

  0
ARC
  5
2888
330
18
100
AcDbEntity
  8
針
100
AcDbCircle
 10
142.1955151163242
 20
133.5748736646722
 30
0.0
 40
3.0
100
AcDbArc
 50
330.5277208229603
 51
0.0
  0
ARC
  5
2889
330
18
100
AcDbEntity
  8
針
100
AcDbCircle
 10
149.3955151163243
 20
133.5748736646722
 30
0.0
 40
3.0
100
AcDbArc
 50
180.0
 51
209.4722791770395
  0
HATCH
  5
288A
330
18
100
AcDbEntity
  8
針
100
AcDbHatch
 10
0.0
 20
0.0
 30
0.0
210
0.0
220
0.0
230
1.0
  2
SOLID
 70
     1
 71
     0
 91
        2
 92
        7
 72
     1
 73
     1
 93
        5
 10
145.8855151163243
 20
152.4760835782029
 42
0.0
 10
145.7955151163244
 20
152.4760835782029
 42
0.0
 10
145.7055151163244
 20
152.4760835782029
 42
0.0
 10
145.5300681838294
 20
145.9738104413925
 42
-0.0085634322047721
 10
146.0609620488193
 20
145.9738104413924
 42
0.0
 97
        0
 92
        7
 72
     1
 73
     1
 93
        6
 10
146.0609620488193
 20
145.9738104413924
 42
0.0085634322047721
 10
145.5300681838294
 20
145.9738104413925
 42
0.0
 10
145.1955151163242
 20
133.5748736646715
 42
-0.1293106770632391
 10
144.8072966310719
 20
132.0988664427307
 42
-0.2805221108582334
 10
146.7837336015769
 20
132.0988664427307
 42
-0.1293106770632486
 10
146.3955151163244
 20
133.5748736646716
 42
0.0
 97
        0
 75
     0
 76
     1
 47
0.0423559757596284
 98
        2
 10
145.75495235386
 20
146.6020644535518
 10
145.8821184712515
 20
142.1970429500726
450
        0
451
        0
460
0.0
461
0.0
452
        0
462
0.0
453
        0
470

  0
ARC
  5
288D
330
18
100
AcDbEntity
  8
針
100
AcDbCircle
 10
142.1955151163242
 20
133.5748736646721
 30
0.0
 40
3.0
100
AcDbArc
 50
330.5277208229603
 51
0.0
  0
ARC
  5
288E
330
18
100
AcDbEntity
  8
針
100
AcDbCircle
 10
149.3955151163244
 20
133.5748736646721
 30
0.0
 40
3.0
100
AcDbArc
 50
180.0
 51
209.4722791770395
  0
HATCH
  5
288F
330
18
100
AcDbEntity
  8
針
100
AcDbHatch
 10
0.0
 20
0.0
 30
0.0
210
0.0
220
0.0
230
1.0
  2
SOLID
 70
     1
 71
     0
 91
        2
 92
        7
 72
     1
 73
     1
 93
        5
 10
145.8855151163243
 20
152.4760835782029
 42
0.0
 10
145.7955151163244
 20
152.4760835782029
 42
0.0
 10
145.7055151163244
 20
152.4760835782029
 42
0.0
 10
145.5300681838294
 20
145.9738104413925
 42
-0.0085634322047721
 10
146.0609620488193
 20
145.9738104413924
 42
0.0
 97
        0
 92
        7
 72
     1
 73
     1
 93
        6
 10
146.0609620488193
 20
145.9738104413924
 42
0.0085634322047721
 10
145.5300681838294
 20
145.9738104413925
 42
0.0
 10
145.1955151163242
 20
133.5748736646715
 42
-0.1293106770632391
 10
144.8072966310719
 20
132.0988664427307
 42
-0.2805221108582334
 10
146.7837336015769
 20
132.0988664427307
 42
-0.1293106770632486
 10
146.3955151163244
 20
133.5748736646716
 42
0.0
 97
        0
 75
     0
 76
     1
 47
0.0423559757596284
 98
        2
 10
145.75495235386
 20
146.6020644535518
 10
145.8821184712515
 20
142.1970429500726
450
        0
451
        0
460
0.0
461
0.0
452
        0
462
0.0
453
        0
470

  0
ARC
  5
2892
330
18
100
AcDbEntity
  8
針
100
AcDbCircle
 10
142.1955151163242
 20
133.5748736646722
 30
0.0
 40
3.0
100
AcDbArc
 50
330.5277208229603
 51
0.0
  0
ARC
  5
2893
330
18
100
AcDbEntity
  8
針
100
AcDbCircle
 10
149.3955151163243
 20
133.5748736646722
 30
0.0
 40
3.0
100
AcDbArc
 50
180.0
 51
209.4722791770395
  0
ARC
  5
28CA
330
18
100
AcDbEntity
  8
針
100
AcDbCircle
 10
141.9506547029787
 20
121.866405527767
 30
0.0
 40
0.5
100
AcDbArc
 50
293.7682212975196
 51
359.2065408792653
  0
HATCH
  5
28CB
330
18
100
AcDbEntity
  8
針
100
AcDbHatch
 10
0.0
 20
0.0
 30
0.0
210
0.0
220
0.0
230
1.0
  2
SOLID
 70
     1
 71
     0
 91
        2
 92
        7
 72
     1
 73
     1
 93
        5
 10
142.9481894059685
 20
119.3601808611682
 42
0.31735696877887
 10
143.6953879561006
 20
120.3853868468878
 42
0.0
 10
143.3340572788179
 20
120.6520948969799
 42
0.0
 10
143.3059228246338
 20
120.6425719096281
 42
-0.4142135623731173
 10
142.8359748592635
 20
119.6917044583793
 42
0.0
 97
        0
 92
        7
 72
     1
 73
     1
 93
        4
 10
142.9481894059685
 20
119.3601808611682
 42
0.0
 10
142.8359748592635
 20
119.6917044583793
 42
-0.4142135623730728
 10
141.8851074080148
 20
120.1616524237496
 42
0.0
 10
141.5535838108037
 20
120.0494378770446
 42
0.4142135623730844
 97
        0
 75
     0
 76
     1
 47
0.0161501285364394
 98
        2
 10
143.2570621281504
 20
119.7057823642853
 10
142.5782670572332
 20
119.4930728223346
450
        0
451
        0
460
0.0
461
0.0
452
        0
462
0.0
453
        0
470

  0
HATCH
  5
28CC
330
18
100
AcDbEntity
  8
針
100
AcDbHatch
 10
0.0
 20
0.0
 30
0.0
210
0.0
220
0.0
230
1.0
  2
SOLID
 70
     1
 71
     0
 91
        4
 92
        7
 72
     1
 73
     1
 93
        4
 10
141.5075976666261
 20
120.5647025189315
 42
0.0
 10
141.8537532188028
 20
120.5129692250362
 42
-0.4142135623730951
 10
142.7063721746714
 20
121.1438740642103
 42
0.0
 10
142.7581054685668
 20
121.490029616387
 42
0.4142135623730996
 97
        0
 92
        7
 72
     1
 73
     1
 93
        5
 10
141.8537532188028
 20
120.5129692250362
 42
0.0
 10
141.5075976666261
 20
120.5647025189315
 42
0.3173569687788799
 10
142.0778897479547
 20
119.431512363464
 42
0.0
 10
142.4802677581639
 20
119.6309740871846
 42
0.0
 10
142.484658057977
 20
119.6603502691674
 42
-0.4142135623730839
 97
        0
 92
        7
 72
     1
 73
     1
 93
        4
 10
142.7581054685668
 20
121.490029616387
 42
0.0
 10
142.7063721746714
 20
121.1438740642103
 42
-0.4142135623730951
 10
143.3372770138458
 20
120.2912551083417
 42
0.0
 10
143.6834325660224
 20
120.2395218144464
 42
0.4142135623730996
 97
        0
 92
        7
 72
     1
 73
     1
 93
        4
 10
143.3372770138458
 20
120.2912551083417
 42
-0.1036385141593389
 10
143.230385183737
 20
120.0028127833894
 42
0.0
 10
143.6813868216151
 20
120.2263775951077
 42
0.003023315109616
 10
143.6834325660224
 20
120.2395218144464
 42
0.0
 97
        0
 75
     0
 76
     1
 47
0.0223982890607777
 98
        4
 10
142.0914596153252
 20
121.2538673547576
 10
141.7641046280627
 20
120.1242281536545
 10
143.0228949655164
 20
121.2733158255642
 10
143.4087664222458
 20
120.218401378851
450
        0
451
        0
460
0.0
461
0.0
452
        0
462
0.0
453
        0
470

  0
CIRCLE
  5
28CD
330
18
100
AcDbEntity
  8
針
100
AcDbCircle
 10
142.5955151163243
 20
120.4021121666889
 30
0.0
 40
1.1
  0
CIRCLE
  5
28CE
330
18
100
AcDbEntity
  8
針
100
AcDbCircle
 10
142.5955151163243
 20
120.4021121666889
 30
0.0
 40
0.75
  0
HATCH
  5
28CF
330
18
100
AcDbEntity
  8
針
100
AcDbHatch
 10
0.0
 20
0.0
 30
0.0
210
0.0
220
0.0
230
1.0
  2
SOLID
 70
     1
 71
     0
 91
        1
 92
        7
 72
     1
 73
     1
 93
        7
 10
142.6955151163244
 20
125.102112166689
 42
0.0
 10
142.5955151163243
 20
125.1021121666889
 42
0.0
 10
142.4955151163243
 20
125.1021121666889
 42
0.0
 10
142.4506067586859
 20
121.8594815120185
 42
-0.2935495917910092
 10
142.1521735821491
 20
121.4088138524303
 42
-0.2104432563350663
 10
143.0388559708822
 20
121.4088141517271
 42
-0.2935491884945053
 10
142.7404234739627
 20
121.8594815120185
 42
0.0
 97
        0
 75
     0
 76
     1
 47
0.0140573597042523
 98
        1
 10
142.6541168322217
 20
123.2966722119892
450
        0
451
        0
460
0.0
461
0.0
452
        0
462
0.0
453
        0
470

  0
ARC
  5
28D0
330
18
100
AcDbEntity
  8
針
100
AcDbCircle
 10
143.2403755296698
 20
121.866405527767
 30
0.0
 40
0.5
100
AcDbArc
 50
180.7934591207347
 51
246.2317787024804
  0
TEXT
  5
2973
330
18
100
AcDbEntity
  8
文字
100
AcDbText
 10
76.75896425682751
 20
184.6242273360929
 30
0.0
 40
4.0
  1
Model No.P-3 Dial Pipe Gauge
  7
STYLE3
100
AcDbText
  0
LINE
  5
2974
330
18
100
AcDbEntity
  8
外形線
100
AcDbLine
 10
75.75654025682751
 20
181.6384133360929
 30
0.0
 11
167.7565402568275
 21
181.6384133360929
 31
0.0
  0
LINE
  5
2975
330
18
100
AcDbEntity
  8
外形線
100
AcDbLine
 10
75.75654025682751
 20
182.6384133360929
 30
0.0
 11
167.7565402568275
 21
182.6384133360929
 31
0.0
  0
LINE
  5
2976
330
18
100
AcDbEntity
  8
外形線
100
AcDbLine
 10
117.4881092568275
 20
18.28660933609294
 30
0.0
 11
258.2795272568275
 21
18.28660933609294
 31
0.0
  0
LINE
  5
2977
330
18
100
AcDbEntity
  8
外形線
100
AcDbLine
 10
117.4881092568275
 20
7.506404336092945
 30
0.0
 11
258.2795272568275
 21
7.506404336092945
 31
0.0
  0
TEXT
  5
2978
330
18
100
AcDbEntity
  8
0
  6
Continuous
100
AcDbText
 10
118.9455772568275
 20
9.404394336092943
 30
0.0
 40
2.1
  1
Design and specifications are subject to change without notice for future improvement.
  7
STYLE3
100
AcDbText
  0
TEXT
  5
2979
330
18
100
AcDbEntity
  8
0
  6
Continuous
100
AcDbText
 10
119.2370712568275
 20
13.33354233609294
 30
0.0
 40
3.5
  1
仕様及び外観は予告なく変更される場合がございますのでご了承下さい。
  7
STYLE3
100
AcDbText
  0
TEXT
  5
297A
330
18
100
AcDbEntity
  8
0
  6
Continuous
100
AcDbText
 10
200.4552852568275
 20
1.387908336092944
 30
0.0
 40
2.1
  1
2010.06.16
  7
STYLE3
100
AcDbText
  0
TEXT
  5
297B
330
18
100
AcDbEntity
  8
0
  6
Continuous
100
AcDbText
 10
118.6540852568275
 20
-0.3602336639070558
 30
0.0
 40
2.1
  1
3RD Angle Projection
  7
STYLE3
100
AcDbText
  0
LINE
  5
297C
330
18
100
AcDbEntity
  8
外形線
100
AcDbLine
 10
117.4881092568275
 20
-2.108373663907055
 30
0.0
 11
117.4881092568275
 21
18.28660933609294
 31
0.0
  0
TEXT
  5
297D
330
18
100
AcDbEntity
  8
0
  6
Continuous
100
AcDbText
 10
121.2775282568275
 20
3.136049336092944
 30
0.0
 40
3.0
  1
三　　角　　法
  7
STYLE3
100
AcDbText
  0
LINE
  5
297E
330
18
100
AcDbEntity
  8
外形線
100
AcDbLine
 10
189.7785272568275
 20
7.506404336092945
 30
0.0
 11
189.7785272568275
 21
-2.108373663907055
 31
0.0
  0
LINE
  5
297F
330
18
100
AcDbEntity
  8
外形線
100
AcDbLine
 10
170.2484542568275
 20
7.506404336092945
 30
0.0
 11
170.2484542568275
 21
-2.108373663907055
 31
0.0
  0
LINE
  5
2980
330
18
100
AcDbEntity
  8
外形線
100
AcDbLine
 10
152.7588372568275
 20
7.506404336092945
 30
0.0
 11
152.7588372568275
 21
-2.108373663907055
 31
0.0
  0
TEXT
  5
2981
330
18
100
AcDbEntity
  8
0
  6
Continuous
100
AcDbText
 10
162.2583542568275
 20
1.387910336092943
 30
0.0
 40
2.399999999999999
  1
mm
  7
STYLE3
100
AcDbText
  0
TEXT
  5
2982
330
18
100
AcDbEntity
  8
0
  6
Continuous
100
AcDbText
 10
154.3880272568275
 20
-0.3602326639070561
 30
0.0
 40
2.1
  1
Unit
  7
STYLE3
100
AcDbText
  0
TEXT
  5
2983
330
18
100
AcDbEntity
  8
0
  6
Continuous
100
AcDbText
 10
154.2163062568275
 20
3.142004336092943
 30
0.0
 40
3.0
  1
単位
  7
STYLE3
100
AcDbText
  0
TEXT
  5
2984
330
18
100
AcDbEntity
  8
0
  6
Continuous
100
AcDbText
 10
171.5342022568275
 20
2.850646336092943
 30
0.0
 40
3.0
  1
尺 度
  7
STYLE3
100
AcDbText
  0
TEXT
  5
2985
330
18
100
AcDbEntity
  8
0
  6
Continuous
100
AcDbText
 10
171.9974172568275
 20
-0.0688756639070563
 30
0.0
 40
2.1
  1
Scale
  7
STYLE3
100
AcDbText
  0
TEXT
  5
2986
330
18
100
AcDbEntity
  8
0
  6
Continuous
100
AcDbText
 10
191.7104782568275
 20
-0.3602316639070562
 30
0.0
 40
2.1
  1
Date
  7
STYLE3
100
AcDbText
  0
TEXT
  5
2987
330
18
100
AcDbEntity
  8
0
  6
Continuous
100
AcDbText
 10
191.3271172568275
 20
2.972851336092944
 30
0.0
 40
3.0
  1
日 付
  7
STYLE3
100
AcDbText
  0
TEXT
  5
2988
330
18
100
AcDbEntity
  8
0
  6
Continuous
100
AcDbText
 10
181.6167062568275
 20
1.679267336092943
 30
0.0
 40
2.399999999999999
  1
1/1
  7
STYLE3
100
AcDbText
  0
LINE
  5
2989
330
18
100
AcDbEntity
  8
外形線
100
AcDbLine
 10
219.5108762568275
 20
7.506404336092945
 30
0.0
 11
219.5108762568275
 21
-2.108373663907055
 31
0.0
  0
TEXT
  5
298A
330
18
100
AcDbEntity
  8
0
  6
Continuous
100
AcDbText
 10
221.7343182568275
 20
-0.3602326639070561
 30
0.0
 40
2.1
  1
OZAKI MFG. CO., LTD.
  7
STYLE3
100
AcDbText
  0
TEXT
  5
298B
330
18
100
AcDbEntity
  8
0
  6
Continuous
100
AcDbText
 10
220.8598392568275
 20
3.427406336092944
 30
0.0
 40
3.0
  1
株式会社　尾崎製作所
  7
STYLE3
100
AcDbText
  0
VIEWPORT
  5
177
330
15
100
AcDbEntity
 67
     1
  8
0
100
AcDbViewport
 10
127.5041203589828
 20
97.49391214526822
 30
0.0
 40
418.3086347473814
 41
243.0346063651093
 68
     1
 69
     1
 12
127.5041203589828
 22
97.49391214526822
 13
0.0
 23
0.0
 14
10.0
 24
10.0
 15
10.0
 25
10.0
 16
0.0
 26
0.0
 36
1.0
 17
0.0
 27
0.0
 37
0.0
 42
50.0
 43
0.0
 44
0.0
 45
243.0346063651093
 50
0.0
 51
0.0
 72
   100
 90
    32800
  1

281
     0
 71
     1
 74
     0
110
0.0
120
0.0
130
0.0
111
1.0
121
0.0
131
0.0
112
0.0
122
1.0
132
0.0
 79
     0
146
0.0
170
     0
  0
ENDSEC
  0
SECTION
  2
OBJECTS
  0
DICTIONARY
  5
C
330
0
100
AcDbDictionary
281
     1
  3
ACAD_COLOR
350
1EF8
  3
ACAD_GROUP
350
D
  3
ACAD_IMAGE_DICT
350
5BD
  3
ACAD_LAYOUT
350
1EFB
  3
ACAD_MATERIAL
350
1EF7
  3
ACAD_MLINESTYLE
350
1B
  3
ACAD_PLOTSETTINGS
350
1EFC
  3
ACAD_PLOTSTYLENAME
350
1EF5
  3
ACAD_TABLESTYLE
350
1EF9
  3
ACDBVARIABLEDICTIONARY
350
1790
  0
DICTIONARY
  5
26A5
330
18
100
AcDbDictionary
280
     1
281
     1
  3
ACAD_SORTENTS
360
26A6
  0
DICTIONARY
  5
1EF8
102
{ACAD_REACTORS
330
C
102
}
330
C
100
AcDbDictionary
281
     1
  0
DICTIONARY
  5
D
102
{ACAD_REACTORS
330
C
102
}
330
C
100
AcDbDictionary
281
     1
  0
DICTIONARY
  5
5BD
102
{ACAD_REACTORS
330
C
102
}
330
C
100
AcDbDictionary
281
     1
  3
ROGO01
350
5BE
  0
DICTIONARY
  5
1EFB
102
{ACAD_REACTORS
330
C
102
}
330
C
100
AcDbDictionary
281
     1
  3
Model
350
1EFD
  3
レイアウト1
350
1EFE
  0
DICTIONARY
  5
1EF7
102
{ACAD_REACTORS
330
C
102
}
330
C
100
AcDbDictionary
281
     1
  0
DICTIONARY
  5
1B
102
{ACAD_REACTORS
330
C
102
}
330
C
100
AcDbDictionary
281
     1
  3
STANDARD
350
1C
  0
DICTIONARY
  5
1EFC
102
{ACAD_REACTORS
330
C
102
}
330
C
100
AcDbDictionary
281
     1
  0
ACDBDICTIONARYWDFLT
  5
1EF5
102
{ACAD_REACTORS
330
C
102
}
330
C
100
AcDbDictionary
281
     1
  3
Normal
350
1EF6
100
AcDbDictionaryWithDefault
340
1EF6
  0
DICTIONARY
  5
1EF9
102
{ACAD_REACTORS
330
C
102
}
330
C
100
AcDbDictionary
281
     1
  3
Standard
350
1EFA
  0
DICTIONARY
  5
1790
102
{ACAD_REACTORS
330
C
102
}
330
C
100
AcDbDictionary
281
     1
  3
CTABLESTYLE
350
26D0
  3
SORTENTS
350
1791
  0
SORTENTSTABLE
  5
26A6
102
{ACAD_REACTORS
330
26A5
102
}
330
26A5
100
AcDbSortentsTable
330
18
331
24BE
  5
2524
331
2525
  5
26E8
331
26E4
  5
27BC
331
24C6
  5
26CE
331
1EC7
  5
24CE
331
24CE
  5
26DC
331
2820
  5
21BD
331
1869
  5
186E
331
2828
  5
14A5
331
2AD
  5
2AD
331
27B9
  5
1E47
331
2830
  5
1E9C
331
276
  5
276
331
1B8A
  5
1B8E
331
1B4B
  5
1B4F
331
1B14
  5
1B18
331
1AD5
  5
1AD9
331
1A8E
  5
1AAB
331
1879
  5
187D
331
27E
  5
27E
331
1B53
  5
1B57
331
1ADD
  5
1AE1
331
1881
  5
1A8A
331
180A
  5
1852
331
286
  5
286
331
1BBA
  5
1BBE
331
1B5B
  5
1B5F
331
1B24
  5
1B28
331
1AE5
  5
1AE9
331
1AAE
  5
1AB2
331
8E4
  5
8E4
331
28E
  5
28E
331
1BE3
  5
1BE7
331
1CF9
  5
1CFF
331
1BC2
  5
1BC6
331
1B63
  5
1B67
331
1B2C
  5
1B30
331
1AED
  5
1AF1
331
1AB6
  5
1ABF
331
1C72
  5
1C76
331
1BEB
  5
1BF1
331
1ECF
  5
2520
331
1C7A
  5
1CE5
331
1BF3
  5
1BF7
331
1E48
  5
24BF
331
26D5
  5
2721
331
2724
  5
27E2
331
27D9
  5
27EA
331
1852
  5
185A
331
173B
  5
1740
331
27E1
  5
2826
331
185A
  5
1865
331
1743
  5
17D7
331
1BCA
  5
1BCE
331
1B6B
  5
1B6F
331
1B34
  5
1B38
331
1AF5
  5
1AF9
331
1ABE
  5
1AC2
331
8F4
  5
8F4
331
1862
  5
1869
331
29E
  5
29E
331
1BD2
  5
1BD6
331
1B3C
  5
1B40
331
1AFD
  5
1B01
331
1AC6
  5
1ACA
331
91C
  5
91C
331
2A6
  5
2A6
331
1BDA
  5
1BDE
331
1B7B
  5
1B7F
331
1ACE
  5
1AD2
331
1B05
  5
1B09
331
1D31
  5
1DA7
331
1E58
  5
24CB
331
1B83
  5
1B87
331
1B0D
  5
1B11
331
26DD
  5
2729
331
24BF
  5
2525
331
2526
  5
26F7
331
26E5
  5
27BD
331
1D99
  5
1E26
331
24C7
  5
26D5
331
186A
  5
186F
331
2AE
  5
2AE
331
1872
  5
1879
331
27BA
  5
1E48
331
2831
  5
1EC9
331
277
  5
277
331
1B8B
  5
1BB7
331
1B4C
  5
1B50
331
1B15
  5
1B19
331
1AD6
  5
1ADA
331
187A
  5
187E
331
27F
  5
27F
331
1B54
  5
1B58
331
1ADE
  5
1AE2
331
1882
  5
1A8B
331
180B
  5
1853
331
287
  5
287
331
1BBB
  5
1BBF
331
1B5C
  5
1B60
331
1B25
  5
1B29
331
1AE6
  5
1AEA
331
1AAF
  5
1AB3
331
8E5
  5
8E5
331
28F
  5
28F
331
1CFA
  5
1D00
331
1BE4
  5
1BE8
331
1EC8
  5
24E3
331
1BC3
  5
1BC7
331
1B64
  5
1B68
331
1B2D
  5
1B31
331
1AEE
  5
1AF2
331
1C73
  5
1C77
331
1BEC
  5
1BF2
331
1ED0
  5
2521
331
1BF4
  5
1C6D
331
1E49
  5
24C0
331
26C6
  5
26F9
331
1E51
  5
24C5
331
26CE
  5
2720
331
26D6
  5
2722
331
2725
  5
27E3
331
14A5
  5
1595
331
27DA
  5
27EB
331
1853
  5
1860
331
173C
  5
1742
331
27E2
  5
2827
331
8ED
  5
8ED
331
1744
  5
17D8
331
297
  5
297
331
1BCB
  5
1BCF
331
1B35
  5
1B39
331
1AF6
  5
1AFA
331
1ABF
  5
1AC3
331
8F5
  5
8F5
331
29F
  5
29F
331
1BD3
  5
1BD7
331
1B74
  5
1B78
331
1B3D
  5
1B43
331
1AFE
  5
1B02
331
1AC7
  5
1ACB
331
2A7
  5
2A7
331
1BDB
  5
1BDF
331
1B45
  5
1B49
331
1ACF
  5
1AD3
331
1B06
  5
1B0A
331
1B7C
  5
1B80
331
1E59
  5
24CC
331
1B84
  5
1B88
331
1B0E
  5
1B12
331
26DE
  5
272A
331
1CF3
  5
1CF9
331
1D8A
  5
1E24
331
24C0
  5
2526
331
26E6
  5
27BE
331
24C8
  5
26D6
331
26A7
  5
1CE7
331
2AF
  5
2AF
331
1873
  5
187A
331
1595
  5
1599
331
27BB
  5
1E49
331
2832
  5
1E58
331
278
  5
278
331
1B8C
  5
1BB8
331
1B4D
  5
1B51
331
1B16
  5
1B1A
331
1AD7
  5
1ADB
331
1A90
  5
1AAD
331
187B
  5
187F
331
280
  5
280
331
1B55
  5
1B59
331
1ADF
  5
1AE3
331
288
  5
288
331
1BBC
  5
1BC0
331
1B5D
  5
1B61
331
1B26
  5
1B2A
331
1AB0
  5
1AB4
331
1AE7
  5
1AEB
331
8E6
  5
8E6
331
1CFB
  5
1D25
331
1BE5
  5
1BE9
331
1EC9
  5
24F0
331
1BC4
  5
1BC8
331
1B65
  5
1B69
331
1B2E
  5
1B32
331
1AEF
  5
1AF3
331
1C74
  5
1C78
331
26BF
  5
26F8
331
1BF5
  5
1C6E
331
1E4A
  5
24C1
331
24F0
  5
26DE
331
1E52
  5
24C6
331
26D7
  5
2723
331
2726
  5
27E4
331
27DB
  5
27EC
331
1854
  5
1861
331
173D
  5
1743
331
27E3
  5
2828
331
290
  5
290
331
1AB8
  5
1AC0
331
27EB
  5
2833
331
298
  5
298
331
1BCC
  5
1BD0
331
1B6D
  5
1B71
331
1B36
  5
1B3A
331
1AF7
  5
1AFB
331
1AC0
  5
1AC4
331
8F6
  5
8F6
331
2A0
  5
2A0
331
1BD4
  5
1BD8
331
1B75
  5
1B79
331
1B3E
  5
1B45
331
1AC8
  5
1ACC
331
1AFF
  5
1B03
331
1BDC
  5
1BE0
331
1B46
  5
1B4A
331
1B07
  5
1B0B
331
1B7D
  5
1B81
331
1B85
  5
1B89
331
1B0F
  5
1B13
331
1E9A
  5
24CD
331
2520
  5
26E3
331
26DF
  5
272B
331
1CF4
  5
1CFA
331
24C1
  5
26A4
331
26E7
  5
27BF
331
24C9
  5
26D7
331
26F7
  5
27DA
331
186C
  5
1872
331
2A8
  5
2A8
331
1AD0
  5
1AD4
331
2B0
  5
2B0
331
1596
  5
1736
331
27BC
  5
1E4A
331
2833
  5
1E59
331
279
  5
279
331
1B8D
  5
1BB9
331
1B4E
  5
1B52
331
1B17
  5
1B1B
331
1AD8
  5
1ADC
331
1A91
  5
1AAE
331
187C
  5
1880
331
281
  5
281
331
1B56
  5
1B5A
331
1AE0
  5
1AE4
331
8DF
  5
8DF
331
1736
  5
173D
331
289
  5
289
331
1BBD
  5
1BC1
331
1B5E
  5
1B62
331
1AE8
  5
1AEC
331
1AB1
  5
1AB6
331
1B27
  5
1B2B
331
8E7
  5
8E7
331
1CFC
  5
1D31
331
1C6D
  5
1C71
331
1BE6
  5
1BEA
331
1ECA
  5
251C
331
1BC5
  5
1BC9
331
1B66
  5
1B6A
331
1B2F
  5
1B33
331
1C75
  5
1C79
331
1BF6
  5
1C6F
331
1E4B
  5
24C2
331
1C85
  5
1CE6
331
1E53
  5
24C7
331
2727
  5
27E5
331
27DC
  5
281D
331
638
  5
638
331
173E
  5
1744
331
27E4
  5
282C
331
291
  5
291
331
1AF0
  5
1AF4
331
8EF
  5
8EF
331
1746
  5
1806
331
27EC
  5
2834
331
299
  5
299
331
1B6E
  5
1B72
331
1B37
  5
1B3B
331
1AF8
  5
1AFC
331
1AC1
  5
1AC5
331
1BCD
  5
1BD1
331
6F0
  5
6F0
331
1865
  5
186A
331
2A1
  5
2A1
331
1BD5
  5
1BD9
331
1B76
  5
1B7A
331
1B3F
  5
1B46
331
1AC9
  5
1ACD
331
1B00
  5
1B04
331
26A
  5
26A
331
1BDD
  5
1BE1
331
1B47
  5
1B4B
331
1B08
  5
1B0C
331
1B7E
  5
1B82
331
1CE5
  5
1CF5
331
26D8
  5
2724
331
1B86
  5
1B8A
331
26E0
  5
27B8
331
2521
  5
26E4
331
26E8
  5
27D9
331
1CF5
  5
1CFB
331
24C2
  5
26A7
331
24CA
  5
26D8
331
1102
  5
14A9
331
2A9
  5
2A9
331
282C
  5
1ECA
331
186D
  5
1873
331
1B10
  5
1B14
331
1AD1
  5
1AD5
331
1A8A
  5
1A8E
331
27A
  5
27A
331
27BD
  5
1E4B
331
2834
  5
1E9A
331
1597
  5
1737
331
1B4F
  5
1B53
331
1B18
  5
1B23
331
1AD9
  5
1ADD
331
1A92
  5
1AAF
331
1B8E
  5
1BBA
331
282
  5
282
331
187D
  5
1881
331
1806
  5
180A
331
1B57
  5
1B5B
331
1AE1
  5
1AE5
331
8E0
  5
8E0
331
28A
  5
28A
331
1885
  5
1A8C
331
180E
  5
1854
331
1737
  5
173E
331
1BBE
  5
1BC2
331
1B28
  5
1B2C
331
1AE9
  5
1AED
331
1AB2
  5
1AB8
331
1B5F
  5
1B63
331
1ECB
  5
251D
331
1CFD
  5
1D3D
331
1C6E
  5
1C72
331
1BC6
  5
1BCA
331
1B67
  5
1B6B
331
1BE7
  5
1BEB
331
26F8
  5
27DB
331
1C76
  5
1C7A
331
1BEF
  5
1BF3
331
2708
  5
27DD
331
1BF7
  5
1C70
331
1C86
  5
1CE8
331
1D25
  5
1DA6
331
1E54
  5
24C8
331
2720
  5
27DE
331
27DD
  5
281E
331
8E8
  5
8E8
331
292
  5
292
331
1B30
  5
1B34
331
1AF1
  5
1AF5
331
691
  5
691
331
29A
  5
29A
331
1BCE
  5
1BD2
331
1B38
  5
1B3C
331
1AF9
  5
1AFD
331
1AC2
  5
1AC6
331
1B6F
  5
1B73
331
918
  5
918
331
2A2
  5
2A2
331
177F
  5
1807
331
1866
  5
186C
331
1BD6
  5
1BDA
331
1B40
  5
1B47
331
1ACA
  5
1ACE
331
1B01
  5
1B05
331
1B77
  5
1B7B
331
26B
  5
26B
331
1BDE
  5
1BE2
331
1B09
  5
1B0D
331
1B7F
  5
1B83
331
1B87
  5
1B8B
331
1CE6
  5
1CF6
331
26D9
  5
2725
331
1D3D
  5
1DB6
331
2522
  5
26E5
331
26E1
  5
27B9
331
1CF6
  5
1CFC
331
24C3
  5
26BF
331
24CB
  5
26D9
331
1103
  5
14AA
331
2825
  5
1101
331
273
  5
273
331
186E
  5
1877
331
282D
  5
1ECB
331
17D7
  5
1808
331
1B48
  5
1B4C
331
1B11
  5
1B15
331
1AD2
  5
1AD6
331
1A8B
  5
1A90
331
27B
  5
27B
331
27BE
  5
1E4E
331
1598
  5
173B
331
1B19
  5
1B24
331
1ADA
  5
1ADE
331
1B50
  5
1B54
331
283
  5
283
331
187E
  5
1882
331
1807
  5
180B
331
1BB7
  5
1BBB
331
1B58
  5
1B5C
331
1AE2
  5
1AE6
331
1AAB
  5
1AB0
331
8E1
  5
8E1
331
28B
  5
28B
331
1886
  5
1A8D
331
1B60
  5
1B64
331
1B29
  5
1B2D
331
1AEA
  5
1AEE
331
1AB3
  5
1ABD
331
1BBF
  5
1BC3
331
1BE0
  5
1BE4
331
1DA5
  5
1E27
331
1CFE
  5
1D8A
331
1C6F
  5
1C73
331
1BC7
  5
1BCB
331
1BE8
  5
1BEC
331
1ECC
  5
251E
331
24E3
  5
26DD
331
26F9
  5
27DC
331
1C77
  5
1C85
331
1BF0
  5
1BF4
331
26CA
  5
2708
331
1C87
  5
1CF3
331
2721
  5
27DF
331
F8C
  5
F8C
331
27DE
  5
281F
331
8E9
  5
8E9
331
293
  5
293
331
27E6
  5
282E
331
1740
  5
1746
331
1B31
  5
1B35
331
1AF2
  5
1AF6
331
29B
  5
29B
331
1BCF
  5
1BD3
331
1B70
  5
1B74
331
1AFA
  5
1AFE
331
1AC3
  5
1AC7
331
1B39
  5
1B3D
331
919
  5
919
331
2A3
  5
2A3
331
1BD7
  5
1BDB
331
1B78
  5
1B7C
331
1ACB
  5
1ACF
331
1B02
  5
1B06
331
26C
  5
26C
331
1BDF
  5
1BE3
331
1B80
  5
1B84
331
1B0A
  5
1B0E
331
1CE7
  5
1CF7
331
26DA
  5
2726
331
24BC
  5
2522
331
2523
  5
26E6
331
26E2
  5
27BA
331
1CF7
  5
1CFD
331
24C4
  5
26C6
331
24CC
  5
26DA
331
1104
  5
1591
331
CC5
  5
CC5
331
14A9
  5
1596
331
2826
  5
1102
331
186F
  5
1878
331
17D8
  5
1809
331
1591
  5
1598
331
282E
  5
1ECC
331
274
  5
274
331
1B88
  5
1B8C
331
1B49
  5
1B4D
331
1B12
  5
1B16
331
1AD3
  5
1AD7
331
1A8C
  5
1A91
331
1877
  5
187B
331
1599
  5
173C
331
27BF
  5
1E4F
331
27C
  5
27C
331
1ADB
  5
1ADF
331
1B1A
  5
1B25
331
187F
  5
1885
331
1808
  5
180E
331
284
  5
284
331
1BB8
  5
1BBC
331
1B59
  5
1B5D
331
1AE3
  5
1AE7
331
8E2
  5
8E2
331
28C
  5
28C
331
1BE1
  5
1BE5
331
1BC0
  5
1BC4
331
1B61
  5
1B65
331
1B2A
  5
1B2E
331
1AEB
  5
1AEF
331
1AB4
  5
1ABE
331
1DA6
  5
1E28
331
1CFF
  5
1D99
331
1C70
  5
1C74
331
1BE9
  5
1BEF
331
1ECD
  5
251F
331
1C78
  5
1C86
331
1BF1
  5
1BF5
331
1E46
  5
21BE
331
1E4E
  5
24C3
331
1E56
  5
24C9
331
D7D
  5
D7D
331
F8D
  5
F8D
331
27DF
  5
2820
331
8EA
  5
8EA
331
1858
  5
1862
331
27E7
  5
282F
331
294
  5
294
331
1BC8
  5
1BCC
331
1B69
  5
1B6D
331
1B32
  5
1B36
331
1AF3
  5
1AF7
331
1860
  5
1866
331
29C
  5
29C
331
1BD0
  5
1BD4
331
1B71
  5
1B75
331
1B3A
  5
1B3E
331
1AC4
  5
1AC8
331
1AFB
  5
1AFF
331
91A
  5
91A
331
2A4
  5
2A4
331
1BD8
  5
1BDC
331
1B79
  5
1B7D
331
1ACC
  5
1AD0
331
1B03
  5
1B07
331
1B81
  5
1B85
331
1B0B
  5
1B0F
331
251C
  5
26DF
331
26DB
  5
2727
331
272A
  5
27E8
331
24BD
  5
2523
331
2524
  5
26E7
331
26E3
  5
27BB
331
24C5
  5
26CA
331
26A4
  5
1CE9
331
24CD
  5
26DB
331
281F
  5
1ED0
331
1868
  5
186D
331
14AA
  5
1597
331
2827
  5
1104
331
2AC
  5
2AC
331
282F
  5
1E9B
331
275
  5
275
331
1B89
  5
1B8D
331
1B4A
  5
1B4E
331
1B13
  5
1B17
331
1AD4
  5
1AD8
331
1A8D
  5
1A92
331
1878
  5
187C
331
27D
  5
27D
331
1B52
  5
1B56
331
1B1B
  5
1B26
331
1ADC
  5
1AE0
331
1880
  5
1886
331
1809
  5
1851
331
285
  5
285
331
1BB9
  5
1BBD
331
1B5A
  5
1B5E
331
1B23
  5
1B27
331
1AE4
  5
1AE8
331
1AAD
  5
1AB1
331
8E3
  5
8E3
331
28D
  5
28D
331
1BE2
  5
1BE6
331
1CF8
  5
1CFE
331
1BC1
  5
1BC5
331
1B62
  5
1B66
331
1B2B
  5
1B2F
331
1AEC
  5
1AF0
331
1DA7
  5
1E46
331
1D00
  5
1DA5
331
1C71
  5
1C75
331
1BEA
  5
1BF0
331
1C79
  5
1C87
331
1BF2
  5
1BF6
331
1E47
  5
24BE
331
1E4F
  5
24C4
331
1E57
  5
24CA
331
D1E
  5
D1E
331
27C0
  5
1E52
331
F8E
  5
F8E
331
1851
  5
1858
331
8EB
  5
8EB
331
1742
  5
177F
331
27E8
  5
2830
331
295
  5
295
331
1BC9
  5
1BCD
331
1B6A
  5
1B6E
331
1B33
  5
1B37
331
1AF4
  5
1AF8
331
1ABD
  5
1AC1
331
8F3
  5
8F3
331
1861
  5
1868
331
29D
  5
29D
331
1BD1
  5
1BD5
331
1B72
  5
1B76
331
1B3B
  5
1B3F
331
1AFC
  5
1B00
331
1AC5
  5
1AC9
331
91B
  5
91B
331
2A5
  5
2A5
331
1BD9
  5
1BDD
331
1B43
  5
1B48
331
1ACD
  5
1AD1
331
1B04
  5
1B08
331
1B7A
  5
1B7E
331
1B82
  5
1B86
331
1B0C
  5
1B10
331
1CE9
  5
1CF8
331
251D
  5
26E0
331
26DC
  5
2728
331
272B
  5
27E9
  0
IMAGEDEF
  5
5BE
102
{ACAD_REACTORS
330
5BD
102
}
330
5BD
100
AcDbRasterImageDef
 90
        0
  1
D:\ﾃｽﾄ\rogo01.TIF
 10
3388.0
 20
4668.0
 11
0.0635
 21
0.0635
280
     1
281
     5
  0
LAYOUT
  5
1EFD
102
{ACAD_REACTORS
330
1EFB
102
}
330
1EFB
100
AcDbPlotSettings
  1

  2
A4 EPSON LP-6100.pc3
  4
A4
  6

 40
5.873749732971191
 41
5.873747825622558
 42
5.873748779296875
 43
5.873748779296875
 44
209.9733276367187
 45
297.0106506347656
 46
6.4
 47
5.0
 48
0.0
 49
0.0
140
0.0
141
0.0
142
1.0
143
1.0
 70
 28336
 72
     1
 73
     0
 74
     1
  7
AutoCAD LT 98.ctb
 75
    16
147
1.0
 76
     1
 77
     2
 78
   300
148
-3.960572271562
149
2.970781905678791
100
AcDbLayout
  1
Model
 70
     1
 71
     0
 10
0.0
 20
0.0
 11
12.0
 21
9.0
 12
0.0
 22
0.0
 32
0.0
 14
0.0
 24
0.0
 34
0.0
 15
0.0
 25
0.0
 35
0.0
146
0.0
 13
0.0
 23
0.0
 33
0.0
 16
1.0
 26
0.0
 36
0.0
 17
0.0
 27
1.0
 37
0.0
 76
     0
330
18
1001
ACAD_PSEXT
1000
A4 EPSON LP-6100.pc3
1000
EPSON LP-6100
1000
\\SATO-MATE2
1000

1070
     0
  0
LAYOUT
  5
1EFE
102
{ACAD_REACTORS
330
1EFB
102
}
330
1EFB
100
AcDbPlotSettings
  1

  2
Mytalk FAX
  4

  6

 40
0.0
 41
0.0
 42
0.0
 43
0.0
 44
0.0
 45
0.0
 46
0.0
 47
0.0
 48
0.0
 49
0.0
140
0.0
141
0.0
142
1.0
143
1.0
 70
   688
 72
     0
 73
     0
 74
     5
  7
AutoCAD LT 98.ctb
 75
    16
147
1.0
 76
     0
 77
     2
 78
   300
148
0.0
149
0.0
100
AcDbLayout
  1
レイアウト1
 70
     1
 71
     1
 10
0.0
 20
0.0
 11
420.0
 21
297.0
 12
0.0
 22
0.0
 32
0.0
 14
-0.2
 24
-0.2
 34
0.0
 15
255.2
 25
195.2
 35
0.0
146
0.0
 13
0.0
 23
0.0
 33
0.0
 16
1.0
 26
0.0
 36
0.0
 17
0.0
 27
1.0
 37
0.0
 76
     0
330
15
331
177
  0
MLINESTYLE
  5
1C
102
{ACAD_REACTORS
330
1B
102
}
330
1B
100
AcDbMlineStyle
  2
STANDARD
 70
     0
  3

 62
   256
 51
90.0
 52
90.0
 71
     2
 49
0.5
 62
   256
  6
BYLAYER
 49
-0.5
 62
   256
  6
BYLAYER
  0
ACDBPLACEHOLDER
  5
1EF6
102
{ACAD_REACTORS
330
1EF5
102
}
330
1EF5
  0
ACAD_PROXY_OBJECT
  5
1EFA
102
{ACAD_REACTORS
330
1EF9
102
}
330
1EF9
100
AcDbProxyObject
 90
      499
 91
      505
 95
  2555929
 70
     0
 93
     1849
310
4214DD185B99185C992420000000000000F83F0000000000003E0FC00000000000004901028000000C1008070000C3001FDFF8000000C1003FBFF000000182007F7FE00000030400FEFFC00000060801FDFF8000000C1003FBFF000000182000000000000000C2020B0000001820100E000186003FBFF000000182007F7FE0
310
0000030400FEFFC00000060801FDFF8000000C1003FBFF000000182007F7FE0000003040000000000000012404160000003040201C00030C007F7FE00000030400FEFFC00000060801FDFF8000000C1003FBFF000000182007F7FE00000030400FEFFC000000608000
340
F
340
F
340
F
 94
        0
  0
DICTIONARYVAR
  5
26D0
102
{ACAD_REACTORS
330
1790
102
}
330
1790
100
DictionaryVariables
280
     0
  1
STANDARD
  0
DICTIONARYVAR
  5
1791
102
{ACAD_REACTORS
330
1790
102
}
330
1790
100
DictionaryVariables
280
     0
  1
96
  0
ENDSEC
  0
EOF
