  0
SECTION
  2
HEADER
  9
$ACADVER
  1
AC1018
  9
$ACADMAINTVER
 70
     0
  9
$DWGCODEPAGE
  3
ANSI_932
  9
$INSBASE
 10
0.0
 20
0.0
 30
0.0
  9
$EXTMIN
 10
236.4583261120649
 20
171.6287515666504
 30
-0.000000001396689
  9
$EXTMAX
 10
491.9215858715545
 20
367.0725802714662
 30
0.0000000044238995
  9
$LIMMIN
 10
0.0
 20
0.0
  9
$LIMMAX
 10
420.0
 20
297.0
  9
$ORTHOMODE
 70
     0
  9
$REGENMODE
 70
     1
  9
$FILLMODE
 70
     1
  9
$QTEXTMODE
 70
     0
  9
$MIRRTEXT
 70
     1
  9
$LTSCALE
 40
1.0
  9
$ATTMODE
 70
     1
  9
$TEXTSIZE
 40
1.5
  9
$TRACEWID
 40
1.0
  9
$TEXTSTYLE
  7
STYLE3
  9
$CLAYER
  8
外形線
  9
$CELTYPE
  6
BYLAYER
  9
$CECOLOR
 62
   256
  9
$CELTSCALE
 40
1.0
  9
$DISPSILH
 70
     0
  9
$DIMSCALE
 40
1.0
  9
$DIMASZ
 40
2.5
  9
$DIMEXO
 40
0.0
  9
$DIMDLI
 40
3.75
  9
$DIMRND
 40
0.0
  9
$DIMDLE
 40
0.0
  9
$DIMEXE
 40
1.25
  9
$DIMTP
 40
0.0
  9
$DIMTM
 40
0.0
  9
$DIMTXT
 40
2.5
  9
$DIMCEN
 40
2.5
  9
$DIMTSZ
 40
0.0
  9
$DIMTOL
 70
     0
  9
$DIMLIM
 70
     0
  9
$DIMTIH
 70
     0
  9
$DIMTOH
 70
     0
  9
$DIMSE1
 70
     0
  9
$DIMSE2
 70
     0
  9
$DIMTAD
 70
     1
  9
$DIMZIN
 70
     8
  9
$DIMBLK
  1

  9
$DIMASO
 70
     1
  9
$DIMSHO
 70
     1
  9
$DIMPOST
  1

  9
$DIMAPOST
  1

  9
$DIMALT
 70
     0
  9
$DIMALTD
 70
     4
  9
$DIMALTF
 40
0.0394
  9
$DIMLFAC
 40
1.0
  9
$DIMTOFL
 70
     1
  9
$DIMTVP
 40
0.0
  9
$DIMTIX
 70
     0
  9
$DIMSOXD
 70
     0
  9
$DIMSAH
 70
     1
  9
$DIMBLK1
  1
OPEN
  9
$DIMBLK2
  1
OPEN
  9
$DIMSTYLE
  2
STYLE3
  9
$DIMCLRD
 70
     2
  9
$DIMCLRE
 70
     2
  9
$DIMCLRT
 70
     6
  9
$DIMTFAC
 40
1.0
  9
$DIMGAP
 40
0.625
  9
$DIMJUST
 70
     0
  9
$DIMSD1
 70
     0
  9
$DIMSD2
 70
     0
  9
$DIMTOLJ
 70
     1
  9
$DIMTZIN
 70
     0
  9
$DIMALTZ
 70
     0
  9
$DIMALTTZ
 70
     0
  9
$DIMUPT
 70
     0
  9
$DIMDEC
 70
     2
  9
$DIMTDEC
 70
     4
  9
$DIMALTU
 70
     8
  9
$DIMALTTD
 70
     4
  9
$DIMTXSTY
  7
STYLE3
  9
$DIMAUNIT
 70
     0
  9
$DIMADEC
 70
     0
  9
$DIMALTRND
 40
0.0
  9
$DIMAZIN
 70
     0
  9
$DIMDSEP
 70
    46
  9
$DIMATFIT
 70
     3
  9
$DIMFRAC
 70
     0
  9
$DIMLDRBLK
  1

  9
$DIMLUNIT
 70
     2
  9
$DIMLWD
 70
    -2
  9
$DIMLWE
 70
    -2
  9
$DIMTMOVE
 70
     0
  9
$LUNITS
 70
     2
  9
$LUPREC
 70
     4
  9
$SKETCHINC
 40
1.0
  9
$FILLETRAD
 40
0.0
  9
$AUNITS
 70
     0
  9
$AUPREC
 70
     0
  9
$MENU
  1
.
  9
$ELEVATION
 40
0.0
  9
$PELEVATION
 40
0.0
  9
$THICKNESS
 40
0.0
  9
$LIMCHECK
 70
     0
  9
$CHAMFERA
 40
0.1
  9
$CHAMFERB
 40
0.1
  9
$CHAMFERC
 40
20.0
  9
$CHAMFERD
 40
0.0
  9
$SKPOLY
 70
     0
  9
$TDCREATE
 40
2451066.662483449
  9
$TDUCREATE
 40
2451066.287483449
  9
$TDUPDATE
 40
2455362.690212488
  9
$TDUUPDATE
 40
2455362.315212489
  9
$TDINDWG
 40
0.5368922917
  9
$TDUSRTIMER
 40
0.5368922917
  9
$USRTIMER
 70
     1
  9
$ANGBASE
 50
0.0
  9
$ANGDIR
 70
     0
  9
$PDMODE
 70
     0
  9
$PDSIZE
 40
0.0
  9
$PLINEWID
 40
0.0
  9
$SPLFRAME
 70
     0
  9
$SPLINETYPE
 70
     6
  9
$SPLINESEGS
 70
     8
  9
$HANDSEED
  5
1EE8
  9
$SURFTAB1
 70
     6
  9
$SURFTAB2
 70
     6
  9
$SURFTYPE
 70
     6
  9
$SURFU
 70
     6
  9
$SURFV
 70
     6
  9
$UCSBASE
  2

  9
$UCSNAME
  2

  9
$UCSORG
 10
0.0
 20
0.0
 30
0.0
  9
$UCSXDIR
 10
1.0
 20
0.0
 30
0.0
  9
$UCSYDIR
 10
0.0
 20
1.0
 30
0.0
  9
$UCSORTHOREF
  2

  9
$UCSORTHOVIEW
 70
     0
  9
$UCSORGTOP
 10
0.0
 20
0.0
 30
0.0
  9
$UCSORGBOTTOM
 10
0.0
 20
0.0
 30
0.0
  9
$UCSORGLEFT
 10
0.0
 20
0.0
 30
0.0
  9
$UCSORGRIGHT
 10
0.0
 20
0.0
 30
0.0
  9
$UCSORGFRONT
 10
0.0
 20
0.0
 30
0.0
  9
$UCSORGBACK
 10
0.0
 20
0.0
 30
0.0
  9
$PUCSBASE
  2

  9
$PUCSNAME
  2

  9
$PUCSORG
 10
0.0
 20
0.0
 30
0.0
  9
$PUCSXDIR
 10
1.0
 20
0.0
 30
0.0
  9
$PUCSYDIR
 10
0.0
 20
1.0
 30
0.0
  9
$PUCSORTHOREF
  2

  9
$PUCSORTHOVIEW
 70
     0
  9
$PUCSORGTOP
 10
0.0
 20
0.0
 30
0.0
  9
$PUCSORGBOTTOM
 10
0.0
 20
0.0
 30
0.0
  9
$PUCSORGLEFT
 10
0.0
 20
0.0
 30
0.0
  9
$PUCSORGRIGHT
 10
0.0
 20
0.0
 30
0.0
  9
$PUCSORGFRONT
 10
0.0
 20
0.0
 30
0.0
  9
$PUCSORGBACK
 10
0.0
 20
0.0
 30
0.0
  9
$USERI1
 70
     0
  9
$USERI2
 70
     0
  9
$USERI3
 70
     0
  9
$USERI4
 70
     0
  9
$USERI5
 70
     0
  9
$USERR1
 40
0.0
  9
$USERR2
 40
0.0
  9
$USERR3
 40
0.0
  9
$USERR4
 40
0.0
  9
$USERR5
 40
0.0
  9
$WORLDVIEW
 70
     1
  9
$SHADEDGE
 70
     3
  9
$SHADEDIF
 70
    70
  9
$TILEMODE
 70
     1
  9
$MAXACTVP
 70
    48
  9
$PINSBASE
 10
0.0
 20
0.0
 30
0.0
  9
$PLIMCHECK
 70
     0
  9
$PEXTMIN
 10
1.000000000000000E+20
 20
1.000000000000000E+20
 30
1.000000000000000E+20
  9
$PEXTMAX
 10
-1.000000000000000E+20
 20
-1.000000000000000E+20
 30
-1.000000000000000E+20
  9
$PLIMMIN
 10
0.0
 20
0.0
  9
$PLIMMAX
 10
420.0
 20
297.0
  9
$UNITMODE
 70
     0
  9
$VISRETAIN
 70
     1
  9
$PLINEGEN
 70
     0
  9
$PSLTSCALE
 70
     1
  9
$TREEDEPTH
 70
  3020
  9
$CMLSTYLE
  2
STANDARD
  9
$CMLJUST
 70
     0
  9
$CMLSCALE
 40
20.0
  9
$PROXYGRAPHICS
 70
     1
  9
$MEASUREMENT
 70
     1
  9
$CELWEIGHT
370
    -1
  9
$ENDCAPS
280
     0
  9
$JOINSTYLE
280
     0
  9
$LWDISPLAY
290
     0
  9
$INSUNITS
 70
     0
  9
$HYPERLINKBASE
  1

  9
$STYLESHEET
  1
AutoCAD LT 98.ctb
  9
$XEDIT
290
     1
  9
$CEPSNTYPE
380
     0
  9
$PSTYLEMODE
290
     1
  9
$FINGERPRINTGUID
  2
{9D483025-EF2A-471D-A05D-FFBA57CC3A30}
  9
$VERSIONGUID
  2
{B5142D44-8AAE-4B24-98F1-4E11211F738E}
  9
$EXTNAMES
290
     1
  9
$PSVPSCALE
 40
0.0
  9
$OLESTARTUP
290
     0
  9
$SORTENTS
280
    96
  9
$INDEXCTL
280
     0
  9
$HIDETEXT
280
     0
  9
$XCLIPFRAME
290
     0
  9
$HALOGAP
280
     0
  9
$OBSCOLOR
 70
   257
  9
$OBSLTYPE
280
     0
  9
$INTERSECTIONDISPLAY
280
     0
  9
$INTERSECTIONCOLOR
 70
   257
  9
$DIMASSOC
280
     1
  9
$PROJECTNAME
  1

  0
ENDSEC
  0
SECTION
  2
CLASSES
  0
CLASS
  1
HATCH
  2
AcDbHatch
  3
ObjectDBX Classes
 90
        0
 91
       12
280
     0
281
     1
  0
CLASS
  1
LWPOLYLINE
  2
AcDbPolyline
  3
ObjectDBX Classes
 90
        0
 91
        4
280
     0
281
     1
  0
CLASS
  1
IMAGEDEF
  2
AcDbRasterImageDef
  3
ISM
 90
        0
 91
        1
280
     0
281
     0
  0
CLASS
  1
DICTIONARYVAR
  2
AcDbDictionaryVar
  3
ObjectDBX Classes
 90
        0
 91
        2
280
     0
281
     0
  0
CLASS
  1
ACDBDICTIONARYWDFLT
  2
AcDbDictionaryWithDefault
  3
ObjectDBX Classes
 90
        0
 91
        1
280
     0
281
     0
  0
CLASS
  1
TABLESTYLE
  2
AcDbTableStyle
  3
ObjectDBX Classes
 90
     2047
 91
        1
280
     0
281
     0
  0
CLASS
  1
SORTENTSTABLE
  2
AcDbSortentsTable
  3
ObjectDBX Classes
 90
        0
 91
        2
280
     0
281
     0
  0
ENDSEC
  0
SECTION
  2
TABLES
  0
TABLE
  2
VPORT
  5
8
330
0
100
AcDbSymbolTable
 70
     2
  0
VPORT
  5
1EE7
330
8
100
AcDbSymbolTableRecord
100
AcDbViewportTableRecord
  2
*Active
 70
     0
 10
0.0
 20
0.0
 11
1.0
 21
1.0
 12
364.1899559918097
 22
269.3506659190583
 13
0.0
 23
0.0
 14
10.0
 24
10.0
 15
10.0
 25
10.0
 16
0.0
 26
0.0
 36
1.0
 17
0.0
 27
0.0
 37
0.0
 40
196.9300935618867
 41
1.530456852791878
 42
50.0
 43
0.0
 44
0.0
 50
0.0
 51
0.0
 71
     0
 72
   100
 73
     1
 74
     1
 75
     0
 76
     0
 77
     0
 78
     0
281
     0
 65
     1
110
0.0
120
0.0
130
0.0
111
1.0
121
0.0
131
0.0
112
0.0
122
1.0
132
0.0
 79
     0
146
0.0
  0
ENDTAB
  0
TABLE
  2
LTYPE
  5
5
330
0
100
AcDbSymbolTable
 70
     3
  0
LTYPE
  5
12
330
5
100
AcDbSymbolTableRecord
100
AcDbLinetypeTableRecord
  2
BYBLOCK
 70
     0
  3

 72
    65
 73
     0
 40
0.0
  0
LTYPE
  5
13
330
5
100
AcDbSymbolTableRecord
100
AcDbLinetypeTableRecord
  2
BYLAYER
 70
     0
  3

 72
    65
 73
     0
 40
0.0
  0
LTYPE
  5
14
330
5
100
AcDbSymbolTableRecord
100
AcDbLinetypeTableRecord
  2
CONTINUOUS
 70
     0
  3
Solid line
 72
    65
 73
     0
 40
0.0
  0
LTYPE
  5
22
330
5
100
AcDbSymbolTableRecord
100
AcDbLinetypeTableRecord
  2
CENTER2
 70
     0
  3
Center (.5x) ___ _ ___ _ ___ _ ___ _ ___ _ ___
 72
    65
 73
     4
 40
28.575
 49
19.05
 74
     0
 49
-3.174999999999999
 74
     0
 49
3.174999999999999
 74
     0
 49
-3.174999999999999
 74
     0
  0
LTYPE
  5
23
330
5
100
AcDbSymbolTableRecord
100
AcDbLinetypeTableRecord
  2
HIDDEN2
 70
     0
  3
Hidden (.5x) _ _ _ _ _ _ _ _ _ _ _ _ _ _ _ _ _
 72
    65
 73
     2
 40
4.762499999999999
 49
3.174999999999999
 74
     0
 49
-1.587499999999999
 74
     0
  0
ENDTAB
  0
TABLE
  2
LAYER
  5
2
330
0
100
AcDbSymbolTable
 70
    11
  0
LAYER
  5
E
330
2
100
AcDbSymbolTableRecord
100
AcDbLayerTableRecord
  2
0
 70
     0
 62
     7
  6
CONTINUOUS
370
    -3
390
18AE
  0
LAYER
  5
25
330
2
100
AcDbSymbolTableRecord
100
AcDbLayerTableRecord
  2
外形線
 70
     0
 62
     7
  6
CONTINUOUS
370
    -3
390
18AE
  0
LAYER
  5
26
330
2
100
AcDbSymbolTableRecord
100
AcDbLayerTableRecord
  2
寸法線
 70
     0
 62
     2
  6
CONTINUOUS
370
    -3
390
18AE
  0
LAYER
  5
27
330
2
100
AcDbSymbolTableRecord
100
AcDbLayerTableRecord
  2
中心線
 70
     0
 62
     4
  6
CENTER2
370
    -3
390
18AE
  0
LAYER
  5
28
330
2
100
AcDbSymbolTableRecord
100
AcDbLayerTableRecord
  2
隠れ線
 70
     0
 62
     6
  6
HIDDEN2
370
    -3
390
18AE
  0
LAYER
  5
2B
330
2
100
AcDbSymbolTableRecord
100
AcDbLayerTableRecord
  2
文字
 70
     0
 62
     6
  6
CONTINUOUS
370
    -3
390
18AE
  0
LAYER
  5
2C
330
2
100
AcDbSymbolTableRecord
100
AcDbLayerTableRecord
  2
目盛
 70
     0
 62
    70
  6
CONTINUOUS
370
    -3
390
18AE
  0
LAYER
  5
2D
330
2
100
AcDbSymbolTableRecord
100
AcDbLayerTableRecord
  2
針
 70
     0
 62
     5
  6
CONTINUOUS
370
    -3
390
18AE
  0
LAYER
  5
53
330
2
100
AcDbSymbolTableRecord
100
AcDbLayerTableRecord
  2
DEFPOINTS
 70
     0
 62
     7
  6
CONTINUOUS
290
     0
370
    -3
390
18AE
  0
LAYER
  5
A5
330
2
100
AcDbSymbolTableRecord
100
AcDbLayerTableRecord
  2
C
 70
     0
 62
     7
  6
CONTINUOUS
370
    -3
390
18AE
  0
LAYER
  5
AD4
330
2
100
AcDbSymbolTableRecord
100
AcDbLayerTableRecord
  2
ROGO
 70
     0
 62
     6
  6
CONTINUOUS
370
    -3
390
18AE
  0
ENDTAB
  0
TABLE
  2
STYLE
  5
3
330
0
100
AcDbSymbolTable
 70
     3
  0
STYLE
  5
F
330
3
100
AcDbSymbolTableRecord
100
AcDbTextStyleTableRecord
  2
STANDARD
 70
     0
 40
0.0
 41
1.0
 50
0.0
 71
     0
 42
2.5
  3
txt
  4

  0
STYLE
  5
3F
330
3
100
AcDbSymbolTableRecord
100
AcDbTextStyleTableRecord
  2
STYLE3
 70
     0
 40
0.0
 41
1.0
 50
0.0
 71
     0
 42
1.5
  3
romans.shx
  4
bigfont.shx
  0
ENDTAB
  0
TABLE
  2
VIEW
  5
6
330
0
100
AcDbSymbolTable
 70
     0
  0
ENDTAB
  0
TABLE
  2
UCS
  5
7
330
0
100
AcDbSymbolTable
 70
     0
  0
ENDTAB
  0
TABLE
  2
APPID
  5
9
330
0
100
AcDbSymbolTable
 70
     2
  0
APPID
  5
10
330
9
100
AcDbSymbolTableRecord
100
AcDbRegAppTableRecord
  2
ACAD
 70
     0
  0
APPID
  5
1E18
330
9
100
AcDbSymbolTableRecord
100
AcDbRegAppTableRecord
  2
ACAD_PSEXT
 70
     0
  0
ENDTAB
  0
TABLE
  2
DIMSTYLE
  5
A
330
0
100
AcDbSymbolTable
 70
     3
100
AcDbDimStyleTable
 71
     1
340
8F
  0
DIMSTYLE
105
1D
330
A
100
AcDbSymbolTableRecord
100
AcDbDimStyleTableRecord
  2
STANDARD
 70
     0
 41
2.5
 42
0.625
 43
3.75
 44
1.25
 73
     0
 74
     0
 77
     1
 78
     8
140
2.5
141
2.5
143
0.0394
147
0.625
171
     4
172
     1
273
     8
274
     4
277
     6
340
F
  0
DIMSTYLE
105
8F
102
{ACAD_REACTORS
330
13A0
330
140E
330
1426
330
143E
330
1474
330
15BA
330
15D5
330
1714
330
1721
330
172E
330
173B
102
}
330
A
100
AcDbSymbolTableRecord
100
AcDbDimStyleTableRecord
  2
STYLE3
 70
     0
 41
2.5
 42
0.0
 43
3.75
 44
1.25
 73
     0
 74
     0
 77
     1
 78
     8
140
2.5
141
2.5
143
0.0394
147
0.625
171
     4
172
     1
173
     1
176
     2
177
     2
178
     6
271
     1
273
     8
274
     4
340
3F
341
45
343
45
344
45
  0
ENDTAB
  0
TABLE
  2
BLOCK_RECORD
  5
1
330
0
100
AcDbSymbolTable
 70
    21
  0
BLOCK_RECORD
  5
18
330
1
100
AcDbSymbolTableRecord
100
AcDbBlockTableRecord
  2
*MODEL_SPACE
340
18B5
  0
BLOCK_RECORD
  5
15
330
1
100
AcDbSymbolTableRecord
100
AcDbBlockTableRecord
  2
*PAPER_SPACE
340
18B6
  0
BLOCK_RECORD
  5
45
330
1
100
AcDbSymbolTableRecord
100
AcDbBlockTableRecord
  2
_OPEN
340
0
102
{BLKREFS
331
1463
331
1464
331
1637
331
1638
331
1654
331
1669
331
166A
331
168B
331
168C
331
16B5
331
16B6
331
1E46
331
1E47
331
1E4F
331
1E50
331
1E58
331
1E59
331
1E61
331
1E62
331
1E6A
331
1E6B
331
1E73
331
1E74
331
1E7C
331
1E7D
331
1E85
331
1E86
331
1E8F
331
1E90
331
1E98
331
1E99
331
1EA1
331
1EA2
102
}
  0
BLOCK_RECORD
  5
76E
330
1
100
AcDbSymbolTableRecord
100
AcDbBlockTableRecord
  2
ROGO
340
0
102
{BLKREFS
331
BF6
102
}
  0
BLOCK_RECORD
  5
ADD
330
1
100
AcDbSymbolTableRecord
100
AcDbBlockTableRecord
  2
ROGO1
340
0
102
{BLKREFS
331
B43
331
B44
331
FCB
331
FCC
102
}
  0
BLOCK_RECORD
  5
1394
330
1
100
AcDbSymbolTableRecord
100
AcDbBlockTableRecord
  2
*D4
340
0
  0
BLOCK_RECORD
  5
1402
330
1
100
AcDbSymbolTableRecord
100
AcDbBlockTableRecord
  2
*D5
340
0
  0
BLOCK_RECORD
  5
141A
330
1
100
AcDbSymbolTableRecord
100
AcDbBlockTableRecord
  2
*D6
340
0
  0
BLOCK_RECORD
  5
1432
330
1
100
AcDbSymbolTableRecord
100
AcDbBlockTableRecord
  2
*D7
340
0
  0
BLOCK_RECORD
  5
1468
330
1
100
AcDbSymbolTableRecord
100
AcDbBlockTableRecord
  2
*D8
340
0
  0
BLOCK_RECORD
  5
15AE
330
1
100
AcDbSymbolTableRecord
100
AcDbBlockTableRecord
  2
*D9
340
0
  0
BLOCK_RECORD
  5
15C9
330
1
100
AcDbSymbolTableRecord
100
AcDbBlockTableRecord
  2
*D10
340
0
  0
BLOCK_RECORD
  5
1708
330
1
100
AcDbSymbolTableRecord
100
AcDbBlockTableRecord
  2
*D11
340
0
  0
BLOCK_RECORD
  5
1715
330
1
100
AcDbSymbolTableRecord
100
AcDbBlockTableRecord
  2
*D12
340
0
  0
BLOCK_RECORD
  5
1722
330
1
100
AcDbSymbolTableRecord
100
AcDbBlockTableRecord
  2
*D13
340
0
  0
BLOCK_RECORD
  5
172F
330
1
100
AcDbSymbolTableRecord
100
AcDbBlockTableRecord
  2
*D14
340
0
  0
BLOCK_RECORD
  5
18BB
102
{ACAD_XDICTIONARY
360
18BC
102
}
330
1
100
AcDbSymbolTableRecord
100
AcDbBlockTableRecord
  2
PC_PCN針
340
0
102
{BLKREFS
331
1E13
102
}
  0
ENDTAB
  0
ENDSEC
  0
SECTION
  2
BLOCKS
  0
BLOCK
  5
19
330
18
100
AcDbEntity
  8
0
100
AcDbBlockBegin
  2
*MODEL_SPACE
 70
     0
 10
0.0
 20
0.0
 30
0.0
  3
*MODEL_SPACE
  1

  0
ENDBLK
  5
1A
330
18
100
AcDbEntity
  8
0
100
AcDbBlockEnd
  0
BLOCK
  5
16
330
15
100
AcDbEntity
 67
     1
  8
0
100
AcDbBlockBegin
  2
*PAPER_SPACE
 70
     0
 10
0.0
 20
0.0
 30
0.0
  3
*PAPER_SPACE
  1

  0
ENDBLK
  5
17
330
15
100
AcDbEntity
 67
     1
  8
0
100
AcDbBlockEnd
  0
BLOCK
  5
46
330
45
100
AcDbEntity
  8
0
100
AcDbBlockBegin
  2
_OPEN
 70
     0
 10
0.0
 20
0.0
 30
0.0
  3
_OPEN
  1

  0
LINE
  5
47
330
45
100
AcDbEntity
  8
0
  6
ByBlock
 62
     0
100
AcDbLine
 10
-1.0
 20
0.1666666666666666
 30
0.0
 11
0.0
 21
0.0
 31
0.0
  0
LINE
  5
48
330
45
100
AcDbEntity
  8
0
  6
ByBlock
 62
     0
100
AcDbLine
 10
0.0
 20
0.0
 30
0.0
 11
-1.0
 21
-0.1666666666666666
 31
0.0
  0
LINE
  5
49
330
45
100
AcDbEntity
  8
0
  6
ByBlock
 62
     0
100
AcDbLine
 10
0.0
 20
0.0
 30
0.0
 11
-1.0
 21
0.0
 31
0.0
  0
ENDBLK
  5
4A
330
45
100
AcDbEntity
  8
0
100
AcDbBlockEnd
  0
BLOCK
  5
7C1
330
76E
100
AcDbEntity
  8
0
 48
0.7
100
AcDbBlockBegin
  2
ROGO
 70
     0
 10
0.0
 20
0.0
 30
0.0
  3
ROGO
  1

  0
HATCH
  5
BA4
330
76E
100
AcDbEntity
  8
ROGO
 62
     4
100
AcDbHatch
 10
0.0
 20
0.0
 30
0.0
210
0.0
220
0.0
230
1.0
  2
SOLID
 70
     1
 71
     1
 91
        1
 92
        7
 72
     0
 73
     1
 93
       11
 10
38.38165352405156
 20
4.949786840425588
 10
36.55777800832078
 20
4.949786840425588
 10
35.70378540756275
 20
4.409370842614521
 10
35.97325427788326
 20
4.949786840425588
 10
34.14933885635003
 20
4.949786840425645
 10
31.68121527448045
 20
0.0
 10
33.50513069601385
 20
0.0
 10
34.14933885635003
 20
1.291950329371957
 10
34.79354701668632
 20
0.0
 10
36.61742253241704
 20
0.0
 10
35.38336074148237
 20
2.474893420212765
 97
       11
330
BF2
330
BF5
330
BF4
330
BF3
330
BA9
330
BA6
330
BEF
330
BEE
330
BF0
330
BED
330
BF1
 75
     0
 76
     1
 47
0.0514683685270805
 98
        1
 10
33.99236623130548
 20
2.826231829978155
450
        0
451
        0
460
0.0
461
0.0
452
        0
462
0.0
453
        0
470

  0
HATCH
  5
BA5
330
76E
100
AcDbEntity
  8
ROGO
 62
     4
100
AcDbHatch
 10
0.0
 20
0.0
 30
0.0
210
0.0
220
0.0
230
1.0
  2
SOLID
 70
     1
 71
     1
 91
        1
 92
        5
 93
        8
 72
     1
 10
33.48588559853425
 20
4.949786840425645
 11
30.31359802057352
 21
4.949786840425645
 72
     4
 94
        3
 73
     0
 74
     0
 95
       26
 96
       22
 40
0.0
 40
0.0
 40
0.0
 40
0.0
 40
0.7089867102952115
 40
1.183598414482279
 40
1.525832104103439
 40
1.781366926528389
 40
2.112809002752968
 40
2.354729406992515
 40
2.791581270399936
 40
3.147172406765291
 40
3.389031356825354
 40
3.626186440486682
 40
4.050410779375985
 40
4.350388020238963
 40
4.511948940797758
 40
4.741441456013356
 40
4.907163150576407
 40
5.147239172635527
 40
5.28310143501293
 40
5.578752957634333
 40
5.713750011164293
 40
5.713750011164293
 40
5.713750011164293
 40
5.713750011164293
 10
30.31359802057318
 20
4.949786840425645
 10
30.11854899911117
 20
4.938149881331241
 10
29.7929297608427
 20
4.91872287919773
 10
29.43540181805798
 20
4.70152849352172
 10
29.17345591634097
 20
4.575261222274434
 10
28.98663641691252
 20
4.403611624277345
 10
28.84969696652098
 20
4.226310128312206
 10
28.67705908163674
 20
4.015056695877603
 10
28.53627781964582
 20
3.769060622409767
 10
28.46458648155834
 20
3.497930064177694
 10
28.40108297470425
 20
3.28183743611737
 10
28.35398771091377
 20
3.041030402807223
 10
28.36597007927202
 20
2.780874095348053
 10
28.38312937914947
 20
2.539254235598093
 10
28.45974148051295
 20
2.366773831190926
 10
28.5469890936244
 20
2.243979668736869
 10
28.65382260102928
 20
2.108735512341411
 10
28.77072182070049
 20
2.019163745498303
 10
28.86740701734601
 20
1.85689847078413
 10
29.03665119246222
 20
1.836192251465718
 10
29.14422952328943
 20
1.794980695042454
 10
29.17795251342483
 20
1.782061951090668
 72
     1
 10
29.1779525134246
 20
1.782061951090668
 11
31.90635566072177
 21
1.782061951090724
 72
     1
 10
31.90635566072177
 20
1.782061951090668
 11
32.49403698331935
 21
2.960648509043437
 72
     1
 10
32.49403698331941
 20
2.960648509043437
 11
30.46845823186379
 21
2.960648509043437
 72
     4
 94
        3
 73
     0
 74
     0
 95
       16
 96
       12
 40
0.0
 40
0.0
 40
0.0
 40
0.0
 40
0.2141121027475241
 40
0.4304326162973471
 40
0.5594580803306056
 40
0.6831669452691567
 40
0.8190286678446897
 40
0.9139043619204622
 40
1.003933161420314
 40
1.186498641432482
 40
1.560280494298353
 40
1.560280494298353
 40
1.560280494298353
 40
1.560280494298353
 10
30.46845823186391
 20
2.960648509043437
 10
30.40735963846879
 20
2.978624611086559
 10
30.2845322640714
 20
3.014762225606943
 10
30.27425260468789
 20
3.189944104912854
 10
30.28825715338957
 20
3.314775529002304
 10
30.34690823463126
 20
3.405660095425673
 10
30.41806216907168
 20
3.471790575521367
 10
30.44455593462857
 20
3.557915185941965
 10
30.52243194464864
 20
3.622950041937542
 10
30.66052697686496
 20
3.732264550099898
 10
30.81323617682881
 20
3.755546097864453
 10
30.9158338246271
 20
3.771187801431096
 72
     1
 10
30.91583382462705
 20
3.77118780143121
 11
32.89819805248612
 21
3.77118780143121
 72
     1
 10
32.89819805248612
 20
3.77118780143121
 11
33.48588559853425
 21
4.949786840425701
 97
        8
330
BA7
330
BCB
330
BD7
330
BD0
330
BEB
330
BEA
330
BEC
330
BA8
 75
     0
 76
     1
 47
0.0514683685270805
 98
        1
 10
30.86099532083267
 20
4.369765638819899
450
        0
451
        0
460
0.0
461
0.0
452
        0
462
0.0
453
        0
470

  0
LINE
  5
BA6
102
{ACAD_REACTORS
330
BAA
330
BA4
330
BAF
102
}
330
76E
100
AcDbEntity
  8
ROGO
 62
     4
100
AcDbLine
 10
0.0000000000000568
 20
0.0
 30
0.0
 11
33.50513069601385
 21
0.0
 31
0.0
  0
LINE
  5
BA7
102
{ACAD_REACTORS
330
BA5
102
}
330
76E
100
AcDbEntity
  8
ROGO
 62
     4
100
AcDbLine
 10
30.31359802057415
 20
4.949786840425645
 30
0.0
 11
33.48588559853425
 21
4.949786840425645
 31
0.0
  0
LINE
  5
BA8
102
{ACAD_REACTORS
330
BA5
102
}
330
76E
100
AcDbEntity
  8
ROGO
 62
     4
100
AcDbLine
 10
33.48588559853425
 20
4.949786840425645
 30
0.0
 11
32.89819805248607
 21
3.77118780143121
 31
0.0
  0
LINE
  5
BA9
102
{ACAD_REACTORS
330
BAA
330
BA4
102
}
330
76E
100
AcDbEntity
  8
ROGO
 62
     4
100
AcDbLine
 10
34.14933885635003
 20
4.949786840425645
 30
0.0
 11
31.6812152744804
 21
0.0
 31
0.0
  0
HATCH
  5
BAA
330
76E
100
AcDbEntity
  8
ROGO
 62
     4
100
AcDbHatch
 10
0.0
 20
0.0
 30
0.0
210
0.0
220
0.0
230
1.0
  2
SOLID
 70
     1
 71
     1
 91
        1
 92
        7
 72
     0
 73
     1
 93
        4
 10
31.9286078056424
 20
0.4961422127159381
 10
2.525341286638024
 20
0.4961422127159381
 10
2.30087247590319
 20
-0.0000000000000568
 10
31.68121527448045
 20
-0.0000000000000568
 97
        4
330
BAE
330
BB8
330
BA6
330
BA9
 75
     0
 76
     1
 47
0.0514683685270805
 98
        1
 10
21.09111831761885
 20
0.3649205710345882
450
        0
451
        0
460
0.0
461
0.0
452
        0
462
0.0
453
        0
470

  0
HATCH
  5
BAB
330
76E
100
AcDbEntity
  8
ROGO
 62
     4
100
AcDbHatch
 10
0.0
 20
0.0
 30
0.0
210
0.0
220
0.0
230
1.0
  2
SOLID
 70
     1
 71
     1
 91
        2
 92
        7
 72
     0
 73
     1
 93
        8
 10
15.99342784516449
 20
4.949786840425645
 10
14.16260675403379
 20
4.949786840425645
 10
11.87829877231911
 20
1.782061951090668
 10
13.63265136986962
 20
1.782061951090668
 10
14.06756947612285
 20
2.38517717067981
 10
16.08846512307536
 20
2.385177170679696
 10
16.52338322932866
 20
1.782061951090668
 10
18.27773582687916
 20
1.782061951090668
 97
        8
330
BAD
330
BB5
330
BBA
330
BB6
330
BAC
330
BCE
330
BD4
330
BCD
 92
       22
 72
     0
 73
     1
 93
        3
 10
15.62974388152605
 20
3.021300979620718
 10
14.52629071767222
 20
3.021300979620718
 10
15.07801729959914
 20
3.786398348131172
 97
        3
330
BD9
330
BD8
330
BDA
 75
     0
 76
     1
 47
0.0514683685270805
 98
        2
 10
16.20617981601185
 20
3.326837253266262
 10
16.20617981601185
 20
3.326837253266262
450
        0
451
        0
460
0.0
461
0.0
452
        0
462
0.0
453
        0
470

  0
LINE
  5
BAC
102
{ACAD_REACTORS
330
BAB
102
}
330
76E
100
AcDbEntity
  8
ROGO
 62
     4
100
AcDbLine
 10
14.06756947612285
 20
2.385177170679753
 30
0.0
 11
16.08846512307542
 21
2.385177170679753
 31
0.0
  0
LINE
  5
BAD
102
{ACAD_REACTORS
330
BAB
102
}
330
76E
100
AcDbEntity
  8
ROGO
 62
     4
100
AcDbLine
 10
14.16260675403379
 20
4.949786840425645
 30
0.0
 11
15.99342784516443
 21
4.949786840425645
 31
0.0
  0
LINE
  5
BAE
102
{ACAD_REACTORS
330
BAA
102
}
330
76E
100
AcDbEntity
  8
ROGO
 62
     4
100
AcDbLine
 10
2.490933298034235
 20
0.4961422127159381
 30
0.0
 11
31.92860780564246
 21
0.4961422127159381
 31
0.0
  0
HATCH
  5
BAF
330
76E
100
AcDbEntity
  8
ROGO
 62
     4
100
AcDbHatch
 10
0.0
 20
0.0
 30
0.0
210
0.0
220
0.0
230
1.0
  2
SOLID
 70
     1
 71
     1
 91
        2
 92
        5
 93
        6
 72
     4
 94
        3
 73
     0
 74
     0
 95
       18
 96
       14
 40
0.108740278791501
 40
0.108740278791501
 40
0.108740278791501
 40
0.108740278791501
 40
0.6623149649549278
 40
1.384304701649787
 40
2.097394834876493
 40
2.774073369849618
 40
3.428974823686337
 40
4.005208313035923
 40
4.455173659284313
 40
4.720999734343524
 40
5.086034088486724
 40
5.569973738255373
 40
6.060470601257719
 40
6.060470601257719
 40
6.060470601257719
 40
6.060470601257719
 10
5.257971706506339
 20
1.782061951090668
 10
5.409344543521854
 20
1.783189178773909
 10
5.758142655701249
 20
1.785786572703102
 10
6.246108485316483
 20
2.046468641233957
 10
6.708839512865949
 20
2.378558603499755
 10
7.081537876611037
 20
2.793470364329778
 10
7.313740186156906
 20
3.267850878540173
 10
7.349707589953482
 20
3.722501028309523
 10
7.327750373593119
 20
4.082123644518105
 10
7.170855034099304
 20
4.33278953599904
 10
7.007743182975218
 20
4.587189781908875
 10
6.708651203549891
 20
4.807560723981168
 10
6.463588634008544
 20
4.904115955004613
 10
6.338969333173452
 20
4.949786840425758
 72
     1
 10
6.338969333173679
 20
4.949786840425645
 11
2.449108495127859
 21
4.949786840425645
 72
     1
 10
2.449108495127859
 20
4.949786840425645
 11
0.0
 21
-0.0000000000000568
 72
     1
 10
-0.0000000000000568
 20
0.0
 11
2.300872475903247
 21
0.0
 72
     1
 10
2.300872475903304
 20
0.0
 11
3.107127853020472
 21
1.782061951090724
 72
     1
 10
3.107127853020472
 20
1.782061951090668
 11
5.257971706506168
 21
1.782061951090668
 97
        6
330
BB1
330
BBB
330
BB2
330
BA6
330
BB8
330
BB7
 92
       20
 93
        4
 72
     1
 10
3.604944905315051
 20
2.882384321244217
 11
3.98608604239348
 21
3.724818539558043
 72
     1
 10
3.98608604239348
 20
3.724818539557986
 11
4.965456325034381
 21
3.724818539557986
 72
     4
 94
        3
 73
     0
 74
     0
 95
       15
 96
       11
 40
0.0
 40
0.0
 40
0.0
 40
0.0
 40
0.458245544397197
 40
0.6671803073175111
 40
0.9043351724393449
 40
1.065896092998139
 40
1.321406364485703
 40
1.474450037341961
 40
1.737022829061231
 40
1.824547148828933
 40
1.824547148828933
 40
1.824547148828933
 40
1.824547148828933
 10
4.965456325033528
 20
3.724818539557986
 10
5.104956735089615
 20
3.72545752589923
 10
5.308061659054601
 20
3.726387854865265
 10
5.419126665259284
 20
3.475146476562713
 10
5.369342033880457
 20
3.313386222112512
 10
5.306758694724408
 20
3.147308857819552
 10
5.196159760245848
 20
3.034456783979635
 10
5.047719790425048
 20
2.925761212639713
 10
4.907436925306626
 20
2.912603127013085
 10
4.816198668830168
 20
2.888428084712359
 10
4.793389093792598
 20
2.88238432124416
 72
     1
 10
4.793389093792541
 20
2.882384321244217
 11
3.604944905315051
 21
2.882384321244217
 97
        4
330
BBE
330
BBC
330
BC0
330
BBD
 75
     0
 76
     1
 47
0.0514683685270805
 98
        2
 10
2.469899197802817
 20
3.410271770727717
 10
2.469899197802817
 20
3.410271770727717
450
        0
451
        0
460
0.0
461
0.0
452
        0
462
0.0
453
        0
470

  0
HATCH
  5
BB0
330
76E
100
AcDbEntity
  8
ROGO
 62
     4
100
AcDbHatch
 10
0.0
 20
0.0
 30
0.0
210
0.0
220
0.0
230
1.0
  2
SOLID
 70
     1
 71
     1
 91
        1
 92
        1
 93
       12
 72
     1
 10
8.637002599138838
 20
4.949786840425645
 11
12.92148229673961
 21
4.949786840425701
 72
     1
 10
12.92148229673961
 20
4.949786840425645
 11
12.56244669050807
 21
4.224155565819216
 72
     1
 10
12.56244669050812
 20
4.224155565819273
 11
10.31063242784853
 21
4.224155565819273
 72
     1
 10
10.31063242784847
 20
4.224155565819273
 11
10.02991119959222
 21
3.656802080167153
 72
     1
 10
10.02991119959228
 20
3.656802080167153
 11
12.28172546225187
 21
3.656802080167153
 72
     1
 10
12.28172546225181
 20
3.656802080167153
 11
11.99387214064069
 21
3.075034230307551
 72
     1
 10
11.99387214064069
 20
3.075034230307551
 11
9.742057877981153
 21
3.075034230307494
 72
     1
 10
9.742057877981153
 20
3.075034230307551
 11
9.461324765337508
 21
2.507656725636252
 72
     1
 10
9.461324765337565
 20
2.507656725636138
 11
11.71313902799716
 21
2.507656725636138
 72
     1
 10
11.71313902799716
 20
2.507656725636138
 11
11.3541214816563
 21
1.782061951090668
 72
     1
 10
11.35412148165636
 20
1.782061951090668
 11
7.06964178405559
 21
1.782061951090668
 72
     1
 10
7.06964178405559
 20
1.782061951090668
 11
8.637002599138838
 21
4.949786840425645
 97
       12
330
BBF
330
BC1
330
BC3
330
BC2
330
BC4
330
BC7
330
BC6
330
BC8
330
BC5
330
BB4
330
BB9
330
BB3
 75
     0
 76
     1
 98
        1
 10
-166.6183073243049
 20
-214.0842147101267
450
        0
451
        0
460
0.0
461
0.0
452
        0
462
0.0
453
        0
470

  0
SPLINE
  5
BB1
102
{ACAD_REACTORS
330
BAF
102
}
330
76E
100
AcDbEntity
  8
ROGO
 62
     4
100
AcDbSpline
210
0.0
220
0.0
230
1.0
 70
     8
 71
     3
 72
    18
 73
    14
 74
     0
 42
0.0000000001
 43
0.0000000001
 40
0.1087402787915014
 40
0.1087402787915014
 40
0.1087402787915014
 40
0.1087402787915014
 40
0.5992371417938475
 40
1.083176791562496
 40
1.448211145705696
 40
1.714037220764907
 40
2.164002567013297
 40
2.740236056362883
 40
3.395137510199602
 40
4.071816045172726
 40
4.784906178399433
 40
5.506895915094292
 40
6.060470601257719
 40
6.060470601257719
 40
6.060470601257719
 40
6.060470601257719
 10
6.338969333173452
 20
4.949786840425758
 30
0.0
 10
6.463588634008544
 20
4.904115955004613
 30
0.0
 10
6.708651203549891
 20
4.807560723981168
 30
0.0
 10
7.007743182975218
 20
4.587189781908875
 30
0.0
 10
7.170855034099304
 20
4.33278953599904
 30
0.0
 10
7.327750373593119
 20
4.082123644518105
 30
0.0
 10
7.349707589953482
 20
3.722501028309523
 30
0.0
 10
7.313740186156906
 20
3.267850878540173
 30
0.0
 10
7.081537876611037
 20
2.793470364329778
 30
0.0
 10
6.708839512865949
 20
2.378558603499755
 30
0.0
 10
6.246108485316483
 20
2.046468641233957
 30
0.0
 10
5.758142655701249
 20
1.785786572703102
 30
0.0
 10
5.409344543521854
 20
1.783189178773909
 30
0.0
 10
5.257971706506339
 20
1.782061951090668
 30
0.0
  0
LINE
  5
BB2
102
{ACAD_REACTORS
330
BAF
102
}
330
76E
100
AcDbEntity
  8
ROGO
 62
     4
100
AcDbLine
 10
2.449108495127859
 20
4.949786840425645
 30
0.0
 11
0.0
 21
0.0
 31
0.0
  0
LINE
  5
BB3
102
{ACAD_REACTORS
330
BB0
102
}
330
76E
100
AcDbEntity
  8
ROGO
 62
     4
100
AcDbLine
 10
8.637002599138952
 20
4.949786840425645
 30
0.0
 11
7.06964178405559
 21
1.782061951090668
 31
0.0
  0
LINE
  5
BB4
102
{ACAD_REACTORS
330
BB0
102
}
330
76E
100
AcDbEntity
  8
ROGO
 62
     4
100
AcDbLine
 10
11.71313902799716
 20
2.507656725636195
 30
0.0
 11
11.35412148165636
 21
1.782061951090668
 31
0.0
  0
LINE
  5
BB5
102
{ACAD_REACTORS
330
BAB
102
}
330
76E
100
AcDbEntity
  8
ROGO
 62
     4
100
AcDbLine
 10
14.16260675403384
 20
4.949786840425645
 30
0.0
 11
11.87829877231911
 21
1.782061951090668
 31
0.0
  0
LINE
  5
BB6
102
{ACAD_REACTORS
330
BAB
102
}
330
76E
100
AcDbEntity
  8
ROGO
 62
     4
100
AcDbLine
 10
14.06756947612285
 20
2.385177170679753
 30
0.0
 11
13.63265136986962
 21
1.782061951090781
 31
0.0
  0
LINE
  5
BB7
102
{ACAD_REACTORS
330
BAF
102
}
330
76E
100
AcDbEntity
  8
ROGO
 62
     4
100
AcDbLine
 10
5.257971707251897
 20
1.782061951090668
 30
0.0
 11
3.107127853020358
 21
1.782061951090668
 31
0.0
  0
LINE
  5
BB8
102
{ACAD_REACTORS
330
BAA
330
BAF
102
}
330
76E
100
AcDbEntity
  8
ROGO
 62
     4
100
AcDbLine
 10
3.107127853020472
 20
1.782061951090668
 30
0.0
 11
2.300872475903304
 21
0.0
 31
0.0
  0
LINE
  5
BB9
102
{ACAD_REACTORS
330
BB0
102
}
330
76E
100
AcDbEntity
  8
ROGO
 62
     4
100
AcDbLine
 10
7.06964178405559
 20
1.782061951090668
 30
0.0
 11
11.35412148165636
 21
1.782061951090668
 31
0.0
  0
LINE
  5
BBA
102
{ACAD_REACTORS
330
BAB
102
}
330
76E
100
AcDbEntity
  8
ROGO
 62
     4
100
AcDbLine
 10
11.87829877231917
 20
1.782061951090668
 30
0.0
 11
13.63265136986962
 21
1.782061951090668
 31
0.0
  0
LINE
  5
BBB
102
{ACAD_REACTORS
330
BAF
102
}
330
76E
100
AcDbEntity
  8
ROGO
 62
     4
100
AcDbLine
 10
2.449108495127859
 20
4.949786840425645
 30
0.0
 11
6.338969333173452
 21
4.949786840425645
 31
0.0
  0
LINE
  5
BBC
102
{ACAD_REACTORS
330
BAF
102
}
330
76E
100
AcDbEntity
  8
ROGO
 62
     4
100
AcDbLine
 10
4.965456325033528
 20
3.724818539557986
 30
0.0
 11
3.986086042393537
 21
3.724818539557986
 31
0.0
  0
LINE
  5
BBD
102
{ACAD_REACTORS
330
BAF
102
}
330
76E
100
AcDbEntity
  8
ROGO
 62
     4
100
AcDbLine
 10
4.793389093792598
 20
2.88238432124416
 30
0.0
 11
3.604944905315107
 21
2.882384321244217
 31
0.0
  0
LINE
  5
BBE
102
{ACAD_REACTORS
330
BAF
102
}
330
76E
100
AcDbEntity
  8
ROGO
 62
     4
100
AcDbLine
 10
3.986086042393537
 20
3.724818539557986
 30
0.0
 11
3.604944905315051
 21
2.882384321244217
 31
0.0
  0
LINE
  5
BBF
102
{ACAD_REACTORS
330
BB0
102
}
330
76E
100
AcDbEntity
  8
ROGO
 62
     4
100
AcDbLine
 10
8.637002599138838
 20
4.949786840425645
 30
0.0
 11
12.92148229673961
 21
4.949786840425758
 31
0.0
  0
SPLINE
  5
BC0
102
{ACAD_REACTORS
330
BAF
102
}
330
76E
100
AcDbEntity
  8
ROGO
 62
     4
100
AcDbSpline
210
0.0
220
0.0
230
1.0
 70
     8
 71
     3
 72
    15
 73
    11
 74
     9
 42
0.0000000001
 43
0.0000000001
 44
0.0000000001
 40
0.0
 40
0.0
 40
0.0
 40
0.0
 40
0.3714260192954959
 40
0.5407758541881006
 40
0.7329991907503102
 40
0.8639506649775173
 40
1.071051779626874
 40
1.195099689928134
 40
1.407925254728536
 40
1.478867154939799
 40
1.478867154939799
 40
1.478867154939799
 40
1.478867154939799
 10
4.965456325033528
 20
3.724818539557986
 30
0.0
 10
5.104956735089532
 20
3.725457525899206
 30
0.0
 10
5.308061659054509
 20
3.726387854865235
 30
0.0
 10
5.419126665259303
 20
3.475146476562761
 30
0.0
 10
5.369342033880415
 20
3.31338622211255
 30
0.0
 10
5.306758694724477
 20
3.147308857819524
 30
0.0
 10
5.19615976024584
 20
3.034456783979611
 30
0.0
 10
5.047719790425087
 20
2.925761212639771
 30
0.0
 10
4.907436925306584
 20
2.912603127013052
 30
0.0
 10
4.816198668830153
 20
2.888428084712352
 30
0.0
 10
4.793389093792598
 20
2.88238432124416
 30
0.0
 11
4.965456325033528
 21
3.724818539557986
 31
0.0
 11
5.326797807465993
 21
3.63885563544693
 31
0.0
 11
5.395624897846573
 21
3.484122968540759
 31
0.0
 11
5.361211847366689
 21
3.295005139989939
 31
0.0
 11
5.309591776936599
 21
3.174657074234517
 31
0.0
 11
5.171937596175325
 21
3.019924407328176
 31
0.0
 11
5.068697455314975
 21
2.951154084039387
 31
0.0
 11
4.862216184173178
 21
2.899576902066371
 31
0.0
 11
4.793389093792598
 21
2.88238432124416
 31
0.0
  0
LINE
  5
BC1
102
{ACAD_REACTORS
330
BB0
102
}
330
76E
100
AcDbEntity
  8
ROGO
 62
     4
100
AcDbLine
 10
12.92148229673961
 20
4.949786840425645
 30
0.0
 11
12.56244669050807
 21
4.224155565819273
 31
0.0
  0
LINE
  5
BC2
102
{ACAD_REACTORS
330
BB0
102
}
330
76E
100
AcDbEntity
  8
ROGO
 62
     4
100
AcDbLine
 10
10.31063242784847
 20
4.224155565819273
 30
0.0
 11
10.02991119959222
 21
3.656802080167153
 31
0.0
  0
LINE
  5
BC3
102
{ACAD_REACTORS
330
BB0
102
}
330
76E
100
AcDbEntity
  8
ROGO
 62
     4
100
AcDbLine
 10
10.31063242784847
 20
4.224155565819273
 30
0.0
 11
12.56244669050807
 21
4.224155565819273
 31
0.0
  0
LINE
  5
BC4
102
{ACAD_REACTORS
330
BB0
102
}
330
76E
100
AcDbEntity
  8
ROGO
 62
     4
100
AcDbLine
 10
10.02991119959222
 20
3.656802080167153
 30
0.0
 11
12.28172546225187
 21
3.656802080167153
 31
0.0
  0
LINE
  5
BC5
102
{ACAD_REACTORS
330
BB0
102
}
330
76E
100
AcDbEntity
  8
ROGO
 62
     4
100
AcDbLine
 10
9.461324765337565
 20
2.507656725636195
 30
0.0
 11
11.71313902799716
 21
2.507656725636195
 31
0.0
  0
LINE
  5
BC6
102
{ACAD_REACTORS
330
BB0
102
}
330
76E
100
AcDbEntity
  8
ROGO
 62
     4
100
AcDbLine
 10
9.742057877981153
 20
3.075034230307551
 30
0.0
 11
11.99387214064069
 21
3.075034230307608
 31
0.0
  0
LINE
  5
BC7
102
{ACAD_REACTORS
330
BB0
102
}
330
76E
100
AcDbEntity
  8
ROGO
 62
     4
100
AcDbLine
 10
12.28172546225187
 20
3.656802080167153
 30
0.0
 11
11.99387214064069
 21
3.075034230307551
 31
0.0
  0
LINE
  5
BC8
102
{ACAD_REACTORS
330
BB0
102
}
330
76E
100
AcDbEntity
  8
ROGO
 62
     4
100
AcDbLine
 10
9.742057877981153
 20
3.075034230307551
 30
0.0
 11
9.461324765337508
 21
2.507656725636195
 31
0.0
  0
HATCH
  5
BC9
330
76E
100
AcDbEntity
  8
ROGO
 62
     4
100
AcDbHatch
 10
0.0
 20
0.0
 30
0.0
210
0.0
220
0.0
230
1.0
  2
SOLID
 70
     1
 71
     1
 91
        2
 92
        7
 72
     1
 73
     1
 93
        4
 10
26.16568830176476
 20
4.949786840425645
 42
0.0
 10
24.88477496917216
 20
4.949786840425645
 42
0.9597396185052668
 10
24.88477496917204
 20
1.782061951090668
 42
0.0
 10
26.25774038752116
 20
1.782061951090668
 42
0.9713627655772736
 97
        4
330
BE9
330
BD1
330
BD6
330
BD2
 92
       22
 72
     1
 73
     1
 93
        8
 10
25.9709322672415
 20
3.347576112203057
 42
0.0
 10
25.92877650574593
 20
3.045974519724552
 42
-0.3696060376523694
 10
25.58588379175427
 20
2.870057733155022
 42
0.0
 10
25.47108749766136
 20
2.886103156372541
 42
-0.3541938351274232
 10
25.17427477727125
 20
3.157453445413239
 42
0.0
 10
25.21643053876682
 20
3.459055037891914
 42
-0.3439742752229287
 10
25.58698051573322
 20
3.668449396631842
 42
0.0
 10
25.69536003945933
 20
3.653300864703851
 42
-0.3460733018205655
 97
        8
330
BE1
330
BE7
330
BE3
330
BE6
330
BE2
330
BE5
330
BE0
330
BE4
 75
     0
 76
     1
 47
0.0514683685270805
 98
        2
 10
26.4770758482868
 20
3.660574202124962
 10
26.4770758482868
 20
3.660574202124962
450
        0
451
        0
460
0.0
461
0.0
452
        0
462
0.0
453
        0
470

  0
HATCH
  5
BCA
330
76E
100
AcDbEntity
  8
ROGO
 62
     4
100
AcDbHatch
 10
0.0
 20
0.0
 30
0.0
210
0.0
220
0.0
230
1.0
  2
SOLID
 70
     1
 71
     1
 91
        1
 92
        5
 93
        8
 72
     1
 10
23.27919423493069
 20
4.949786840425645
 11
20.10690665697018
 21
4.949786840425701
 72
     4
 94
        3
 73
     0
 74
     0
 95
       26
 96
       22
 40
0.0
 40
0.0
 40
0.0
 40
0.0
 40
0.7089867102952115
 40
1.183598414482279
 40
1.525832104103439
 40
1.781366926528389
 40
2.112809002752968
 40
2.354729406992515
 40
2.791581270399936
 40
3.147172406765291
 40
3.389031356825354
 40
3.626186440486682
 40
4.050410779375985
 40
4.350388020238963
 40
4.511948940797758
 40
4.741441456013356
 40
4.907163150576407
 40
5.147239172635527
 40
5.28310143501293
 40
5.578752957634333
 40
5.713750011164293
 40
5.713750011164293
 40
5.713750011164293
 40
5.713750011164293
 10
20.10690665696961
 20
4.949786840425645
 10
19.9118576355076
 20
4.938149881331241
 10
19.58623839723913
 20
4.91872287919773
 10
19.22871045445441
 20
4.701528493521777
 10
18.9667645527374
 20
4.575261222274434
 10
18.77994505330895
 20
4.403611624277402
 10
18.64300560291741
 20
4.226310128312206
 10
18.47036771803317
 20
4.01505669587766
 10
18.32958645604225
 20
3.769060622409824
 10
18.25789511795477
 20
3.497930064177751
 10
18.19439161110068
 20
3.281837436117484
 10
18.14729634731026
 20
3.041030402807223
 10
18.15927871566845
 20
2.780874095348053
 10
18.1764380155459
 20
2.53925423559815
 10
18.25305011690938
 20
2.366773831190926
 10
18.34029773002083
 20
2.243979668736869
 10
18.44713123742571
 20
2.108735512341468
 10
18.56403045709697
 20
2.019163745498303
 10
18.66071565374244
 20
1.85689847078413
 10
18.82995982885865
 20
1.836192251465718
 10
18.93753815968586
 20
1.794980695042511
 10
18.97126114982126
 20
1.782061951090668
 72
     1
 10
18.97126114982103
 20
1.782061951090668
 11
21.6996642971182
 21
1.782061951090724
 72
     1
 10
21.6996642971182
 20
1.782061951090781
 11
22.28734561971584
 21
2.960648509043551
 72
     1
 10
22.28734561971584
 20
2.960648509043494
 11
20.26176686826005
 21
2.960648509043494
 72
     4
 94
        3
 73
     0
 74
     0
 95
       16
 96
       12
 40
0.0
 40
0.0
 40
0.0
 40
0.0
 40
0.2141121027475241
 40
0.4304326162973471
 40
0.5594580803306056
 40
0.6831669452691567
 40
0.8190286678446897
 40
0.9139043619204622
 40
1.003933161420314
 40
1.186498641432482
 40
1.560280494298353
 40
1.560280494298353
 40
1.560280494298353
 40
1.560280494298353
 10
20.26176686826034
 20
2.960648509043494
 10
20.20066827486522
 20
2.978624611086615
 10
20.07784090046783
 20
3.014762225607
 10
20.06756124108432
 20
3.18994410491291
 10
20.081565789786
 20
3.314775529002361
 10
20.14021687102769
 20
3.40566009542573
 10
20.21137080546811
 20
3.471790575521481
 10
20.237864571025
 20
3.557915185942079
 10
20.31574058104508
 20
3.622950041937542
 10
20.45383561326139
 20
3.732264550099955
 10
20.60654481322524
 20
3.755546097864453
 10
20.70914246102353
 20
3.77118780143121
 72
     1
 10
20.70914246102353
 20
3.77118780143121
 11
22.69150668888256
 21
3.771187801431267
 72
     1
 10
22.69150668888256
 20
3.77118780143121
 11
23.27919423493069
 21
4.949786840425645
 97
        8
330
BDF
330
BCC
330
BD3
330
BCF
330
BDE
330
BDB
330
BDD
330
BDC
 75
     0
 76
     1
 47
0.0514683685270805
 98
        1
 10
21.21637307488407
 20
4.244614142874524
450
        0
451
        0
460
0.0
461
0.0
452
        0
462
0.0
453
        0
470

  0
SPLINE
  5
BCB
102
{ACAD_REACTORS
330
BA5
102
}
330
76E
100
AcDbEntity
  8
ROGO
 62
     4
100
AcDbSpline
210
0.0
220
0.0
230
1.0
 70
     8
 71
     3
 72
    26
 73
    22
 74
    20
 42
0.0000000001
 43
0.0000000001
 44
0.0000000001
 40
0.0
 40
0.0
 40
0.0
 40
0.0
 40
0.5746615864749196
 40
0.9593530213456462
 40
1.236746873962384
 40
1.443867888111121
 40
1.712514714041724
 40
1.90860070730817
 40
2.262686307552686
 40
2.55090689560158
 40
2.746943077840944
 40
2.939166591537864
 40
3.283017086994854
 40
3.526160427536374
 40
3.657111901763582
 40
3.843124602654698
 40
3.97744854769916
 40
4.172039596738211
 40
4.282161298747791
 40
4.521798474686698
 40
4.631218890929293
 40
4.631218890929293
 40
4.631218890929293
 40
4.631218890929293
 10
30.31359802057318
 20
4.949786840425645
 30
0.0
 10
30.11854899911117
 20
4.938149881331216
 30
0.0
 10
29.79292976084273
 20
4.918722879197668
 30
0.0
 10
29.43540181805795
 20
4.701528493521752
 30
0.0
 10
29.17345591634098
 20
4.575261222274342
 30
0.0
 10
28.98663641691248
 20
4.403611624277403
 30
0.0
 10
28.84969696652104
 20
4.226310128312151
 30
0.0
 10
28.67705908163667
 20
4.015056695877607
 30
0.0
 10
28.53627781964588
 20
3.769060622409776
 30
0.0
 10
28.46458648155826
 20
3.49793006417775
 30
0.0
 10
28.40108297470428
 20
3.28183743611741
 30
0.0
 10
28.35398771091379
 20
3.041030402807234
 30
0.0
 10
28.36597007927193
 20
2.780874095348088
 30
0.0
 10
28.38312937914937
 20
2.539254235598058
 30
0.0
 10
28.45974148051292
 20
2.366773831190866
 30
0.0
 10
28.54698909362438
 20
2.243979668736892
 30
0.0
 10
28.65382260102934
 20
2.108735512341419
 30
0.0
 10
28.77072182070049
 20
2.019163745498228
 30
0.0
 10
28.86740701734603
 20
1.85689847078413
 30
0.0
 10
29.03665119246222
 20
1.836192251465618
 30
0.0
 10
29.14422952328949
 20
1.794980695042471
 30
0.0
 10
29.17795251342483
 20
1.782061951090668
 30
0.0
 11
30.31359802057318
 21
4.949786840425645
 31
0.0
 11
29.74577526699892
 21
4.861394196539322
 31
0.0
 11
29.40163981509602
 21
4.689468948810883
 31
0.0
 11
29.1607454934744
 21
4.551928862726811
 31
0.0
 11
29.00588528218367
 21
4.414388216149177
 31
0.0
 11
28.83381805094274
 21
4.208077806776145
 31
0.0
 11
28.7133708901319
 21
4.053345139869975
 31
0.0
 11
28.54130266946999
 21
3.743879245563732
 31
0.0
 11
28.45526954855979
 21
3.468798512902026
 31
0.0
 11
28.4036494781297
 21
3.279680684351205
 31
0.0
 11
28.36923543822883
 21
3.090562855800612
 31
0.0
 11
28.36923543822883
 21
2.746712360343622
 31
0.0
 11
28.4036494781297
 21
2.506016789326224
 31
0.0
 11
28.45526954855979
 21
2.385668723570802
 31
0.0
 11
28.55850968942019
 21
2.230936056664518
 31
0.0
 11
28.64454379975138
 21
2.127780571731193
 31
0.0
 11
28.78219699109144
 21
1.99024048564712
 31
0.0
 11
28.85102408147219
 21
1.904277581536064
 31
0.0
 11
29.07471237256442
 21
1.818315237918568
 31
0.0
 11
29.17795251342483
 21
1.782061951090668
 31
0.0
  0
SPLINE
  5
BCC
102
{ACAD_REACTORS
330
BCA
102
}
330
76E
100
AcDbEntity
  8
ROGO
 62
     4
100
AcDbSpline
210
0.0
220
0.0
230
1.0
 70
     8
 71
     3
 72
    26
 73
    22
 74
    20
 42
0.0000000001
 43
0.0000000001
 44
0.0000000001
 40
0.0
 40
0.0
 40
0.0
 40
0.0
 40
0.5746615864749109
 40
0.9593530213456375
 40
1.236746873962375
 40
1.44386788811115
 40
1.71251471404171
 40
1.9086007073082
 40
2.262686307552666
 40
2.550906895601598
 40
2.746943077840867
 40
2.939166591537899
 40
3.28301708699489
 40
3.526160427536353
 40
3.657111901763635
 40
3.843124602654719
 40
3.977448547699138
 40
4.172039596738189
 40
4.282161298747769
 40
4.521798474686655
 40
4.631218890929288
 40
4.631218890929288
 40
4.631218890929288
 40
4.631218890929288
 10
20.10690665696961
 20
4.949786840425645
 30
0.0
 10
19.91185763550759
 20
4.938149881331241
 30
0.0
 10
19.58623839723914
 20
4.918722879197736
 30
0.0
 10
19.22871045445439
 20
4.701528493521801
 30
0.0
 10
18.96676455273739
 20
4.575261222274411
 30
0.0
 10
18.77994505330897
 20
4.4036116242774
 30
0.0
 10
18.64300560291743
 20
4.226310128312206
 30
0.0
 10
18.47036771803315
 20
4.015056695877609
 30
0.0
 10
18.32958645604223
 20
3.769060622409829
 30
0.0
 10
18.25789511795483
 20
3.497930064177774
 30
0.0
 10
18.19439161110065
 20
3.281837436117467
 30
0.0
 10
18.14729634731024
 20
3.041030402807263
 30
0.0
 10
18.15927871566836
 20
2.780874095348114
 30
0.0
 10
18.17643801554578
 20
2.539254235598062
 30
0.0
 10
18.25305011690943
 20
2.366773831190911
 30
0.0
 10
18.3402977300208
 20
2.243979668736876
 30
0.0
 10
18.44713123742579
 20
2.10873551234148
 30
0.0
 10
18.56403045709692
 20
2.019163745498289
 30
0.0
 10
18.66071565374245
 20
1.856898470784175
 30
0.0
 10
18.82995982885869
 20
1.836192251465799
 30
0.0
 10
18.93753815968592
 20
1.794980695042517
 30
0.0
 10
18.97126114982126
 20
1.782061951090668
 30
0.0
 11
20.10690665696961
 21
4.949786840425645
 31
0.0
 11
19.53908390339535
 21
4.861394196539379
 31
0.0
 11
19.19494845149245
 21
4.68946894881094
 31
0.0
 11
18.95405412987082
 21
4.551928862726867
 31
0.0
 11
18.7991939185801
 21
4.414388216149177
 31
0.0
 11
18.62712668733917
 21
4.208077806776202
 31
0.0
 11
18.50667952652833
 21
4.053345139869975
 31
0.0
 11
18.33461130586641
 21
3.743879245563789
 31
0.0
 11
18.24857818495627
 21
3.468798512902026
 31
0.0
 11
18.19695811452612
 21
3.279680684351319
 31
0.0
 11
18.16254407462526
 21
3.090562855800612
 31
0.0
 11
18.16254407462526
 21
2.746712360343622
 31
0.0
 11
18.19695811452612
 21
2.506016789326281
 31
0.0
 11
18.24857818495627
 21
2.385668723570802
 31
0.0
 11
18.35181832581662
 21
2.230936056664518
 31
0.0
 11
18.43785243614781
 21
2.12778057173125
 31
0.0
 11
18.57550562748787
 21
1.990240485647177
 31
0.0
 11
18.64433271786862
 21
1.904277581536121
 31
0.0
 11
18.86802100896085
 21
1.818315237918682
 31
0.0
 11
18.97126114982126
 21
1.782061951090668
 31
0.0
  0
LINE
  5
BCD
102
{ACAD_REACTORS
330
BAB
102
}
330
76E
100
AcDbEntity
  8
ROGO
 62
     4
100
AcDbLine
 10
15.99342784516443
 20
4.949786840425645
 30
0.0
 11
18.27773582687916
 21
1.782061951090668
 31
0.0
  0
LINE
  5
BCE
102
{ACAD_REACTORS
330
BAB
102
}
330
76E
100
AcDbEntity
  8
ROGO
 62
     4
100
AcDbLine
 10
16.08846512307542
 20
2.385177170679753
 30
0.0
 11
16.52338322932866
 21
1.782061951090781
 31
0.0
  0
LINE
  5
BCF
102
{ACAD_REACTORS
330
BCA
102
}
330
76E
100
AcDbEntity
  8
ROGO
 62
     4
100
AcDbLine
 10
22.28734561971584
 20
2.960648509043494
 30
0.0
 11
21.69966429711815
 21
1.782061951090668
 31
0.0
  0
LINE
  5
BD0
102
{ACAD_REACTORS
330
BA5
102
}
330
76E
100
AcDbEntity
  8
ROGO
 62
     4
100
AcDbLine
 10
32.49403698331935
 20
2.960648509043494
 30
0.0
 11
31.90635566072177
 21
1.782061951090611
 31
0.0
  0
ARC
  5
BD1
102
{ACAD_REACTORS
330
BC9
102
}
330
76E
100
AcDbEntity
  8
ROGO
 62
     4
100
AcDbCircle
 10
24.94987936318324
 20
3.365924395758156
 30
0.0
 40
1.585199932421021
100
AcDbArc
 50
92.3538081120337
 51
270.0
  0
ARC
  5
BD2
102
{ACAD_REACTORS
330
BC9
102
}
330
76E
100
AcDbEntity
  8
ROGO
 62
     4
100
AcDbCircle
 10
26.16568830176476
 20
3.364586908004639
 30
0.0
 40
1.585199932421021
100
AcDbArc
 50
273.3290215232082
 51
90.0000000000006
  0
LINE
  5
BD3
102
{ACAD_REACTORS
330
BCA
102
}
330
76E
100
AcDbEntity
  8
ROGO
 62
     4
100
AcDbLine
 10
18.97126114982109
 20
1.782061951090668
 30
0.0
 11
21.6996642971182
 21
1.782061951090668
 31
0.0
  0
LINE
  5
BD4
102
{ACAD_REACTORS
330
BAB
102
}
330
76E
100
AcDbEntity
  8
ROGO
 62
     4
100
AcDbLine
 10
18.27773582687911
 20
1.782061951090668
 30
0.0
 11
16.52338322932866
 21
1.782061951090668
 31
0.0
  0
LINE
  5
BD5
330
76E
100
AcDbEntity
  8
ROGO
 62
     4
100
AcDbLine
 10
24.8847749691733
 20
1.782061951090668
 30
0.0
 11
26.25774038752019
 21
1.782061951090668
 31
0.0
  0
LINE
  5
BD6
102
{ACAD_REACTORS
330
BC9
102
}
330
76E
100
AcDbEntity
  8
ROGO
 62
     4
100
AcDbLine
 10
24.8847749691721
 20
1.782061951090668
 30
0.0
 11
26.25774038752121
 21
1.782061951090668
 31
0.0
  0
LINE
  5
BD7
102
{ACAD_REACTORS
330
BA5
102
}
330
76E
100
AcDbEntity
  8
ROGO
 62
     4
100
AcDbLine
 10
29.1779525134246
 20
1.782061951090668
 30
0.0
 11
31.90635566072177
 21
1.782061951090668
 31
0.0
  0
LINE
  5
BD8
102
{ACAD_REACTORS
330
BAB
102
}
330
76E
100
AcDbEntity
  8
ROGO
 62
     4
100
AcDbLine
 10
15.07801729959914
 20
3.786398348131228
 30
0.0
 11
14.52629071767222
 21
3.021300979620718
 31
0.0
  0
LINE
  5
BD9
102
{ACAD_REACTORS
330
BAB
102
}
330
76E
100
AcDbEntity
  8
ROGO
 62
     4
100
AcDbLine
 10
14.52629071767222
 20
3.021300979620775
 30
0.0
 11
15.62974388152599
 21
3.021300979620775
 31
0.0
  0
LINE
  5
BDA
102
{ACAD_REACTORS
330
BAB
102
}
330
76E
100
AcDbEntity
  8
ROGO
 62
     4
100
AcDbLine
 10
15.07801729959914
 20
3.786398348131228
 30
0.0
 11
15.62974388152599
 21
3.021300979620718
 31
0.0
  0
SPLINE
  5
BDB
102
{ACAD_REACTORS
330
BCA
102
}
330
76E
100
AcDbEntity
  8
ROGO
 62
     4
100
AcDbSpline
210
0.0
220
0.0
230
1.0
 70
     8
 71
     3
 72
    16
 73
    12
 74
    10
 42
0.0000000001
 43
0.0000000001
 44
0.0000000001
 40
0.0
 40
0.0
 40
0.0
 40
0.0
 40
0.3029648785292891
 40
0.4509413735127203
 40
0.5239132529538693
 40
0.6008137308948465
 40
0.7109349953737907
 40
0.8112058912231434
 40
0.9157860995406091
 40
1.091122375522293
 40
1.264668647774888
 40
1.264668647774888
 40
1.264668647774888
 40
1.264668647774888
 10
20.70914246102353
 20
3.77118780143121
 30
0.0
 10
20.60654481322523
 20
3.75554609786451
 30
0.0
 10
20.45383561326141
 20
3.732264550100005
 30
0.0
 10
20.31574058104511
 20
3.622950041937553
 30
0.0
 10
20.237864571025
 20
3.557915185941986
 30
0.0
 10
20.21137080546809
 20
3.471790575521536
 30
0.0
 10
20.14021687102763
 20
3.405660095425645
 30
0.0
 10
20.08156578978607
 20
3.314775529002434
 30
0.0
 10
20.06756124108431
 20
3.189944104912836
 30
0.0
 10
20.07784090046788
 20
3.014762225607029
 30
0.0
 10
20.2006682748652
 20
2.978624611086606
 30
0.0
 10
20.26176686826034
 20
2.960648509043494
 30
0.0
 11
20.70914246102353
 21
3.77118780143121
 31
0.0
 11
20.41662806897176
 21
3.692301503097155
 31
0.0
 11
20.29618090816098
 21
3.606339159479716
 31
0.0
 11
20.24456083773083
 21
3.554761417013025
 31
0.0
 11
20.21014679782997
 21
3.48599109372418
 31
0.0
 11
20.14131970744944
 21
3.400028750106798
 31
0.0
 11
20.08969963701918
 21
3.314065845995742
 31
0.0
 11
20.07249261706875
 21
3.210910921556092
 31
0.0
 11
20.10690665696961
 21
3.038985113333978
 31
0.0
 11
20.26176686826034
 21
2.960648509043494
 31
0.0
  0
LINE
  5
BDC
102
{ACAD_REACTORS
330
BCA
102
}
330
76E
100
AcDbEntity
  8
ROGO
 62
     4
100
AcDbLine
 10
23.27919423493069
 20
4.949786840425645
 30
0.0
 11
22.69150668888256
 21
3.77118780143121
 31
0.0
  0
LINE
  5
BDD
102
{ACAD_REACTORS
330
BCA
102
}
330
76E
100
AcDbEntity
  8
ROGO
 62
     4
100
AcDbLine
 10
20.70914246102342
 20
3.77118780143121
 30
0.0
 11
22.69150668888256
 21
3.771187801431267
 31
0.0
  0
LINE
  5
BDE
102
{ACAD_REACTORS
330
BCA
102
}
330
76E
100
AcDbEntity
  8
ROGO
 62
     4
100
AcDbLine
 10
20.26176686826017
 20
2.960648509043494
 30
0.0
 11
22.28734561971584
 21
2.960648509043494
 31
0.0
  0
LINE
  5
BDF
102
{ACAD_REACTORS
330
BCA
102
}
330
76E
100
AcDbEntity
  8
ROGO
 62
     4
100
AcDbLine
 10
20.10690665697052
 20
4.949786840425758
 30
0.0
 11
23.27919423493069
 21
4.949786840425758
 31
0.0
  0
LINE
  5
BE0
102
{ACAD_REACTORS
330
BC9
102
}
330
76E
100
AcDbEntity
  8
ROGO
 62
     4
100
AcDbLine
 10
25.58056374536529
 20
3.669346287921371
 30
0.0
 11
25.69536003945927
 21
3.653300864703908
 31
0.0
  0
LINE
  5
BE1
102
{ACAD_REACTORS
330
BC9
102
}
330
76E
100
AcDbEntity
  8
ROGO
 62
     4
100
AcDbLine
 10
25.97093226724161
 20
3.347576112203455
 30
0.0
 11
25.92877650574604
 21
3.04597451972495
 31
0.0
  0
LINE
  5
BE2
102
{ACAD_REACTORS
330
BC9
102
}
330
76E
100
AcDbEntity
  8
ROGO
 62
     4
100
AcDbLine
 10
25.17427477727125
 20
3.157453445413295
 30
0.0
 11
25.21643053876682
 21
3.45905503789163
 31
0.0
  0
LINE
  5
BE3
102
{ACAD_REACTORS
330
BC9
102
}
330
76E
100
AcDbEntity
  8
ROGO
 62
     4
100
AcDbLine
 10
25.4710874976596
 20
2.886103156372769
 30
0.0
 11
25.58588379175365
 21
2.870057733155078
 31
0.0
  0
ARC
  5
BE4
102
{ACAD_REACTORS
330
BC9
102
}
330
76E
100
AcDbEntity
  8
ROGO
 62
     4
100
AcDbCircle
 10
25.6387443480632
 20
3.325209828916854
 30
0.0
 40
0.3329400310507254
100
AcDbArc
 50
3.851923331663601
 51
80.20940670206341
  0
ARC
  5
BE5
102
{ACAD_REACTORS
330
BC9
102
}
330
76E
100
AcDbEntity
  8
ROGO
 62
     4
100
AcDbCircle
 10
25.53588647264388
 20
3.326301951055086
 30
0.0
 40
0.3459414339941871
100
AcDbArc
 50
82.57970078354313
 51
157.4341870372611
  0
ARC
  5
BE6
102
{ACAD_REACTORS
330
BC9
102
}
330
76E
100
AcDbEntity
  8
ROGO
 62
     4
100
AcDbCircle
 10
25.49018017588719
 20
3.204994782556525
 30
0.0
 40
0.3194626732688521
100
AcDbArc
 50
188.5583509056651
 51
266.5736774635929
  0
ARC
  5
BE7
102
{ACAD_REACTORS
330
BC9
102
}
330
76E
100
AcDbEntity
  8
ROGO
 62
     4
100
AcDbCircle
 10
25.6545957362211
 20
3.158263540113921
 30
0.0
 40
0.2962835103026008
100
AcDbArc
 50
256.5902863289752
 51
337.7287536965499
  0
LINE
  5
BE8
330
76E
100
AcDbEntity
  8
ROGO
 62
     4
100
AcDbLine
 10
24.88477496917261
 20
4.949786840425645
 30
0.0
 11
25.78248633299404
 21
4.949786840425645
 31
0.0
  0
LINE
  5
BE9
102
{ACAD_REACTORS
330
BC9
102
}
330
76E
100
AcDbEntity
  8
ROGO
 62
     4
100
AcDbLine
 10
24.88477496917216
 20
4.949786840425645
 30
0.0
 11
26.16568830176476
 21
4.949786840425645
 31
0.0
  0
SPLINE
  5
BEA
102
{ACAD_REACTORS
330
BA5
102
}
330
76E
100
AcDbEntity
  8
ROGO
 62
     4
100
AcDbSpline
210
0.0
220
0.0
230
1.0
 70
     8
 71
     3
 72
    16
 73
    12
 74
    10
 42
0.0000000001
 43
0.0000000001
 44
0.0000000001
 40
0.0
 40
0.0
 40
0.0
 40
0.0
 40
0.3029648785292594
 40
0.4509413735127369
 40
0.5239132529538859
 40
0.6008137308948632
 40
0.710934995373763
 40
0.811205891223145
 40
0.9157860995407135
 40
1.091122375522274
 40
1.264668647774946
 40
1.264668647774946
 40
1.264668647774946
 40
1.264668647774946
 10
30.9158338246271
 20
3.771187801431096
 30
0.0
 10
30.81323617682881
 20
3.755546097864422
 30
0.0
 10
30.660526976865
 20
3.732264550099954
 30
0.0
 10
30.5224319446486
 20
3.62295004193761
 30
0.0
 10
30.44455593462858
 20
3.557915185941908
 30
0.0
 10
30.41806216907167
 20
3.4717905755215
 30
0.0
 10
30.34690823463119
 20
3.405660095425618
 30
0.0
 10
30.28825715338954
 20
3.314775529002425
 30
0.0
 10
30.27425260468793
 20
3.189944104912787
 30
0.0
 10
30.28453226407141
 20
3.014762225606994
 30
0.0
 10
30.40735963846873
 20
2.978624611086564
 30
0.0
 10
30.46845823186391
 20
2.960648509043437
 30
0.0
 11
30.9158338246271
 21
3.771187801431096
 31
0.0
 11
30.62331943257533
 21
3.692301503097155
 31
0.0
 11
30.50287227176449
 21
3.606339159479716
 31
0.0
 11
30.4512522013344
 21
3.554761417012969
 31
0.0
 11
30.41683816143353
 21
3.485991093724123
 31
0.0
 11
30.34801107105301
 21
3.400028750106798
 31
0.0
 11
30.29639100062269
 21
3.314065845995742
 31
0.0
 11
30.27918398067232
 21
3.210910921555978
 31
0.0
 11
30.31359802057313
 21
3.038985113333978
 31
0.0
 11
30.46845823186391
 21
2.960648509043437
 31
0.0
  0
LINE
  5
BEB
102
{ACAD_REACTORS
330
BA5
102
}
330
76E
100
AcDbEntity
  8
ROGO
 62
     4
100
AcDbLine
 10
30.46845823186379
 20
2.960648509043494
 30
0.0
 11
32.49403698331941
 21
2.960648509043494
 31
0.0
  0
LINE
  5
BEC
102
{ACAD_REACTORS
330
BA5
102
}
330
76E
100
AcDbEntity
  8
ROGO
 62
     4
100
AcDbLine
 10
30.91583382462699
 20
3.77118780143121
 30
0.0
 11
32.89819805248607
 21
3.77118780143121
 31
0.0
  0
LINE
  5
BED
102
{ACAD_REACTORS
330
BA4
102
}
330
76E
100
AcDbEntity
  8
ROGO
 62
     4
100
AcDbLine
 10
35.38336074148231
 20
2.474893420212765
 30
0.0
 11
36.6174225324171
 21
0.0
 31
0.0
  0
LINE
  5
BEE
102
{ACAD_REACTORS
330
BA4
102
}
330
76E
100
AcDbEntity
  8
ROGO
 62
     4
100
AcDbLine
 10
34.14933885635003
 20
1.291950329372127
 30
0.0
 11
34.79354701668626
 21
0.0
 31
0.0
  0
LINE
  5
BEF
102
{ACAD_REACTORS
330
BA4
102
}
330
76E
100
AcDbEntity
  8
ROGO
 62
     4
100
AcDbLine
 10
34.14933885635008
 20
1.29195032937207
 30
0.0
 11
33.50513069601385
 21
0.0
 31
0.0
  0
LINE
  5
BF0
102
{ACAD_REACTORS
330
BA4
102
}
330
76E
100
AcDbEntity
  8
ROGO
 62
     4
100
AcDbLine
 10
34.79354701668626
 20
0.0
 30
0.0
 11
36.6174225324171
 21
0.0
 31
0.0
  0
LINE
  5
BF1
102
{ACAD_REACTORS
330
BA4
102
}
330
76E
100
AcDbEntity
  8
ROGO
 62
     4
100
AcDbLine
 10
35.38336074148231
 20
2.474893420212765
 30
0.0
 11
38.38165352405161
 21
4.949786840425645
 31
0.0
  0
LINE
  5
BF2
102
{ACAD_REACTORS
330
BA4
102
}
330
76E
100
AcDbEntity
  8
ROGO
 62
     4
100
AcDbLine
 10
36.55777800832078
 20
4.949786840425645
 30
0.0
 11
38.38165352405156
 21
4.949786840425645
 31
0.0
  0
LINE
  5
BF3
102
{ACAD_REACTORS
330
BA4
102
}
330
76E
100
AcDbEntity
  8
ROGO
 62
     4
100
AcDbLine
 10
34.14933885635003
 20
4.949786840425645
 30
0.0
 11
35.97325427788326
 21
4.949786840425588
 31
0.0
  0
LINE
  5
BF4
102
{ACAD_REACTORS
330
BA4
102
}
330
76E
100
AcDbEntity
  8
ROGO
 62
     4
100
AcDbLine
 10
35.97325427788326
 20
4.949786840425588
 30
0.0
 11
35.70378540756269
 21
4.409370842614521
 31
0.0
  0
LINE
  5
BF5
102
{ACAD_REACTORS
330
BA4
102
}
330
76E
100
AcDbEntity
  8
ROGO
 62
     4
100
AcDbLine
 10
35.70378540756269
 20
4.409370842614521
 30
0.0
 11
36.55777800832078
 21
4.949786840425645
 31
0.0
  0
ENDBLK
  5
7C2
330
76E
100
AcDbEntity
  8
0
 48
0.7
100
AcDbBlockEnd
  0
BLOCK
  5
B2A
330
ADD
100
AcDbEntity
  8
0
100
AcDbBlockBegin
  2
ROGO1
 70
     0
 10
0.0
 20
0.0
 30
0.0
  3
ROGO1
  1

  0
MTEXT
  5
B42
330
ADD
100
AcDbEntity
  8
DEFPOINTS
  6
Continuous
100
AcDbMText
 10
1039.786461861274
 20
160.9640365185991
 30
0.0
 40
1.0
 41
0.0
 71
     4
 72
     1
  1
\A1;
 73
     1
 44
1.0
  0
ENDBLK
  5
B2B
330
ADD
100
AcDbEntity
  8
0
100
AcDbBlockEnd
  0
BLOCK
  5
13AD
330
1394
100
AcDbEntity
  8
0
100
AcDbBlockBegin
  2
*D4
 70
     1
 10
0.0
 20
0.0
 30
0.0
  3
*D4
  1

  0
LINE
  5
1E8B
330
1394
100
AcDbEntity
  8
外形線
 62
     2
370
    -2
100
AcDbLine
 10
307.3739084122729
 20
235.927907724699
 30
0.0
 11
307.3739084122729
 21
228.3714280078414
 31
0.0
  0
LINE
  5
1E8C
330
1394
100
AcDbEntity
  8
外形線
 62
     2
370
    -2
100
AcDbLine
 10
317.3739084122729
 20
235.927907724699
 30
0.0
 11
317.3739084122729
 21
228.3714280078414
 31
0.0
  0
LINE
  5
1E8D
330
1394
100
AcDbEntity
  8
外形線
 62
     2
370
    -2
100
AcDbLine
 10
309.8739084122728
 20
229.6214280078414
 30
0.0
 11
314.8739084122728
 21
229.6214280078414
 31
0.0
  0
LINE
  5
1E8E
330
1394
100
AcDbEntity
  8
外形線
 62
     2
370
    -2
100
AcDbLine
 10
317.3739084122729
 20
229.6214280078414
 30
0.0
 11
328.26676555513
 21
229.6214280078414
 31
0.0
  0
INSERT
  5
1E8F
330
1394
100
AcDbEntity
  8
外形線
 62
     2
370
    -2
100
AcDbBlockReference
  2
_OPEN
 10
307.3739084122729
 20
229.6214280078414
 30
0.0
 41
2.5
 42
2.5
 43
2.5
 50
180.0
  0
INSERT
  5
1E90
330
1394
100
AcDbEntity
  8
外形線
 62
     2
370
    -2
100
AcDbBlockReference
  2
_OPEN
 10
317.3739084122729
 20
229.6214280078414
 30
0.0
 41
2.5
 42
2.5
 43
2.5
  0
MTEXT
  5
1E91
330
1394
100
AcDbEntity
  8
外形線
 62
     6
100
AcDbMText
 10
324.0703369837014
 20
232.1511899126033
 30
0.0
 40
2.5
 41
0.0
 71
     5
 72
     1
  1
\A1;(10)
  7
STYLE3
 73
     1
 44
1.0
  0
POINT
  5
1E92
330
1394
100
AcDbEntity
  8
DEFPOINTS
 62
     0
100
AcDbPoint
 10
307.3739084122729
 20
235.927907724699
 30
0.0
  0
POINT
  5
1E93
330
1394
100
AcDbEntity
  8
DEFPOINTS
 62
     0
100
AcDbPoint
 10
317.3739084122729
 20
235.927907724699
 30
0.0
  0
POINT
  5
1E94
330
1394
100
AcDbEntity
  8
DEFPOINTS
 62
     0
100
AcDbPoint
 10
317.3739084122729
 20
229.6214280078414
 30
0.0
  0
ENDBLK
  5
13B8
330
1394
100
AcDbEntity
  8
0
100
AcDbBlockEnd
  0
BLOCK
  5
140F
330
1402
100
AcDbEntity
  8
0
100
AcDbBlockBegin
  2
*D5
 70
     1
 10
0.0
 20
0.0
 30
0.0
  3
*D5
  1

  0
LINE
  5
1E79
330
1402
100
AcDbEntity
  8
文字
 62
     2
370
    -2
100
AcDbLine
 10
380.1680039273946
 20
299.427907724699
 30
0.0
 11
367.6581666104474
 21
299.427907724699
 31
0.0
  0
LINE
  5
1E7A
330
1402
100
AcDbEntity
  8
文字
 62
     2
370
    -2
100
AcDbLine
 10
380.1680039273946
 20
264.427907724699
 30
0.0
 11
367.6581666104474
 21
264.427907724699
 31
0.0
  0
LINE
  5
1E7B
330
1402
100
AcDbEntity
  8
文字
 62
     2
370
    -2
100
AcDbLine
 10
368.9081666104474
 20
296.927907724699
 30
0.0
 11
368.9081666104474
 21
266.927907724699
 31
0.0
  0
INSERT
  5
1E7C
330
1402
100
AcDbEntity
  8
文字
 62
     2
370
    -2
100
AcDbBlockReference
  2
_OPEN
 10
368.9081666104474
 20
299.427907724699
 30
0.0
 41
2.5
 42
2.5
 43
2.5
 50
90.0
  0
INSERT
  5
1E7D
330
1402
100
AcDbEntity
  8
文字
 62
     2
370
    -2
100
AcDbBlockReference
  2
_OPEN
 10
368.9081666104474
 20
264.427907724699
 30
0.0
 41
2.5
 42
2.5
 43
2.5
 50
270.0
  0
MTEXT
  5
1E7E
330
1402
100
AcDbEntity
  8
文字
 62
     6
100
AcDbMText
 10
367.0331666104473
 20
281.927907724699
 30
0.0
 40
2.5
 41
0.0
 71
     5
 72
     1
  1
\A1;φ35
  7
STYLE3
 11
0.0000000000000001
 21
1.0
 31
0.0
 73
     1
 44
1.0
  0
POINT
  5
1E7F
330
1402
100
AcDbEntity
  8
DEFPOINTS
 62
     0
100
AcDbPoint
 10
380.1680039273946
 20
299.427907724699
 30
0.0
  0
POINT
  5
1E80
330
1402
100
AcDbEntity
  8
DEFPOINTS
 62
     0
100
AcDbPoint
 10
380.1680039273946
 20
264.427907724699
 30
0.0
  0
POINT
  5
1E81
330
1402
100
AcDbEntity
  8
DEFPOINTS
 62
     0
100
AcDbPoint
 10
368.9081666104474
 20
264.427907724699
 30
0.0
  0
ENDBLK
  5
1419
330
1402
100
AcDbEntity
  8
0
100
AcDbBlockEnd
  0
BLOCK
  5
1427
330
141A
100
AcDbEntity
  8
0
100
AcDbBlockBegin
  2
*D6
 70
     1
 10
0.0
 20
0.0
 30
0.0
  3
*D6
  1

  0
LINE
  5
1E67
330
141A
100
AcDbEntity
  8
文字
 62
     2
370
    -2
100
AcDbLine
 10
377.1042619588019
 20
281.9279077246989
 30
0.0
 11
377.1042619588019
 21
331.7783281820884
 31
0.0
  0
LINE
  5
1E68
330
141A
100
AcDbEntity
  8
文字
 62
     2
370
    -2
100
AcDbLine
 10
400.6180039273947
 20
297.9279077246989
 30
0.0
 11
400.6180039273947
 21
331.7783281820884
 31
0.0
  0
LINE
  5
1E69
330
141A
100
AcDbEntity
  8
文字
 62
     2
370
    -2
100
AcDbLine
 10
379.6042619588019
 20
330.5283281820885
 30
0.0
 11
398.1180039273947
 21
330.5283281820885
 31
0.0
  0
INSERT
  5
1E6A
330
141A
100
AcDbEntity
  8
文字
 62
     2
370
    -2
100
AcDbBlockReference
  2
_OPEN
 10
377.1042619588019
 20
330.5283281820885
 30
0.0
 41
2.5
 42
2.5
 43
2.5
 50
180.0
  0
INSERT
  5
1E6B
330
141A
100
AcDbEntity
  8
文字
 62
     2
370
    -2
100
AcDbBlockReference
  2
_OPEN
 10
400.6180039273947
 20
330.5283281820885
 30
0.0
 41
2.5
 42
2.5
 43
2.5
  0
MTEXT
  5
1E6C
330
141A
100
AcDbEntity
  8
文字
 62
     6
100
AcDbMText
 10
388.8611329430983
 20
332.4033281820884
 30
0.0
 40
2.5
 41
0.0
 71
     5
 72
     1
  1
\A1;23.5
  7
STYLE3
 73
     1
 44
1.0
  0
POINT
  5
1E6D
330
141A
100
AcDbEntity
  8
DEFPOINTS
 62
     0
100
AcDbPoint
 10
377.1042619588019
 20
281.9279077246989
 30
0.0
  0
POINT
  5
1E6E
330
141A
100
AcDbEntity
  8
DEFPOINTS
 62
     0
100
AcDbPoint
 10
400.6180039273947
 20
297.9279077246989
 30
0.0
  0
POINT
  5
1E6F
330
141A
100
AcDbEntity
  8
DEFPOINTS
 62
     0
100
AcDbPoint
 10
400.6180039273947
 20
330.5283281820885
 30
0.0
  0
ENDBLK
  5
1431
330
141A
100
AcDbEntity
  8
0
100
AcDbBlockEnd
  0
BLOCK
  5
1433
330
1432
100
AcDbEntity
  8
0
100
AcDbBlockBegin
  2
*D7
 70
     1
 10
0.0
 20
0.0
 30
0.0
  3
*D7
  1

  0
LINE
  5
1E5E
330
1432
100
AcDbEntity
  8
文字
 62
     2
370
    -2
100
AcDbLine
 10
386.1680039273947
 20
299.5779077246988
 30
0.0
 11
386.1680039273947
 21
324.8062411257383
 31
0.0
  0
LINE
  5
1E5F
330
1432
100
AcDbEntity
  8
文字
 62
     2
370
    -2
100
AcDbLine
 10
398.9680039273947
 20
299.5779077246989
 30
0.0
 11
398.9680039273947
 21
324.8062411257383
 31
0.0
  0
LINE
  5
1E60
330
1432
100
AcDbEntity
  8
文字
 62
     2
370
    -2
100
AcDbLine
 10
388.6680039273947
 20
323.5562411257383
 30
0.0
 11
396.4680039273948
 21
323.5562411257383
 31
0.0
  0
INSERT
  5
1E61
330
1432
100
AcDbEntity
  8
文字
 62
     2
370
    -2
100
AcDbBlockReference
  2
_OPEN
 10
386.1680039273947
 20
323.5562411257383
 30
0.0
 41
2.5
 42
2.5
 43
2.5
 50
180.0
  0
INSERT
  5
1E62
330
1432
100
AcDbEntity
  8
文字
 62
     2
370
    -2
100
AcDbBlockReference
  2
_OPEN
 10
398.9680039273947
 20
323.5562411257383
 30
0.0
 41
2.5
 42
2.5
 43
2.5
  0
MTEXT
  5
1E63
330
1432
100
AcDbEntity
  8
文字
 62
     6
100
AcDbMText
 10
392.5680039273947
 20
325.4312411257383
 30
0.0
 40
2.5
 41
0.0
 71
     5
 72
     1
  1
\A1;12.8
  7
STYLE3
 73
     1
 44
1.0
  0
POINT
  5
1E64
330
1432
100
AcDbEntity
  8
DEFPOINTS
 62
     0
100
AcDbPoint
 10
386.1680039273947
 20
299.5779077246988
 30
0.0
  0
POINT
  5
1E65
330
1432
100
AcDbEntity
  8
DEFPOINTS
 62
     0
100
AcDbPoint
 10
398.9680039273947
 20
299.5779077246989
 30
0.0
  0
POINT
  5
1E66
330
1432
100
AcDbEntity
  8
DEFPOINTS
 62
     0
100
AcDbPoint
 10
398.9680039273947
 20
323.5562411257383
 30
0.0
  0
ENDBLK
  5
143D
330
1432
100
AcDbEntity
  8
0
100
AcDbBlockEnd
  0
BLOCK
  5
1475
330
1468
100
AcDbEntity
  8
0
100
AcDbBlockBegin
  2
*D8
 70
     1
 10
0.0
 20
0.0
 30
0.0
  3
*D8
  1

  0
LINE
  5
1E55
330
1468
100
AcDbEntity
  8
文字
 62
     2
370
    -2
100
AcDbLine
 10
392.5680039273948
 20
315.5279077246989
 30
0.0
 11
414.8780471096221
 21
315.5279077246989
 31
0.0
  0
LINE
  5
1E56
330
1468
100
AcDbEntity
  8
文字
 62
     2
370
    -2
100
AcDbLine
 10
398.9680039273947
 20
299.5779077246989
 30
0.0
 11
414.8780471096221
 21
299.5779077246989
 31
0.0
  0
LINE
  5
1E57
330
1468
100
AcDbEntity
  8
文字
 62
     2
370
    -2
100
AcDbLine
 10
413.628047109622
 20
313.0279077246989
 30
0.0
 11
413.628047109622
 21
302.0779077246989
 31
0.0
  0
INSERT
  5
1E58
330
1468
100
AcDbEntity
  8
文字
 62
     2
370
    -2
100
AcDbBlockReference
  2
_OPEN
 10
413.628047109622
 20
315.5279077246989
 30
0.0
 41
2.5
 42
2.5
 43
2.5
 50
90.0
  0
INSERT
  5
1E59
330
1468
100
AcDbEntity
  8
文字
 62
     2
370
    -2
100
AcDbBlockReference
  2
_OPEN
 10
413.628047109622
 20
299.5779077246989
 30
0.0
 41
2.5
 42
2.5
 43
2.5
 50
270.0
  0
MTEXT
  5
1E5A
330
1468
100
AcDbEntity
  8
文字
 62
     6
100
AcDbMText
 10
411.753047109622
 20
307.552907724699
 30
0.0
 40
2.5
 41
0.0
 71
     5
 72
     1
  1
\A1;16
  7
STYLE3
 11
0.0000000000000001
 21
1.0
 31
0.0
 73
     1
 44
1.0
  0
POINT
  5
1E5B
330
1468
100
AcDbEntity
  8
DEFPOINTS
 62
     0
100
AcDbPoint
 10
392.5680039273948
 20
315.5279077246989
 30
0.0
  0
POINT
  5
1E5C
330
1468
100
AcDbEntity
  8
DEFPOINTS
 62
     0
100
AcDbPoint
 10
398.9680039273947
 20
299.5779077246989
 30
0.0
  0
POINT
  5
1E5D
330
1468
100
AcDbEntity
  8
DEFPOINTS
 62
     0
100
AcDbPoint
 10
413.628047109622
 20
299.5779077246989
 30
0.0
  0
ENDBLK
  5
147F
330
1468
100
AcDbEntity
  8
0
100
AcDbBlockEnd
  0
BLOCK
  5
1602
330
15AE
100
AcDbEntity
  8
0
100
AcDbBlockBegin
  2
*D9
 70
     1
 10
0.0
 20
0.0
 30
0.0
  3
*D9
  1

  0
LINE
  5
1E43
330
15AE
100
AcDbEntity
  8
寸法線
 62
     2
370
    -2
100
AcDbLine
 10
450.970199388403
 20
272.8385621872674
 30
0.0
 11
450.970199388403
 21
292.2643078184147
 31
0.0
  0
LINE
  5
1E44
330
15AE
100
AcDbEntity
  8
寸法線
 62
     2
370
    -2
100
AcDbLine
 10
468.0501993884032
 20
272.8385621872674
 30
0.0
 11
468.0501993884032
 21
292.2643078184147
 31
0.0
  0
LINE
  5
1E45
330
15AE
100
AcDbEntity
  8
寸法線
 62
     2
370
    -2
100
AcDbLine
 10
453.4701993884031
 20
291.0143078184147
 30
0.0
 11
465.5501993884032
 21
291.0143078184147
 31
0.0
  0
INSERT
  5
1E46
330
15AE
100
AcDbEntity
  8
寸法線
 62
     2
370
    -2
100
AcDbBlockReference
  2
_OPEN
 10
450.970199388403
 20
291.0143078184147
 30
0.0
 41
2.5
 42
2.5
 43
2.5
 50
180.0
  0
INSERT
  5
1E47
330
15AE
100
AcDbEntity
  8
寸法線
 62
     2
370
    -2
100
AcDbBlockReference
  2
_OPEN
 10
468.0501993884032
 20
291.0143078184147
 30
0.0
 41
2.5
 42
2.5
 43
2.5
  0
MTEXT
  5
1E48
330
15AE
100
AcDbEntity
  8
寸法線
 62
     6
100
AcDbMText
 10
459.5101993884031
 20
292.8893078184147
 30
0.0
 40
2.5
 41
0.0
 71
     5
 72
     1
  1
\A1;8.54
  7
STYLE3
 73
     1
 44
1.0
  0
POINT
  5
1E49
330
15AE
100
AcDbEntity
  8
DEFPOINTS
 62
     0
100
AcDbPoint
 10
450.970199388403
 20
272.8385621872674
 30
0.0
  0
POINT
  5
1E4A
330
15AE
100
AcDbEntity
  8
DEFPOINTS
 62
     0
100
AcDbPoint
 10
468.0501993884032
 20
272.8385621872674
 30
0.0
  0
POINT
  5
1E4B
330
15AE
100
AcDbEntity
  8
DEFPOINTS
 62
     0
100
AcDbPoint
 10
468.0501993884032
 20
291.0143078184147
 30
0.0
  0
ENDBLK
  5
160C
330
15AE
100
AcDbEntity
  8
0
100
AcDbBlockEnd
  0
BLOCK
  5
1659
330
15C9
100
AcDbEntity
  8
0
100
AcDbBlockBegin
  2
*D10
 70
     1
 10
0.0
 20
0.0
 30
0.0
  3
*D10
  1

  0
LINE
  5
1E4C
330
15C9
100
AcDbEntity
  8
寸法線
 62
     2
370
    -2
100
AcDbLine
 10
453.1601993884031
 20
274.6385621872674
 30
0.0
 11
453.1601993884031
 21
285.6643264160123
 31
0.0
  0
LINE
  5
1E4D
330
15C9
100
AcDbEntity
  8
寸法線
 62
     2
370
    -2
100
AcDbLine
 10
465.614330333197
 20
274.6385621872675
 30
0.0
 11
465.614330333197
 21
285.6643264160123
 31
0.0
  0
LINE
  5
1E4E
330
15C9
100
AcDbEntity
  8
寸法線
 62
     2
370
    -2
100
AcDbLine
 10
455.6601993884031
 20
284.4143264160123
 30
0.0
 11
463.1143303331969
 21
284.4143264160123
 31
0.0
  0
INSERT
  5
1E4F
330
15C9
100
AcDbEntity
  8
寸法線
 62
     2
370
    -2
100
AcDbBlockReference
  2
_OPEN
 10
453.1601993884031
 20
284.4143264160123
 30
0.0
 41
2.5
 42
2.5
 43
2.5
 50
180.0
  0
INSERT
  5
1E50
330
15C9
100
AcDbEntity
  8
寸法線
 62
     2
370
    -2
100
AcDbBlockReference
  2
_OPEN
 10
465.614330333197
 20
284.4143264160123
 30
0.0
 41
2.5
 42
2.5
 43
2.5
  0
MTEXT
  5
1E51
330
15C9
100
AcDbEntity
  8
寸法線
 62
     6
100
AcDbMText
 10
459.3872648608001
 20
286.9440883207742
 30
0.0
 40
2.5
 41
0.0
 71
     5
 72
     1
  1
\A1;(6.35)
  7
STYLE3
 73
     1
 44
1.0
  0
POINT
  5
1E52
330
15C9
100
AcDbEntity
  8
DEFPOINTS
 62
     0
100
AcDbPoint
 10
453.1601993884031
 20
274.6385621872674
 30
0.0
  0
POINT
  5
1E53
330
15C9
100
AcDbEntity
  8
DEFPOINTS
 62
     0
100
AcDbPoint
 10
465.614330333197
 20
274.6385621872675
 30
0.0
  0
POINT
  5
1E54
330
15C9
100
AcDbEntity
  8
DEFPOINTS
 62
     0
100
AcDbPoint
 10
465.614330333197
 20
284.4143264160123
 30
0.0
  0
ENDBLK
  5
1663
330
15C9
100
AcDbEntity
  8
0
100
AcDbBlockEnd
  0
BLOCK
  5
1709
330
1708
100
AcDbEntity
  8
0
100
AcDbBlockBegin
  2
*D11
 70
     1
 10
0.0
 20
0.0
 30
0.0
  3
*D11
  1

  0
LINE
  5
1E95
330
1708
100
AcDbEntity
  8
外形線
 62
     2
370
    -2
100
AcDbLine
 10
308.5739084122729
 20
234.4279077246989
 30
0.0
 11
297.7269497492504
 21
234.4279077246989
 31
0.0
  0
LINE
  5
1E96
330
1708
100
AcDbEntity
  8
外形線
 62
     2
370
    -2
100
AcDbLine
 10
308.6253035959507
 20
215.5279077246989
 30
0.0
 11
297.7269497492504
 21
215.5279077246989
 31
0.0
  0
LINE
  5
1E97
330
1708
100
AcDbEntity
  8
外形線
 62
     2
370
    -2
100
AcDbLine
 10
298.9769497492504
 20
231.927907724699
 30
0.0
 11
298.9769497492504
 21
218.0279077246989
 31
0.0
  0
INSERT
  5
1E98
330
1708
100
AcDbEntity
  8
外形線
 62
     2
370
    -2
100
AcDbBlockReference
  2
_OPEN
 10
298.9769497492504
 20
234.4279077246989
 30
0.0
 41
2.5
 42
2.5
 43
2.5
 50
90.0
  0
INSERT
  5
1E99
330
1708
100
AcDbEntity
  8
外形線
 62
     2
370
    -2
100
AcDbBlockReference
  2
_OPEN
 10
298.9769497492504
 20
215.5279077246989
 30
0.0
 41
2.5
 42
2.5
 43
2.5
 50
270.0
  0
MTEXT
  5
1E9A
330
1708
100
AcDbEntity
  8
外形線
 62
     6
100
AcDbMText
 10
297.1019497492504
 20
224.9779077246989
 30
0.0
 40
2.5
 41
0.0
 71
     5
 72
     1
  1
\A1;18.9
  7
STYLE3
 11
0.0000000000000001
 21
1.0
 31
0.0
 73
     1
 44
1.0
  0
POINT
  5
1E9B
330
1708
100
AcDbEntity
  8
DEFPOINTS
 62
     0
100
AcDbPoint
 10
308.5739084122729
 20
234.4279077246989
 30
0.0
  0
POINT
  5
1E9C
330
1708
100
AcDbEntity
  8
DEFPOINTS
 62
     0
100
AcDbPoint
 10
308.6253035959507
 20
215.5279077246989
 30
0.0
  0
POINT
  5
1E9D
330
1708
100
AcDbEntity
  8
DEFPOINTS
 62
     0
100
AcDbPoint
 10
298.9769497492504
 20
215.5279077246989
 30
0.0
  0
ENDBLK
  5
1713
330
1708
100
AcDbEntity
  8
0
100
AcDbBlockEnd
  0
BLOCK
  5
1716
330
1715
100
AcDbEntity
  8
0
100
AcDbBlockBegin
  2
*D12
 70
     1
 10
0.0
 20
0.0
 30
0.0
  3
*D12
  1

  0
LINE
  5
1E82
330
1715
100
AcDbEntity
  8
外形線
 62
     2
370
    -2
100
AcDbLine
 10
319.5733007457155
 20
237.927907724699
 30
0.0
 11
335.4010929648151
 21
237.9279077246989
 31
0.0
  0
LINE
  5
1E83
330
1715
100
AcDbEntity
  8
外形線
 62
     2
370
    -2
100
AcDbLine
 10
316.5049570116615
 20
215.5279077246989
 30
0.0
 11
335.4010929648151
 21
215.5279077246989
 31
0.0
  0
LINE
  5
1E84
330
1715
100
AcDbEntity
  8
外形線
 62
     2
370
    -2
100
AcDbLine
 10
334.1510929648151
 20
235.4279077246989
 30
0.0
 11
334.1510929648151
 21
218.0279077246989
 31
0.0
  0
INSERT
  5
1E85
330
1715
100
AcDbEntity
  8
外形線
 62
     2
370
    -2
100
AcDbBlockReference
  2
_OPEN
 10
334.1510929648151
 20
237.9279077246989
 30
0.0
 41
2.5
 42
2.5
 43
2.5
 50
90.0
  0
INSERT
  5
1E86
330
1715
100
AcDbEntity
  8
外形線
 62
     2
370
    -2
100
AcDbBlockReference
  2
_OPEN
 10
334.1510929648151
 20
215.5279077246989
 30
0.0
 41
2.5
 42
2.5
 43
2.5
 50
270.0
  0
MTEXT
  5
1E87
330
1715
100
AcDbEntity
  8
外形線
 62
     6
100
AcDbMText
 10
332.276092964815
 20
226.7279077246989
 30
0.0
 40
2.5
 41
0.0
 71
     5
 72
     1
  1
\A1;22.4
  7
STYLE3
 11
0.0000000000000001
 21
1.0
 31
0.0
 73
     1
 44
1.0
  0
POINT
  5
1E88
330
1715
100
AcDbEntity
  8
DEFPOINTS
 62
     0
100
AcDbPoint
 10
319.5733007457155
 20
237.927907724699
 30
0.0
  0
POINT
  5
1E89
330
1715
100
AcDbEntity
  8
DEFPOINTS
 62
     0
100
AcDbPoint
 10
316.5049570116615
 20
215.5279077246989
 30
0.0
  0
POINT
  5
1E8A
330
1715
100
AcDbEntity
  8
DEFPOINTS
 62
     0
100
AcDbPoint
 10
334.1510929648151
 20
215.5279077246989
 30
0.0
  0
ENDBLK
  5
1720
330
1715
100
AcDbEntity
  8
0
100
AcDbBlockEnd
  0
BLOCK
  5
1723
330
1722
100
AcDbEntity
  8
0
100
AcDbBlockBegin
  2
*D13
 70
     1
 10
0.0
 20
0.0
 30
0.0
  3
*D13
  1

  0
LINE
  5
1E9E
330
1722
100
AcDbEntity
  8
外形線
 62
     2
370
    -2
100
AcDbLine
 10
333.0191110033636
 20
281.927907724699
 30
0.0
 11
342.8874512587716
 21
281.927907724699
 31
0.0
  0
LINE
  5
1E9F
330
1722
100
AcDbEntity
  8
外形線
 62
     2
370
    -2
100
AcDbLine
 10
335.4010929648151
 20
215.5279077246989
 30
0.0
 11
342.8874512587716
 21
215.5279077246989
 31
0.0
  0
LINE
  5
1EA0
330
1722
100
AcDbEntity
  8
外形線
 62
     2
370
    -2
100
AcDbLine
 10
341.6374512587716
 20
279.427907724699
 30
0.0
 11
341.6374512587716
 21
218.0279077246989
 31
0.0
  0
INSERT
  5
1EA1
330
1722
100
AcDbEntity
  8
外形線
 62
     2
370
    -2
100
AcDbBlockReference
  2
_OPEN
 10
341.6374512587716
 20
281.927907724699
 30
0.0
 41
2.5
 42
2.5
 43
2.5
 50
90.0
  0
INSERT
  5
1EA2
330
1722
100
AcDbEntity
  8
外形線
 62
     2
370
    -2
100
AcDbBlockReference
  2
_OPEN
 10
341.6374512587716
 20
215.5279077246989
 30
0.0
 41
2.5
 42
2.5
 43
2.5
 50
270.0
  0
MTEXT
  5
1EA3
330
1722
100
AcDbEntity
  8
外形線
 62
     6
100
AcDbMText
 10
339.7624512587715
 20
248.727907724699
 30
0.0
 40
2.5
 41
0.0
 71
     5
 72
     1
  1
\A1;66.4
  7
STYLE3
 11
0.0000000000000001
 21
1.0
 31
0.0
 73
     1
 44
1.0
  0
POINT
  5
1EA4
330
1722
100
AcDbEntity
  8
DEFPOINTS
 62
     0
100
AcDbPoint
 10
333.0191110033636
 20
281.927907724699
 30
0.0
  0
POINT
  5
1EA5
330
1722
100
AcDbEntity
  8
DEFPOINTS
 62
     0
100
AcDbPoint
 10
335.4010929648151
 20
215.5279077246989
 30
0.0
  0
POINT
  5
1EA6
330
1722
100
AcDbEntity
  8
DEFPOINTS
 62
     0
100
AcDbPoint
 10
341.6374512587716
 20
215.5279077246989
 30
0.0
  0
ENDBLK
  5
172D
330
1722
100
AcDbEntity
  8
0
100
AcDbBlockEnd
  0
BLOCK
  5
1730
330
172F
100
AcDbEntity
  8
0
100
AcDbBlockBegin
  2
*D14
 70
     1
 10
0.0
 20
0.0
 30
0.0
  3
*D14
  1

  0
LINE
  5
1E70
330
172F
100
AcDbEntity
  8
外形線
 62
     2
370
    -2
100
AcDbLine
 10
312.3739084122728
 20
315.5279077246989
 30
0.0
 11
350.2257499068585
 21
315.5279077246989
 31
0.0
  0
LINE
  5
1E71
330
172F
100
AcDbEntity
  8
外形線
 62
     2
370
    -2
100
AcDbLine
 10
312.3739084122728
 20
214.5279077246989
 30
0.0
 11
350.2257499068585
 21
214.5279077246989
 31
0.0
  0
LINE
  5
1E72
330
172F
100
AcDbEntity
  8
外形線
 62
     2
370
    -2
100
AcDbLine
 10
348.9757499068586
 20
313.0279077246989
 30
0.0
 11
348.9757499068586
 21
217.0279077246989
 31
0.0
  0
INSERT
  5
1E73
330
172F
100
AcDbEntity
  8
外形線
 62
     2
370
    -2
100
AcDbBlockReference
  2
_OPEN
 10
348.9757499068586
 20
315.5279077246989
 30
0.0
 41
2.5
 42
2.5
 43
2.5
 50
90.0
  0
INSERT
  5
1E74
330
172F
100
AcDbEntity
  8
外形線
 62
     2
370
    -2
100
AcDbBlockReference
  2
_OPEN
 10
348.9757499068586
 20
214.5279077246989
 30
0.0
 41
2.5
 42
2.5
 43
2.5
 50
270.0
  0
MTEXT
  5
1E75
330
172F
100
AcDbEntity
  8
外形線
 62
     6
100
AcDbMText
 10
347.1007499068585
 20
265.027907724699
 30
0.0
 40
2.5
 41
0.0
 71
     5
 72
     1
  1
\A1;101
  7
STYLE3
 11
0.0000000000000001
 21
1.0
 31
0.0
 73
     1
 44
1.0
  0
POINT
  5
1E76
330
172F
100
AcDbEntity
  8
DEFPOINTS
 62
     0
100
AcDbPoint
 10
312.3739084122728
 20
315.5279077246989
 30
0.0
  0
POINT
  5
1E77
330
172F
100
AcDbEntity
  8
DEFPOINTS
 62
     0
100
AcDbPoint
 10
312.3739084122728
 20
214.5279077246989
 30
0.0
  0
POINT
  5
1E78
330
172F
100
AcDbEntity
  8
DEFPOINTS
 62
     0
100
AcDbPoint
 10
348.9757499068586
 20
214.5279077246989
 30
0.0
  0
ENDBLK
  5
173A
330
172F
100
AcDbEntity
  8
0
100
AcDbBlockEnd
  0
BLOCK
  5
18BE
330
18BB
100
AcDbEntity
  8
0
100
AcDbBlockBegin
  2
PC_PCN針
 70
     0
 10
0.0
 20
0.0
 30
0.0
  3
PC_PCN針
  1

  0
HATCH
  5
18BF
330
18BB
100
AcDbEntity
  8
針
 62
     5
100
AcDbHatch
 10
0.0
 20
0.0
 30
0.0
210
0.0
220
0.0
230
1.0
  2
SOLID
 70
     1
 71
     1
 91
        2
 92
        7
 72
     1
 73
     1
 93
        7
 10
-2.023904563850578
 20
-0.2645931338153105
 42
-0.1640812035095904
 10
-1.421638696153195
 20
-0.4784803210162636
 42
-0.0813437861988258
 10
-1.5
 20
0.0
 42
-0.0813437861988211
 10
-1.421638696153195
 20
0.4784803210162352
 42
-0.1640812035095877
 10
-2.023904563850578
 20
0.2645931338153105
 42
0.0
 10
-14.19999999999993
 20
0.07000000000005
 42
0.0
 10
-14.20000000000004
 20
-0.0700000000000216
 42
0.0
 97
        6
330
18C3
330
18C5
330
18C0
330
18C6
330
18C4
330
18CC
 92
        7
 72
     1
 73
     1
 93
        9
 10
1.601307174430758
 20
0.4866168858272318
 42
-0.1053331282509662
 10
1.399713151580613
 20
0.5392616185973793
 42
-0.0921949713546931
 10
1.5
 20
0.0
 42
-0.0921949713546883
 10
1.399713151580613
 20
-0.5392616185973509
 42
-0.1053331282510194
 10
1.601307174430871
 20
-0.4866168858272318
 42
0.0
 10
6.657469727507077
 20
-0.256172195646343
 42
-0.2863987309427536
 10
6.842033426437637
 20
-0.359972204586029
 42
3.911320250910649
 10
6.842033426437637
 20
0.3599722045860858
 42
-0.2863987309427981
 10
6.657469727507077
 20
0.256172195646343
 42
0.0
 97
        8
330
18CA
330
18C7
330
18C2
330
18CC
330
18C1
330
18C8
330
18CB
330
18C9
 75
     0
 76
     1
 47
0.0259966004614645
 98
        2
 10
-6.998752094249084
 20
-0.0094903483859525
 10
3.014397170732763
 20
0.0944959703959967
450
        0
451
        0
460
0.0
461
0.0
452
        1
462
1.0
453
        2
463
0.0
 63
     5
421
      255
463
1.0
 63
    51
421
 16777113
470
LINEAR
  0
LINE
  5
18C0
102
{ACAD_REACTORS
330
18BF
102
}
330
18BB
100
AcDbEntity
  8
針
100
AcDbLine
 10
-14.20000000000004
 20
0.0700000000000216
 30
0.0
 11
-14.20000000000004
 21
-0.0699999999999932
 31
0.0
  0
ARC
  5
18C1
102
{ACAD_REACTORS
330
18BF
102
}
330
18BB
100
AcDbEntity
  8
針
100
AcDbCircle
 10
1.624072039381871
 20
-0.9860983779005323
 30
0.0
 40
0.5
100
AcDbArc
 50
92.60956348104661
 51
116.6614474826241
  0
ARC
  5
18C2
102
{ACAD_REACTORS
330
18BF
102
}
330
18BB
100
AcDbEntity
  8
針
100
AcDbCircle
 10
1.624072039381871
 20
0.9860983779005323
 30
0.0
 40
0.5
100
AcDbArc
 50
243.3385525173759
 51
267.3904365189533
  0
ARC
  5
18C3
102
{ACAD_REACTORS
330
18BF
102
}
330
18BB
100
AcDbEntity
  8
針
100
AcDbCircle
 10
-2.039884094318267
 20
1.264465452967101
 30
0.0
 40
1.0
100
AcDbArc
 50
270.9155986228672
 51
308.1881170613605
  0
ARC
  5
18C4
102
{ACAD_REACTORS
330
18BF
102
}
330
18BB
100
AcDbEntity
  8
針
100
AcDbCircle
 10
-2.039884094318267
 20
-1.264465452967101
 30
0.0
 40
1.0
100
AcDbArc
 50
51.8118829386395
 51
89.08440137713276
  0
LINE
  5
18C5
102
{ACAD_REACTORS
330
18BF
102
}
330
18BB
100
AcDbEntity
  8
針
100
AcDbLine
 10
-14.20000000000004
 20
0.0700000000000216
 30
0.0
 11
-2.023904563850578
 21
0.2645931338153105
 31
0.0
  0
LINE
  5
18C6
102
{ACAD_REACTORS
330
18BF
102
}
330
18BB
100
AcDbEntity
  8
針
100
AcDbLine
 10
-2.023904563850578
 20
-0.2645931338153105
 30
0.0
 11
-14.20000000000004
 21
-0.0699999999999932
 31
0.0
  0
LINE
  5
18C7
102
{ACAD_REACTORS
330
18BF
102
}
330
18BB
100
AcDbEntity
  8
針
100
AcDbLine
 10
1.601307174430758
 20
0.4866168858272318
 30
0.0
 11
6.657469727507077
 21
0.256172195646343
 31
0.0
  0
LINE
  5
18C8
102
{ACAD_REACTORS
330
18BF
102
}
330
18BB
100
AcDbEntity
  8
針
100
AcDbLine
 10
1.601307174430758
 20
-0.4866168858272318
 30
0.0
 11
6.657469727507077
 21
-0.256172195646343
 31
0.0
  0
ARC
  5
18C9
102
{ACAD_REACTORS
330
18BF
102
}
330
18BB
100
AcDbEntity
  8
針
100
AcDbCircle
 10
7.5
 20
0.0
 30
0.0
 40
0.75
100
AcDbArc
 50
208.6829815593726
 51
151.3170184406274
  0
ARC
  5
18CA
102
{ACAD_REACTORS
330
18BF
102
}
330
18BB
100
AcDbEntity
  8
針
100
AcDbCircle
 10
6.666575673487614
 20
0.4559647924756405
 30
0.0
 40
0.2
100
AcDbArc
 50
267.3904365189468
 51
331.3170184406275
  0
ARC
  5
18CB
102
{ACAD_REACTORS
330
18BF
102
}
330
18BB
100
AcDbEntity
  8
針
100
AcDbCircle
 10
6.666575673487614
 20
-0.4559647924756405
 30
0.0
 40
0.2
100
AcDbArc
 50
28.68298155937256
 51
92.60956348105315
  0
CIRCLE
  5
18CC
102
{ACAD_REACTORS
330
18BF
102
}
330
18BB
100
AcDbEntity
  8
外形線
100
AcDbCircle
 10
0.0
 20
0.0
 30
0.0
 40
1.5
  0
CIRCLE
  5
18CD
330
18BB
100
AcDbEntity
  8
外形線
 62
     4
100
AcDbCircle
 10
0.0
 20
0.0
 30
0.0
 40
0.25
  0
ENDBLK
  5
18CE
330
18BB
100
AcDbEntity
  8
0
100
AcDbBlockEnd
  0
ENDSEC
  0
SECTION
  2
ENTITIES
  0
LWPOLYLINE
  5
10B
330
18
100
AcDbEntity
  8
C
100
AcDbPolyline
 90
        5
 70
     0
 43
0.4
 10
236.6915604445414
 20
366.8501752555372
 10
491.6915604445414
 20
366.8501752555372
 10
491.6915604445414
 20
171.8501752555372
 10
236.6915604445414
 20
171.8501752555372
 10
236.6915604445414
 20
366.8501752555372
  0
LINE
  5
16B
330
18
100
AcDbEntity
  8
中心線
 48
0.5
100
AcDbLine
 10
312.3739084122728
 20
320.4403897223624
 30
0.0
 11
312.3739084122728
 21
211.9787313339069
 31
0.0
  0
LINE
  5
16C
330
18
100
AcDbEntity
  8
外形線
100
AcDbLine
 10
309.3739084122729
 20
314.7240601474056
 30
0.0
 11
315.3739084122729
 21
314.7240601474056
 31
0.0
  0
LINE
  5
16D
330
18
100
AcDbEntity
  8
外形線
100
AcDbLine
 10
309.3739084122729
 20
299.5279077246989
 30
0.0
 11
315.3739084122729
 21
299.5279077246989
 31
0.0
  0
LINE
  5
16E
330
18
100
AcDbEntity
  8
外形線
100
AcDbLine
 10
315.3739084122729
 20
314.7240601474056
 30
0.0
 11
315.3739084122729
 21
299.5279077246989
 31
0.0
  0
LINE
  5
16F
330
18
100
AcDbEntity
  8
外形線
100
AcDbLine
 10
309.3739084122729
 20
314.7240601474056
 30
0.0
 11
309.3739084122729
 21
299.5279077246989
 31
0.0
  0
ARC
  5
170
330
18
100
AcDbEntity
  8
外形線
100
AcDbCircle
 10
312.3739084122728
 20
309.5279077246989
 30
0.0
 40
6.0
100
AcDbArc
 50
60.0
 51
120.0
  0
CIRCLE
  5
172
330
18
100
AcDbEntity
  8
外形線
100
AcDbCircle
 10
312.3739084122728
 20
281.927907724699
 30
0.0
 40
17.5
  0
LINE
  5
17D
330
18
100
AcDbEntity
  8
中心線
 48
0.5
100
AcDbLine
 10
308.6253035959507
 20
215.5279077246989
 30
0.0
 11
316.5049570116615
 21
215.5279077246989
 31
0.0
  0
LINE
  5
305
330
18
100
AcDbEntity
  8
中心線
 48
0.5
100
AcDbLine
 10
291.5147508740786
 20
281.927907724699
 30
0.0
 11
333.0191110033636
 21
281.927907724699
 31
0.0
  0
CIRCLE
  5
307
330
18
100
AcDbEntity
  8
外形線
100
AcDbCircle
 10
312.3739084122728
 20
281.927907724699
 30
0.0
 40
15.0
  0
LINE
  5
30A
330
18
100
AcDbEntity
  8
目盛
100
AcDbLine
 10
312.3739084122728
 20
296.927907724699
 30
0.0
 11
312.3739084122728
 21
294.427907724699
 31
0.0
  0
TEXT
  5
351
330
18
100
AcDbEntity
  8
文字
100
AcDbText
 10
311.5734993990017
 20
292.1999789598192
 30
0.0
 40
1.8
  1
0
  7
STYLE3
100
AcDbText
  0
TEXT
  5
353
330
18
100
AcDbEntity
  8
文字
100
AcDbText
 10
318.5382681924395
 20
288.5071083022142
 30
0.0
 40
1.8
  1
10
  7
STYLE3
100
AcDbText
  0
TEXT
  5
354
330
18
100
AcDbEntity
  8
文字
100
AcDbText
 10
321.2761170009038
 20
280.9851405307306
 30
0.0
 40
1.8
  1
20
  7
STYLE3
100
AcDbText
  0
TEXT
  5
355
330
18
100
AcDbEntity
  8
文字
100
AcDbText
 10
318.0782977383568
 20
273.3071909623082
 30
0.0
 40
1.8
  1
30
  7
STYLE3
100
AcDbText
  0
TEXT
  5
356
330
18
100
AcDbEntity
  8
文字
100
AcDbText
 10
310.6753485077825
 20
269.9029817593106
 30
0.0
 40
1.8
  1
40
  7
STYLE3
100
AcDbText
  0
TEXT
  5
357
330
18
100
AcDbEntity
  8
文字
100
AcDbText
 10
303.68661682443
 20
273.0558104737975
 30
0.0
 40
1.8
  1
30
  7
STYLE3
100
AcDbText
  0
TEXT
  5
358
330
18
100
AcDbEntity
  8
文字
100
AcDbText
 10
300.0717214999145
 20
281.1980080456248
 30
0.0
 40
1.8
  1
20
  7
STYLE3
100
AcDbText
  0
TEXT
  5
35A
330
18
100
AcDbEntity
  8
文字
100
AcDbText
 10
303.1672235036407
 20
288.9104920404856
 30
0.0
 40
1.8
  1
10
  7
STYLE3
100
AcDbText
  0
TEXT
  5
35E
330
18
100
AcDbEntity
  8
文字
100
AcDbText
 10
315.2458637703834
 20
281.5185679401238
 30
0.0
 40
0.8
  1
0.01mm
  7
STYLE3
100
AcDbText
  0
TEXT
  5
35F
330
18
100
AcDbEntity
  8
文字
100
AcDbText
 10
305.4334739275305
 20
281.5538566754495
 30
0.0
 40
0.8
  1
Jeweled
  7
STYLE3
100
AcDbText
  0
TEXT
  5
363
330
18
100
AcDbEntity
  8
文字
100
AcDbText
 10
309.8481539964699
 20
276.8957913823181
 30
0.0
 40
1.0
  1
PC-1B
  7
STYLE3
100
AcDbText
  0
TEXT
  5
368
330
18
100
AcDbEntity
  8
文字
100
AcDbText
 10
308.9299010043401
 20
284.9415397805343
 30
0.0
 40
1.0
  1
PIC-TEST
  7
STYLE3
100
AcDbText
  0
INSERT
  5
B43
330
18
100
AcDbEntity
  8
文字
100
AcDbBlockReference
  2
ROGO1
 10
301.1334577592202
 20
275.1168679656769
 30
0.0
  0
INSERT
  5
B44
330
18
100
AcDbEntity
  8
文字
100
AcDbBlockReference
  2
ROGO1
 10
301.1095809474122
 20
275.1436630917189
 30
0.0
  0
INSERT
  5
BF6
330
18
100
AcDbEntity
  8
文字
100
AcDbBlockReference
  2
ROGO
 10
306.7692614291049
 20
286.927907724699
 30
0.0
 41
0.3
 42
0.3
 43
0.3
  0
LINE
  5
BF9
330
18
100
AcDbEntity
  8
外形線
100
AcDbLine
 10
314.1239084122728
 20
234.727907724699
 30
0.0
 11
311.1239084122729
 21
234.727907724699
 31
0.0
  0
LINE
  5
C02
330
18
100
AcDbEntity
  8
外形線
100
AcDbLine
 10
312.9750450721939
 20
216.327907724699
 30
0.0
 11
311.7727717523516
 21
216.3279077246991
 31
0.0
  0
LINE
  5
C06
330
18
100
AcDbEntity
  8
外形線
100
AcDbLine
 10
313.6239084122729
 20
234.667907724699
 30
0.0
 11
313.6239084122728
 21
233.267907724699
 31
0.0
  0
LINE
  5
C07
330
18
100
AcDbEntity
  8
外形線
100
AcDbLine
 10
311.1239084122729
 20
234.6679077246989
 30
0.0
 11
311.1239084122729
 21
233.267907724699
 31
0.0
  0
LINE
  5
C0B
330
18
100
AcDbEntity
  8
外形線
100
AcDbLine
 10
311.1239084122729
 20
232.667907724699
 30
0.0
 11
311.1239084122729
 21
231.5279077246991
 31
0.0
  0
LINE
  5
C0C
330
18
100
AcDbEntity
  8
外形線
100
AcDbLine
 10
313.6239084122729
 20
232.6679077246989
 30
0.0
 11
313.6239084122729
 21
231.5279077246989
 31
0.0
  0
LINE
  5
C12
330
18
100
AcDbEntity
  8
外形線
100
AcDbLine
 10
311.1239084122729
 20
231.5279077246991
 30
0.0
 11
311.7727717523517
 21
216.327907724699
 31
0.0
  0
LINE
  5
C13
330
18
100
AcDbEntity
  8
外形線
100
AcDbLine
 10
313.6239084122729
 20
231.5279077246989
 30
0.0
 11
312.975045072194
 21
216.327907724699
 31
0.0
  0
ARC
  5
C14
330
18
100
AcDbEntity
  8
外形線
100
AcDbCircle
 10
312.3739084122728
 20
215.5279077246989
 30
0.0
 40
1.0
100
AcDbArc
 50
126.869897645842
 51
53.13010235415791
  0
LINE
  5
C24
330
18
100
AcDbEntity
  8
隠れ線
 62
     4
 48
0.3
100
AcDbLine
 10
312.3739084122728
 20
216.5279077246989
 30
0.0
 11
312.975045072194
 21
216.327907724699
 31
0.0
  0
LINE
  5
C25
330
18
100
AcDbEntity
  8
隠れ線
 62
     4
 48
0.3
100
AcDbLine
 10
312.3739084122728
 20
216.5279077246989
 30
0.0
 11
311.7727717523517
 21
216.327907724699
 31
0.0
  0
LINE
  5
C4D
330
18
100
AcDbEntity
  8
中心線
 48
0.5
100
AcDbLine
 10
305.2543829364052
 20
237.927907724699
 30
0.0
 11
319.5733007457155
 21
237.927907724699
 31
0.0
  0
LINE
  5
C4E
330
18
100
AcDbEntity
  8
外形線
100
AcDbLine
 10
308.5739084122729
 20
234.4279077246989
 30
0.0
 11
310.2239084122729
 21
234.4279077246989
 31
0.0
  0
LINE
  5
C51
330
18
100
AcDbEntity
  8
外形線
100
AcDbLine
 10
309.5468746714526
 20
299.5779077246989
 30
0.0
 11
315.2009421530931
 21
299.5779077246989
 31
0.0
  0
LINE
  5
C56
330
18
100
AcDbEntity
  8
外形線
100
AcDbLine
 10
315.1591157011144
 20
299.2048467000552
 30
0.0
 11
315.2876043987805
 21
299.4280112802122
 31
0.0
  0
LINE
  5
C57
330
18
100
AcDbEntity
  8
外形線
100
AcDbLine
 10
309.5887011234313
 20
299.2048467000552
 30
0.0
 11
309.4602124257652
 21
299.4280112802122
 31
0.0
  0
ARC
  5
C58
330
18
100
AcDbEntity
  8
外形線
100
AcDbCircle
 10
309.5468746714526
 20
299.4779077246989
 30
0.0
 40
0.1
100
AcDbArc
 50
89.99999999999944
 51
209.9315118405063
  0
ARC
  5
C59
330
18
100
AcDbEntity
  8
外形線
100
AcDbCircle
 10
315.2009421530931
 20
299.4779077246989
 30
0.0
 40
0.1
100
AcDbArc
 50
330.0684881594922
 51
90.0
  0
LINE
  5
C5A
330
18
100
AcDbEntity
  8
外形線
100
AcDbLine
 10
316.1739084122729
 20
264.8454605932134
 30
0.0
 11
316.1739084122729
 21
234.4279077246989
 31
0.0
  0
LINE
  5
C5B
330
18
100
AcDbEntity
  8
外形線
100
AcDbLine
 10
308.5739084122729
 20
264.8454605932134
 30
0.0
 11
308.5739084122729
 21
234.4279077246989
 31
0.0
  0
LINE
  5
C5C
330
18
100
AcDbEntity
  8
外形線
100
AcDbLine
 10
308.5739084122723
 20
263.927907724699
 30
0.0
 11
316.1739084122724
 21
263.9279077246989
 31
0.0
  0
LINE
  5
C5D
330
18
100
AcDbEntity
  8
外形線
100
AcDbLine
 10
310.0739084122728
 20
264.5797089709378
 30
0.0
 11
310.0739084122728
 21
254.3279077246989
 31
0.0
  0
LINE
  5
C5E
330
18
100
AcDbEntity
  8
中心線
100
AcDbLine
 10
309.8663534954383
 20
260.927907724699
 30
0.0
 11
312.891168000171
 21
260.927907724699
 31
0.0
  0
LINE
  5
C5F
330
18
100
AcDbEntity
  8
中心線
100
AcDbLine
 10
311.5739084122728
 20
262.2571890986642
 30
0.0
 11
311.5739084122728
 21
259.4143923712544
 31
0.0
  0
CIRCLE
  5
C60
330
18
100
AcDbEntity
  8
外形線
100
AcDbCircle
 10
311.5739084122728
 20
260.927907724699
 30
0.0
 40
0.85
  0
LINE
  5
C80
330
18
100
AcDbEntity
  8
外形線
100
AcDbLine
 10
309.1739084122729
 20
254.3279077246989
 30
0.0
 11
315.173908412273
 21
254.3279077246989
 31
0.0
  0
LINE
  5
C81
330
18
100
AcDbEntity
  8
外形線
100
AcDbLine
 10
309.1739084122729
 20
253.8279077246989
 30
0.0
 11
315.173908412273
 21
253.8279077246989
 31
0.0
  0
LINE
  5
C82
330
18
100
AcDbEntity
  8
外形線
100
AcDbLine
 10
309.1739084122729
 20
240.327907724699
 30
0.0
 11
315.1739084122729
 21
240.327907724699
 31
0.0
  0
LINE
  5
C83
330
18
100
AcDbEntity
  8
外形線
100
AcDbLine
 10
315.173908412273
 20
254.3279077246989
 30
0.0
 11
315.1739084122729
 21
240.327907724699
 31
0.0
  0
LINE
  5
C84
330
18
100
AcDbEntity
  8
外形線
100
AcDbLine
 10
309.1739084122729
 20
254.3279077246989
 30
0.0
 11
309.1739084122729
 21
240.327907724699
 31
0.0
  0
LINE
  5
C88
330
18
100
AcDbEntity
  8
外形線
100
AcDbLine
 10
316.1739084122729
 20
234.4279077246989
 30
0.0
 11
314.5239084122728
 21
234.4279077246989
 31
0.0
  0
LINE
  5
C8F
330
18
100
AcDbEntity
  8
外形線
100
AcDbLine
 10
308.5739084122729
 20
248.1279077246989
 30
0.0
 11
309.1739084122729
 21
248.1279077246989
 31
0.0
  0
LINE
  5
C90
330
18
100
AcDbEntity
  8
外形線
 62
     4
100
AcDbLine
 10
315.173908412273
 20
254.3279077246989
 30
0.0
 11
316.1739084122729
 21
254.3279077246989
 31
0.0
  0
LINE
  5
C91
330
18
100
AcDbEntity
  8
外形線
 62
     4
100
AcDbLine
 10
309.1739084122729
 20
254.3279077246989
 30
0.0
 11
308.5739084122729
 21
254.3279077246989
 31
0.0
  0
LINE
  5
C94
330
18
100
AcDbEntity
  8
外形線
100
AcDbLine
 10
314.5239084122728
 20
234.4279077246989
 30
0.0
 11
314.4792803165141
 21
239.3369982581558
 31
0.0
  0
LINE
  5
C95
330
18
100
AcDbEntity
  8
外形線
100
AcDbLine
 10
310.2239084122729
 20
234.4279077246989
 30
0.0
 11
310.2685365080315
 21
239.3369982581558
 31
0.0
  0
ARC
  5
C99
330
18
100
AcDbEntity
  8
外形線
100
AcDbCircle
 10
313.4793216362671
 20
239.327907724699
 30
0.0
 40
1.0
100
AcDbArc
 50
0.5208563745014782
 51
90.00000000000019
  0
ARC
  5
C9A
330
18
100
AcDbEntity
  8
外形線
100
AcDbCircle
 10
311.2684951882786
 20
239.327907724699
 30
0.0
 40
1.0
100
AcDbArc
 50
89.99999999999982
 51
179.4791436254985
  0
LINE
  5
CAE
330
18
100
AcDbEntity
  8
外形線
100
AcDbLine
 10
314.1239084122728
 20
240.0924388805053
 30
0.0
 11
314.1239084122728
 21
234.727907724699
 31
0.0
  0
LINE
  5
CAF
330
18
100
AcDbEntity
  8
外形線
100
AcDbLine
 10
310.6239084122728
 20
240.0924388805053
 30
0.0
 11
310.6239084122728
 21
235.2279077246989
 31
0.0
  0
LINE
  5
CB0
330
18
100
AcDbEntity
  8
外形線
100
AcDbLine
 10
311.1239084122729
 20
240.3173998490761
 30
0.0
 11
311.1239084122729
 21
234.7279077246989
 31
0.0
  0
LINE
  5
CB2
330
18
100
AcDbEntity
  8
外形線
100
AcDbLine
 10
310.6239084122728
 20
235.2279077246989
 30
0.0
 11
311.1239084122729
 21
235.2279077246989
 31
0.0
  0
LINE
  5
CBB
330
18
100
AcDbEntity
  8
外形線
100
AcDbLine
 10
307.3739084122729
 20
239.927907724699
 30
0.0
 11
307.3739084122729
 21
235.927907724699
 31
0.0
  0
LINE
  5
CBC
330
18
100
AcDbEntity
  8
外形線
100
AcDbLine
 10
307.8739084122728
 20
240.9279077246989
 30
0.0
 11
307.8739084122728
 21
234.927907724699
 31
0.0
  0
LINE
  5
CBD
330
18
100
AcDbEntity
  8
外形線
100
AcDbLine
 10
307.8739084122728
 20
235.927907724699
 30
0.0
 11
307.3739084122729
 21
235.927907724699
 31
0.0
  0
LINE
  5
CBE
330
18
100
AcDbEntity
  8
外形線
100
AcDbLine
 10
308.5739084122728
 20
234.9279077246989
 30
0.0
 11
307.8739084122728
 21
234.927907724699
 31
0.0
  0
LINE
  5
CBF
330
18
100
AcDbEntity
  8
外形線
100
AcDbLine
 10
307.8739084122728
 20
239.927907724699
 30
0.0
 11
307.3739084122729
 21
239.927907724699
 31
0.0
  0
LINE
  5
CC0
330
18
100
AcDbEntity
  8
外形線
100
AcDbLine
 10
308.5739084122728
 20
240.9279077246989
 30
0.0
 11
307.8739084122728
 21
240.9279077246989
 31
0.0
  0
INSERT
  5
FCB
330
18
100
AcDbEntity
  8
文字
100
AcDbBlockReference
  2
ROGO1
 10
579.0605083803766
 20
282.754069537204
 30
0.0
  0
INSERT
  5
FCC
330
18
100
AcDbEntity
  8
文字
100
AcDbBlockReference
  2
ROGO1
 10
579.0366315685687
 20
282.780864663246
 30
0.0
  0
LINE
  5
11EB
330
18
100
AcDbEntity
  8
外形線
100
AcDbLine
 10
384.1510126870673
 20
253.499518734773
 30
0.0
 11
386.8259882388368
 21
240.327907724699
 31
0.0
  0
LINE
  5
11EC
330
18
100
AcDbEntity
  8
外形線
100
AcDbLine
 10
385.7680039273947
 20
253.8279077246993
 30
0.0
 11
389.1266117509224
 21
237.290083385468
 31
0.0
  0
LINE
  5
11ED
330
18
100
AcDbEntity
  8
外形線
100
AcDbLine
 10
398.9680039273949
 20
253.8279077246988
 30
0.0
 11
396.0093961038669
 21
237.290083385468
 31
0.0
  0
LINE
  5
11EE
330
18
100
AcDbEntity
  8
中心線
 48
0.5
100
AcDbLine
 10
392.5680039273948
 20
319.13240958263
 30
0.0
 11
392.5680039273948
 21
213.2482203523462
 31
0.0
  0
LINE
  5
1203
330
18
100
AcDbEntity
  8
中心線
 48
0.5
100
AcDbLine
 10
385.1348891661351
 20
237.927907724699
 30
0.0
 11
399.8698049384752
 21
237.927907724699
 31
0.0
  0
ARC
  5
1204
330
18
100
AcDbEntity
  8
外形線
100
AcDbCircle
 10
392.5680039273948
 20
237.9279077246989
 30
0.0
 40
3.0
100
AcDbArc
 50
54.59406822686052
 51
215.4059317731395
  0
ARC
  5
1205
330
18
100
AcDbEntity
  8
外形線
100
AcDbCircle
 10
392.5680039273948
 20
237.9279077246989
 30
0.0
 40
3.0
100
AcDbArc
 50
234.5940682268605
 51
35.4059317731395
  0
LINE
  5
1206
330
18
100
AcDbEntity
  8
外形線
100
AcDbLine
 10
394.6893242709543
 20
239.342121287072
 30
0.0
 11
395.0132073843232
 21
239.6660044004408
 31
0.0
  0
ARC
  5
1207
330
18
100
AcDbEntity
  8
外形線
100
AcDbCircle
 10
392.3674052930113
 20
238.1675781457915
 30
0.0
 40
3.745046684690569
100
AcDbArc
 50
273.0704445438476
 51
346.7866708910927
  0
LINE
  5
1208
330
18
100
AcDbEntity
  8
外形線
100
AcDbLine
 10
391.1537903650217
 20
235.8065873811393
 30
0.0
 11
390.4466835838351
 21
236.5136941623259
 31
0.0
  0
LINE
  5
1209
330
18
100
AcDbEntity
  8
外形線
100
AcDbLine
 10
391.1537903650217
 20
235.8065873811393
 30
0.0
 11
390.8299072516529
 21
235.4827042677704
 31
0.0
  0
LINE
  5
120A
330
18
100
AcDbEntity
  8
外形線
100
AcDbLine
 10
390.4466835838351
 20
236.5136941623259
 30
0.0
 11
390.1228004704663
 21
236.1898110489569
 31
0.0
  0
LINE
  5
120B
330
18
100
AcDbEntity
  8
外形線
100
AcDbLine
 10
394.6893242709543
 20
239.342121287072
 30
0.0
 11
393.9822174897679
 21
240.0492280682585
 31
0.0
  0
LINE
  5
120C
330
18
100
AcDbEntity
  8
外形線
100
AcDbLine
 10
393.9822174897679
 20
240.0492280682585
 30
0.0
 11
394.3061006031367
 21
240.3731111816274
 31
0.0
  0
LINE
  5
120D
330
18
100
AcDbEntity
  8
外形線
100
AcDbLine
 10
391.1537903650217
 20
236.5136941623259
 30
0.0
 11
393.9822174897679
 21
239.3421212870721
 31
0.0
  0
ARC
  5
120E
330
18
100
AcDbEntity
  8
外形線
100
AcDbCircle
 10
392.7686025617782
 20
238.1675781457915
 30
0.0
 40
3.745046684690569
100
AcDbArc
 50
193.2133291089073
 51
266.9295554561525
  0
LINE
  5
120F
330
18
100
AcDbEntity
  8
外形線
100
AcDbLine
 10
386.8259882388368
 20
240.327907724699
 30
0.0
 11
388.5096708291326
 21
240.327907724699
 31
0.0
  0
CIRCLE
  5
1210
330
18
100
AcDbEntity
  8
外形線
100
AcDbCircle
 10
392.5680039273948
 20
237.927907724699
 30
0.0
 40
2.0
  0
LINE
  5
121B
330
18
100
AcDbEntity
  8
外形線
100
AcDbLine
 10
400.6180039273947
 20
297.9279077246989
 30
0.0
 11
400.6180039273947
 21
255.9779077246988
 31
0.0
  0
LINE
  5
121C
330
18
100
AcDbEntity
  8
外形線
100
AcDbLine
 10
386.1680039273947
 20
299.5779077246988
 30
0.0
 11
386.1680039273947
 21
263.927907724699
 31
0.0
  0
LINE
  5
121D
330
18
100
AcDbEntity
  8
外形線
100
AcDbLine
 10
398.9680039273947
 20
299.5779077246989
 30
0.0
 11
398.9680039273949
 21
253.8279077246988
 31
0.0
  0
LINE
  5
121E
330
18
100
AcDbEntity
  8
外形線
100
AcDbLine
 10
393.1081951959442
 20
271.2841328397172
 30
0.0
 11
392.0278126588453
 21
272.5716826096808
 31
0.0
  0
LINE
  5
121F
330
18
100
AcDbEntity
  8
外形線
100
AcDbLine
 10
391.9242290424129
 20
271.3877164561496
 30
0.0
 11
393.2117788123766
 21
272.4680989932485
 31
0.0
  0
ARC
  5
1220
330
18
100
AcDbEntity
  8
外形線
100
AcDbCircle
 10
392.5680039273948
 20
271.927907724699
 30
0.0
 40
2.5
100
AcDbArc
 50
355.0
 51
175.0
  0
CIRCLE
  5
1221
330
18
100
AcDbEntity
  8
外形線
100
AcDbCircle
 10
392.5680039273948
 20
271.927907724699
 30
0.0
 40
1.5
  0
LINE
  5
1223
330
18
100
AcDbEntity
  8
外形線
100
AcDbLine
 10
384.1437907110287
 20
253.5373368593639
 30
0.0
 11
385.7680039273947
 21
253.8279077246993
 31
0.0
  0
ARC
  5
122C
330
18
100
AcDbEntity
  8
外形線
100
AcDbCircle
 10
391.7400243712919
 20
262.4640580928274
 30
0.0
 40
1.5
100
AcDbArc
 50
175.0
 51
355.0
  0
LINE
  5
122D
330
18
100
AcDbEntity
  8
外形線
100
AcDbLine
 10
385.7680039273948
 20
263.927907724699
 30
0.0
 11
385.7680039273947
 21
253.8279077246993
 31
0.0
  0
LINE
  5
122E
330
18
100
AcDbEntity
  8
外形線
100
AcDbLine
 10
398.9680039273949
 20
254.3279077246989
 30
0.0
 11
400.6180039273947
 21
255.9779077246988
 31
0.0
  0
LINE
  5
122F
330
18
100
AcDbEntity
  8
外形線
100
AcDbLine
 10
395.0584906726241
 20
271.7100183678298
 30
0.0
 11
393.2343164184297
 21
262.333324478706
 31
0.0
  0
LINE
  5
1230
330
18
100
AcDbEntity
  8
中心線
 48
0.5
100
AcDbLine
 10
387.734735749782
 20
271.927907724699
 30
0.0
 11
397.1434882091469
 21
271.927907724699
 31
0.0
  0
LINE
  5
1231
330
18
100
AcDbEntity
  8
外形線
100
AcDbLine
 10
390.0775171821654
 20
272.1457970815681
 30
0.0
 11
390.2457323241543
 21
262.5947917069489
 31
0.0
  0
LINE
  5
1232
330
18
100
AcDbEntity
  8
外形線
100
AcDbLine
 10
385.7680039273948
 20
263.927907724699
 30
0.0
 11
386.1680039273947
 21
263.927907724699
 31
0.0
  0
LINE
  5
1233
330
18
100
AcDbEntity
  8
中心線
 48
0.5
100
AcDbLine
 10
374.1479001439748
 20
281.927907724699
 30
0.0
 11
403.3572471039238
 21
281.927907724699
 31
0.0
  0
CIRCLE
  5
1244
330
18
100
AcDbEntity
  8
外形線
100
AcDbCircle
 10
392.5680039273948
 20
281.927907724699
 30
0.0
 40
1.0
  0
LINE
  5
1249
330
18
100
AcDbEntity
  8
外形線
100
AcDbLine
 10
395.5680039273948
 20
314.7240601474055
 30
0.0
 11
395.5680039273948
 21
299.5279077246989
 31
0.0
  0
LINE
  5
124A
330
18
100
AcDbEntity
  8
外形線
100
AcDbLine
 10
389.5680039273948
 20
314.7240601474055
 30
0.0
 11
389.5680039273948
 21
299.5279077246989
 31
0.0
  0
LINE
  5
1253
330
18
100
AcDbEntity
  8
外形線
100
AcDbLine
 10
389.5680039273948
 20
299.5279077246989
 30
0.0
 11
395.5680039273948
 21
299.5279077246989
 31
0.0
  0
LINE
  5
1254
330
18
100
AcDbEntity
  8
外形線
100
AcDbLine
 10
386.1680039273947
 20
299.5779077246988
 30
0.0
 11
398.9680039273947
 21
299.5779077246989
 31
0.0
  0
LINE
  5
1255
330
18
100
AcDbEntity
  8
外形線
100
AcDbLine
 10
400.6180039273947
 20
297.9279077246989
 30
0.0
 11
386.1680039273947
 21
297.927907724699
 31
0.0
  0
POINT
  5
1256
330
18
100
AcDbEntity
  8
DEFPOINTS
  6
ByBlock
 62
     0
100
AcDbPoint
 10
400.6180039273947
 20
297.9279077246989
 30
0.0
  0
POINT
  5
1257
330
18
100
AcDbEntity
  8
DEFPOINTS
  6
ByBlock
 62
     0
100
AcDbPoint
 10
398.9680039273947
 20
299.5779077246989
 30
0.0
  0
LINE
  5
1259
330
18
100
AcDbEntity
  8
外形線
100
AcDbLine
 10
389.5680039273948
 20
314.7240601474055
 30
0.0
 11
395.5680039273948
 21
314.7240601474055
 31
0.0
  0
ARC
  5
125A
330
18
100
AcDbEntity
  8
外形線
100
AcDbCircle
 10
392.5680039273948
 20
309.5279077246989
 30
0.0
 40
6.0
100
AcDbArc
 50
60.0
 51
120.0
  0
POINT
  5
1285
330
18
100
AcDbEntity
  8
DEFPOINTS
  6
ByBlock
 62
     0
100
AcDbPoint
 10
312.3739084122728
 20
281.927907724699
 30
0.0
  0
POINT
  5
1286
330
18
100
AcDbEntity
  8
DEFPOINTS
  6
ByBlock
 62
     0
100
AcDbPoint
 10
312.3739084122728
 20
281.927907724699
 30
0.0
  0
POINT
  5
1287
330
18
100
AcDbEntity
  8
DEFPOINTS
  6
ByBlock
 62
     0
100
AcDbPoint
 10
312.3739084122728
 20
281.927907724699
 30
0.0
  0
POINT
  5
1288
330
18
100
AcDbEntity
  8
DEFPOINTS
  6
ByBlock
 62
     0
100
AcDbPoint
 10
312.3739084122728
 20
281.927907724699
 30
0.0
  0
LINE
  5
12CA
330
18
100
AcDbEntity
  8
外形線
100
AcDbLine
 10
380.1680039273946
 20
299.427907724699
 30
0.0
 11
383.3180039273946
 21
299.427907724699
 31
0.0
  0
LINE
  5
12CC
330
18
100
AcDbEntity
  8
外形線
100
AcDbLine
 10
379.9680039273947
 20
299.227907724699
 30
0.0
 11
379.9680039273945
 21
264.6279077246991
 31
0.0
  0
LINE
  5
12CD
330
18
100
AcDbEntity
  8
外形線
100
AcDbLine
 10
383.6680039273947
 20
299.0779077246989
 30
0.0
 11
383.6680039273947
 21
264.777907724699
 31
0.0
  0
LINE
  5
12CE
330
18
100
AcDbEntity
  8
外形線
100
AcDbLine
 10
384.6680039273946
 20
299.0779077246989
 30
0.0
 11
384.6680039273946
 21
264.777907724699
 31
0.0
  0
LINE
  5
12CF
330
18
100
AcDbEntity
  8
外形線
 48
0.5
100
AcDbLine
 10
379.9680039273947
 20
299.227907724699
 30
0.0
 11
380.1680039273946
 21
299.427907724699
 31
0.0
  0
LINE
  5
12D0
330
18
100
AcDbEntity
  8
外形線
100
AcDbLine
 10
383.3180039273946
 20
299.427907724699
 30
0.0
 11
383.6680039273947
 21
299.0779077246989
 31
0.0
  0
LINE
  5
12EF
330
18
100
AcDbEntity
  8
外形線
100
AcDbLine
 10
383.3180039273946
 20
264.427907724699
 30
0.0
 11
383.6680039273947
 21
264.777907724699
 31
0.0
  0
LINE
  5
12F0
330
18
100
AcDbEntity
  8
外形線
 48
0.5
100
AcDbLine
 10
379.9680039273947
 20
264.6279077246989
 30
0.0
 11
380.1680039273946
 21
264.427907724699
 31
0.0
  0
LINE
  5
12F1
330
18
100
AcDbEntity
  8
外形線
100
AcDbLine
 10
380.1680039273946
 20
264.427907724699
 30
0.0
 11
383.3180039273946
 21
264.427907724699
 31
0.0
  0
LINE
  5
12F5
330
18
100
AcDbEntity
  8
外形線
100
AcDbLine
 10
379.4680039273946
 20
298.4279077246989
 30
0.0
 11
379.4680039273946
 21
265.427907724699
 31
0.0
  0
LINE
  5
12FF
330
18
100
AcDbEntity
  8
外形線
100
AcDbLine
 10
383.6680039273947
 20
299.0779077246989
 30
0.0
 11
384.6680039273946
 21
299.0779077246989
 31
0.0
  0
LINE
  5
1300
330
18
100
AcDbEntity
  8
外形線
100
AcDbLine
 10
383.6680039273947
 20
264.777907724699
 30
0.0
 11
384.6680039273946
 21
264.777907724699
 31
0.0
  0
LINE
  5
1308
330
18
100
AcDbEntity
  8
外形線
100
AcDbLine
 10
379.4680039273946
 20
298.427907724699
 30
0.0
 11
379.9680039273947
 21
298.927907724699
 31
0.0
  0
LINE
  5
1309
330
18
100
AcDbEntity
  8
外形線
100
AcDbLine
 10
379.4680039273946
 20
265.4279077246989
 30
0.0
 11
379.9680039273947
 21
264.927907724699
 31
0.0
  0
LINE
  5
1312
330
18
100
AcDbEntity
  8
外形線
100
AcDbLine
 10
379.9680039273948
 20
298.727907724699
 30
0.0
 11
383.6680039273947
 21
298.727907724699
 31
0.0
  0
LINE
  5
1313
330
18
100
AcDbEntity
  8
外形線
100
AcDbLine
 10
379.9680039273948
 20
298.027907724699
 30
0.0
 11
383.6680039273947
 21
298.027907724699
 31
0.0
  0
LINE
  5
1314
330
18
100
AcDbEntity
  8
外形線
100
AcDbLine
 10
379.9680039273948
 20
297.227907724699
 30
0.0
 11
383.6680039273947
 21
297.2279077246989
 31
0.0
  0
LINE
  5
1315
330
18
100
AcDbEntity
  8
外形線
100
AcDbLine
 10
379.9680039273948
 20
296.427907724699
 30
0.0
 11
383.6680039273947
 21
296.427907724699
 31
0.0
  0
LINE
  5
1316
330
18
100
AcDbEntity
  8
外形線
100
AcDbLine
 10
379.9680039273948
 20
295.527907724699
 30
0.0
 11
383.6680039273947
 21
295.527907724699
 31
0.0
  0
LINE
  5
1328
330
18
100
AcDbEntity
  8
外形線
100
AcDbLine
 10
379.9680039273947
 20
282.627907724699
 30
0.0
 11
383.6680039273947
 21
282.627907724699
 31
0.0
  0
LINE
  5
1329
330
18
100
AcDbEntity
  8
外形線
100
AcDbLine
 10
379.9680039273947
 20
281.227907724699
 30
0.0
 11
383.6680039273947
 21
281.227907724699
 31
0.0
  0
LINE
  5
132A
330
18
100
AcDbEntity
  8
外形線
100
AcDbLine
 10
379.9680039273947
 20
283.427907724699
 30
0.0
 11
383.6680039273947
 21
283.427907724699
 31
0.0
  0
LINE
  5
132B
330
18
100
AcDbEntity
  8
外形線
100
AcDbLine
 10
379.9680039273947
 20
280.427907724699
 30
0.0
 11
383.6680039273947
 21
280.427907724699
 31
0.0
  0
LINE
  5
132C
330
18
100
AcDbEntity
  8
外形線
100
AcDbLine
 10
379.9680039273946
 20
281.927907724699
 30
0.0
 11
383.6680039273946
 21
281.927907724699
 31
0.0
  0
LINE
  5
132D
330
18
100
AcDbEntity
  8
外形線
100
AcDbLine
 10
379.9680039273948
 20
268.3279077246989
 30
0.0
 11
383.6680039273947
 21
268.3279077246989
 31
0.0
  0
LINE
  5
132E
330
18
100
AcDbEntity
  8
外形線
100
AcDbLine
 10
379.9680039273948
 20
267.4279077246989
 30
0.0
 11
383.6680039273947
 21
267.4279077246989
 31
0.0
  0
LINE
  5
132F
330
18
100
AcDbEntity
  8
外形線
100
AcDbLine
 10
379.9680039273948
 20
266.6279077246989
 30
0.0
 11
383.6680039273947
 21
266.627907724699
 31
0.0
  0
LINE
  5
1330
330
18
100
AcDbEntity
  8
外形線
100
AcDbLine
 10
379.9680039273948
 20
265.8279077246989
 30
0.0
 11
383.6680039273947
 21
265.8279077246989
 31
0.0
  0
LINE
  5
1331
330
18
100
AcDbEntity
  8
外形線
100
AcDbLine
 10
379.9680039273948
 20
265.1279077246989
 30
0.0
 11
383.6680039273947
 21
265.1279077246989
 31
0.0
  0
LINE
  5
1336
330
18
100
AcDbEntity
  8
外形線
100
AcDbLine
 10
384.6680039273946
 20
296.927907724699
 30
0.0
 11
385.1680039273947
 21
296.927907724699
 31
0.0
  0
ARC
  5
1337
330
18
100
AcDbEntity
  8
外形線
100
AcDbCircle
 10
385.1680039273947
 20
295.927907724699
 30
0.0
 40
1.0
100
AcDbArc
 50
0.0000000000002036
 51
90.0
  0
ARC
  5
1338
330
18
100
AcDbEntity
  8
外形線
100
AcDbCircle
 10
385.1680039273947
 20
267.927907724699
 30
0.0
 40
1.0
100
AcDbArc
 50
270.0
 51
359.9999999999998
  0
LINE
  5
1339
330
18
100
AcDbEntity
  8
外形線
100
AcDbLine
 10
384.6680039273946
 20
266.927907724699
 30
0.0
 11
385.1680039273947
 21
266.927907724699
 31
0.0
  0
ARC
  5
133C
330
18
100
AcDbEntity
  8
外形線
100
AcDbCircle
 10
439.4832935433789
 20
281.9279077246989
 30
0.0
 40
62.37903158457702
100
AcDbArc
 50
166.4545064755762
 51
193.5454935244236
  0
LINE
  5
1343
330
18
100
AcDbEntity
  8
外形線
100
AcDbLine
 10
379.3254732895054
 20
296.9210513501418
 30
0.0
 11
379.4680039273946
 21
296.9210513501418
 31
0.0
  0
ARC
  5
1345
330
18
100
AcDbEntity
  8
外形線
100
AcDbCircle
 10
379.3254732895054
 20
296.4210513501417
 30
0.0
 40
0.5
100
AcDbArc
 50
89.99999999999349
 51
166.4545064755751
  0
ARC
  5
1346
330
18
100
AcDbEntity
  8
外形線
100
AcDbCircle
 10
379.3254732895054
 20
267.4347640992562
 30
0.0
 40
0.5
100
AcDbArc
 50
193.5454935244249
 51
270.0000000000065
  0
LINE
  5
1347
330
18
100
AcDbEntity
  8
外形線
100
AcDbLine
 10
379.3254732895054
 20
266.9347640992561
 30
0.0
 11
379.4680039273946
 21
266.9347640992561
 31
0.0
  0
LINE
  5
1348
330
18
100
AcDbEntity
  8
外形線
100
AcDbLine
 10
310.2602720486365
 20
238.427907724699
 30
0.0
 11
310.6239084122728
 21
238.4279077246989
 31
0.0
  0
LINE
  5
1349
330
18
100
AcDbEntity
  8
外形線
100
AcDbLine
 10
310.2511811395455
 20
237.4279077246989
 30
0.0
 11
310.6239084122729
 21
237.4279077246989
 31
0.0
  0
LINE
  5
134A
330
18
100
AcDbEntity
  8
外形線
100
AcDbLine
 10
314.1239084122728
 20
238.4279077246989
 30
0.0
 11
314.4875447759092
 21
238.4279077246989
 31
0.0
  0
LINE
  5
134B
330
18
100
AcDbEntity
  8
外形線
100
AcDbLine
 10
314.1239084122728
 20
237.4279077246989
 30
0.0
 11
314.4966356850001
 21
237.4279077246989
 31
0.0
  0
LINE
  5
138E
330
18
100
AcDbEntity
  8
外形線
100
AcDbLine
 10
316.8739084122729
 20
240.9279077246989
 30
0.0
 11
316.8739084122729
 21
234.927907724699
 31
0.0
  0
LINE
  5
138F
330
18
100
AcDbEntity
  8
外形線
100
AcDbLine
 10
317.3739084122729
 20
239.927907724699
 30
0.0
 11
317.3739084122729
 21
235.927907724699
 31
0.0
  0
LINE
  5
1390
330
18
100
AcDbEntity
  8
外形線
100
AcDbLine
 10
316.1739084122729
 20
234.9279077246989
 30
0.0
 11
316.8739084122729
 21
234.927907724699
 31
0.0
  0
LINE
  5
1391
330
18
100
AcDbEntity
  8
外形線
100
AcDbLine
 10
316.8739084122729
 20
235.927907724699
 30
0.0
 11
317.3739084122729
 21
235.927907724699
 31
0.0
  0
LINE
  5
1392
330
18
100
AcDbEntity
  8
外形線
100
AcDbLine
 10
316.1739084122729
 20
240.9279077246989
 30
0.0
 11
316.8739084122729
 21
240.9279077246989
 31
0.0
  0
LINE
  5
1393
330
18
100
AcDbEntity
  8
外形線
100
AcDbLine
 10
316.8739084122729
 20
239.927907724699
 30
0.0
 11
317.3739084122729
 21
239.927907724699
 31
0.0
  0
DIMENSION
  5
13A0
330
18
100
AcDbEntity
  8
外形線
100
AcDbDimension
  2
*D4
 10
317.3739084122729
 20
229.6214280078414
 30
0.0
 11
324.0703369837014
 21
229.6214280078414
 31
0.0
 70
   160
  1
(10)
 71
     5
 42
10.0
  3
STYLE3
100
AcDbAlignedDimension
 13
307.3739084122729
 23
235.927907724699
 33
0.0
 14
317.3739084122729
 24
235.927907724699
 34
0.0
100
AcDbRotatedDimension
1001
ACAD
1000
DSTYLE
1002
{
1070
   271
1070
     2
1002
}
  0
POINT
  5
13FC
330
18
100
AcDbEntity
  8
DEFPOINTS
  6
ByBlock
 62
     0
100
AcDbPoint
 10
312.8980263608133
 20
214.6762620377975
 30
0.0
  0
POINT
  5
13FD
330
18
100
AcDbEntity
  8
DEFPOINTS
  6
ByBlock
 62
     0
100
AcDbPoint
 10
312.3739084122728
 20
215.5279077246989
 30
0.0
  0
DIMENSION
  5
140E
330
18
100
AcDbEntity
  8
文字
100
AcDbDimension
  2
*D5
 10
368.9081666104474
 20
264.427907724699
 30
0.0
 11
367.0331666104473
 21
281.927907724699
 31
0.0
 70
    32
  1
φ35
 71
     5
 42
35.0
  3
STYLE3
100
AcDbAlignedDimension
 13
380.1680039273946
 23
299.427907724699
 33
0.0
 14
380.1680039273946
 24
264.427907724699
 34
0.0
 50
90.0
100
AcDbRotatedDimension
1001
ACAD
1000
DSTYLE
1002
{
1070
   271
1070
     2
1002
}
  0
DIMENSION
  5
1426
330
18
100
AcDbEntity
  8
文字
100
AcDbDimension
  2
*D6
 10
400.6180039273947
 20
330.5283281820885
 30
0.0
 11
388.8611329430983
 21
332.4033281820884
 31
0.0
 70
    32
  1
23.5
 71
     5
 42
23.51374196859286
  3
STYLE3
100
AcDbAlignedDimension
 13
377.1042619588019
 23
281.9279077246989
 33
0.0
 14
400.6180039273947
 24
297.9279077246989
 34
0.0
100
AcDbRotatedDimension
1001
ACAD
1000
DSTYLE
1002
{
1070
   271
1070
     2
1002
}
  0
DIMENSION
  5
143E
330
18
100
AcDbEntity
  8
文字
100
AcDbDimension
  2
*D7
 10
398.9680039273947
 20
323.5562411257383
 30
0.0
 11
392.5680039273947
 21
325.4312411257383
 31
0.0
 70
    32
 71
     5
 42
12.80000000000007
  3
STYLE3
100
AcDbAlignedDimension
 13
386.1680039273947
 23
299.5779077246988
 33
0.0
 14
398.9680039273947
 24
299.5779077246989
 34
0.0
100
AcDbRotatedDimension
1001
ACAD
1000
DSTYLE
1002
{
1070
   271
1070
     2
1002
}
  0
LINE
  5
145D
330
18
100
AcDbEntity
  8
0
  6
ByBlock
 62
     2
100
AcDbLine
 10
400.6180039273947
 20
303.4766313497485
 30
0.0
 11
400.6180039273947
 21
324.8062411257383
 31
0.0
  0
LINE
  5
145E
330
18
100
AcDbEntity
  8
0
  6
ByBlock
 62
     2
100
AcDbLine
 10
396.4680039273948
 20
323.5562411257383
 30
0.0
 11
393.9680039273948
 21
323.5562411257383
 31
0.0
  0
LINE
  5
145F
330
18
100
AcDbEntity
  8
0
  6
ByBlock
 62
     2
100
AcDbLine
 10
403.1180039273947
 20
323.5562411257383
 30
0.0
 11
410.7813623740673
 21
323.5562411257383
 31
0.0
  0
MTEXT
  5
1460
330
18
100
AcDbEntity
  8
0
  6
ByBlock
 62
     6
100
AcDbMText
 10
406.9353689178206
 20
325.3947061666032
 30
0.0
 40
2.5
 41
0.0
 71
     5
 72
     1
  1
\A1;1.65
  7
STYLE3
 73
     1
 44
1.0
  0
LINE
  5
1461
330
18
100
AcDbEntity
  8
0
  6
ByBlock
 62
     2
100
AcDbLine
 10
398.9680039273947
 20
323.5562411257383
 30
0.0
 11
400.6180039273947
 21
323.5562411257383
 31
0.0
  0
LINE
  5
1462
330
18
100
AcDbEntity
  8
0
  6
ByBlock
 62
     2
100
AcDbLine
 10
398.9680039273947
 20
323.5562411257383
 30
0.0
 11
400.6180039273947
 21
323.5562411257383
 31
0.0
  0
INSERT
  5
1463
330
18
100
AcDbEntity
  8
0
  6
ByBlock
 62
     2
100
AcDbBlockReference
  2
_OPEN
 10
398.9680039273947
 20
323.5562411257383
 30
0.0
 41
2.5
 42
2.5
 43
2.5
  0
INSERT
  5
1464
330
18
100
AcDbEntity
  8
0
  6
ByBlock
 62
     2
100
AcDbBlockReference
  2
_OPEN
 10
400.6180039273947
 20
323.5562411257383
 30
0.0
 41
2.5
 42
2.5
 43
2.5
 50
180.0
  0
POINT
  5
1465
330
18
100
AcDbEntity
  8
DEFPOINTS
  6
ByBlock
 62
     0
100
AcDbPoint
 10
398.9680039273947
 20
299.5779077246989
 30
0.0
  0
POINT
  5
1466
330
18
100
AcDbEntity
  8
DEFPOINTS
  6
ByBlock
 62
     0
100
AcDbPoint
 10
400.6180039273947
 20
303.4766313497485
 30
0.0
  0
POINT
  5
1467
330
18
100
AcDbEntity
  8
DEFPOINTS
  6
ByBlock
 62
     0
100
AcDbPoint
 10
400.6180039273947
 20
323.5562411257383
 30
0.0
  0
DIMENSION
  5
1474
330
18
100
AcDbEntity
  8
文字
100
AcDbDimension
  2
*D8
 10
413.628047109622
 20
299.5779077246989
 30
0.0
 11
411.753047109622
 21
307.552907724699
 31
0.0
 70
    32
  1
16
 71
     5
 42
15.94999999999993
  3
STYLE3
100
AcDbAlignedDimension
 13
392.5680039273948
 23
315.5279077246989
 33
0.0
 14
398.9680039273947
 24
299.5779077246989
 34
0.0
 50
90.0
100
AcDbRotatedDimension
1001
ACAD
1000
DSTYLE
1002
{
1070
   271
1070
     2
1002
}
  0
POINT
  5
1494
330
18
100
AcDbEntity
  8
DEFPOINTS
  6
ByBlock
 62
     0
100
AcDbPoint
 10
392.5680039273947
 20
319.13240958263
 30
0.0
  0
POINT
  5
1497
330
18
100
AcDbEntity
  8
DEFPOINTS
  6
ByBlock
 62
     0
100
AcDbPoint
 10
392.5680039273948
 20
213.2482203523462
 30
0.0
  0
POINT
  5
14D3
330
18
100
AcDbEntity
  8
DEFPOINTS
  6
ByBlock
 62
     0
100
AcDbPoint
 10
392.5680039273948
 20
237.927907724699
 30
0.0
  0
POINT
  5
14D4
330
18
100
AcDbEntity
  8
DEFPOINTS
  6
ByBlock
 62
     0
100
AcDbPoint
 10
392.5680039273948
 20
237.927907724699
 30
0.0
  0
MTEXT
  5
14DD
330
18
100
AcDbEntity
  8
文字
 62
     6
100
AcDbMText
 10
377.8519501965389
 20
237.6352752810323
 30
0.0
 40
2.5
 41
0.0
 71
     6
 72
     1
  1
\A1;C
  7
STYLE3
 73
     1
 44
1.0
  0
LWPOLYLINE
  5
14E0
330
18
100
AcDbEntity
  8
文字
 62
     2
100
AcDbPolyline
 90
        3
 70
     0
 43
0.0
 10
386.3064550045088
 20
247.6117252525733
 10
379.5504106761443
 20
235.6847724405899
 10
374.63969639043
 20
235.6847724405899
1001
ACAD
1000
DSTYLE
1002
{
1070
   271
1070
     2
1002
}
  0
CIRCLE
  5
14E2
102
{ACAD_REACTORS
330
14E5
102
}
330
18
100
AcDbEntity
  8
外形線
100
AcDbCircle
 10
386.3064550045088
 20
247.6117252525733
 30
0.0
 40
0.222687898198611
  0
HATCH
  5
14E5
330
18
100
AcDbEntity
  8
外形線
100
AcDbHatch
 10
0.0
 20
0.0
 30
0.0
210
0.0
220
0.0
230
1.0
  2
SOLID
 70
     1
 71
     1
 91
        1
 92
        7
 72
     1
 73
     1
 93
        2
 10
386.5291429027074
 20
247.6117252525733
 42
1.0
 10
386.0837671063102
 20
247.6117252525733
 42
1.0
 97
        1
330
14E2
 75
     0
 76
     1
 47
0.0124670341605454
 98
        1
 10
386.3644323058553
 20
247.5885533124821
450
        0
451
        0
460
0.0
461
0.0
452
        0
462
0.0
453
        0
470

  0
LWPOLYLINE
  5
14EB
330
18
100
AcDbEntity
  8
寸法線
 62
     2
100
AcDbPolyline
 90
        3
 70
     0
 43
0.0
 10
399.6748872590771
 20
268.8776920354341
 10
406.4570377754035
 20
280.8703566082817
 10
411.4867996801654
 20
280.8703566082817
1001
ACAD
1000
DSTYLE
1002
{
1070
   271
1070
     2
1002
}
  0
TEXT
  5
14EC
330
18
100
AcDbEntity
  8
寸法線
 62
     6
100
AcDbText
 10
407.8898919651045
 20
281.4953566082817
 30
0.0
 40
2.5
  1
A
  7
STYLE3
100
AcDbText
  0
CIRCLE
  5
14EE
102
{ACAD_REACTORS
330
14F1
102
}
330
18
100
AcDbEntity
  8
外形線
100
AcDbCircle
 10
399.6748872590771
 20
268.8776920354341
 30
0.0
 40
0.222687898198611
  0
HATCH
  5
14F1
330
18
100
AcDbEntity
  8
外形線
100
AcDbHatch
 10
0.0
 20
0.0
 30
0.0
210
0.0
220
0.0
230
1.0
  2
SOLID
 70
     1
 71
     1
 91
        1
 92
        7
 72
     1
 73
     1
 93
        2
 10
399.8975751572757
 20
268.8776920354341
 42
1.0
 10
399.4521993608784
 20
268.8776920354341
 42
1.0
 97
        1
330
14EE
 75
     0
 76
     1
 47
0.0200805185115556
 98
        1
 10
399.7994033624927
 20
268.7609056074559
450
        0
451
        0
460
0.0
461
0.0
452
        0
462
0.0
453
        0
470

  0
MTEXT
  5
14F3
330
18
100
AcDbEntity
  8
寸法線
 62
     6
100
AcDbMText
 10
381.9905800007919
 20
317.1707330521298
 30
0.0
 40
2.5
 41
0.0
 71
     6
 72
     1
  1
\A1;B
  7
STYLE3
 73
     1
 44
1.0
  0
LWPOLYLINE
  5
14F6
330
18
100
AcDbEntity
  8
寸法線
 62
     2
100
AcDbPolyline
 90
        3
 70
     0
 43
0.0
 10
388.4477216585724
 20
298.5218674772163
 10
383.7172702364093
 20
315.2957330521299
 10
378.9256035697426
 20
315.2957330521299
1001
ACAD
1000
DSTYLE
1002
{
1070
   271
1070
     2
1002
}
  0
CIRCLE
  5
14F8
102
{ACAD_REACTORS
330
151F
102
}
330
18
100
AcDbEntity
  8
外形線
100
AcDbCircle
 10
388.4477216585724
 20
298.5218674772163
 30
0.0
 40
0.222687898198611
  0
HATCH
  5
151F
330
18
100
AcDbEntity
  8
外形線
100
AcDbHatch
 10
0.0
 20
0.0
 30
0.0
210
0.0
220
0.0
230
1.0
  2
SOLID
 70
     1
 71
     1
 91
        1
 92
        7
 72
     1
 73
     1
 93
        2
 10
388.6704095567711
 20
298.5218674772163
 42
1.0
 10
388.2250337603738
 20
298.5218674772163
 42
1.0
 97
        1
330
14F8
 75
     0
 76
     1
 47
0.0431140550968677
 98
        1
 10
388.5649717731577
 20
298.4125323064528
450
        0
451
        0
460
0.0
461
0.0
452
        0
462
0.0
453
        0
470

  0
LINE
  5
157C
330
18
100
AcDbEntity
  8
外形線
100
AcDbLine
 10
463.9549435000775
 20
271.3385621872674
 30
0.0
 11
476.8353368199893
 21
271.3385621872674
 31
0.0
  0
LINE
  5
157F
330
18
100
AcDbEntity
  8
外形線
100
AcDbLine
 10
453.1601993884031
 20
274.6385621872674
 30
0.0
 11
465.8601993884031
 21
274.6385621872674
 31
0.0
  0
LINE
  5
1584
330
18
100
AcDbEntity
  8
外形線
100
AcDbLine
 10
463.9549435000775
 20
271.3385621872674
 30
0.0
 11
465.8601993884031
 21
274.6385621872674
 31
0.0
  0
LINE
  5
1585
330
18
100
AcDbEntity
  8
外形線
100
AcDbLine
 10
455.0654552767289
 20
271.3385621872674
 30
0.0
 11
453.1601993884031
 21
274.6385621872674
 31
0.0
  0
LINE
  5
1586
330
18
100
AcDbEntity
  8
外形線
100
AcDbLine
 10
455.0654552767289
 20
271.3385621872674
 30
0.0
 11
442.1850619568171
 21
271.3385621872674
 31
0.0
  0
CIRCLE
  5
1588
330
18
100
AcDbEntity
  8
外形線
100
AcDbCircle
 10
452.4701993884031
 20
272.8385621872674
 30
0.0
 40
1.5
  0
CIRCLE
  5
1589
330
18
100
AcDbEntity
  8
外形線
100
AcDbCircle
 10
466.5501993884032
 20
272.8385621872674
 30
0.0
 40
1.5
  0
LINE
  5
158C
330
18
100
AcDbEntity
  8
中心線
100
AcDbLine
 10
449.533393883854
 20
272.8385621872674
 30
0.0
 11
455.6104580643658
 21
272.8385621872674
 31
0.0
  0
LINE
  5
158D
330
18
100
AcDbEntity
  8
中心線
100
AcDbLine
 10
466.5501993884032
 20
276.2549843014089
 30
0.0
 11
466.5501993884032
 21
269.1143346175771
 31
0.0
  0
LINE
  5
158E
330
18
100
AcDbEntity
  8
中心線
100
AcDbLine
 10
452.4701993884031
 20
276.2549843014089
 30
0.0
 11
452.4701993884031
 21
269.1143346175771
 31
0.0
  0
LINE
  5
1591
330
18
100
AcDbEntity
  8
中心線
100
AcDbLine
 10
463.6417211062966
 20
272.8385621872674
 30
0.0
 11
469.8749410485816
 21
272.8385621872674
 31
0.0
  0
LINE
  5
15A3
330
18
100
AcDbEntity
  8
寸法線
100
AcDbLine
 10
442.1850619568171
 20
269.1698060530259
 30
0.0
 11
444.3538180910585
 21
271.3385621872674
 31
0.0
  0
LINE
  5
15A4
330
18
100
AcDbEntity
  8
寸法線
100
AcDbLine
 10
442.1850619568171
 20
264.6796779924913
 30
0.0
 11
448.8439461515931
 21
271.3385621872674
 31
0.0
  0
LINE
  5
15A5
330
18
100
AcDbEntity
  8
寸法線
100
AcDbLine
 10
445.2397472899312
 20
263.2442352650709
 30
0.0
 11
453.3340742121278
 21
271.3385621872674
 31
0.0
  0
LINE
  5
15A6
330
18
100
AcDbEntity
  8
寸法線
100
AcDbLine
 10
454.4317258234535
 20
272.4362137985933
 30
0.0
 11
456.6340742121277
 21
274.6385621872674
 31
0.0
  0
LINE
  5
15A7
330
18
100
AcDbEntity
  8
寸法線
100
AcDbLine
 10
449.7298753504657
 20
263.2442352650708
 30
0.0
 11
461.1242022726624
 21
274.6385621872675
 31
0.0
  0
LINE
  5
15A8
330
18
100
AcDbEntity
  8
寸法線
100
AcDbLine
 10
454.2200034110003
 20
263.2442352650708
 30
0.0
 11
465.614330333197
 21
274.6385621872675
 31
0.0
  0
LINE
  5
15A9
330
18
100
AcDbEntity
  8
寸法線
100
AcDbLine
 10
458.7101314715348
 20
263.2442352650708
 30
0.0
 11
466.8044583937315
 21
271.3385621872675
 31
0.0
  0
LINE
  5
15AA
330
18
100
AcDbEntity
  8
寸法線
100
AcDbLine
 10
463.2002595320695
 20
263.2442352650708
 30
0.0
 11
471.294586454266
 21
271.3385621872674
 31
0.0
  0
LINE
  5
15AB
330
18
100
AcDbEntity
  8
寸法線
100
AcDbLine
 10
467.690387592604
 20
263.2442352650708
 30
0.0
 11
475.7847145148006
 21
271.3385621872674
 31
0.0
  0
LINE
  5
15AC
330
18
100
AcDbEntity
  8
寸法線
100
AcDbLine
 10
472.1805156531387
 20
263.2442352650709
 30
0.0
 11
476.8353368199893
 21
267.8990564319216
 31
0.0
  0
DIMENSION
  5
15BA
330
18
100
AcDbEntity
  8
寸法線
100
AcDbDimension
  2
*D9
 10
468.0501993884032
 20
291.0143078184147
 30
0.0
 11
459.5101993884031
 21
292.8893078184147
 31
0.0
 70
    32
  1
8.54
 71
     5
 42
17.08000000000015
  3
STYLE3
100
AcDbAlignedDimension
 13
450.970199388403
 23
272.8385621872674
 33
0.0
 14
468.0501993884032
 24
272.8385621872674
 34
0.0
100
AcDbRotatedDimension
1001
ACAD
1000
DSTYLE
1002
{
1070
   271
1070
     2
1002
}
  0
DIMENSION
  5
15D5
330
18
100
AcDbEntity
  8
寸法線
100
AcDbDimension
  2
*D10
 10
465.614330333197
 20
284.4143264160123
 30
0.0
 11
459.3872648608001
 21
286.9440883207742
 31
0.0
 70
    32
  1
(6.35)
 71
     5
 42
12.45413094479386
  3
STYLE3
100
AcDbAlignedDimension
 13
453.1601993884031
 23
274.6385621872674
 33
0.0
 14
465.614330333197
 24
274.6385621872675
 34
0.0
100
AcDbRotatedDimension
1001
ACAD
1000
DSTYLE
1002
{
1070
   271
1070
     2
1002
}
  0
LINE
  5
1634
330
18
100
AcDbEntity
  8
0
  6
ByBlock
 62
     2
100
AcDbLine
 10
465.8601993884031
 20
274.6385621872674
 30
0.0
 11
477.4800930974054
 21
294.7648084698101
 31
0.0
  0
LINE
  5
1635
330
18
100
AcDbEntity
  8
0
  6
ByBlock
 62
     2
100
AcDbLine
 10
453.1601993884031
 20
274.6385621872674
 30
0.0
 11
441.5403056794008
 21
294.7648084698098
 31
0.0
  0
ARC
  5
1636
330
18
100
AcDbEntity
  8
0
  6
ByBlock
 62
     2
100
AcDbCircle
 10
459.5101993884033
 20
263.6400395592046
 30
0.0
 40
34.6897874180055
100
AcDbArc
 50
64.13004734756665
 51
115.869952652434
  0
INSERT
  5
1637
330
18
100
AcDbEntity
  8
0
  6
ByBlock
 62
     2
100
AcDbBlockReference
  2
_OPEN
 10
476.8550930974054
 20
293.6822767150795
 30
0.0
 41
2.5
 42
2.5
 43
2.5
 50
332.0650236737839
  0
INSERT
  5
1638
330
18
100
AcDbEntity
  8
0
  6
ByBlock
 62
     2
100
AcDbBlockReference
  2
_OPEN
 10
442.1653056794008
 20
293.6822767150793
 30
0.0
 41
2.5
 42
2.5
 43
2.5
 50
207.9349763262168
  0
MTEXT
  5
1639
330
18
100
AcDbEntity
  8
0
  6
ByBlock
 62
     6
100
AcDbMText
 10
461.0046604866264
 20
300.2048269772101
 30
0.0
 40
2.5
 41
0.0
 71
     5
 72
     1
  1
\A1;60°
  7
STYLE3
 73
     1
 44
1.0
  0
POINT
  5
163A
330
18
100
AcDbEntity
  8
DEFPOINTS
  6
ByBlock
 62
     0
100
AcDbPoint
 10
465.5340177571927
 20
297.8028111588018
 30
0.0
  0
POINT
  5
163B
330
18
100
AcDbEntity
  8
DEFPOINTS
  6
ByBlock
 62
     0
100
AcDbPoint
 10
455.0654552767289
 20
271.3385621872674
 30
0.0
  0
POINT
  5
163C
330
18
100
AcDbEntity
  8
DEFPOINTS
  6
ByBlock
 62
     0
100
AcDbPoint
 10
463.9549435000775
 20
271.3385621872674
 30
0.0
  0
POINT
  5
163D
330
18
100
AcDbEntity
  8
DEFPOINTS
  6
ByBlock
 62
     0
100
AcDbPoint
 10
465.8601993884031
 20
274.6385621872674
 30
0.0
  0
POINT
  5
163E
330
18
100
AcDbEntity
  8
DEFPOINTS
  6
ByBlock
 62
     0
100
AcDbPoint
 10
453.1601993884031
 20
274.6385621872674
 30
0.0
  0
LINE
  5
164E
330
18
100
AcDbEntity
  8
0
  6
ByBlock
 62
     2
100
AcDbLine
 10
450.2378044381158
 20
279.7002987209481
 30
0.0
 11
441.5403056794009
 21
294.7648084698099
 31
0.0
  0
LINE
  5
164F
330
18
100
AcDbEntity
  8
0
  6
ByBlock
 62
     2
100
AcDbLine
 10
451.1711612827263
 20
272.0885621872674
 30
0.0
 11
438.944344710318
 21
293.2660297055041
 31
0.0
  0
LINE
  5
1651
330
18
100
AcDbEntity
  8
0
  6
ByBlock
 62
     2
100
AcDbLine
 10
437.4042812008569
 20
290.9334979507736
 30
0.0
 11
435.2392176913958
 21
289.6834979507737
 31
0.0
  0
LINE
  5
1652
330
18
100
AcDbEntity
  8
0
  6
ByBlock
 62
     2
100
AcDbLine
 10
442.1653056794008
 20
293.6822767150793
 30
0.0
 11
439.5693447103179
 21
292.1834979507736
 31
0.0
  0
INSERT
  5
1654
330
18
100
AcDbEntity
  8
0
  6
ByBlock
 62
     2
100
AcDbBlockReference
  2
_OPEN
 10
439.5693447103179
 20
292.1834979507736
 30
0.0
 41
2.5
 42
2.5
 43
2.5
 50
29.99999999999951
  0
MTEXT
  5
1655
330
18
100
AcDbEntity
  8
0
  6
ByBlock
 62
     6
100
AcDbMText
 10
437.6210732862266
 20
294.5566849650223
 30
0.0
 40
2.5
 41
0.0
 71
     5
 72
     1
  1
φ1.5
  7
STYLE3
 11
0.8660254037844429
 21
0.4999999999999926
 31
0.0
 73
     1
 44
1.0
  0
POINT
  5
1656
330
18
100
AcDbEntity
  8
DEFPOINTS
  6
ByBlock
 62
     0
100
AcDbPoint
 10
450.2378044381158
 20
279.7002987209481
 30
0.0
 50
60.00000000000049
  0
POINT
  5
1657
330
18
100
AcDbEntity
  8
DEFPOINTS
  6
ByBlock
 62
     0
100
AcDbPoint
 10
451.1711612827263
 20
272.0885621872674
 30
0.0
 50
60.00000000000049
  0
POINT
  5
1658
330
18
100
AcDbEntity
  8
DEFPOINTS
  6
ByBlock
 62
     0
100
AcDbPoint
 10
439.5693447103179
 20
292.1834979507736
 30
0.0
 50
60.00000000000049
  0
LINE
  5
1664
330
18
100
AcDbEntity
  8
0
  6
ByBlock
 62
     2
100
AcDbLine
 10
465.8601993884031
 20
274.6385621872674
 30
0.0
 11
483.6163491421292
 21
274.6385621872674
 31
0.0
  0
LINE
  5
1665
330
18
100
AcDbEntity
  8
0
  6
ByBlock
 62
     2
100
AcDbLine
 10
476.8353368199893
 20
271.3385621872674
 30
0.0
 11
483.6163491421292
 21
271.3385621872674
 31
0.0
  0
LINE
  5
1666
330
18
100
AcDbEntity
  8
0
  6
ByBlock
 62
     2
100
AcDbLine
 10
482.3663491421292
 20
277.1385621872674
 30
0.0
 11
482.3663491421292
 21
279.6385621872674
 31
0.0
  0
LINE
  5
1667
330
18
100
AcDbEntity
  8
0
  6
ByBlock
 62
     2
100
AcDbLine
 10
482.3663491421292
 20
268.8385621872674
 30
0.0
 11
482.3663491421292
 21
260.4656301452717
 31
0.0
  0
LINE
  5
1668
330
18
100
AcDbEntity
  8
0
  6
ByBlock
 62
     2
100
AcDbLine
 10
482.3663491421292
 20
274.6385621872674
 30
0.0
 11
482.3663491421292
 21
271.3385621872674
 31
0.0
  0
INSERT
  5
1669
330
18
100
AcDbEntity
  8
0
  6
ByBlock
 62
     2
100
AcDbBlockReference
  2
_OPEN
 10
482.3663491421292
 20
274.6385621872674
 30
0.0
 41
2.5
 42
2.5
 43
2.5
 50
270.0
  0
INSERT
  5
166A
330
18
100
AcDbEntity
  8
0
  6
ByBlock
 62
     2
100
AcDbBlockReference
  2
_OPEN
 10
482.3663491421292
 20
271.3385621872674
 30
0.0
 41
2.5
 42
2.5
 43
2.5
 50
90.0
  0
MTEXT
  5
166B
330
18
100
AcDbEntity
  8
0
  6
ByBlock
 62
     6
100
AcDbMText
 10
480.4913491421292
 20
264.3257368684888
 30
0.0
 40
2.5
 41
0.0
 71
     5
 72
     1
  1
\A1;1.65
  7
STYLE3
 11
0.0000000000000001
 21
1.0
 31
0.0
 73
     1
 44
1.0
  0
POINT
  5
166C
330
18
100
AcDbEntity
  8
DEFPOINTS
  6
ByBlock
 62
     0
100
AcDbPoint
 10
465.8601993884031
 20
274.6385621872674
 30
0.0
  0
POINT
  5
166D
330
18
100
AcDbEntity
  8
DEFPOINTS
  6
ByBlock
 62
     0
100
AcDbPoint
 10
476.8353368199893
 20
271.3385621872674
 30
0.0
  0
POINT
  5
166E
330
18
100
AcDbEntity
  8
DEFPOINTS
  6
ByBlock
 62
     0
100
AcDbPoint
 10
482.3663491421292
 20
271.3385621872674
 30
0.0
  0
TEXT
  5
166F
330
18
100
AcDbEntity
  8
文字
100
AcDbText
 10
437.6340398996866
 20
249.7727815266046
 30
0.0
 40
4.0
  1
A.B.C 断面図 
  7
STYLE3
100
AcDbText
  0
TEXT
  5
1670
330
18
100
AcDbEntity
  8
文字
100
AcDbText
 10
471.7767868026162
 20
249.8850059024836
 30
0.0
 40
3.0
  1
S=2／1
  7
STYLE3
100
AcDbText
  0
LINE
  5
1671
330
18
100
AcDbEntity
  8
外形線
100
AcDbLine
 10
437.297104562458
 20
249.099435271331
 30
0.0
 11
487.1634851342257
 21
249.099435271331
 31
0.0
  0
LINE
  5
1686
330
18
100
AcDbEntity
  8
0
  6
ByBlock
 62
     2
100
AcDbLine
 10
309.3739084122729
 20
314.7240601474056
 30
0.0
 11
309.3739084122729
 21
331.7783281820884
 31
0.0
  0
LINE
  5
1687
330
18
100
AcDbEntity
  8
0
  6
ByBlock
 62
     2
100
AcDbLine
 10
315.3739084122729
 20
314.7240601474056
 30
0.0
 11
315.3739084122729
 21
331.7783281820884
 31
0.0
  0
LINE
  5
1688
330
18
100
AcDbEntity
  8
0
  6
ByBlock
 62
     2
100
AcDbLine
 10
306.8739084122729
 20
330.5283281820885
 30
0.0
 11
304.3739084122728
 21
330.5283281820885
 31
0.0
  0
LINE
  5
1689
330
18
100
AcDbEntity
  8
0
  6
ByBlock
 62
     2
100
AcDbLine
 10
317.8739084122728
 20
330.5283281820885
 30
0.0
 11
320.3739084122728
 21
330.5283281820885
 31
0.0
  0
LINE
  5
168A
330
18
100
AcDbEntity
  8
0
  6
ByBlock
 62
     2
100
AcDbLine
 10
309.3739084122729
 20
330.5283281820885
 30
0.0
 11
315.3739084122729
 21
330.5283281820885
 31
0.0
  0
INSERT
  5
168B
330
18
100
AcDbEntity
  8
0
  6
ByBlock
 62
     2
100
AcDbBlockReference
  2
_OPEN
 10
309.3739084122729
 20
330.5283281820885
 30
0.0
 41
2.5
 42
2.5
 43
2.5
  0
INSERT
  5
168C
330
18
100
AcDbEntity
  8
0
  6
ByBlock
 62
     2
100
AcDbBlockReference
  2
_OPEN
 10
315.3739084122729
 20
330.5283281820885
 30
0.0
 41
2.5
 42
2.5
 43
2.5
 50
180.0
  0
MTEXT
  5
168D
330
18
100
AcDbEntity
  8
0
  6
ByBlock
 62
     6
100
AcDbMText
 10
311.8491092696828
 20
333.3782732845069
 30
0.0
 40
2.5
 41
0.0
 71
     5
 72
     1
  1
\A1;φ6.0
  7
STYLE3
 73
     1
 44
1.0
  0
POINT
  5
168E
330
18
100
AcDbEntity
  8
DEFPOINTS
  6
ByBlock
 62
     0
100
AcDbPoint
 10
309.3739084122729
 20
314.7240601474056
 30
0.0
  0
POINT
  5
168F
330
18
100
AcDbEntity
  8
DEFPOINTS
  6
ByBlock
 62
     0
100
AcDbPoint
 10
315.3739084122729
 20
314.7240601474056
 30
0.0
  0
POINT
  5
1690
330
18
100
AcDbEntity
  8
DEFPOINTS
  6
ByBlock
 62
     0
100
AcDbPoint
 10
315.3739084122729
 20
330.5283281820885
 30
0.0
  0
TEXT
  5
1691
330
18
100
AcDbEntity
  8
文字
100
AcDbText
 10
318.7743598111351
 20
335.6047142182091
 30
0.0
 40
1.5
  1
0
  7
STYLE3
100
AcDbText
  0
TEXT
  5
1692
330
18
100
AcDbEntity
  8
文字
100
AcDbText
 10
316.877100700341
 20
333.5882066741356
 30
0.0
 40
1.5
  1
-0.03
  7
STYLE3
100
AcDbText
  0
LINE
  5
16AB
330
18
100
AcDbEntity
  8
0
  6
ByBlock
 62
     2
100
AcDbLine
 10
308.5739084122729
 20
250.2722046372016
 30
0.0
 11
308.5739084122729
 21
252.8149505132509
 31
0.0
  0
LINE
  5
16AC
330
18
100
AcDbEntity
  8
0
  6
ByBlock
 62
     2
100
AcDbLine
 10
316.1739084122729
 20
249.9810773477507
 30
0.0
 11
316.1739084122729
 21
252.8149505132509
 31
0.0
  0
LINE
  5
16AD
330
18
100
AcDbEntity
  8
0
  6
ByBlock
 62
     2
100
AcDbLine
 10
308.5739084122728
 20
251.5649505132509
 30
0.0
 11
316.1739084122729
 21
251.5649505132509
 31
0.0
  0
LINE
  5
16AE
330
18
100
AcDbEntity
  8
0
  6
ByBlock
 62
     2
100
AcDbLine
 10
316.1739084122729
 20
251.5649505132509
 30
0.0
 11
325.1620036503681
 21
251.5649505132509
 31
0.0
  0
MTEXT
  5
16B1
330
18
100
AcDbEntity
  8
0
  6
ByBlock
 62
     6
100
AcDbMText
 10
321.9179560313205
 20
253.4399505132509
 30
0.0
 40
2.5
 41
0.0
 71
     5
 72
     1
  1
\A1;7.6
  7
STYLE3
 73
     1
 44
1.0
  0
POINT
  5
16B2
330
18
100
AcDbEntity
  8
DEFPOINTS
  6
ByBlock
 62
     0
100
AcDbPoint
 10
308.5739084122729
 20
250.2722046372016
 30
0.0
  0
POINT
  5
16B3
330
18
100
AcDbEntity
  8
DEFPOINTS
  6
ByBlock
 62
     0
100
AcDbPoint
 10
316.1739084122729
 20
249.9810773477507
 30
0.0
  0
POINT
  5
16B4
330
18
100
AcDbEntity
  8
DEFPOINTS
  6
ByBlock
 62
     0
100
AcDbPoint
 10
316.1739084122729
 20
251.5649505132509
 30
0.0
  0
INSERT
  5
16B5
330
18
100
AcDbEntity
  8
0
  6
ByBlock
 62
     2
100
AcDbBlockReference
  2
_OPEN
 10
316.1739084122729
 20
251.5649505132509
 30
0.0
 41
-2.5
 42
2.5
 43
2.5
  0
INSERT
  5
16B6
330
18
100
AcDbEntity
  8
0
  6
ByBlock
 62
     2
100
AcDbBlockReference
  2
_OPEN
 10
308.5739084122729
 20
251.5649505132509
 30
0.0
 41
-2.5
 42
2.5
 43
2.5
 50
180.0
  0
LINE
  5
16B7
330
18
100
AcDbEntity
  8
寸法線
100
AcDbLine
 10
306.0739084122728
 20
251.5649505132509
 30
0.0
 11
303.7768657734599
 21
251.5649505132509
 31
0.0
  0
LINE
  5
16D0
330
18
100
AcDbEntity
  8
中心線
 48
0.5
100
AcDbLine
 10
311.1239084122729
 20
234.6679077246989
 30
0.0
 11
313.6239084122729
 21
234.667907724699
 31
0.0
  0
LINE
  5
16D1
330
18
100
AcDbEntity
  8
外形線
100
AcDbLine
 10
313.6239084122729
 20
231.5279077246989
 30
0.0
 11
311.1239084122729
 21
231.5279077246991
 31
0.0
  0
LINE
  5
16D4
330
18
100
AcDbEntity
  8
中心線
 48
0.5
100
AcDbLine
 10
311.6239084122728
 20
232.9679077246989
 30
0.0
 11
313.1239084122729
 21
232.9679077246989
 31
0.0
  0
LINE
  5
16D5
330
18
100
AcDbEntity
  8
外形線
100
AcDbLine
 10
311.1239084122729
 20
233.267907724699
 30
0.0
 11
313.6239084122728
 21
233.267907724699
 31
0.0
  0
LINE
  5
16D6
330
18
100
AcDbEntity
  8
外形線
100
AcDbLine
 10
311.1239084122729
 20
232.667907724699
 30
0.0
 11
313.6239084122729
 21
232.6679077246989
 31
0.0
  0
LINE
  5
16D9
330
18
100
AcDbEntity
  8
外形線
100
AcDbLine
 10
311.1239084122729
 20
233.267907724699
 30
0.0
 11
311.6239084122728
 21
232.9679077246989
 31
0.0
  0
LINE
  5
16DA
330
18
100
AcDbEntity
  8
外形線
100
AcDbLine
 10
311.6239084122728
 20
232.9679077246989
 30
0.0
 11
311.1239084122729
 21
232.667907724699
 31
0.0
  0
LINE
  5
16DB
330
18
100
AcDbEntity
  8
外形線
100
AcDbLine
 10
313.1239084122729
 20
232.9679077246989
 30
0.0
 11
313.6239084122729
 21
232.667907724699
 31
0.0
  0
LINE
  5
16DC
330
18
100
AcDbEntity
  8
外形線
100
AcDbLine
 10
313.6239084122728
 20
233.267907724699
 30
0.0
 11
313.1239084122729
 21
232.9679077246989
 31
0.0
  0
LINE
  5
16DD
330
18
100
AcDbEntity
  8
外形線
 48
0.5
100
AcDbLine
 10
311.1239084122729
 20
234.6679077246989
 30
0.0
 11
311.1839084122729
 21
234.727907724699
 31
0.0
  0
LINE
  5
16DE
330
18
100
AcDbEntity
  8
外形線
100
AcDbLine
 10
313.5639084122728
 20
234.727907724699
 30
0.0
 11
313.6239084122729
 21
234.667907724699
 31
0.0
  0
LINE
  5
16EE
330
18
100
AcDbEntity
  8
外形線
100
AcDbLine
 10
391.3180039273949
 20
231.5279077246991
 30
0.0
 11
391.9668672674736
 21
216.327907724699
 31
0.0
  0
LINE
  5
16EF
330
18
100
AcDbEntity
  8
外形線
100
AcDbLine
 10
393.8180039273948
 20
231.527907724699
 30
0.0
 11
393.169140587316
 21
216.327907724699
 31
0.0
  0
ARC
  5
16F0
330
18
100
AcDbEntity
  8
外形線
100
AcDbCircle
 10
392.5680039273948
 20
215.527907724699
 30
0.0
 40
1.0
100
AcDbArc
 50
126.869897645842
 51
53.13010235415791
  0
POINT
  5
16F1
330
18
100
AcDbEntity
  8
DEFPOINTS
  6
ByBlock
 62
     0
100
AcDbPoint
 10
392.5680039273947
 20
215.527907724699
 30
0.0
  0
POINT
  5
16F2
330
18
100
AcDbEntity
  8
DEFPOINTS
  6
ByBlock
 62
     0
100
AcDbPoint
 10
393.0921218759352
 20
214.6762620377975
 30
0.0
  0
LINE
  5
16F3
330
18
100
AcDbEntity
  8
外形線
100
AcDbLine
 10
393.1691405873159
 20
216.327907724699
 30
0.0
 11
391.9668672674736
 21
216.3279077246991
 31
0.0
  0
LINE
  5
16F4
330
18
100
AcDbEntity
  8
隠れ線
 62
     4
 48
0.3
100
AcDbLine
 10
392.5680039273948
 20
216.527907724699
 30
0.0
 11
393.169140587316
 21
216.327907724699
 31
0.0
  0
LINE
  5
16F5
330
18
100
AcDbEntity
  8
隠れ線
 62
     4
 48
0.3
100
AcDbLine
 10
392.5680039273948
 20
216.527907724699
 30
0.0
 11
391.9668672674736
 21
216.327907724699
 31
0.0
  0
LINE
  5
16F6
330
18
100
AcDbEntity
  8
外形線
 48
0.5
100
AcDbLine
 10
391.3180039273948
 20
234.667907724699
 30
0.0
 11
391.3512102132542
 21
234.7011140105584
 31
0.0
  0
LINE
  5
16F7
330
18
100
AcDbEntity
  8
外形線
100
AcDbLine
 10
393.7847976415353
 20
234.7011140105584
 30
0.0
 11
393.8180039273948
 21
234.667907724699
 31
0.0
  0
LINE
  5
16F8
330
18
100
AcDbEntity
  8
中心線
 48
0.5
100
AcDbLine
 10
391.3180039273948
 20
234.667907724699
 30
0.0
 11
391.4353052902586
 21
234.667907724699
 31
0.0
  0
LINE
  5
16F9
330
18
100
AcDbEntity
  8
外形線
100
AcDbLine
 10
393.8180039273948
 20
234.667907724699
 30
0.0
 11
393.8180039273947
 21
233.267907724699
 31
0.0
  0
LINE
  5
16FA
330
18
100
AcDbEntity
  8
外形線
100
AcDbLine
 10
391.3180039273948
 20
234.667907724699
 30
0.0
 11
391.3180039273949
 21
233.267907724699
 31
0.0
  0
LINE
  5
16FB
330
18
100
AcDbEntity
  8
中心線
 48
0.5
100
AcDbLine
 10
391.8180039273948
 20
232.967907724699
 30
0.0
 11
393.3180039273948
 21
232.967907724699
 31
0.0
  0
LINE
  5
16FC
330
18
100
AcDbEntity
  8
外形線
100
AcDbLine
 10
393.8180039273947
 20
233.267907724699
 30
0.0
 11
393.3180039273948
 21
232.967907724699
 31
0.0
  0
LINE
  5
16FD
330
18
100
AcDbEntity
  8
外形線
100
AcDbLine
 10
393.3180039273948
 20
232.967907724699
 30
0.0
 11
393.8180039273948
 21
232.667907724699
 31
0.0
  0
LINE
  5
16FE
330
18
100
AcDbEntity
  8
外形線
100
AcDbLine
 10
391.8180039273948
 20
232.967907724699
 30
0.0
 11
391.3180039273948
 21
232.667907724699
 31
0.0
  0
LINE
  5
16FF
330
18
100
AcDbEntity
  8
外形線
100
AcDbLine
 10
391.3180039273949
 20
233.267907724699
 30
0.0
 11
391.8180039273948
 21
232.967907724699
 31
0.0
  0
LINE
  5
1700
330
18
100
AcDbEntity
  8
外形線
100
AcDbLine
 10
391.3180039273948
 20
232.667907724699
 30
0.0
 11
393.8180039273948
 21
232.6679077246989
 31
0.0
  0
LINE
  5
1701
330
18
100
AcDbEntity
  8
外形線
100
AcDbLine
 10
391.3180039273949
 20
233.267907724699
 30
0.0
 11
393.8180039273947
 21
233.267907724699
 31
0.0
  0
LINE
  5
1702
330
18
100
AcDbEntity
  8
外形線
100
AcDbLine
 10
393.8180039273948
 20
232.6679077246989
 30
0.0
 11
393.8180039273948
 21
231.527907724699
 31
0.0
  0
LINE
  5
1703
330
18
100
AcDbEntity
  8
外形線
100
AcDbLine
 10
391.3180039273948
 20
232.667907724699
 30
0.0
 11
391.3180039273949
 21
231.5279077246991
 31
0.0
  0
LINE
  5
1704
330
18
100
AcDbEntity
  8
外形線
100
AcDbLine
 10
393.8180039273948
 20
231.527907724699
 30
0.0
 11
391.3180039273949
 21
231.5279077246991
 31
0.0
  0
LINE
  5
1705
330
18
100
AcDbEntity
  8
中心線
 48
0.5
100
AcDbLine
 10
388.8193991110726
 20
215.527907724699
 30
0.0
 11
396.6990525267834
 21
215.527907724699
 31
0.0
  0
LINE
  5
1706
330
18
100
AcDbEntity
  8
中心線
 48
0.5
100
AcDbLine
 10
393.700702564531
 20
234.667907724699
 30
0.0
 11
393.8180039273948
 21
234.667907724699
 31
0.0
  0
DIMENSION
  5
1714
330
18
100
AcDbEntity
  8
外形線
100
AcDbDimension
  2
*D11
 10
298.9769497492504
 20
215.5279077246989
 30
0.0
 11
297.1019497492504
 21
224.9779077246989
 31
0.0
 70
    32
 71
     5
 42
18.9
  3
STYLE3
100
AcDbAlignedDimension
 13
308.5739084122729
 23
234.4279077246989
 33
0.0
 14
308.6253035959507
 24
215.5279077246989
 34
0.0
 50
90.0
100
AcDbRotatedDimension
1001
ACAD
1000
DSTYLE
1002
{
1070
   271
1070
     2
1002
}
  0
DIMENSION
  5
1721
330
18
100
AcDbEntity
  8
外形線
100
AcDbDimension
  2
*D12
 10
334.1510929648151
 20
215.5279077246989
 30
0.0
 11
332.276092964815
 21
226.7279077246989
 31
0.0
 70
    32
 71
     5
 42
22.40000000000001
  3
STYLE3
100
AcDbAlignedDimension
 13
319.5733007457155
 23
237.927907724699
 33
0.0
 14
316.5049570116615
 24
215.5279077246989
 34
0.0
 50
90.0
100
AcDbRotatedDimension
1001
ACAD
1000
DSTYLE
1002
{
1070
   271
1070
     2
1002
}
  0
DIMENSION
  5
172E
330
18
100
AcDbEntity
  8
外形線
100
AcDbDimension
  2
*D13
 10
341.6374512587716
 20
215.5279077246989
 30
0.0
 11
339.7624512587715
 21
248.727907724699
 31
0.0
 70
    32
 71
     5
 42
66.4
  3
STYLE3
100
AcDbAlignedDimension
 13
333.0191110033636
 23
281.927907724699
 33
0.0
 14
335.4010929648151
 24
215.5279077246989
 34
0.0
 50
90.0
100
AcDbRotatedDimension
1001
ACAD
1000
DSTYLE
1002
{
1070
   271
1070
     2
1002
}
  0
DIMENSION
  5
173B
330
18
100
AcDbEntity
  8
外形線
100
AcDbDimension
  2
*D14
 10
348.9757499068586
 20
214.5279077246989
 30
0.0
 11
347.1007499068585
 21
265.027907724699
 31
0.0
 70
    32
 71
     5
 42
101.0
  3
STYLE3
100
AcDbAlignedDimension
 13
312.3739084122728
 23
315.5279077246989
 33
0.0
 14
312.3739084122728
 24
214.5279077246989
 34
0.0
 50
90.0
100
AcDbRotatedDimension
1001
ACAD
1000
DSTYLE
1002
{
1070
   271
1070
     2
1002
}
  0
LINE
  5
17D6
330
18
100
AcDbEntity
  8
目盛
100
AcDbLine
 10
313.5507948481905
 20
296.8816677306959
 30
0.0
 11
313.4331062045987
 21
295.3862917300962
 31
0.0
  0
LINE
  5
17D7
330
18
100
AcDbEntity
  8
目盛
100
AcDbLine
 10
314.7204253878763
 20
296.743232833626
 30
0.0
 11
314.485773690316
 21
295.2617003227333
 31
0.0
  0
LINE
  5
17D8
330
18
100
AcDbEntity
  8
目盛
100
AcDbLine
 10
315.8755888701115
 20
296.5134565306641
 30
0.0
 11
315.5254208243276
 21
295.0549016500676
 31
0.0
  0
LINE
  5
17D9
330
18
100
AcDbEntity
  8
目盛
100
AcDbLine
 10
317.0091633278971
 20
296.1937554691262
 30
0.0
 11
316.5456378363347
 21
294.7671706946835
 31
0.0
  0
LINE
  5
17DA
330
18
100
AcDbEntity
  8
目盛
100
AcDbLine
 10
318.1141598977492
 20
295.7861007123683
 30
0.0
 11
317.1574513168364
 21
293.4764018810901
 31
0.0
  0
LINE
  5
17DB
330
18
100
AcDbEntity
  8
目盛
100
AcDbLine
 10
319.1837659083661
 20
295.2930055875245
 30
0.0
 11
318.5027801587568
 21
293.9564958012419
 31
0.0
  0
LINE
  5
17DC
330
18
100
AcDbEntity
  8
目盛
100
AcDbLine
 10
320.211386883012
 20
294.7175101900104
 30
0.0
 11
319.4276390359381
 21
293.4385499434792
 31
0.0
  0
LINE
  5
17DD
330
18
100
AcDbEntity
  8
目盛
100
AcDbLine
 10
321.1906871966599
 20
294.0631626403232
 30
0.0
 11
320.3090093182212
 21
292.8496371487608
 31
0.0
  0
LINE
  5
17DE
330
18
100
AcDbEntity
  8
目盛
100
AcDbLine
 10
322.1156291372256
 20
293.3339972086994
 30
0.0
 11
321.1414570647303
 21
292.1933882602994
 31
0.0
  0
LINE
  5
17E0
330
18
100
AcDbEntity
  8
目盛
100
AcDbLine
 10
308.8722279544342
 20
296.5134565306641
 30
0.0
 11
309.2223960002181
 21
295.0549016500676
 31
0.0
  0
LINE
  5
17E1
330
18
100
AcDbEntity
  8
目盛
100
AcDbLine
 10
307.7386534966487
 20
296.1937554691264
 30
0.0
 11
308.2021789882111
 21
294.7671706946835
 31
0.0
  0
LINE
  5
17E2
330
18
100
AcDbEntity
  8
目盛
100
AcDbLine
 10
305.5640509161797
 20
295.2930055875246
 30
0.0
 11
306.245036665789
 21
293.9564958012419
 31
0.0
  0
LINE
  5
17E3
330
18
100
AcDbEntity
  8
目盛
100
AcDbLine
 10
304.5364299415336
 20
294.7175101900104
 30
0.0
 11
305.3201777886076
 21
293.4385499434792
 31
0.0
  0
LINE
  5
17E4
330
18
100
AcDbEntity
  8
目盛
100
AcDbLine
 10
306.6336569267964
 20
295.7861007123683
 30
0.0
 11
307.5903655077092
 21
293.4764018810901
 31
0.0
  0
LINE
  5
17E5
330
18
100
AcDbEntity
  8
目盛
100
AcDbLine
 10
301.7673066944746
 20
292.5345094424972
 30
0.0
 11
303.535073647441
 21
290.7667424895308
 31
0.0
  0
LINE
  5
17E6
330
18
100
AcDbEntity
  8
目盛
100
AcDbLine
 10
303.5571296278857
 20
294.0631626403233
 30
0.0
 11
304.4388075063245
 21
292.8496371487608
 31
0.0
  0
LINE
  5
17E7
330
18
100
AcDbEntity
  8
目盛
100
AcDbLine
 10
302.6321876873201
 20
293.3339972086995
 30
0.0
 11
303.6063597598154
 21
292.1933882602994
 31
0.0
  0
LINE
  5
17E8
330
18
100
AcDbEntity
  8
目盛
100
AcDbLine
 10
311.1970219763551
 20
296.8816677306959
 30
0.0
 11
311.3147106199469
 21
295.3862917300962
 31
0.0
  0
LINE
  5
17E9
330
18
100
AcDbEntity
  8
目盛
100
AcDbLine
 10
310.0273914366693
 20
296.743232833626
 30
0.0
 11
310.2620431342296
 21
295.2617003227334
 31
0.0
  0
LINE
  5
17EA
330
18
100
AcDbEntity
  8
目盛
100
AcDbLine
 10
299.5843059469615
 20
289.7653861954382
 30
0.0
 11
300.8632661934925
 21
288.9816383483642
 31
0.0
  0
LINE
  5
17EB
330
18
100
AcDbEntity
  8
目盛
100
AcDbLine
 10
299.0088105494473
 20
288.7377652207922
 30
0.0
 11
300.3453203357299
 21
288.0567794711829
 31
0.0
  0
LINE
  5
17EC
330
18
100
AcDbEntity
  8
目盛
100
AcDbLine
 10
298.1080606678456
 20
286.5631626403232
 30
0.0
 11
299.5346454422883
 21
286.0996371487608
 31
0.0
  0
LINE
  5
17ED
330
18
100
AcDbEntity
  8
目盛
100
AcDbLine
 10
297.7883596063076
 20
285.4295881825376
 30
0.0
 11
299.2469144869042
 21
285.0794201367537
 31
0.0
  0
LINE
  5
17EE
330
18
100
AcDbEntity
  8
目盛
100
AcDbLine
 10
298.5157154246035
 20
287.6681592101753
 30
0.0
 11
300.8254142558818
 21
286.7114506292626
 31
0.0
  0
LINE
  5
17EF
330
18
100
AcDbEntity
  8
目盛
100
AcDbLine
 10
297.3739084122728
 20
281.927907724699
 30
0.0
 11
299.8739084122728
 21
281.927907724699
 31
0.0
  0
LINE
  5
17F0
330
18
100
AcDbEntity
  8
目盛
100
AcDbLine
 10
297.5585833033457
 20
284.2744247003024
 30
0.0
 11
299.0401158142385
 21
284.0397730027421
 31
0.0
  0
LINE
  5
17F1
330
18
100
AcDbEntity
  8
目盛
100
AcDbLine
 10
297.420148406276
 20
283.1047941606167
 30
0.0
 11
298.9155244068756
 21
282.9871055170249
 31
0.0
  0
LINE
  5
17F2
330
18
100
AcDbEntity
  8
目盛
100
AcDbLine
 10
300.9678189282724
 20
291.6696284496517
 30
0.0
 11
302.1084278766725
 21
290.6954563771565
 31
0.0
  0
LINE
  5
17F3
330
18
100
AcDbEntity
  8
目盛
100
AcDbLine
 10
300.2386534966486
 20
290.7446865090861
 30
0.0
 11
301.452178988211
 21
289.8630086306473
 31
0.0
  0
LINE
  5
17F4
330
18
100
AcDbEntity
  8
目盛
100
AcDbLine
 10
297.7883596063077
 20
278.4262272668604
 30
0.0
 11
299.2469144869042
 21
278.7763953126442
 31
0.0
  0
LINE
  5
17F5
330
18
100
AcDbEntity
  8
目盛
100
AcDbLine
 10
298.1080606678455
 20
277.2926528090748
 30
0.0
 11
299.5346454422882
 21
277.7561783006373
 31
0.0
  0
LINE
  5
17F6
330
18
100
AcDbEntity
  8
目盛
100
AcDbLine
 10
299.0088105494473
 20
275.1180502286058
 30
0.0
 11
300.3453203357299
 21
275.7990359782152
 31
0.0
  0
LINE
  5
17F7
330
18
100
AcDbEntity
  8
目盛
100
AcDbLine
 10
299.5843059469614
 20
274.0904292539597
 30
0.0
 11
300.8632661934925
 21
274.8741771010337
 31
0.0
  0
LINE
  5
17F8
330
18
100
AcDbEntity
  8
目盛
100
AcDbLine
 10
298.5157154246035
 20
276.1876562392226
 30
0.0
 11
300.8254142558817
 21
277.1443648201353
 31
0.0
  0
LINE
  5
17F9
330
18
100
AcDbEntity
  8
目盛
100
AcDbLine
 10
301.7673066944746
 20
271.3213060069008
 30
0.0
 11
303.535073647441
 21
273.0890729598671
 31
0.0
  0
LINE
  5
17FA
330
18
100
AcDbEntity
  8
目盛
100
AcDbLine
 10
300.2386534966486
 20
273.1111289403119
 30
0.0
 11
301.452178988211
 21
273.9928068187506
 31
0.0
  0
LINE
  5
17FB
330
18
100
AcDbEntity
  8
目盛
100
AcDbLine
 10
300.9678189282723
 20
272.1861869997462
 30
0.0
 11
302.1084278766724
 21
273.1603590722415
 31
0.0
  0
LINE
  5
17FC
330
18
100
AcDbEntity
  8
目盛
100
AcDbLine
 10
297.4201484062758
 20
280.7510212887812
 30
0.0
 11
298.9155244068756
 21
280.868709932373
 31
0.0
  0
LINE
  5
17FD
330
18
100
AcDbEntity
  8
目盛
100
AcDbLine
 10
297.5585833033457
 20
279.5813907490955
 30
0.0
 11
299.0401158142384
 21
279.8160424466558
 31
0.0
  0
LINE
  5
17FE
330
18
100
AcDbEntity
  8
目盛
100
AcDbLine
 10
304.5364299415336
 20
269.1383052593877
 30
0.0
 11
305.3201777886075
 21
270.4172655059188
 31
0.0
  0
LINE
  5
17FF
330
18
100
AcDbEntity
  8
目盛
100
AcDbLine
 10
305.5640509161796
 20
268.5628098618735
 30
0.0
 11
306.2450366657889
 21
269.8993196481561
 31
0.0
  0
LINE
  5
1800
330
18
100
AcDbEntity
  8
目盛
100
AcDbLine
 10
307.7386534966486
 20
267.6620599802717
 30
0.0
 11
308.202178988211
 21
269.0886447547145
 31
0.0
  0
LINE
  5
1801
330
18
100
AcDbEntity
  8
目盛
100
AcDbLine
 10
308.8722279544342
 20
267.3423589187339
 30
0.0
 11
309.2223960002181
 21
268.8009137993304
 31
0.0
  0
LINE
  5
1802
330
18
100
AcDbEntity
  8
目盛
100
AcDbLine
 10
306.6336569267964
 20
268.0697147370297
 30
0.0
 11
307.5903655077092
 21
270.3794135683079
 31
0.0
  0
LINE
  5
1803
330
18
100
AcDbEntity
  8
目盛
100
AcDbLine
 10
312.3739084122728
 20
266.927907724699
 30
0.0
 11
312.3739084122728
 21
269.427907724699
 31
0.0
  0
LINE
  5
1804
330
18
100
AcDbEntity
  8
目盛
100
AcDbLine
 10
310.0273914366693
 20
267.1125826157719
 30
0.0
 11
310.2620431342296
 21
268.5941151266647
 31
0.0
  0
LINE
  5
1805
330
18
100
AcDbEntity
  8
目盛
100
AcDbLine
 10
311.1970219763551
 20
266.9741477187021
 30
0.0
 11
311.3147106199469
 21
268.4695237193018
 31
0.0
  0
LINE
  5
1806
330
18
100
AcDbEntity
  8
目盛
100
AcDbLine
 10
302.63218768732
 20
270.5218182406986
 30
0.0
 11
303.6063597598153
 21
271.6624271890986
 31
0.0
  0
LINE
  5
1807
330
18
100
AcDbEntity
  8
目盛
100
AcDbLine
 10
303.5571296278857
 20
269.7926528090748
 30
0.0
 11
304.4388075063245
 21
271.0061783006372
 31
0.0
  0
LINE
  5
1808
330
18
100
AcDbEntity
  8
目盛
100
AcDbLine
 10
315.8755888701114
 20
267.3423589187339
 30
0.0
 11
315.5254208243276
 21
268.8009137993304
 31
0.0
  0
LINE
  5
1809
330
18
100
AcDbEntity
  8
目盛
100
AcDbLine
 10
317.009163327897
 20
267.6620599802717
 30
0.0
 11
316.5456378363345
 21
269.0886447547145
 31
0.0
  0
LINE
  5
180A
330
18
100
AcDbEntity
  8
目盛
100
AcDbLine
 10
319.183765908366
 20
268.5628098618735
 30
0.0
 11
318.5027801587566
 21
269.899319648156
 31
0.0
  0
LINE
  5
180B
330
18
100
AcDbEntity
  8
目盛
100
AcDbLine
 10
320.211386883012
 20
269.1383052593876
 30
0.0
 11
319.4276390359381
 21
270.4172655059188
 31
0.0
  0
LINE
  5
180C
330
18
100
AcDbEntity
  8
目盛
100
AcDbLine
 10
318.1141598977492
 20
268.0697147370297
 30
0.0
 11
317.1574513168365
 21
270.3794135683079
 31
0.0
  0
LINE
  5
180D
330
18
100
AcDbEntity
  8
目盛
100
AcDbLine
 10
322.980510130071
 20
271.3213060069008
 30
0.0
 11
321.2127431771047
 21
273.0890729598672
 31
0.0
  0
LINE
  5
180E
330
18
100
AcDbEntity
  8
目盛
100
AcDbLine
 10
321.19068719666
 20
269.7926528090748
 30
0.0
 11
320.3090093182212
 21
271.0061783006373
 31
0.0
  0
LINE
  5
180F
330
18
100
AcDbEntity
  8
目盛
100
AcDbLine
 10
322.1156291372255
 20
270.5218182406986
 30
0.0
 11
321.1414570647303
 21
271.6624271890986
 31
0.0
  0
LINE
  5
1810
330
18
100
AcDbEntity
  8
目盛
100
AcDbLine
 10
313.5507948481905
 20
266.9741477187021
 30
0.0
 11
313.4331062045987
 21
268.4695237193018
 31
0.0
  0
LINE
  5
1811
330
18
100
AcDbEntity
  8
目盛
100
AcDbLine
 10
314.7204253878763
 20
267.1125826157719
 30
0.0
 11
314.485773690316
 21
268.5941151266647
 31
0.0
  0
LINE
  5
1812
330
18
100
AcDbEntity
  8
目盛
100
AcDbLine
 10
325.1635108775842
 20
274.0904292539597
 30
0.0
 11
323.8845506310531
 21
274.8741771010336
 31
0.0
  0
LINE
  5
1813
330
18
100
AcDbEntity
  8
目盛
100
AcDbLine
 10
325.7390062750983
 20
275.1180502286057
 30
0.0
 11
324.4024964888158
 21
275.799035978215
 31
0.0
  0
LINE
  5
1814
330
18
100
AcDbEntity
  8
目盛
100
AcDbLine
 10
326.6397561567001
 20
277.2926528090747
 30
0.0
 11
325.2131713822574
 21
277.7561783006371
 31
0.0
  0
LINE
  5
1815
330
18
100
AcDbEntity
  8
目盛
100
AcDbLine
 10
326.959457218238
 20
278.4262272668603
 30
0.0
 11
325.5009023376414
 21
278.7763953126442
 31
0.0
  0
LINE
  5
1816
330
18
100
AcDbEntity
  8
目盛
100
AcDbLine
 10
326.2321013999422
 20
276.1876562392226
 30
0.0
 11
323.9224025686639
 21
277.1443648201353
 31
0.0
  0
LINE
  5
1817
330
18
100
AcDbEntity
  8
目盛
100
AcDbLine
 10
327.3739084122728
 20
281.9279077246989
 30
0.0
 11
324.8739084122728
 21
281.9279077246989
 31
0.0
  0
LINE
  5
1818
330
18
100
AcDbEntity
  8
目盛
100
AcDbLine
 10
327.1892335211999
 20
279.5813907490955
 30
0.0
 11
325.7077010103072
 21
279.8160424466558
 31
0.0
  0
LINE
  5
1819
330
18
100
AcDbEntity
  8
目盛
100
AcDbLine
 10
327.3276684182698
 20
280.7510212887812
 30
0.0
 11
325.83229241767
 21
280.868709932373
 31
0.0
  0
LINE
  5
181A
330
18
100
AcDbEntity
  8
目盛
100
AcDbLine
 10
323.7799978962733
 20
272.1861869997462
 30
0.0
 11
322.6393889478732
 21
273.1603590722414
 31
0.0
  0
LINE
  5
181B
330
18
100
AcDbEntity
  8
目盛
100
AcDbLine
 10
324.509163327897
 20
273.1111289403119
 30
0.0
 11
323.2956378363347
 21
273.9928068187506
 31
0.0
  0
LINE
  5
181C
330
18
100
AcDbEntity
  8
目盛
100
AcDbLine
 10
326.959457218238
 20
285.4295881825375
 30
0.0
 11
325.5009023376415
 21
285.0794201367538
 31
0.0
  0
LINE
  5
181D
330
18
100
AcDbEntity
  8
目盛
100
AcDbLine
 10
326.6397561567002
 20
286.5631626403231
 30
0.0
 11
325.2131713822574
 21
286.0996371487607
 31
0.0
  0
LINE
  5
181E
330
18
100
AcDbEntity
  8
目盛
100
AcDbLine
 10
325.7390062750984
 20
288.7377652207921
 30
0.0
 11
324.4024964888158
 21
288.0567794711828
 31
0.0
  0
LINE
  5
181F
330
18
100
AcDbEntity
  8
目盛
100
AcDbLine
 10
325.1635108775843
 20
289.7653861954382
 30
0.0
 11
323.8845506310531
 21
288.9816383483642
 31
0.0
  0
LINE
  5
1820
330
18
100
AcDbEntity
  8
目盛
100
AcDbLine
 10
326.2321013999422
 20
287.6681592101753
 30
0.0
 11
323.922402568664
 21
286.7114506292626
 31
0.0
  0
LINE
  5
1821
330
18
100
AcDbEntity
  8
目盛
100
AcDbLine
 10
322.9805101300712
 20
292.5345094424971
 30
0.0
 11
321.2127431771047
 21
290.7667424895308
 31
0.0
  0
LINE
  5
1822
330
18
100
AcDbEntity
  8
目盛
100
AcDbLine
 10
324.5091633278971
 20
290.7446865090861
 30
0.0
 11
323.2956378363347
 21
289.8630086306474
 31
0.0
  0
LINE
  5
1823
330
18
100
AcDbEntity
  8
目盛
100
AcDbLine
 10
323.7799978962734
 20
291.6696284496517
 30
0.0
 11
322.6393889478733
 21
290.6954563771564
 31
0.0
  0
LINE
  5
1824
330
18
100
AcDbEntity
  8
目盛
100
AcDbLine
 10
327.3276684182698
 20
283.1047941606166
 30
0.0
 11
325.8322924176701
 21
282.9871055170249
 31
0.0
  0
LINE
  5
1825
330
18
100
AcDbEntity
  8
目盛
100
AcDbLine
 10
327.1892335211999
 20
284.2744247003025
 30
0.0
 11
325.7077010103072
 21
284.0397730027421
 31
0.0
  0
INSERT
  5
1E13
330
18
100
AcDbEntity
  8
目盛
100
AcDbBlockReference
  2
PC_PCN針
 10
312.3739084122727
 20
281.927907724699
 30
0.0
 50
292.5000000000002
  0
TEXT
  5
1ECC
330
18
100
AcDbEntity
  8
文字
100
AcDbText
 10
319.0705926478122
 20
358.738506723013
 30
0.0
 40
4.0
  1
Model No.PC-1B Pic Test Indicator
  7
STYLE3
100
AcDbText
  0
LINE
  5
1ECD
330
18
100
AcDbEntity
  8
外形線
100
AcDbLine
 10
318.4940806478122
 20
356.6089217230131
 30
0.0
 11
423.4940806478121
 21
356.6089217230131
 31
0.0
  0
LINE
  5
1ECE
330
18
100
AcDbEntity
  8
外形線
100
AcDbLine
 10
318.4940806478122
 20
357.608921723013
 30
0.0
 11
423.4940806478121
 21
357.608921723013
 31
0.0
  0
LINE
  5
1ED1
330
18
100
AcDbEntity
  8
外形線
100
AcDbLine
 10
350.4814496478122
 20
192.653372723013
 30
0.0
 11
491.2728676478121
 21
192.653372723013
 31
0.0
  0
LINE
  5
1ED2
330
18
100
AcDbEntity
  8
外形線
100
AcDbLine
 10
350.4814496478122
 20
181.8731667230131
 30
0.0
 11
491.2728676478121
 21
181.8731667230131
 31
0.0
  0
TEXT
  5
1ED3
330
18
100
AcDbEntity
  8
0
  6
Continuous
100
AcDbText
 10
351.9389166478122
 20
183.771156723013
 30
0.0
 40
2.1
  1
Design and specifications are subject to change without notice for future improvement.
  7
STYLE3
100
AcDbText
  0
TEXT
  5
1ED4
330
18
100
AcDbEntity
  8
0
  6
Continuous
100
AcDbText
 10
352.2304106478121
 20
187.700304723013
 30
0.0
 40
3.5
  1
仕様及び外観は予告なく変更される場合がございますのでご了承下さい。
  7
STYLE3
100
AcDbText
  0
TEXT
  5
1ED5
330
18
100
AcDbEntity
  8
0
  6
Continuous
100
AcDbText
 10
351.6474256478121
 20
174.006528723013
 30
0.0
 40
2.1
  1
3RD Angle Projection
  7
STYLE3
100
AcDbText
  0
TEXT
  5
1ED6
330
18
100
AcDbEntity
  8
0
  6
Continuous
100
AcDbText
 10
354.2708686478122
 20
177.5028117230131
 30
0.0
 40
3.0
  1
三　　角　　法
  7
STYLE3
100
AcDbText
  0
LINE
  5
1ED7
330
18
100
AcDbEntity
  8
外形線
100
AcDbLine
 10
350.4814496478122
 20
172.258388723013
 30
0.0
 11
350.4814496478122
 21
192.653372723013
 31
0.0
  0
LINE
  5
1ED8
330
18
100
AcDbEntity
  8
外形線
100
AcDbLine
 10
452.5042166478121
 20
181.8731667230131
 30
0.0
 11
452.5042166478121
 21
172.258388723013
 31
0.0
  0
LINE
  5
1ED9
330
18
100
AcDbEntity
  8
外形線
100
AcDbLine
 10
422.7718666478121
 20
181.8731667230131
 30
0.0
 11
422.7718666478121
 21
172.258388723013
 31
0.0
  0
LINE
  5
1EDA
330
18
100
AcDbEntity
  8
外形線
100
AcDbLine
 10
403.2417946478121
 20
181.8731667230131
 30
0.0
 11
403.2417946478121
 21
172.258388723013
 31
0.0
  0
LINE
  5
1EDB
330
18
100
AcDbEntity
  8
外形線
100
AcDbLine
 10
385.7521776478122
 20
181.8731667230131
 30
0.0
 11
385.7521776478122
 21
172.258388723013
 31
0.0
  0
TEXT
  5
1EDC
330
18
100
AcDbEntity
  8
0
  6
Continuous
100
AcDbText
 10
387.2096466478122
 20
177.508766723013
 30
0.0
 40
3.0
  1
単位
  7
STYLE3
100
AcDbText
  0
TEXT
  5
1EDD
330
18
100
AcDbEntity
  8
0
  6
Continuous
100
AcDbText
 10
387.3813676478122
 20
174.006529723013
 30
0.0
 40
2.1
  1
Unit
  7
STYLE3
100
AcDbText
  0
TEXT
  5
1EDE
330
18
100
AcDbEntity
  8
0
  6
Continuous
100
AcDbText
 10
404.5275426478121
 20
177.2174087230131
 30
0.0
 40
3.0
  1
尺 度
  7
STYLE3
100
AcDbText
  0
TEXT
  5
1EDF
330
18
100
AcDbEntity
  8
0
  6
Continuous
100
AcDbText
 10
395.2516946478121
 20
175.7546727230131
 30
0.0
 40
2.399999999999999
  1
mm
  7
STYLE3
100
AcDbText
  0
TEXT
  5
1EE0
330
18
100
AcDbEntity
  8
0
  6
Continuous
100
AcDbText
 10
404.9907576478121
 20
174.2978867230131
 30
0.0
 40
2.1
  1
Scale
  7
STYLE3
100
AcDbText
  0
TEXT
  5
1EE1
330
18
100
AcDbEntity
  8
0
  6
Continuous
100
AcDbText
 10
414.6100466478121
 20
176.0460297230131
 30
0.0
 40
2.399999999999999
  1
1/1
  7
STYLE3
100
AcDbText
  0
TEXT
  5
1EE2
330
18
100
AcDbEntity
  8
0
  6
Continuous
100
AcDbText
 10
424.7038176478121
 20
174.006530723013
 30
0.0
 40
2.1
  1
Date
  7
STYLE3
100
AcDbText
  0
TEXT
  5
1EE3
330
18
100
AcDbEntity
  8
0
  6
Continuous
100
AcDbText
 10
424.3204566478121
 20
177.339613723013
 30
0.0
 40
3.0
  1
日 付
  7
STYLE3
100
AcDbText
  0
TEXT
  5
1EE4
330
18
100
AcDbEntity
  8
0
  6
Continuous
100
AcDbText
 10
433.4486256478121
 20
175.7546717230131
 30
0.0
 40
2.1
  1
2010.06.14
  7
STYLE3
100
AcDbText
  0
TEXT
  5
1EE5
330
18
100
AcDbEntity
  8
0
  6
Continuous
100
AcDbText
 10
453.8531796478121
 20
177.794168723013
 30
0.0
 40
3.0
  1
株式会社　尾崎製作所
  7
STYLE3
100
AcDbText
  0
TEXT
  5
1EE6
330
18
100
AcDbEntity
  8
0
  6
Continuous
100
AcDbText
 10
454.7276586478122
 20
174.006529723013
 30
0.0
 40
2.1
  1
OZAKI MFG. CO., LTD.
  7
STYLE3
100
AcDbText
  0
ENDSEC
  0
SECTION
  2
OBJECTS
  0
DICTIONARY
  5
C
330
0
100
AcDbDictionary
281
     1
  3
ACAD_COLOR
350
18B0
  3
ACAD_GROUP
350
D
  3
ACAD_IMAGE_DICT
350
B2C
  3
ACAD_LAYOUT
350
18B3
  3
ACAD_MATERIAL
350
18AF
  3
ACAD_MLINESTYLE
350
1B
  3
ACAD_PLOTSETTINGS
350
18B4
  3
ACAD_PLOTSTYLENAME
350
18AD
  3
ACAD_TABLESTYLE
350
18B1
  3
ACDBVARIABLEDICTIONARY
350
1297
  0
DICTIONARY
  5
18BC
330
18BB
100
AcDbDictionary
280
     1
281
     1
  3
ACAD_SORTENTS
360
18BD
  0
DICTIONARY
  5
18B0
102
{ACAD_REACTORS
330
C
102
}
330
C
100
AcDbDictionary
281
     1
  0
DICTIONARY
  5
D
102
{ACAD_REACTORS
330
C
102
}
330
C
100
AcDbDictionary
281
     1
  0
DICTIONARY
  5
B2C
102
{ACAD_REACTORS
330
C
102
}
330
C
100
AcDbDictionary
281
     1
  3
ROGO01
350
B2D
  0
DICTIONARY
  5
18B3
102
{ACAD_REACTORS
330
C
102
}
330
C
100
AcDbDictionary
281
     1
  3
Model
350
18B5
  3
レイアウト1
350
18B6
  0
DICTIONARY
  5
18AF
102
{ACAD_REACTORS
330
C
102
}
330
C
100
AcDbDictionary
281
     1
  0
DICTIONARY
  5
1B
102
{ACAD_REACTORS
330
C
102
}
330
C
100
AcDbDictionary
281
     1
  3
STANDARD
350
1C
  0
DICTIONARY
  5
18B4
102
{ACAD_REACTORS
330
C
102
}
330
C
100
AcDbDictionary
281
     1
  0
ACDBDICTIONARYWDFLT
  5
18AD
102
{ACAD_REACTORS
330
C
102
}
330
C
100
AcDbDictionary
281
     1
  3
Normal
350
18AE
100
AcDbDictionaryWithDefault
340
18AE
  0
DICTIONARY
  5
18B1
102
{ACAD_REACTORS
330
C
102
}
330
C
100
AcDbDictionary
281
     1
  3
Standard
350
18B2
  0
DICTIONARY
  5
1297
102
{ACAD_REACTORS
330
C
102
}
330
C
100
AcDbDictionary
281
     1
  3
CTABLESTYLE
350
1E16
  3
SORTENTS
350
1298
  0
SORTENTSTABLE
  5
18BD
102
{ACAD_REACTORS
330
18BC
102
}
330
18BC
100
AcDbSortentsTable
330
18BB
  0
IMAGEDEF
  5
B2D
102
{ACAD_REACTORS
330
B2C
102
}
330
B2C
100
AcDbRasterImageDef
 90
        0
  1
D:\ﾃｽﾄ\rogo01.TIF
 10
3388.0
 20
4668.0
 11
0.0635
 21
0.0635
280
     1
281
     5
  0
LAYOUT
  5
18B5
102
{ACAD_REACTORS
330
18B3
102
}
330
18B3
100
AcDbPlotSettings
  1

  2
A4 EPSON LP-6100.pc3
  4
A4
  6

 40
5.873749732971191
 41
5.873747825622558
 42
5.873748779296875
 43
5.873748779296875
 44
209.9733276367187
 45
297.0106506347656
 46
0.9
 47
25.0
 48
0.0
 49
0.0
140
0.0
141
0.0
142
1.0
143
1.0
 70
 28336
 72
     1
 73
     1
 74
     1
  7
AutoCAD LT 98.ctb
 75
    16
147
1.0
 76
     1
 77
     2
 78
   300
148
-236.4886379941706
149
-171.6235136330668
100
AcDbLayout
  1
Model
 70
     1
 71
     0
 10
0.0
 20
0.0
 11
12.0
 21
9.0
 12
0.0
 22
0.0
 32
0.0
 14
0.0
 24
0.0
 34
0.0
 15
0.0
 25
0.0
 35
0.0
146
0.0
 13
0.0
 23
0.0
 33
0.0
 16
1.0
 26
0.0
 36
0.0
 17
0.0
 27
1.0
 37
0.0
 76
     0
330
18
1001
ACAD_PSEXT
1000
A4 EPSON LP-6100.pc3
1000
EPSON LP-6100
1000
\\SATO-MATE2
1000

1070
     0
  0
LAYOUT
  5
18B6
102
{ACAD_REACTORS
330
18B3
102
}
330
18B3
100
AcDbPlotSettings
  1

  2
WIDR Printer
  4

  6

 40
0.0
 41
0.0
 42
0.0
 43
0.0
 44
0.0
 45
0.0
 46
0.0
 47
0.0
 48
0.0
 49
0.0
140
0.0
141
0.0
142
1.0
143
1.0
 70
   688
 72
     0
 73
     0
 74
     5
  7
AutoCad LT 98.ctb
 75
    16
147
1.0
 76
     0
 77
     2
 78
   300
148
0.0
149
0.0
100
AcDbLayout
  1
レイアウト1
 70
     1
 71
     1
 10
0.0
 20
0.0
 11
420.0
 21
297.0
 12
0.0
 22
0.0
 32
0.0
 14
1.000000000000000E+20
 24
1.000000000000000E+20
 34
1.000000000000000E+20
 15
-1.000000000000000E+20
 25
-1.000000000000000E+20
 35
-1.000000000000000E+20
146
0.0
 13
0.0
 23
0.0
 33
0.0
 16
1.0
 26
0.0
 36
0.0
 17
0.0
 27
1.0
 37
0.0
 76
     0
330
15
  0
MLINESTYLE
  5
1C
102
{ACAD_REACTORS
330
1B
102
}
330
1B
100
AcDbMlineStyle
  2
STANDARD
 70
     0
  3

 62
   256
 51
90.0
 52
90.0
 71
     2
 49
0.5
 62
   256
  6
BYLAYER
 49
-0.5
 62
   256
  6
BYLAYER
  0
ACDBPLACEHOLDER
  5
18AE
102
{ACAD_REACTORS
330
18AD
102
}
330
18AD
  0
ACAD_PROXY_OBJECT
  5
18B2
102
{ACAD_REACTORS
330
18B1
102
}
330
18B1
100
AcDbProxyObject
 90
      499
 91
      505
 95
  2555929
 70
     0
 93
     1849
310
4214DD185B99185C992420000000000000F83F0000000000003E0FC00000000000004901028000000C1008070000C3001FDFF8000000C1003FBFF000000182007F7FE00000030400FEFFC00000060801FDFF8000000C1003FBFF000000182000000000000000C2020B0000001820100E000186003FBFF000000182007F7FE0
310
0000030400FEFFC00000060801FDFF8000000C1003FBFF000000182007F7FE0000003040000000000000012404160000003040201C00030C007F7FE00000030400FEFFC00000060801FDFF8000000C1003FBFF000000182007F7FE00000030400FEFFC000000608024
340
F
340
F
340
F
 94
        0
  0
DICTIONARYVAR
  5
1E16
102
{ACAD_REACTORS
330
1297
102
}
330
1297
100
DictionaryVariables
280
     0
  1
STANDARD
  0
DICTIONARYVAR
  5
1298
102
{ACAD_REACTORS
330
1297
102
}
330
1297
100
DictionaryVariables
280
     0
  1
96
  0
ENDSEC
  0
EOF
