  0
SECTION
  2
HEADER
  9
$ACADVER
  1
AC1018
  9
$ACADMAINTVER
 70
     0
  9
$DWGCODEPAGE
  3
ANSI_932
  9
$INSBASE
 10
0.0
 20
0.0
 30
0.0
  9
$EXTMIN
 10
236.4655427980613
 20
171.6339896600951
 30
-0.0000610400456509
  9
$EXTMAX
 10
491.8990686337299
 20
367.055777876885
 30
0.0000152620489651
  9
$LIMMIN
 10
0.0
 20
0.0
  9
$LIMMAX
 10
420.0
 20
297.0
  9
$ORTHOMODE
 70
     0
  9
$REGENMODE
 70
     1
  9
$FILLMODE
 70
     1
  9
$QTEXTMODE
 70
     0
  9
$MIRRTEXT
 70
     1
  9
$LTSCALE
 40
1.0
  9
$ATTMODE
 70
     1
  9
$TEXTSIZE
 40
1.8
  9
$TRACEWID
 40
1.0
  9
$TEXTSTYLE
  7
STYLE3
  9
$CLAYER
  8
寸法線
  9
$CELTYPE
  6
BYLAYER
  9
$CECOLOR
 62
   256
  9
$CELTSCALE
 40
1.0
  9
$DISPSILH
 70
     0
  9
$DIMSCALE
 40
1.0
  9
$DIMASZ
 40
2.5
  9
$DIMEXO
 40
0.0
  9
$DIMDLI
 40
3.75
  9
$DIMRND
 40
0.0
  9
$DIMDLE
 40
0.0
  9
$DIMEXE
 40
1.25
  9
$DIMTP
 40
0.0
  9
$DIMTM
 40
0.0
  9
$DIMTXT
 40
2.5
  9
$DIMCEN
 40
2.5
  9
$DIMTSZ
 40
0.0
  9
$DIMTOL
 70
     0
  9
$DIMLIM
 70
     0
  9
$DIMTIH
 70
     0
  9
$DIMTOH
 70
     0
  9
$DIMSE1
 70
     0
  9
$DIMSE2
 70
     0
  9
$DIMTAD
 70
     1
  9
$DIMZIN
 70
     8
  9
$DIMBLK
  1

  9
$DIMASO
 70
     1
  9
$DIMSHO
 70
     1
  9
$DIMPOST
  1

  9
$DIMAPOST
  1

  9
$DIMALT
 70
     0
  9
$DIMALTD
 70
     4
  9
$DIMALTF
 40
0.0394
  9
$DIMLFAC
 40
1.0
  9
$DIMTOFL
 70
     1
  9
$DIMTVP
 40
0.0
  9
$DIMTIX
 70
     0
  9
$DIMSOXD
 70
     0
  9
$DIMSAH
 70
     1
  9
$DIMBLK1
  1
OPEN
  9
$DIMBLK2
  1
OPEN
  9
$DIMSTYLE
  2
STYLE3
  9
$DIMCLRD
 70
     2
  9
$DIMCLRE
 70
     2
  9
$DIMCLRT
 70
     6
  9
$DIMTFAC
 40
1.0
  9
$DIMGAP
 40
0.625
  9
$DIMJUST
 70
     0
  9
$DIMSD1
 70
     0
  9
$DIMSD2
 70
     0
  9
$DIMTOLJ
 70
     1
  9
$DIMTZIN
 70
     0
  9
$DIMALTZ
 70
     0
  9
$DIMALTTZ
 70
     0
  9
$DIMUPT
 70
     0
  9
$DIMDEC
 70
     2
  9
$DIMTDEC
 70
     4
  9
$DIMALTU
 70
     8
  9
$DIMALTTD
 70
     4
  9
$DIMTXSTY
  7
STYLE3
  9
$DIMAUNIT
 70
     0
  9
$DIMADEC
 70
     0
  9
$DIMALTRND
 40
0.0
  9
$DIMAZIN
 70
     0
  9
$DIMDSEP
 70
    46
  9
$DIMATFIT
 70
     3
  9
$DIMFRAC
 70
     0
  9
$DIMLDRBLK
  1

  9
$DIMLUNIT
 70
     2
  9
$DIMLWD
 70
    -2
  9
$DIMLWE
 70
    -2
  9
$DIMTMOVE
 70
     0
  9
$LUNITS
 70
     2
  9
$LUPREC
 70
     4
  9
$SKETCHINC
 40
1.0
  9
$FILLETRAD
 40
0.0
  9
$AUNITS
 70
     0
  9
$AUPREC
 70
     0
  9
$MENU
  1
.
  9
$ELEVATION
 40
0.0
  9
$PELEVATION
 40
0.0
  9
$THICKNESS
 40
0.0
  9
$LIMCHECK
 70
     0
  9
$CHAMFERA
 40
0.1
  9
$CHAMFERB
 40
0.1
  9
$CHAMFERC
 40
20.0
  9
$CHAMFERD
 40
0.0
  9
$SKPOLY
 70
     0
  9
$TDCREATE
 40
2451066.662483449
  9
$TDUCREATE
 40
2451066.287483449
  9
$TDUPDATE
 40
2455362.702984120
  9
$TDUUPDATE
 40
2455362.327984120
  9
$TDINDWG
 40
0.7705800810
  9
$TDUSRTIMER
 40
0.7705800810
  9
$USRTIMER
 70
     1
  9
$ANGBASE
 50
0.0
  9
$ANGDIR
 70
     0
  9
$PDMODE
 70
     0
  9
$PDSIZE
 40
0.0
  9
$PLINEWID
 40
0.0
  9
$SPLFRAME
 70
     0
  9
$SPLINETYPE
 70
     6
  9
$SPLINESEGS
 70
     8
  9
$HANDSEED
  5
2142
  9
$SURFTAB1
 70
     6
  9
$SURFTAB2
 70
     6
  9
$SURFTYPE
 70
     6
  9
$SURFU
 70
     6
  9
$SURFV
 70
     6
  9
$UCSBASE
  2

  9
$UCSNAME
  2

  9
$UCSORG
 10
0.0
 20
0.0
 30
0.0
  9
$UCSXDIR
 10
1.0
 20
0.0
 30
0.0
  9
$UCSYDIR
 10
0.0
 20
1.0
 30
0.0
  9
$UCSORTHOREF
  2

  9
$UCSORTHOVIEW
 70
     0
  9
$UCSORGTOP
 10
0.0
 20
0.0
 30
0.0
  9
$UCSORGBOTTOM
 10
0.0
 20
0.0
 30
0.0
  9
$UCSORGLEFT
 10
0.0
 20
0.0
 30
0.0
  9
$UCSORGRIGHT
 10
0.0
 20
0.0
 30
0.0
  9
$UCSORGFRONT
 10
0.0
 20
0.0
 30
0.0
  9
$UCSORGBACK
 10
0.0
 20
0.0
 30
0.0
  9
$PUCSBASE
  2

  9
$PUCSNAME
  2

  9
$PUCSORG
 10
0.0
 20
0.0
 30
0.0
  9
$PUCSXDIR
 10
1.0
 20
0.0
 30
0.0
  9
$PUCSYDIR
 10
0.0
 20
1.0
 30
0.0
  9
$PUCSORTHOREF
  2

  9
$PUCSORTHOVIEW
 70
     0
  9
$PUCSORGTOP
 10
0.0
 20
0.0
 30
0.0
  9
$PUCSORGBOTTOM
 10
0.0
 20
0.0
 30
0.0
  9
$PUCSORGLEFT
 10
0.0
 20
0.0
 30
0.0
  9
$PUCSORGRIGHT
 10
0.0
 20
0.0
 30
0.0
  9
$PUCSORGFRONT
 10
0.0
 20
0.0
 30
0.0
  9
$PUCSORGBACK
 10
0.0
 20
0.0
 30
0.0
  9
$USERI1
 70
     0
  9
$USERI2
 70
     0
  9
$USERI3
 70
     0
  9
$USERI4
 70
     0
  9
$USERI5
 70
     0
  9
$USERR1
 40
0.0
  9
$USERR2
 40
0.0
  9
$USERR3
 40
0.0
  9
$USERR4
 40
0.0
  9
$USERR5
 40
0.0
  9
$WORLDVIEW
 70
     1
  9
$SHADEDGE
 70
     3
  9
$SHADEDIF
 70
    70
  9
$TILEMODE
 70
     1
  9
$MAXACTVP
 70
    48
  9
$PINSBASE
 10
0.0
 20
0.0
 30
0.0
  9
$PLIMCHECK
 70
     0
  9
$PEXTMIN
 10
1.000000000000000E+20
 20
1.000000000000000E+20
 30
1.000000000000000E+20
  9
$PEXTMAX
 10
-1.000000000000000E+20
 20
-1.000000000000000E+20
 30
-1.000000000000000E+20
  9
$PLIMMIN
 10
0.0
 20
0.0
  9
$PLIMMAX
 10
420.0
 20
297.0
  9
$UNITMODE
 70
     0
  9
$VISRETAIN
 70
     1
  9
$PLINEGEN
 70
     0
  9
$PSLTSCALE
 70
     1
  9
$TREEDEPTH
 70
  3020
  9
$CMLSTYLE
  2
STANDARD
  9
$CMLJUST
 70
     0
  9
$CMLSCALE
 40
20.0
  9
$PROXYGRAPHICS
 70
     1
  9
$MEASUREMENT
 70
     1
  9
$CELWEIGHT
370
    -1
  9
$ENDCAPS
280
     0
  9
$JOINSTYLE
280
     0
  9
$LWDISPLAY
290
     0
  9
$INSUNITS
 70
     0
  9
$HYPERLINKBASE
  1

  9
$STYLESHEET
  1
AutoCAD LT 98.ctb
  9
$XEDIT
290
     1
  9
$CEPSNTYPE
380
     0
  9
$PSTYLEMODE
290
     1
  9
$FINGERPRINTGUID
  2
{D269AD97-19F1-447E-95E1-9872276CFE22}
  9
$VERSIONGUID
  2
{F8F17819-C94B-4A11-933B-B46E39274B41}
  9
$EXTNAMES
290
     1
  9
$PSVPSCALE
 40
0.0
  9
$OLESTARTUP
290
     0
  9
$SORTENTS
280
    96
  9
$INDEXCTL
280
     0
  9
$HIDETEXT
280
     0
  9
$XCLIPFRAME
290
     0
  9
$HALOGAP
280
     0
  9
$OBSCOLOR
 70
   257
  9
$OBSLTYPE
280
     0
  9
$INTERSECTIONDISPLAY
280
     0
  9
$INTERSECTIONCOLOR
 70
   257
  9
$DIMASSOC
280
     1
  9
$PROJECTNAME
  1

  0
ENDSEC
  0
SECTION
  2
CLASSES
  0
CLASS
  1
HATCH
  2
AcDbHatch
  3
ObjectDBX Classes
 90
        0
 91
       20
280
     0
281
     1
  0
CLASS
  1
LWPOLYLINE
  2
AcDbPolyline
  3
ObjectDBX Classes
 90
        0
 91
        1
280
     0
281
     1
  0
CLASS
  1
IMAGEDEF
  2
AcDbRasterImageDef
  3
ISM
 90
        0
 91
        1
280
     0
281
     0
  0
CLASS
  1
DICTIONARYVAR
  2
AcDbDictionaryVar
  3
ObjectDBX Classes
 90
        0
 91
        2
280
     0
281
     0
  0
CLASS
  1
ACDBDICTIONARYWDFLT
  2
AcDbDictionaryWithDefault
  3
ObjectDBX Classes
 90
        0
 91
        1
280
     0
281
     0
  0
CLASS
  1
TABLESTYLE
  2
AcDbTableStyle
  3
ObjectDBX Classes
 90
     2047
 91
        1
280
     0
281
     0
  0
CLASS
  1
SORTENTSTABLE
  2
AcDbSortentsTable
  3
ObjectDBX Classes
 90
        0
 91
        1
280
     0
281
     0
  0
ENDSEC
  0
SECTION
  2
TABLES
  0
TABLE
  2
VPORT
  5
8
330
0
100
AcDbSymbolTable
 70
     2
  0
VPORT
  5
2141
330
8
100
AcDbSymbolTableRecord
100
AcDbViewportTableRecord
  2
*Active
 70
     0
 10
0.0
 20
0.0
 11
1.0
 21
1.0
 12
364.1823057158956
 22
269.3448837684901
 13
0.0
 23
0.0
 14
10.0
 24
10.0
 15
10.0
 25
10.0
 16
0.0
 26
0.0
 36
1.0
 17
0.0
 27
0.0
 37
0.0
 40
196.9078854655868
 41
1.530456852791878
 42
50.0
 43
0.0
 44
0.0
 50
0.0
 51
0.0
 71
     0
 72
   100
 73
     1
 74
     1
 75
     0
 76
     0
 77
     0
 78
     0
281
     0
 65
     1
110
0.0
120
0.0
130
0.0
111
1.0
121
0.0
131
0.0
112
0.0
122
1.0
132
0.0
 79
     0
146
0.0
  0
ENDTAB
  0
TABLE
  2
LTYPE
  5
5
330
0
100
AcDbSymbolTable
 70
     3
  0
LTYPE
  5
12
330
5
100
AcDbSymbolTableRecord
100
AcDbLinetypeTableRecord
  2
BYBLOCK
 70
     0
  3

 72
    65
 73
     0
 40
0.0
  0
LTYPE
  5
13
330
5
100
AcDbSymbolTableRecord
100
AcDbLinetypeTableRecord
  2
BYLAYER
 70
     0
  3

 72
    65
 73
     0
 40
0.0
  0
LTYPE
  5
14
330
5
100
AcDbSymbolTableRecord
100
AcDbLinetypeTableRecord
  2
CONTINUOUS
 70
     0
  3
Solid line
 72
    65
 73
     0
 40
0.0
  0
LTYPE
  5
22
330
5
100
AcDbSymbolTableRecord
100
AcDbLinetypeTableRecord
  2
CENTER2
 70
     0
  3
Center (.5x) ___ _ ___ _ ___ _ ___ _ ___ _ ___
 72
    65
 73
     4
 40
28.575
 49
19.05
 74
     0
 49
-3.174999999999999
 74
     0
 49
3.174999999999999
 74
     0
 49
-3.174999999999999
 74
     0
  0
LTYPE
  5
23
330
5
100
AcDbSymbolTableRecord
100
AcDbLinetypeTableRecord
  2
HIDDEN2
 70
     0
  3
Hidden (.5x) _ _ _ _ _ _ _ _ _ _ _ _ _ _ _ _ _
 72
    65
 73
     2
 40
4.762499999999999
 49
3.174999999999999
 74
     0
 49
-1.587499999999999
 74
     0
  0
ENDTAB
  0
TABLE
  2
LAYER
  5
2
330
0
100
AcDbSymbolTable
 70
    11
  0
LAYER
  5
E
330
2
100
AcDbSymbolTableRecord
100
AcDbLayerTableRecord
  2
0
 70
     0
 62
     7
  6
CONTINUOUS
370
    -3
390
207A
  0
LAYER
  5
25
330
2
100
AcDbSymbolTableRecord
100
AcDbLayerTableRecord
  2
外形線
 70
     0
 62
     7
  6
CONTINUOUS
370
    -3
390
207A
  0
LAYER
  5
26
330
2
100
AcDbSymbolTableRecord
100
AcDbLayerTableRecord
  2
寸法線
 70
     0
 62
     2
  6
CONTINUOUS
370
    -3
390
207A
  0
LAYER
  5
27
330
2
100
AcDbSymbolTableRecord
100
AcDbLayerTableRecord
  2
中心線
 70
     0
 62
     4
  6
CENTER2
370
    -3
390
207A
  0
LAYER
  5
28
330
2
100
AcDbSymbolTableRecord
100
AcDbLayerTableRecord
  2
隠れ線
 70
     0
 62
     6
  6
HIDDEN2
370
    -3
390
207A
  0
LAYER
  5
2B
330
2
100
AcDbSymbolTableRecord
100
AcDbLayerTableRecord
  2
文字
 70
     0
 62
     6
  6
CONTINUOUS
370
    -3
390
207A
  0
LAYER
  5
2C
330
2
100
AcDbSymbolTableRecord
100
AcDbLayerTableRecord
  2
目盛
 70
     0
 62
    70
  6
CONTINUOUS
370
    -3
390
207A
  0
LAYER
  5
2D
330
2
100
AcDbSymbolTableRecord
100
AcDbLayerTableRecord
  2
針
 70
     0
 62
     5
  6
CONTINUOUS
370
    -3
390
207A
  0
LAYER
  5
53
330
2
100
AcDbSymbolTableRecord
100
AcDbLayerTableRecord
  2
DEFPOINTS
 70
     0
 62
     7
  6
CONTINUOUS
290
     0
370
    -3
390
207A
  0
LAYER
  5
A5
330
2
100
AcDbSymbolTableRecord
100
AcDbLayerTableRecord
  2
C
 70
     0
 62
     7
  6
CONTINUOUS
370
    -3
390
207A
  0
LAYER
  5
AD4
330
2
100
AcDbSymbolTableRecord
100
AcDbLayerTableRecord
  2
ROGO
 70
     0
 62
     6
  6
CONTINUOUS
370
    -3
390
207A
  0
ENDTAB
  0
TABLE
  2
STYLE
  5
3
330
0
100
AcDbSymbolTable
 70
     3
  0
STYLE
  5
F
330
3
100
AcDbSymbolTableRecord
100
AcDbTextStyleTableRecord
  2
STANDARD
 70
     0
 40
0.0
 41
1.0
 50
0.0
 71
     0
 42
2.5
  3
txt
  4

  0
STYLE
  5
3F
330
3
100
AcDbSymbolTableRecord
100
AcDbTextStyleTableRecord
  2
STYLE3
 70
     0
 40
0.0
 41
1.0
 50
0.0
 71
     0
 42
1.8
  3
romans.shx
  4
bigfont.shx
  0
ENDTAB
  0
TABLE
  2
VIEW
  5
6
330
0
100
AcDbSymbolTable
 70
     0
  0
ENDTAB
  0
TABLE
  2
UCS
  5
7
330
0
100
AcDbSymbolTable
 70
     0
  0
ENDTAB
  0
TABLE
  2
APPID
  5
9
330
0
100
AcDbSymbolTable
 70
     2
  0
APPID
  5
10
330
9
100
AcDbSymbolTableRecord
100
AcDbRegAppTableRecord
  2
ACAD
 70
     0
  0
APPID
  5
2095
330
9
100
AcDbSymbolTableRecord
100
AcDbRegAppTableRecord
  2
ACAD_PSEXT
 70
     0
  0
ENDTAB
  0
TABLE
  2
DIMSTYLE
  5
A
330
0
100
AcDbSymbolTable
 70
     2
100
AcDbDimStyleTable
 71
     1
340
8F
  0
DIMSTYLE
105
1D
330
A
100
AcDbSymbolTableRecord
100
AcDbDimStyleTableRecord
  2
STANDARD
 70
     0
 41
2.5
 42
0.625
 43
3.75
 44
1.25
 73
     0
 74
     0
 77
     1
 78
     8
140
2.5
141
2.5
143
0.0394
147
0.625
171
     4
172
     1
273
     8
274
     4
277
     6
340
F
  0
DIMSTYLE
105
8F
102
{ACAD_REACTORS
330
1F70
330
1F98
102
}
330
A
100
AcDbSymbolTableRecord
100
AcDbDimStyleTableRecord
  2
STYLE3
 70
     0
 41
2.5
 42
0.0
 43
3.75
 44
1.25
 73
     0
 74
     0
 77
     1
 78
     8
140
2.5
141
2.5
143
0.0394
147
0.625
171
     4
172
     1
173
     1
176
     2
177
     2
178
     6
271
     1
273
     8
274
     4
340
3F
341
45
343
45
344
45
  0
ENDTAB
  0
TABLE
  2
BLOCK_RECORD
  5
1
330
0
100
AcDbSymbolTable
 70
     9
  0
BLOCK_RECORD
  5
18
330
1
100
AcDbSymbolTableRecord
100
AcDbBlockTableRecord
  2
*MODEL_SPACE
340
2081
  0
BLOCK_RECORD
  5
15
330
1
100
AcDbSymbolTableRecord
100
AcDbBlockTableRecord
  2
*PAPER_SPACE
340
2082
  0
BLOCK_RECORD
  5
45
330
1
100
AcDbSymbolTableRecord
100
AcDbBlockTableRecord
  2
_OPEN
340
0
102
{BLKREFS
331
1637
331
1638
331
1654
331
1669
331
166A
331
168B
331
168C
331
16B5
331
16B6
331
1D12
331
1D13
331
1D2D
331
1D2E
331
1D36
331
1D37
331
1D3F
331
1D40
331
1D48
331
1D49
331
1D52
331
1D53
331
1D5B
331
1D5C
331
1D64
331
1D65
331
1D6D
331
1D6E
331
1FB3
331
1FB4
331
1FBD
331
1FBE
331
2127
331
2128
331
212F
331
2130
102
}
  0
BLOCK_RECORD
  5
ADD
330
1
100
AcDbSymbolTableRecord
100
AcDbBlockTableRecord
  2
ROGO1
340
0
102
{BLKREFS
331
B43
331
B44
331
FCB
331
FCC
102
}
  0
BLOCK_RECORD
  5
1F64
330
1
100
AcDbSymbolTableRecord
100
AcDbBlockTableRecord
  2
*D2
340
0
  0
BLOCK_RECORD
  5
1F8D
330
1
100
AcDbSymbolTableRecord
100
AcDbBlockTableRecord
  2
*D3
340
0
  0
BLOCK_RECORD
  5
20A5
102
{ACAD_XDICTIONARY
360
20A6
102
}
330
1
100
AcDbSymbolTableRecord
100
AcDbBlockTableRecord
  2
PC_PCN針
340
0
102
{BLKREFS
331
20C0
331
20D2
102
}
  0
ENDTAB
  0
ENDSEC
  0
SECTION
  2
BLOCKS
  0
BLOCK
  5
19
330
18
100
AcDbEntity
  8
0
100
AcDbBlockBegin
  2
*MODEL_SPACE
 70
     0
 10
0.0
 20
0.0
 30
0.0
  3
*MODEL_SPACE
  1

  0
ENDBLK
  5
1A
330
18
100
AcDbEntity
  8
0
100
AcDbBlockEnd
  0
BLOCK
  5
16
330
15
100
AcDbEntity
 67
     1
  8
0
100
AcDbBlockBegin
  2
*PAPER_SPACE
 70
     0
 10
0.0
 20
0.0
 30
0.0
  3
*PAPER_SPACE
  1

  0
ENDBLK
  5
17
330
15
100
AcDbEntity
 67
     1
  8
0
100
AcDbBlockEnd
  0
BLOCK
  5
46
330
45
100
AcDbEntity
  8
0
100
AcDbBlockBegin
  2
_OPEN
 70
     0
 10
0.0
 20
0.0
 30
0.0
  3
_OPEN
  1

  0
LINE
  5
47
330
45
100
AcDbEntity
  8
0
  6
ByBlock
 62
     0
100
AcDbLine
 10
-1.0
 20
0.1666666666666666
 30
0.0
 11
0.0
 21
0.0
 31
0.0
  0
LINE
  5
48
330
45
100
AcDbEntity
  8
0
  6
ByBlock
 62
     0
100
AcDbLine
 10
0.0
 20
0.0
 30
0.0
 11
-1.0
 21
-0.1666666666666666
 31
0.0
  0
LINE
  5
49
330
45
100
AcDbEntity
  8
0
  6
ByBlock
 62
     0
100
AcDbLine
 10
0.0
 20
0.0
 30
0.0
 11
-1.0
 21
0.0
 31
0.0
  0
ENDBLK
  5
4A
330
45
100
AcDbEntity
  8
0
100
AcDbBlockEnd
  0
BLOCK
  5
B2A
330
ADD
100
AcDbEntity
  8
0
100
AcDbBlockBegin
  2
ROGO1
 70
     0
 10
0.0
 20
0.0
 30
0.0
  3
ROGO1
  1

  0
MTEXT
  5
B42
330
ADD
100
AcDbEntity
  8
DEFPOINTS
  6
Continuous
100
AcDbMText
 10
1039.786461861274
 20
160.9640365185991
 30
0.0
 40
1.0
 41
0.0
 71
     4
 72
     1
  1
\A1;
 73
     1
 44
1.0
  0
ENDBLK
  5
B2B
330
ADD
100
AcDbEntity
  8
0
100
AcDbBlockEnd
  0
BLOCK
  5
1F99
330
1F64
100
AcDbEntity
  8
0
100
AcDbBlockBegin
  2
*D2
 70
     1
 10
0.0
 20
0.0
 30
0.0
  3
*D2
  1

  0
LINE
  5
2124
330
1F64
100
AcDbEntity
  8
寸法線
 62
     2
370
    -2
100
AcDbLine
 10
387.2159879878006
 20
295.8378476459298
 30
0.0
 11
387.2159879878006
 21
338.8569638284488
 31
0.0
  0
LINE
  5
2125
330
1F64
100
AcDbEntity
  8
寸法線
 62
     2
370
    -2
100
AcDbLine
 10
396.2797299563935
 20
313.4878476459298
 30
0.0
 11
396.2797299563935
 21
338.8569638284488
 31
0.0
  0
LINE
  5
2126
330
1F64
100
AcDbEntity
  8
寸法線
 62
     2
370
    -2
100
AcDbLine
 10
389.7159879878007
 20
337.6069638284489
 30
0.0
 11
393.7797299563935
 21
337.6069638284489
 31
0.0
  0
INSERT
  5
2127
330
1F64
100
AcDbEntity
  8
寸法線
 62
     2
370
    -2
100
AcDbBlockReference
  2
_OPEN
 10
387.2159879878006
 20
337.6069638284489
 30
0.0
 41
2.5
 42
2.5
 43
2.5
 50
180.0
  0
INSERT
  5
2128
330
1F64
100
AcDbEntity
  8
寸法線
 62
     2
370
    -2
100
AcDbBlockReference
  2
_OPEN
 10
396.2797299563935
 20
337.6069638284489
 30
0.0
 41
2.5
 42
2.5
 43
2.5
  0
MTEXT
  5
2129
330
1F64
100
AcDbEntity
  8
寸法線
 62
     6
100
AcDbMText
 10
391.7478589720971
 20
339.4819638284488
 30
0.0
 40
2.5
 41
0.0
 71
     5
 72
     1
  1
\A1;9
  7
STYLE3
 73
     1
 44
1.0
  0
POINT
  5
212A
330
1F64
100
AcDbEntity
  8
DEFPOINTS
 62
     0
100
AcDbPoint
 10
387.2159879878006
 20
295.8378476459298
 30
0.0
  0
POINT
  5
212B
330
1F64
100
AcDbEntity
  8
DEFPOINTS
 62
     0
100
AcDbPoint
 10
396.2797299563935
 20
313.4878476459298
 30
0.0
  0
POINT
  5
212C
330
1F64
100
AcDbEntity
  8
DEFPOINTS
 62
     0
100
AcDbPoint
 10
396.2797299563935
 20
337.6069638284489
 30
0.0
  0
ENDBLK
  5
1FA3
330
1F64
100
AcDbEntity
  8
0
100
AcDbBlockEnd
  0
BLOCK
  5
1FA4
330
1F8D
100
AcDbEntity
  8
0
100
AcDbBlockBegin
  2
*D3
 70
     1
 10
0.0
 20
0.0
 30
0.0
  3
*D3
  1

  0
LINE
  5
212D
330
1F8D
100
AcDbEntity
  8
寸法線
 62
     2
370
    -2
100
AcDbLine
 10
418.1434719249862
 20
295.8378476459296
 30
0.0
 11
418.1434719249862
 21
338.8569638284488
 31
0.0
  0
LINE
  5
212E
330
1F8D
100
AcDbEntity
  8
寸法線
 62
     2
370
    -2
100
AcDbLine
 10
411.5797299563935
 20
337.6069638284489
 30
0.0
 11
415.6434719249863
 21
337.6069638284489
 31
0.0
  0
INSERT
  5
212F
330
1F8D
100
AcDbEntity
  8
寸法線
 62
     2
370
    -2
100
AcDbBlockReference
  2
_OPEN
 10
409.0797299563935
 20
337.6069638284489
 30
0.0
 41
2.5
 42
2.5
 43
2.5
 50
180.0
  0
INSERT
  5
2130
330
1F8D
100
AcDbEntity
  8
寸法線
 62
     2
370
    -2
100
AcDbBlockReference
  2
_OPEN
 10
418.1434719249862
 20
337.6069638284489
 30
0.0
 41
2.5
 42
2.5
 43
2.5
  0
MTEXT
  5
2131
330
1F8D
100
AcDbEntity
  8
寸法線
 62
     6
100
AcDbMText
 10
413.6116009406898
 20
339.4819638284488
 30
0.0
 40
2.5
 41
0.0
 71
     5
 72
     1
  1
\A1;9
  7
STYLE3
 73
     1
 44
1.0
  0
POINT
  5
2132
330
1F8D
100
AcDbEntity
  8
DEFPOINTS
 62
     0
100
AcDbPoint
 10
409.0797299563935
 20
313.4878476459299
 30
0.0
  0
POINT
  5
2133
330
1F8D
100
AcDbEntity
  8
DEFPOINTS
 62
     0
100
AcDbPoint
 10
418.1434719249862
 20
295.8378476459296
 30
0.0
  0
POINT
  5
2134
330
1F8D
100
AcDbEntity
  8
DEFPOINTS
 62
     0
100
AcDbPoint
 10
418.1434719249862
 20
337.6069638284489
 30
0.0
  0
ENDBLK
  5
1FAD
330
1F8D
100
AcDbEntity
  8
0
100
AcDbBlockEnd
  0
BLOCK
  5
20A8
330
20A5
100
AcDbEntity
  8
0
100
AcDbBlockBegin
  2
PC_PCN針
 70
     0
 10
0.0
 20
0.0
 30
0.0
  3
PC_PCN針
  1

  0
HATCH
  5
20C2
330
20A5
100
AcDbEntity
  8
針
 62
     5
100
AcDbHatch
 10
0.0
 20
0.0
 30
0.0
210
0.0
220
0.0
230
1.0
  2
SOLID
 70
     1
 71
     1
 91
        2
 92
        7
 72
     1
 73
     1
 93
        7
 10
-2.023904563850578
 20
-0.2645931338153105
 42
-0.1640812035095904
 10
-1.421638696153195
 20
-0.4784803210162636
 42
-0.0813437861988258
 10
-1.5
 20
0.0
 42
-0.0813437861988211
 10
-1.421638696153195
 20
0.4784803210162352
 42
-0.1640812035095877
 10
-2.023904563850578
 20
0.2645931338153105
 42
0.0
 10
-14.19999999999993
 20
0.07000000000005
 42
0.0
 10
-14.20000000000004
 20
-0.0700000000000216
 42
0.0
 97
        6
330
20C6
330
20C8
330
20C3
330
20C9
330
20C7
330
20CF
 92
        7
 72
     1
 73
     1
 93
        9
 10
1.601307174430758
 20
0.4866168858272318
 42
-0.1053331282509662
 10
1.399713151580613
 20
0.5392616185973793
 42
-0.0921949713546931
 10
1.5
 20
0.0
 42
-0.0921949713546883
 10
1.399713151580613
 20
-0.5392616185973509
 42
-0.1053331282510194
 10
1.601307174430871
 20
-0.4866168858272318
 42
0.0
 10
6.657469727507077
 20
-0.256172195646343
 42
-0.2863987309427536
 10
6.842033426437637
 20
-0.359972204586029
 42
3.911320250910649
 10
6.842033426437637
 20
0.3599722045860858
 42
-0.2863987309427981
 10
6.657469727507077
 20
0.256172195646343
 42
0.0
 97
        8
330
20CD
330
20CA
330
20C5
330
20CF
330
20C4
330
20CB
330
20CE
330
20CC
 75
     0
 76
     1
 47
0.0259966004614645
 98
        2
 10
-6.998752094249084
 20
-0.0094903483859525
 10
3.014397170732763
 20
0.0944959703959967
450
        0
451
        0
460
0.0
461
0.0
452
        1
462
1.0
453
        2
463
0.0
 63
     5
421
      255
463
1.0
 63
    51
421
 16777113
470
LINEAR
  0
LINE
  5
20C3
102
{ACAD_REACTORS
330
20C2
102
}
330
20A5
100
AcDbEntity
  8
針
100
AcDbLine
 10
-14.20000000000004
 20
0.0700000000000216
 30
0.0
 11
-14.20000000000004
 21
-0.0699999999999932
 31
0.0
  0
ARC
  5
20C4
102
{ACAD_REACTORS
330
20C2
102
}
330
20A5
100
AcDbEntity
  8
針
100
AcDbCircle
 10
1.624072039381871
 20
-0.9860983779005323
 30
0.0
 40
0.5
100
AcDbArc
 50
92.60956348104661
 51
116.6614474826241
  0
ARC
  5
20C5
102
{ACAD_REACTORS
330
20C2
102
}
330
20A5
100
AcDbEntity
  8
針
100
AcDbCircle
 10
1.624072039381871
 20
0.9860983779005323
 30
0.0
 40
0.5
100
AcDbArc
 50
243.3385525173759
 51
267.3904365189533
  0
ARC
  5
20C6
102
{ACAD_REACTORS
330
20C2
102
}
330
20A5
100
AcDbEntity
  8
針
100
AcDbCircle
 10
-2.039884094318267
 20
1.264465452967101
 30
0.0
 40
1.0
100
AcDbArc
 50
270.9155986228672
 51
308.1881170613605
  0
ARC
  5
20C7
102
{ACAD_REACTORS
330
20C2
102
}
330
20A5
100
AcDbEntity
  8
針
100
AcDbCircle
 10
-2.039884094318267
 20
-1.264465452967101
 30
0.0
 40
1.0
100
AcDbArc
 50
51.8118829386395
 51
89.08440137713276
  0
LINE
  5
20C8
102
{ACAD_REACTORS
330
20C2
102
}
330
20A5
100
AcDbEntity
  8
針
100
AcDbLine
 10
-14.20000000000004
 20
0.0700000000000216
 30
0.0
 11
-2.023904563850578
 21
0.2645931338153105
 31
0.0
  0
LINE
  5
20C9
102
{ACAD_REACTORS
330
20C2
102
}
330
20A5
100
AcDbEntity
  8
針
100
AcDbLine
 10
-2.023904563850578
 20
-0.2645931338153105
 30
0.0
 11
-14.20000000000004
 21
-0.0699999999999932
 31
0.0
  0
LINE
  5
20CA
102
{ACAD_REACTORS
330
20C2
102
}
330
20A5
100
AcDbEntity
  8
針
100
AcDbLine
 10
1.601307174430758
 20
0.4866168858272318
 30
0.0
 11
6.657469727507077
 21
0.256172195646343
 31
0.0
  0
LINE
  5
20CB
102
{ACAD_REACTORS
330
20C2
102
}
330
20A5
100
AcDbEntity
  8
針
100
AcDbLine
 10
1.601307174430758
 20
-0.4866168858272318
 30
0.0
 11
6.657469727507077
 21
-0.256172195646343
 31
0.0
  0
ARC
  5
20CC
102
{ACAD_REACTORS
330
20C2
102
}
330
20A5
100
AcDbEntity
  8
針
100
AcDbCircle
 10
7.5
 20
0.0
 30
0.0
 40
0.75
100
AcDbArc
 50
208.6829815593726
 51
151.3170184406274
  0
ARC
  5
20CD
102
{ACAD_REACTORS
330
20C2
102
}
330
20A5
100
AcDbEntity
  8
針
100
AcDbCircle
 10
6.666575673487614
 20
0.4559647924756405
 30
0.0
 40
0.2
100
AcDbArc
 50
267.3904365189468
 51
331.3170184406275
  0
ARC
  5
20CE
102
{ACAD_REACTORS
330
20C2
102
}
330
20A5
100
AcDbEntity
  8
針
100
AcDbCircle
 10
6.666575673487614
 20
-0.4559647924756405
 30
0.0
 40
0.2
100
AcDbArc
 50
28.68298155937256
 51
92.60956348105315
  0
CIRCLE
  5
20CF
102
{ACAD_REACTORS
330
20C2
102
}
330
20A5
100
AcDbEntity
  8
外形線
100
AcDbCircle
 10
0.0
 20
0.0
 30
0.0
 40
1.5
  0
CIRCLE
  5
20D0
330
20A5
100
AcDbEntity
  8
外形線
 62
     4
100
AcDbCircle
 10
0.0
 20
0.0
 30
0.0
 40
0.25
  0
ENDBLK
  5
20B8
330
20A5
100
AcDbEntity
  8
0
100
AcDbBlockEnd
  0
ENDSEC
  0
SECTION
  2
ENTITIES
  0
LWPOLYLINE
  5
10B
330
18
100
AcDbEntity
  8
C
100
AcDbPolyline
 90
        5
 70
     0
 43
0.4
 10
236.6915604445414
 20
366.8501752555372
 10
491.6915604445414
 20
366.8501752555372
 10
491.6915604445414
 20
171.8501752555372
 10
236.6915604445414
 20
171.8501752555372
 10
236.6915604445414
 20
366.8501752555372
  0
LINE
  5
16B
330
18
100
AcDbEntity
  8
中心線
 48
0.5
100
AcDbLine
 10
322.0968561735433
 20
332.1156858211839
 30
0.0
 11
322.0968561735433
 21
205.3886712551379
 31
0.0
  0
LINE
  5
16C
330
18
100
AcDbEntity
  8
外形線
100
AcDbLine
 10
319.0968561735433
 20
328.6340000686365
 30
0.0
 11
325.0968561735433
 21
328.6340000686365
 31
0.0
  0
LINE
  5
16D
330
18
100
AcDbEntity
  8
外形線
100
AcDbLine
 10
319.0968561735433
 20
313.4378476459299
 30
0.0
 11
325.0968561735433
 21
313.4378476459299
 31
0.0
  0
LINE
  5
16E
330
18
100
AcDbEntity
  8
外形線
100
AcDbLine
 10
325.0968561735433
 20
328.6340000686365
 30
0.0
 11
325.0968561735433
 21
313.4378476459299
 31
0.0
  0
LINE
  5
16F
330
18
100
AcDbEntity
  8
外形線
100
AcDbLine
 10
319.0968561735433
 20
328.6340000686365
 30
0.0
 11
319.0968561735433
 21
313.4378476459299
 31
0.0
  0
ARC
  5
170
330
18
100
AcDbEntity
  8
外形線
100
AcDbCircle
 10
322.0968561735433
 20
323.4378476459299
 30
0.0
 40
6.0
100
AcDbArc
 50
60.0
 51
120.0
  0
CIRCLE
  5
172
330
18
100
AcDbEntity
  8
外形線
100
AcDbCircle
 10
322.0968561735433
 20
295.8378476459299
 30
0.0
 40
17.5
  0
LINE
  5
17D
330
18
100
AcDbEntity
  8
中心線
 48
0.5
100
AcDbLine
 10
318.3482513572211
 20
208.9378476459299
 30
0.0
 11
326.2279047729319
 21
208.9378476459299
 31
0.0
  0
LINE
  5
305
330
18
100
AcDbEntity
  8
中心線
 48
0.5
100
AcDbLine
 10
301.2376986353491
 20
295.8378476459299
 30
0.0
 11
342.7420587646341
 21
295.8378476459299
 31
0.0
  0
CIRCLE
  5
307
330
18
100
AcDbEntity
  8
外形線
100
AcDbCircle
 10
322.0968561735433
 20
295.8378476459299
 30
0.0
 40
15.0
  0
TEXT
  5
35E
330
18
100
AcDbEntity
  8
文字
100
AcDbText
 10
324.5306403248239
 20
295.4285078613548
 30
0.0
 40
0.8
  1
0.01mm
  7
STYLE3
100
AcDbText
  0
TEXT
  5
35F
330
18
100
AcDbEntity
  8
文字
100
AcDbText
 10
315.1564216888009
 20
295.4637965966805
 30
0.0
 40
0.8
  1
Jeweled
  7
STYLE3
100
AcDbText
  0
TEXT
  5
363
330
18
100
AcDbEntity
  8
文字
100
AcDbText
 10
319.3953165601049
 20
290.805731303549
 30
0.0
 40
1.0
  1
PC-1L
  7
STYLE3
100
AcDbText
  0
TEXT
  5
368
330
18
100
AcDbEntity
  8
文字
100
AcDbText
 10
318.6528487656105
 20
298.8514797017653
 30
0.0
 40
1.0
  1
PIC-TEST
  7
STYLE3
100
AcDbText
  0
INSERT
  5
B43
330
18
100
AcDbEntity
  8
文字
100
AcDbBlockReference
  2
ROGO1
 10
301.1334577592202
 20
275.1168679656769
 30
0.0
  0
INSERT
  5
B44
330
18
100
AcDbEntity
  8
文字
100
AcDbBlockReference
  2
ROGO1
 10
301.1095809474122
 20
275.1436630917189
 30
0.0
  0
LINE
  5
BF9
330
18
100
AcDbEntity
  8
外形線
100
AcDbLine
 10
323.8468561735433
 20
248.63784764593
 30
0.0
 11
320.8468561735433
 21
248.6378476459299
 31
0.0
  0
LINE
  5
C02
330
18
100
AcDbEntity
  8
外形線
100
AcDbLine
 10
322.7979928334644
 20
209.6519904887842
 30
0.0
 11
321.3968561735433
 21
209.6519904887843
 31
0.0
  0
LINE
  5
C12
330
18
100
AcDbEntity
  8
外形線
100
AcDbLine
 10
320.5968561735433
 20
221.9378476459299
 30
0.0
 11
321.3968561735433
 21
209.6519904887842
 31
0.0
  0
LINE
  5
C13
330
18
100
AcDbEntity
  8
外形線
100
AcDbLine
 10
323.5968561735433
 20
221.9378476459299
 30
0.0
 11
322.7968561735433
 21
209.6519904887842
 31
0.0
  0
ARC
  5
C14
330
18
100
AcDbEntity
  8
外形線
100
AcDbCircle
 10
322.0968561735433
 20
208.9378476459299
 30
0.0
 40
1.0
100
AcDbArc
 50
134.427004000808
 51
45.57299599919653
  0
LINE
  5
C24
330
18
100
AcDbEntity
  8
隠れ線
 62
     4
 48
0.3
100
AcDbLine
 10
322.0968561735433
 20
209.8848826235249
 30
0.0
 11
322.7968561735433
 21
209.6519904887842
 31
0.0
  0
LINE
  5
C25
330
18
100
AcDbEntity
  8
隠れ線
 62
     4
 48
0.3
100
AcDbLine
 10
322.0968561735433
 20
209.8848826235249
 30
0.0
 11
321.3968561735433
 21
209.6519904887842
 31
0.0
  0
LINE
  5
C4D
330
18
100
AcDbEntity
  8
中心線
 48
0.5
100
AcDbLine
 10
314.9773306976757
 20
251.8378476459299
 30
0.0
 11
329.296248506986
 21
251.8378476459299
 31
0.0
  0
LINE
  5
C4E
330
18
100
AcDbEntity
  8
外形線
100
AcDbLine
 10
318.2968561735433
 20
248.3378476459299
 30
0.0
 11
319.9468561735433
 21
248.3378476459299
 31
0.0
  0
LINE
  5
C51
330
18
100
AcDbEntity
  8
外形線
100
AcDbLine
 10
319.2698224327231
 20
313.4878476459298
 30
0.0
 11
324.9238899143636
 21
313.4878476459298
 31
0.0
  0
LINE
  5
C56
330
18
100
AcDbEntity
  8
外形線
100
AcDbLine
 10
324.8820634623848
 20
313.1147866212862
 30
0.0
 11
325.010552160051
 21
313.3379512014431
 31
0.0
  0
LINE
  5
C57
330
18
100
AcDbEntity
  8
外形線
100
AcDbLine
 10
319.3116488847018
 20
313.1147866212862
 30
0.0
 11
319.1831601870356
 21
313.3379512014431
 31
0.0
  0
ARC
  5
C58
330
18
100
AcDbEntity
  8
外形線
100
AcDbCircle
 10
319.2698224327231
 20
313.3878476459298
 30
0.0
 40
0.1
100
AcDbArc
 50
89.99999999999944
 51
209.9315118405063
  0
ARC
  5
C59
330
18
100
AcDbEntity
  8
外形線
100
AcDbCircle
 10
324.9238899143636
 20
313.3878476459298
 30
0.0
 40
0.1
100
AcDbArc
 50
330.0684881594922
 51
90.0
  0
LINE
  5
C5A
330
18
100
AcDbEntity
  8
外形線
100
AcDbLine
 10
325.8968561735434
 20
278.7554005144444
 30
0.0
 11
325.8968561735434
 21
248.3378476459299
 31
0.0
  0
LINE
  5
C5B
330
18
100
AcDbEntity
  8
外形線
100
AcDbLine
 10
318.2968561735433
 20
278.7554005144443
 30
0.0
 11
318.2968561735433
 21
248.3378476459299
 31
0.0
  0
LINE
  5
C5C
330
18
100
AcDbEntity
  8
外形線
100
AcDbLine
 10
318.2968561735428
 20
277.83784764593
 30
0.0
 11
325.8968561735429
 21
277.8378476459299
 31
0.0
  0
LINE
  5
C5D
330
18
100
AcDbEntity
  8
外形線
100
AcDbLine
 10
319.7968561735433
 20
278.4896488921688
 30
0.0
 11
319.7968561735433
 21
268.2378476459299
 31
0.0
  0
LINE
  5
C5E
330
18
100
AcDbEntity
  8
中心線
100
AcDbLine
 10
319.5893012567088
 20
274.83784764593
 30
0.0
 11
322.6141157614415
 21
274.8378476459299
 31
0.0
  0
LINE
  5
C5F
330
18
100
AcDbEntity
  8
中心線
100
AcDbLine
 10
321.2968561735433
 20
276.1671290198951
 30
0.0
 11
321.2968561735433
 21
273.3243322924854
 31
0.0
  0
CIRCLE
  5
C60
330
18
100
AcDbEntity
  8
外形線
100
AcDbCircle
 10
321.2968561735433
 20
274.8378476459299
 30
0.0
 40
0.85
  0
LINE
  5
C80
330
18
100
AcDbEntity
  8
外形線
100
AcDbLine
 10
318.8968561735434
 20
268.2378476459299
 30
0.0
 11
324.8968561735434
 21
268.2378476459299
 31
0.0
  0
LINE
  5
C81
330
18
100
AcDbEntity
  8
外形線
100
AcDbLine
 10
318.8968561735434
 20
267.7378476459299
 30
0.0
 11
324.8968561735435
 21
267.7378476459299
 31
0.0
  0
LINE
  5
C82
330
18
100
AcDbEntity
  8
外形線
100
AcDbLine
 10
318.8968561735434
 20
254.2378476459299
 30
0.0
 11
324.8968561735434
 21
254.23784764593
 31
0.0
  0
LINE
  5
C83
330
18
100
AcDbEntity
  8
外形線
100
AcDbLine
 10
324.8968561735434
 20
268.2378476459299
 30
0.0
 11
324.8968561735434
 21
254.23784764593
 31
0.0
  0
LINE
  5
C84
330
18
100
AcDbEntity
  8
外形線
100
AcDbLine
 10
318.8968561735434
 20
268.2378476459299
 30
0.0
 11
318.8968561735434
 21
254.2378476459299
 31
0.0
  0
LINE
  5
C88
330
18
100
AcDbEntity
  8
外形線
100
AcDbLine
 10
325.8968561735434
 20
248.3378476459299
 30
0.0
 11
324.2468561735433
 21
248.3378476459299
 31
0.0
  0
LINE
  5
C8F
330
18
100
AcDbEntity
  8
外形線
100
AcDbLine
 10
318.2968561735433
 20
262.0378476459298
 30
0.0
 11
318.8968561735434
 21
262.0378476459298
 31
0.0
  0
LINE
  5
C90
330
18
100
AcDbEntity
  8
外形線
 62
     4
100
AcDbLine
 10
324.8968561735434
 20
268.2378476459299
 30
0.0
 11
325.8968561735434
 21
268.2378476459299
 31
0.0
  0
LINE
  5
C91
330
18
100
AcDbEntity
  8
外形線
 62
     4
100
AcDbLine
 10
318.8968561735434
 20
268.2378476459299
 30
0.0
 11
318.2968561735433
 21
268.2378476459299
 31
0.0
  0
LINE
  5
C94
330
18
100
AcDbEntity
  8
外形線
100
AcDbLine
 10
324.2468561735433
 20
248.3378476459299
 30
0.0
 11
324.2022280777846
 21
253.2469381793867
 31
0.0
  0
LINE
  5
C95
330
18
100
AcDbEntity
  8
外形線
100
AcDbLine
 10
319.9468561735433
 20
248.3378476459299
 30
0.0
 11
319.9914842693019
 21
253.2469381793867
 31
0.0
  0
ARC
  5
C99
330
18
100
AcDbEntity
  8
外形線
100
AcDbCircle
 10
323.2022693975375
 20
253.23784764593
 30
0.0
 40
1.0
100
AcDbArc
 50
0.5208563745014782
 51
90.00000000000019
  0
ARC
  5
C9A
330
18
100
AcDbEntity
  8
外形線
100
AcDbCircle
 10
320.9914429495491
 20
253.23784764593
 30
0.0
 40
1.0
100
AcDbArc
 50
89.99999999999982
 51
179.4791436254985
  0
LINE
  5
CAE
330
18
100
AcDbEntity
  8
外形線
100
AcDbLine
 10
323.8468561735433
 20
254.0023788017363
 30
0.0
 11
323.8468561735433
 21
248.63784764593
 31
0.0
  0
LINE
  5
CAF
330
18
100
AcDbEntity
  8
外形線
100
AcDbLine
 10
320.3468561735433
 20
254.0023788017363
 30
0.0
 11
320.3468561735433
 21
249.1378476459299
 31
0.0
  0
LINE
  5
CB0
330
18
100
AcDbEntity
  8
外形線
100
AcDbLine
 10
320.8468561735433
 20
254.227339770307
 30
0.0
 11
320.8468561735433
 21
248.6378476459299
 31
0.0
  0
LINE
  5
CB2
330
18
100
AcDbEntity
  8
外形線
100
AcDbLine
 10
320.3468561735433
 20
249.1378476459299
 30
0.0
 11
320.8468561735433
 21
249.1378476459299
 31
0.0
  0
LINE
  5
CBB
330
18
100
AcDbEntity
  8
外形線
100
AcDbLine
 10
317.0968561735433
 20
253.8378476459299
 30
0.0
 11
317.0968561735433
 21
249.8378476459299
 31
0.0
  0
LINE
  5
CBC
330
18
100
AcDbEntity
  8
外形線
100
AcDbLine
 10
317.5968561735432
 20
254.8378476459299
 30
0.0
 11
317.5968561735432
 21
248.8378476459299
 31
0.0
  0
LINE
  5
CBD
330
18
100
AcDbEntity
  8
外形線
100
AcDbLine
 10
317.5968561735432
 20
249.8378476459299
 30
0.0
 11
317.0968561735433
 21
249.8378476459299
 31
0.0
  0
LINE
  5
CBE
330
18
100
AcDbEntity
  8
外形線
100
AcDbLine
 10
318.2968561735432
 20
248.8378476459299
 30
0.0
 11
317.5968561735432
 21
248.8378476459299
 31
0.0
  0
LINE
  5
CBF
330
18
100
AcDbEntity
  8
外形線
100
AcDbLine
 10
317.5968561735432
 20
253.8378476459299
 30
0.0
 11
317.0968561735433
 21
253.8378476459299
 31
0.0
  0
LINE
  5
CC0
330
18
100
AcDbEntity
  8
外形線
100
AcDbLine
 10
318.2968561735432
 20
254.8378476459299
 30
0.0
 11
317.5968561735432
 21
254.8378476459299
 31
0.0
  0
INSERT
  5
FCB
330
18
100
AcDbEntity
  8
文字
100
AcDbBlockReference
  2
ROGO1
 10
579.0605083803766
 20
282.754069537204
 30
0.0
  0
INSERT
  5
FCC
330
18
100
AcDbEntity
  8
文字
100
AcDbBlockReference
  2
ROGO1
 10
579.0366315685687
 20
282.780864663246
 30
0.0
  0
LINE
  5
11EB
330
18
100
AcDbEntity
  8
外形線
100
AcDbLine
 10
394.2627387160661
 20
267.4094586560039
 30
0.0
 11
396.9377142678355
 21
254.23784764593
 31
0.0
  0
LINE
  5
11EC
330
18
100
AcDbEntity
  8
外形線
100
AcDbLine
 10
395.8797299563935
 20
267.7378476459302
 30
0.0
 11
399.2383377799212
 21
251.2000233066989
 31
0.0
  0
LINE
  5
11ED
330
18
100
AcDbEntity
  8
外形線
100
AcDbLine
 10
409.0797299563936
 20
267.7378476459298
 30
0.0
 11
406.1211221328656
 21
251.2000233066989
 31
0.0
  0
LINE
  5
11EE
330
18
100
AcDbEntity
  8
中心線
 48
0.5
100
AcDbLine
 10
402.6797299563935
 20
331.5964032304924
 30
0.0
 11
402.6797299563935
 21
206.0502516227413
 31
0.0
  0
LINE
  5
1203
330
18
100
AcDbEntity
  8
中心線
 48
0.5
100
AcDbLine
 10
395.2466151951338
 20
251.8378476459299
 30
0.0
 11
409.9815309674739
 21
251.8378476459299
 31
0.0
  0
ARC
  5
1204
330
18
100
AcDbEntity
  8
外形線
100
AcDbCircle
 10
402.6797299563935
 20
251.8378476459298
 30
0.0
 40
3.0
100
AcDbArc
 50
54.59406822686052
 51
215.4059317731395
  0
ARC
  5
1205
330
18
100
AcDbEntity
  8
外形線
100
AcDbCircle
 10
402.6797299563935
 20
251.8378476459298
 30
0.0
 40
3.0
100
AcDbArc
 50
234.5940682268605
 51
35.4059317731395
  0
LINE
  5
1206
330
18
100
AcDbEntity
  8
外形線
100
AcDbLine
 10
404.801050299953
 20
253.2520612083029
 30
0.0
 11
405.124933413322
 21
253.5759443216718
 31
0.0
  0
ARC
  5
1207
330
18
100
AcDbEntity
  8
外形線
100
AcDbCircle
 10
402.47913132201
 20
252.0775180670225
 30
0.0
 40
3.745046684690569
100
AcDbArc
 50
273.0704445438476
 51
346.7866708910927
  0
LINE
  5
1208
330
18
100
AcDbEntity
  8
外形線
100
AcDbLine
 10
401.2655163940204
 20
249.7165273023703
 30
0.0
 11
400.5584096128338
 21
250.4236340835568
 31
0.0
  0
LINE
  5
1209
330
18
100
AcDbEntity
  8
外形線
100
AcDbLine
 10
401.2655163940204
 20
249.7165273023703
 30
0.0
 11
400.9416332806516
 21
249.3926441890014
 31
0.0
  0
LINE
  5
120A
330
18
100
AcDbEntity
  8
外形線
100
AcDbLine
 10
400.5584096128338
 20
250.4236340835568
 30
0.0
 11
400.234526499465
 21
250.0997509701879
 31
0.0
  0
LINE
  5
120B
330
18
100
AcDbEntity
  8
外形線
100
AcDbLine
 10
404.801050299953
 20
253.2520612083029
 30
0.0
 11
404.0939435187666
 21
253.9591679894895
 31
0.0
  0
LINE
  5
120C
330
18
100
AcDbEntity
  8
外形線
100
AcDbLine
 10
404.0939435187666
 20
253.9591679894895
 30
0.0
 11
404.4178266321353
 21
254.2830511028583
 31
0.0
  0
LINE
  5
120D
330
18
100
AcDbEntity
  8
外形線
100
AcDbLine
 10
401.2655163940204
 20
250.4236340835568
 30
0.0
 11
404.0939435187666
 21
253.252061208303
 31
0.0
  0
ARC
  5
120E
330
18
100
AcDbEntity
  8
外形線
100
AcDbCircle
 10
402.8803285907769
 20
252.0775180670225
 30
0.0
 40
3.745046684690569
100
AcDbArc
 50
193.2133291089073
 51
266.9295554561525
  0
LINE
  5
120F
330
18
100
AcDbEntity
  8
外形線
100
AcDbLine
 10
396.9377142678355
 20
254.23784764593
 30
0.0
 11
398.6213968581314
 21
254.23784764593
 31
0.0
  0
CIRCLE
  5
1210
330
18
100
AcDbEntity
  8
外形線
100
AcDbCircle
 10
402.6797299563935
 20
251.8378476459299
 30
0.0
 40
2.0
  0
LINE
  5
121B
330
18
100
AcDbEntity
  8
外形線
100
AcDbLine
 10
410.7297299563935
 20
277.8378476459298
 30
0.0
 11
410.7297299563935
 21
269.8878476459297
 31
0.0
  0
LINE
  5
121C
330
18
100
AcDbEntity
  8
外形線
100
AcDbLine
 10
396.2797299563935
 20
313.4878476459298
 30
0.0
 11
396.2797299563935
 21
277.83784764593
 31
0.0
  0
LINE
  5
121D
330
18
100
AcDbEntity
  8
外形線
100
AcDbLine
 10
409.0797299563935
 20
313.4878476459299
 30
0.0
 11
409.0797299563936
 21
267.7378476459298
 31
0.0
  0
LINE
  5
121E
330
18
100
AcDbEntity
  8
外形線
100
AcDbLine
 10
403.2199212249429
 20
285.1940727609481
 30
0.0
 11
402.139538687844
 21
286.4816225309118
 31
0.0
  0
LINE
  5
121F
330
18
100
AcDbEntity
  8
外形線
100
AcDbLine
 10
402.0359550714116
 20
285.2976563773805
 30
0.0
 11
403.3235048413753
 21
286.3780389144794
 31
0.0
  0
ARC
  5
1220
330
18
100
AcDbEntity
  8
外形線
100
AcDbCircle
 10
402.6797299563935
 20
285.8378476459299
 30
0.0
 40
2.5
100
AcDbArc
 50
355.0
 51
175.0
  0
CIRCLE
  5
1221
330
18
100
AcDbEntity
  8
外形線
100
AcDbCircle
 10
402.6797299563935
 20
285.8378476459299
 30
0.0
 40
1.5
  0
LINE
  5
1223
330
18
100
AcDbEntity
  8
外形線
100
AcDbLine
 10
394.2555167400275
 20
267.4472767805948
 30
0.0
 11
395.8797299563935
 21
267.7378476459302
 31
0.0
  0
ARC
  5
122C
330
18
100
AcDbEntity
  8
外形線
100
AcDbCircle
 10
401.8517504002907
 20
276.3739980140584
 30
0.0
 40
1.5
100
AcDbArc
 50
175.0
 51
355.0
  0
LINE
  5
122D
330
18
100
AcDbEntity
  8
外形線
100
AcDbLine
 10
395.8797299563936
 20
277.8378476459299
 30
0.0
 11
395.8797299563935
 21
267.7378476459302
 31
0.0
  0
LINE
  5
122E
330
18
100
AcDbEntity
  8
外形線
100
AcDbLine
 10
409.0797299563936
 20
268.2378476459299
 30
0.0
 11
410.7297299563935
 21
269.8878476459297
 31
0.0
  0
LINE
  5
122F
330
18
100
AcDbEntity
  8
外形線
100
AcDbLine
 10
405.1702167016228
 20
285.6199582890608
 30
0.0
 11
403.3460424474283
 21
276.2432643999369
 31
0.0
  0
LINE
  5
1230
330
18
100
AcDbEntity
  8
中心線
 48
0.5
100
AcDbLine
 10
397.8464617787807
 20
285.8378476459299
 30
0.0
 11
407.2552142381456
 21
285.8378476459299
 31
0.0
  0
LINE
  5
1231
330
18
100
AcDbEntity
  8
外形線
100
AcDbLine
 10
400.1892432111641
 20
286.055737002799
 30
0.0
 11
400.3574583531531
 21
276.5047316281799
 31
0.0
  0
LINE
  5
1232
330
18
100
AcDbEntity
  8
外形線
100
AcDbLine
 10
395.8797299563936
 20
277.8378476459299
 30
0.0
 11
396.2797299563935
 21
277.8378476459299
 31
0.0
  0
LINE
  5
1233
330
18
100
AcDbEntity
  8
中心線
 48
0.5
100
AcDbLine
 10
384.2596261729736
 20
295.8378476459299
 30
0.0
 11
420.6396417948341
 21
295.8378476459299
 31
0.0
  0
CIRCLE
  5
1244
330
18
100
AcDbEntity
  8
外形線
100
AcDbCircle
 10
402.6797299563935
 20
295.8378476459299
 30
0.0
 40
1.0
  0
LINE
  5
1249
330
18
100
AcDbEntity
  8
外形線
100
AcDbLine
 10
405.6797299563935
 20
328.6340000686365
 30
0.0
 11
405.6797299563935
 21
313.4378476459298
 31
0.0
  0
LINE
  5
124A
330
18
100
AcDbEntity
  8
外形線
100
AcDbLine
 10
399.6797299563935
 20
328.6340000686365
 30
0.0
 11
399.6797299563935
 21
313.4378476459298
 31
0.0
  0
LINE
  5
1253
330
18
100
AcDbEntity
  8
外形線
100
AcDbLine
 10
399.6797299563935
 20
313.4378476459298
 30
0.0
 11
405.6797299563935
 21
313.4378476459298
 31
0.0
  0
LINE
  5
1254
330
18
100
AcDbEntity
  8
外形線
100
AcDbLine
 10
396.2797299563935
 20
313.4878476459298
 30
0.0
 11
409.0797299563935
 21
313.4878476459299
 31
0.0
  0
LINE
  5
1255
330
18
100
AcDbEntity
  8
外形線
100
AcDbLine
 10
409.0797299563935
 20
311.8378476459298
 30
0.0
 11
396.2797299563935
 21
311.8378476459299
 31
0.0
  0
POINT
  5
1257
330
18
100
AcDbEntity
  8
DEFPOINTS
  6
ByBlock
 62
     0
100
AcDbPoint
 10
409.0797299563935
 20
313.4878476459299
 30
0.0
  0
LINE
  5
1259
330
18
100
AcDbEntity
  8
外形線
100
AcDbLine
 10
399.6797299563935
 20
328.6340000686365
 30
0.0
 11
405.6797299563935
 21
328.6340000686365
 31
0.0
  0
ARC
  5
125A
330
18
100
AcDbEntity
  8
外形線
100
AcDbCircle
 10
402.6797299563935
 20
323.4378476459298
 30
0.0
 40
6.0
100
AcDbArc
 50
60.0
 51
120.0
  0
LINE
  5
12CA
330
18
100
AcDbEntity
  8
外形線
100
AcDbLine
 10
390.2797299563934
 20
313.3378476459299
 30
0.0
 11
393.4297299563934
 21
313.3378476459299
 31
0.0
  0
LINE
  5
12CC
330
18
100
AcDbEntity
  8
外形線
100
AcDbLine
 10
390.0797299563935
 20
313.1378476459299
 30
0.0
 11
390.0797299563933
 21
278.5378476459301
 31
0.0
  0
LINE
  5
12CD
330
18
100
AcDbEntity
  8
外形線
100
AcDbLine
 10
393.7797299563935
 20
312.9878476459298
 30
0.0
 11
393.7797299563934
 21
278.68784764593
 31
0.0
  0
LINE
  5
12CE
330
18
100
AcDbEntity
  8
外形線
100
AcDbLine
 10
394.7797299563934
 20
312.9878476459299
 30
0.0
 11
394.7797299563934
 21
278.6878476459299
 31
0.0
  0
LINE
  5
12CF
330
18
100
AcDbEntity
  8
外形線
 48
0.5
100
AcDbLine
 10
390.0797299563934
 20
313.1378476459299
 30
0.0
 11
390.2797299563934
 21
313.3378476459299
 31
0.0
  0
LINE
  5
12D0
330
18
100
AcDbEntity
  8
外形線
100
AcDbLine
 10
393.4297299563934
 20
313.3378476459299
 30
0.0
 11
393.7797299563934
 21
312.9878476459299
 31
0.0
  0
LINE
  5
12EF
330
18
100
AcDbEntity
  8
外形線
100
AcDbLine
 10
393.4297299563934
 20
278.3378476459299
 30
0.0
 11
393.7797299563934
 21
278.6878476459299
 31
0.0
  0
LINE
  5
12F0
330
18
100
AcDbEntity
  8
外形線
 48
0.5
100
AcDbLine
 10
390.0797299563934
 20
278.5378476459299
 30
0.0
 11
390.2797299563934
 21
278.3378476459299
 31
0.0
  0
LINE
  5
12F1
330
18
100
AcDbEntity
  8
外形線
100
AcDbLine
 10
390.2797299563934
 20
278.3378476459299
 30
0.0
 11
393.4297299563934
 21
278.3378476459299
 31
0.0
  0
LINE
  5
12F5
330
18
100
AcDbEntity
  8
外形線
100
AcDbLine
 10
389.5797299563934
 20
312.3378476459298
 30
0.0
 11
389.5797299563934
 21
279.33784764593
 31
0.0
  0
LINE
  5
12FF
330
18
100
AcDbEntity
  8
外形線
100
AcDbLine
 10
393.7797299563934
 20
312.9878476459298
 30
0.0
 11
394.7797299563934
 21
312.9878476459299
 31
0.0
  0
LINE
  5
1300
330
18
100
AcDbEntity
  8
外形線
100
AcDbLine
 10
393.7797299563934
 20
278.6878476459299
 30
0.0
 11
394.7797299563934
 21
278.6878476459299
 31
0.0
  0
LINE
  5
1308
330
18
100
AcDbEntity
  8
外形線
100
AcDbLine
 10
389.5797299563934
 20
312.3378476459299
 30
0.0
 11
390.0797299563935
 21
312.8378476459299
 31
0.0
  0
LINE
  5
1309
330
18
100
AcDbEntity
  8
外形線
100
AcDbLine
 10
389.5797299563934
 20
279.3378476459299
 30
0.0
 11
390.0797299563935
 21
278.8378476459299
 31
0.0
  0
LINE
  5
1312
330
18
100
AcDbEntity
  8
外形線
100
AcDbLine
 10
390.0797299563935
 20
312.6378476459299
 30
0.0
 11
393.7797299563934
 21
312.6378476459299
 31
0.0
  0
LINE
  5
1313
330
18
100
AcDbEntity
  8
外形線
100
AcDbLine
 10
390.0797299563935
 20
311.9378476459299
 30
0.0
 11
393.7797299563934
 21
311.9378476459299
 31
0.0
  0
LINE
  5
1314
330
18
100
AcDbEntity
  8
外形線
100
AcDbLine
 10
390.0797299563935
 20
311.1378476459299
 30
0.0
 11
393.7797299563934
 21
311.1378476459299
 31
0.0
  0
LINE
  5
1315
330
18
100
AcDbEntity
  8
外形線
100
AcDbLine
 10
390.0797299563935
 20
310.3378476459299
 30
0.0
 11
393.7797299563934
 21
310.3378476459299
 31
0.0
  0
LINE
  5
1316
330
18
100
AcDbEntity
  8
外形線
100
AcDbLine
 10
390.0797299563935
 20
309.4378476459299
 30
0.0
 11
393.7797299563934
 21
309.4378476459299
 31
0.0
  0
LINE
  5
1328
330
18
100
AcDbEntity
  8
外形線
100
AcDbLine
 10
390.0797299563934
 20
296.5378476459299
 30
0.0
 11
393.7797299563934
 21
296.5378476459299
 31
0.0
  0
LINE
  5
1329
330
18
100
AcDbEntity
  8
外形線
100
AcDbLine
 10
390.0797299563934
 20
295.1378476459299
 30
0.0
 11
393.7797299563934
 21
295.1378476459299
 31
0.0
  0
LINE
  5
132A
330
18
100
AcDbEntity
  8
外形線
100
AcDbLine
 10
390.0797299563934
 20
297.3378476459299
 30
0.0
 11
393.7797299563934
 21
297.3378476459299
 31
0.0
  0
LINE
  5
132B
330
18
100
AcDbEntity
  8
外形線
100
AcDbLine
 10
390.0797299563934
 20
294.3378476459299
 30
0.0
 11
393.7797299563934
 21
294.3378476459299
 31
0.0
  0
LINE
  5
132C
330
18
100
AcDbEntity
  8
外形線
100
AcDbLine
 10
390.0797299563933
 20
295.8378476459299
 30
0.0
 11
393.7797299563933
 21
295.8378476459299
 31
0.0
  0
LINE
  5
132D
330
18
100
AcDbEntity
  8
外形線
100
AcDbLine
 10
390.0797299563935
 20
282.2378476459299
 30
0.0
 11
393.7797299563934
 21
282.2378476459299
 31
0.0
  0
LINE
  5
132E
330
18
100
AcDbEntity
  8
外形線
100
AcDbLine
 10
390.0797299563935
 20
281.3378476459299
 30
0.0
 11
393.7797299563934
 21
281.3378476459299
 31
0.0
  0
LINE
  5
132F
330
18
100
AcDbEntity
  8
外形線
100
AcDbLine
 10
390.0797299563935
 20
280.5378476459299
 30
0.0
 11
393.7797299563934
 21
280.53784764593
 31
0.0
  0
LINE
  5
1330
330
18
100
AcDbEntity
  8
外形線
100
AcDbLine
 10
390.0797299563935
 20
279.7378476459299
 30
0.0
 11
393.7797299563934
 21
279.7378476459299
 31
0.0
  0
LINE
  5
1331
330
18
100
AcDbEntity
  8
外形線
100
AcDbLine
 10
390.0797299563935
 20
279.0378476459299
 30
0.0
 11
393.7797299563934
 21
279.0378476459299
 31
0.0
  0
LINE
  5
1336
330
18
100
AcDbEntity
  8
外形線
100
AcDbLine
 10
394.7797299563934
 20
310.8378476459299
 30
0.0
 11
395.2797299563934
 21
310.8378476459299
 31
0.0
  0
ARC
  5
1337
330
18
100
AcDbEntity
  8
外形線
100
AcDbCircle
 10
395.2797299563934
 20
309.8378476459299
 30
0.0
 40
1.0
100
AcDbArc
 50
0.0000000000002036
 51
90.0
  0
ARC
  5
1338
330
18
100
AcDbEntity
  8
外形線
100
AcDbCircle
 10
395.2797299563934
 20
281.8378476459299
 30
0.0
 40
1.0
100
AcDbArc
 50
270.0
 51
359.9999999999998
  0
LINE
  5
1339
330
18
100
AcDbEntity
  8
外形線
100
AcDbLine
 10
394.7797299563934
 20
280.8378476459299
 30
0.0
 11
395.2797299563934
 21
280.8378476459299
 31
0.0
  0
ARC
  5
133C
330
18
100
AcDbEntity
  8
外形線
100
AcDbCircle
 10
449.5950195723777
 20
295.8378476459298
 30
0.0
 40
62.37903158457702
100
AcDbArc
 50
166.4545064755762
 51
193.5454935244236
  0
LINE
  5
1343
330
18
100
AcDbEntity
  8
外形線
100
AcDbLine
 10
389.4371993185042
 20
310.8309912713727
 30
0.0
 11
389.5797299563934
 21
310.8309912713727
 31
0.0
  0
ARC
  5
1345
330
18
100
AcDbEntity
  8
外形線
100
AcDbCircle
 10
389.4371993185042
 20
310.3309912713727
 30
0.0
 40
0.5
100
AcDbArc
 50
89.99999999999349
 51
166.4545064755751
  0
ARC
  5
1346
330
18
100
AcDbEntity
  8
外形線
100
AcDbCircle
 10
389.4371993185042
 20
281.3447040204871
 30
0.0
 40
0.5
100
AcDbArc
 50
193.5454935244249
 51
270.0000000000065
  0
LINE
  5
1347
330
18
100
AcDbEntity
  8
外形線
100
AcDbLine
 10
389.4371993185042
 20
280.8447040204871
 30
0.0
 11
389.5797299563934
 21
280.8447040204871
 31
0.0
  0
LINE
  5
1348
330
18
100
AcDbEntity
  8
外形線
100
AcDbLine
 10
319.9832198099069
 20
252.3378476459299
 30
0.0
 11
320.3468561735433
 21
252.3378476459299
 31
0.0
  0
LINE
  5
1349
330
18
100
AcDbEntity
  8
外形線
100
AcDbLine
 10
319.974128900816
 20
251.3378476459299
 30
0.0
 11
320.3468561735434
 21
251.3378476459299
 31
0.0
  0
LINE
  5
134A
330
18
100
AcDbEntity
  8
外形線
100
AcDbLine
 10
323.8468561735433
 20
252.3378476459299
 30
0.0
 11
324.2104925371797
 21
252.3378476459299
 31
0.0
  0
LINE
  5
134B
330
18
100
AcDbEntity
  8
外形線
100
AcDbLine
 10
323.8468561735433
 20
251.3378476459299
 30
0.0
 11
324.2195834462705
 21
251.3378476459299
 31
0.0
  0
LINE
  5
138E
330
18
100
AcDbEntity
  8
外形線
100
AcDbLine
 10
326.5968561735434
 20
254.8378476459299
 30
0.0
 11
326.5968561735434
 21
248.8378476459299
 31
0.0
  0
LINE
  5
138F
330
18
100
AcDbEntity
  8
外形線
100
AcDbLine
 10
327.0968561735433
 20
253.8378476459299
 30
0.0
 11
327.0968561735433
 21
249.8378476459299
 31
0.0
  0
LINE
  5
1390
330
18
100
AcDbEntity
  8
外形線
100
AcDbLine
 10
325.8968561735434
 20
248.8378476459299
 30
0.0
 11
326.5968561735434
 21
248.8378476459299
 31
0.0
  0
LINE
  5
1391
330
18
100
AcDbEntity
  8
外形線
100
AcDbLine
 10
326.5968561735434
 20
249.8378476459299
 30
0.0
 11
327.0968561735433
 21
249.8378476459299
 31
0.0
  0
LINE
  5
1392
330
18
100
AcDbEntity
  8
外形線
100
AcDbLine
 10
325.8968561735434
 20
254.8378476459299
 30
0.0
 11
326.5968561735434
 21
254.8378476459299
 31
0.0
  0
LINE
  5
1393
330
18
100
AcDbEntity
  8
外形線
100
AcDbLine
 10
326.5968561735434
 20
253.8378476459299
 30
0.0
 11
327.0968561735433
 21
253.8378476459299
 31
0.0
  0
POINT
  5
13FC
330
18
100
AcDbEntity
  8
DEFPOINTS
  6
ByBlock
 62
     0
100
AcDbPoint
 10
322.6209741220837
 20
208.0862019590285
 30
0.0
  0
POINT
  5
13FD
330
18
100
AcDbEntity
  8
DEFPOINTS
  6
ByBlock
 62
     0
100
AcDbPoint
 10
322.0968561735432
 20
208.9378476459299
 30
0.0
  0
POINT
  5
1465
330
18
100
AcDbEntity
  8
DEFPOINTS
  6
ByBlock
 62
     0
100
AcDbPoint
 10
409.0797299563935
 20
313.4878476459299
 30
0.0
  0
POINT
  5
1494
330
18
100
AcDbEntity
  8
DEFPOINTS
  6
ByBlock
 62
     0
100
AcDbPoint
 10
402.6797299563934
 20
331.5964032304923
 30
0.0
  0
POINT
  5
1495
330
18
100
AcDbEntity
  8
DEFPOINTS
  6
ByBlock
 62
     0
100
AcDbPoint
 10
395.2466151951338
 20
251.8378476459299
 30
0.0
  0
POINT
  5
1496
330
18
100
AcDbEntity
  8
DEFPOINTS
  6
ByBlock
 62
     0
100
AcDbPoint
 10
409.9815309674739
 20
251.8378476459299
 30
0.0
  0
POINT
  5
14D3
330
18
100
AcDbEntity
  8
DEFPOINTS
  6
ByBlock
 62
     0
100
AcDbPoint
 10
402.6797299563935
 20
251.8378476459299
 30
0.0
  0
POINT
  5
14D4
330
18
100
AcDbEntity
  8
DEFPOINTS
  6
ByBlock
 62
     0
100
AcDbPoint
 10
402.6797299563935
 20
251.8378476459299
 30
0.0
  0
CIRCLE
  5
14E2
102
{ACAD_REACTORS
330
14E5
102
}
330
18
100
AcDbEntity
  8
外形線
100
AcDbCircle
 10
396.4181810335075
 20
261.5216651738042
 30
0.0
 40
0.222687898198611
  0
HATCH
  5
14E5
330
18
100
AcDbEntity
  8
外形線
100
AcDbHatch
 10
0.0
 20
0.0
 30
0.0
210
0.0
220
0.0
230
1.0
  2
SOLID
 70
     1
 71
     1
 91
        1
 92
        7
 72
     1
 73
     1
 93
        2
 10
396.6408689317061
 20
261.5216651738042
 42
1.0
 10
396.1954931353089
 20
261.5216651738042
 42
1.0
 97
        1
330
14E2
 75
     0
 76
     1
 47
0.0124670341605454
 98
        1
 10
396.476158334854
 20
261.4984932337131
450
        0
451
        0
460
0.0
461
0.0
452
        0
462
0.0
453
        0
470

  0
TEXT
  5
14EC
330
18
100
AcDbEntity
  8
寸法線
 62
     6
100
AcDbText
 10
418.0016179941033
 20
263.3272478685397
 30
0.0
 40
2.5
  1
A
  7
STYLE3
100
AcDbText
  0
CIRCLE
  5
14EE
102
{ACAD_REACTORS
330
14F1
102
}
330
18
100
AcDbEntity
  8
外形線
100
AcDbCircle
 10
409.7866132880757
 20
272.4653817042661
 30
0.0
 40
0.222687898198611
  0
HATCH
  5
14F1
330
18
100
AcDbEntity
  8
外形線
100
AcDbHatch
 10
0.0
 20
0.0
 30
0.0
210
0.0
220
0.0
230
1.0
  2
SOLID
 70
     1
 71
     1
 91
        1
 92
        7
 72
     1
 73
     1
 93
        2
 10
410.0093011862743
 20
272.4653817042661
 42
1.0
 10
409.5639253898771
 20
272.4653817042661
 42
1.0
 97
        1
330
14EE
 75
     0
 76
     1
 47
0.0200805185115556
 98
        1
 10
409.9111293914914
 20
272.3485952762879
450
        0
451
        0
460
0.0
461
0.0
452
        0
462
0.0
453
        0
470

  0
CIRCLE
  5
14F8
102
{ACAD_REACTORS
330
151F
102
}
330
18
100
AcDbEntity
  8
外形線
100
AcDbCircle
 10
398.5594476875712
 20
312.4318073984472
 30
0.0
 40
0.222687898198611
  0
HATCH
  5
151F
330
18
100
AcDbEntity
  8
外形線
100
AcDbHatch
 10
0.0
 20
0.0
 30
0.0
210
0.0
220
0.0
230
1.0
  2
SOLID
 70
     1
 71
     1
 91
        1
 92
        7
 72
     1
 73
     1
 93
        2
 10
398.7821355857698
 20
312.4318073984472
 42
1.0
 10
398.3367597893726
 20
312.4318073984472
 42
1.0
 97
        1
330
14F8
 75
     0
 76
     1
 47
0.0431140550968677
 98
        1
 10
398.6766978021564
 20
312.3224722276837
450
        0
451
        0
460
0.0
461
0.0
452
        0
462
0.0
453
        0
470

  0
LINE
  5
157C
330
18
100
AcDbEntity
  8
外形線
100
AcDbLine
 10
268.6862310361137
 20
224.4371440847806
 30
0.0
 11
281.5666243560255
 21
224.4371440847807
 31
0.0
  0
LINE
  5
157F
330
18
100
AcDbEntity
  8
外形線
100
AcDbLine
 10
257.8914869244393
 20
227.7371440847807
 30
0.0
 11
270.5914869244393
 21
227.7371440847807
 31
0.0
  0
LINE
  5
1584
330
18
100
AcDbEntity
  8
外形線
100
AcDbLine
 10
268.6862310361137
 20
224.4371440847806
 30
0.0
 11
270.5914869244393
 21
227.7371440847807
 31
0.0
  0
LINE
  5
1585
330
18
100
AcDbEntity
  8
外形線
100
AcDbLine
 10
259.796742812765
 20
224.4371440847806
 30
0.0
 11
257.8914869244393
 21
227.7371440847807
 31
0.0
  0
LINE
  5
1586
330
18
100
AcDbEntity
  8
外形線
100
AcDbLine
 10
259.796742812765
 20
224.4371440847806
 30
0.0
 11
246.9163494928532
 21
224.4371440847806
 31
0.0
  0
CIRCLE
  5
1588
330
18
100
AcDbEntity
  8
外形線
100
AcDbCircle
 10
257.2014869244392
 20
225.9371440847806
 30
0.0
 40
1.5
  0
CIRCLE
  5
1589
330
18
100
AcDbEntity
  8
外形線
100
AcDbCircle
 10
271.2814869244394
 20
225.9371440847806
 30
0.0
 40
1.5
  0
LINE
  5
158C
330
18
100
AcDbEntity
  8
中心線
100
AcDbLine
 10
254.2646814198902
 20
225.9371440847806
 30
0.0
 11
260.341745600402
 21
225.9371440847806
 31
0.0
  0
LINE
  5
158D
330
18
100
AcDbEntity
  8
中心線
100
AcDbLine
 10
271.2814869244394
 20
229.3535661989221
 30
0.0
 11
271.2814869244394
 21
222.2129165150903
 31
0.0
  0
LINE
  5
158E
330
18
100
AcDbEntity
  8
中心線
100
AcDbLine
 10
257.2014869244392
 20
229.3535661989221
 30
0.0
 11
257.2014869244392
 21
222.2129165150903
 31
0.0
  0
LINE
  5
1591
330
18
100
AcDbEntity
  8
中心線
100
AcDbLine
 10
268.3730086423328
 20
225.9371440847807
 30
0.0
 11
274.6062285846177
 21
225.9371440847806
 31
0.0
  0
LINE
  5
15A3
330
18
100
AcDbEntity
  8
寸法線
100
AcDbLine
 10
246.9163494928532
 20
222.2683879505392
 30
0.0
 11
249.0851056270947
 21
224.4371440847806
 31
0.0
  0
LINE
  5
15A4
330
18
100
AcDbEntity
  8
寸法線
100
AcDbLine
 10
246.9163494928532
 20
217.7782598900046
 30
0.0
 11
253.5752336876293
 21
224.4371440847806
 31
0.0
  0
LINE
  5
15A5
330
18
100
AcDbEntity
  8
寸法線
100
AcDbLine
 10
249.9710348259673
 20
216.3428171625842
 30
0.0
 11
258.0653617481639
 21
224.4371440847807
 31
0.0
  0
LINE
  5
15A6
330
18
100
AcDbEntity
  8
寸法線
100
AcDbLine
 10
259.1630133594897
 20
225.5347956961065
 30
0.0
 11
261.3653617481639
 21
227.7371440847807
 31
0.0
  0
LINE
  5
15A7
330
18
100
AcDbEntity
  8
寸法線
100
AcDbLine
 10
254.4611628865018
 20
216.3428171625841
 30
0.0
 11
265.8554898086986
 21
227.7371440847808
 31
0.0
  0
LINE
  5
15A8
330
18
100
AcDbEntity
  8
寸法線
100
AcDbLine
 10
258.9512909470364
 20
216.3428171625841
 30
0.0
 11
270.3456178692331
 21
227.7371440847808
 31
0.0
  0
LINE
  5
15A9
330
18
100
AcDbEntity
  8
寸法線
100
AcDbLine
 10
263.441419007571
 20
216.3428171625841
 30
0.0
 11
271.5357459297677
 21
224.4371440847808
 31
0.0
  0
LINE
  5
15AA
330
18
100
AcDbEntity
  8
寸法線
100
AcDbLine
 10
267.9315470681057
 20
216.3428171625841
 30
0.0
 11
276.0258739903022
 21
224.4371440847807
 31
0.0
  0
LINE
  5
15AB
330
18
100
AcDbEntity
  8
寸法線
100
AcDbLine
 10
272.4216751286401
 20
216.3428171625841
 30
0.0
 11
280.5160020508367
 21
224.4371440847807
 31
0.0
  0
LINE
  5
15AC
330
18
100
AcDbEntity
  8
寸法線
100
AcDbLine
 10
276.9118031891748
 20
216.3428171625842
 30
0.0
 11
281.5666243560255
 21
220.9976383294348
 31
0.0
  0
LINE
  5
1634
330
18
100
AcDbEntity
  8
0
  6
ByBlock
 62
     2
100
AcDbLine
 10
270.5914869244393
 20
227.7371440847807
 30
0.0
 11
282.2113806334415
 21
247.8633903673233
 31
0.0
  0
LINE
  5
1635
330
18
100
AcDbEntity
  8
0
  6
ByBlock
 62
     2
100
AcDbLine
 10
257.8914869244393
 20
227.7371440847807
 30
0.0
 11
246.2715932154369
 21
247.8633903673231
 31
0.0
  0
ARC
  5
1636
330
18
100
AcDbEntity
  8
0
  6
ByBlock
 62
     2
100
AcDbCircle
 10
264.2414869244394
 20
216.7386214567179
 30
0.0
 40
34.6897874180055
100
AcDbArc
 50
64.13004734756665
 51
115.869952652434
  0
INSERT
  5
1637
330
18
100
AcDbEntity
  8
0
  6
ByBlock
 62
     2
100
AcDbBlockReference
  2
_OPEN
 10
281.5863806334415
 20
246.7808586125928
 30
0.0
 41
2.5
 42
2.5
 43
2.5
 50
332.0650236737839
  0
INSERT
  5
1638
330
18
100
AcDbEntity
  8
0
  6
ByBlock
 62
     2
100
AcDbBlockReference
  2
_OPEN
 10
246.8965932154369
 20
246.7808586125926
 30
0.0
 41
2.5
 42
2.5
 43
2.5
 50
207.9349763262168
  0
MTEXT
  5
1639
330
18
100
AcDbEntity
  8
0
  6
ByBlock
 62
     6
100
AcDbMText
 10
265.7359480226626
 20
253.3034088747233
 30
0.0
 40
2.5
 41
0.0
 71
     5
 72
     1
  1
\A1;60°
  7
STYLE3
 73
     1
 44
1.0
  0
POINT
  5
163A
330
18
100
AcDbEntity
  8
DEFPOINTS
  6
ByBlock
 62
     0
100
AcDbPoint
 10
270.2653052932289
 20
250.9013930563151
 30
0.0
  0
POINT
  5
163B
330
18
100
AcDbEntity
  8
DEFPOINTS
  6
ByBlock
 62
     0
100
AcDbPoint
 10
259.796742812765
 20
224.4371440847806
 30
0.0
  0
POINT
  5
163C
330
18
100
AcDbEntity
  8
DEFPOINTS
  6
ByBlock
 62
     0
100
AcDbPoint
 10
268.6862310361137
 20
224.4371440847806
 30
0.0
  0
POINT
  5
163D
330
18
100
AcDbEntity
  8
DEFPOINTS
  6
ByBlock
 62
     0
100
AcDbPoint
 10
270.5914869244393
 20
227.7371440847807
 30
0.0
  0
POINT
  5
163E
330
18
100
AcDbEntity
  8
DEFPOINTS
  6
ByBlock
 62
     0
100
AcDbPoint
 10
257.8914869244393
 20
227.7371440847807
 30
0.0
  0
LINE
  5
164E
330
18
100
AcDbEntity
  8
0
  6
ByBlock
 62
     2
100
AcDbLine
 10
254.9690919741519
 20
232.7988806184613
 30
0.0
 11
246.271593215437
 21
247.8633903673232
 31
0.0
  0
LINE
  5
164F
330
18
100
AcDbEntity
  8
0
  6
ByBlock
 62
     2
100
AcDbLine
 10
255.9024488187625
 20
225.1871440847807
 30
0.0
 11
243.6756322463542
 21
246.3646116030175
 31
0.0
  0
LINE
  5
1651
330
18
100
AcDbEntity
  8
0
  6
ByBlock
 62
     2
100
AcDbLine
 10
242.135568736893
 20
244.0320798482869
 30
0.0
 11
239.9705052274319
 21
242.7820798482869
 31
0.0
  0
LINE
  5
1652
330
18
100
AcDbEntity
  8
0
  6
ByBlock
 62
     2
100
AcDbLine
 10
246.896593215437
 20
246.7808586125926
 30
0.0
 11
244.3006322463541
 21
245.2820798482869
 31
0.0
  0
INSERT
  5
1654
330
18
100
AcDbEntity
  8
0
  6
ByBlock
 62
     2
100
AcDbBlockReference
  2
_OPEN
 10
244.3006322463541
 20
245.2820798482869
 30
0.0
 41
2.5
 42
2.5
 43
2.5
 50
29.99999999999951
  0
MTEXT
  5
1655
330
18
100
AcDbEntity
  8
0
  6
ByBlock
 62
     6
100
AcDbMText
 10
242.3523608222627
 20
247.6552668625356
 30
0.0
 40
2.5
 41
0.0
 71
     5
 72
     1
  1
φ1.5
  7
STYLE3
 11
0.8660254037844429
 21
0.4999999999999926
 31
0.0
 73
     1
 44
1.0
  0
POINT
  5
1656
330
18
100
AcDbEntity
  8
DEFPOINTS
  6
ByBlock
 62
     0
100
AcDbPoint
 10
254.9690919741519
 20
232.7988806184613
 30
0.0
 50
60.00000000000049
  0
POINT
  5
1657
330
18
100
AcDbEntity
  8
DEFPOINTS
  6
ByBlock
 62
     0
100
AcDbPoint
 10
255.9024488187625
 20
225.1871440847807
 30
0.0
 50
60.00000000000049
  0
POINT
  5
1658
330
18
100
AcDbEntity
  8
DEFPOINTS
  6
ByBlock
 62
     0
100
AcDbPoint
 10
244.3006322463541
 20
245.2820798482869
 30
0.0
 50
60.00000000000049
  0
LINE
  5
1664
330
18
100
AcDbEntity
  8
0
  6
ByBlock
 62
     2
100
AcDbLine
 10
270.5914869244393
 20
227.7371440847807
 30
0.0
 11
288.3476366781654
 21
227.7371440847807
 31
0.0
  0
LINE
  5
1665
330
18
100
AcDbEntity
  8
0
  6
ByBlock
 62
     2
100
AcDbLine
 10
281.5666243560255
 20
224.4371440847807
 30
0.0
 11
288.3476366781654
 21
224.4371440847807
 31
0.0
  0
LINE
  5
1666
330
18
100
AcDbEntity
  8
0
  6
ByBlock
 62
     2
100
AcDbLine
 10
287.0976366781654
 20
230.2371440847807
 30
0.0
 11
287.0976366781654
 21
232.7371440847807
 31
0.0
  0
LINE
  5
1667
330
18
100
AcDbEntity
  8
0
  6
ByBlock
 62
     2
100
AcDbLine
 10
287.0976366781654
 20
221.9371440847807
 30
0.0
 11
287.0976366781654
 21
213.564212042785
 31
0.0
  0
LINE
  5
1668
330
18
100
AcDbEntity
  8
0
  6
ByBlock
 62
     2
100
AcDbLine
 10
287.0976366781654
 20
227.7371440847807
 30
0.0
 11
287.0976366781654
 21
224.4371440847807
 31
0.0
  0
INSERT
  5
1669
330
18
100
AcDbEntity
  8
0
  6
ByBlock
 62
     2
100
AcDbBlockReference
  2
_OPEN
 10
287.0976366781654
 20
227.7371440847807
 30
0.0
 41
2.5
 42
2.5
 43
2.5
 50
270.0
  0
INSERT
  5
166A
330
18
100
AcDbEntity
  8
0
  6
ByBlock
 62
     2
100
AcDbBlockReference
  2
_OPEN
 10
287.0976366781654
 20
224.4371440847807
 30
0.0
 41
2.5
 42
2.5
 43
2.5
 50
90.0
  0
MTEXT
  5
166B
330
18
100
AcDbEntity
  8
0
  6
ByBlock
 62
     6
100
AcDbMText
 10
285.2226366781654
 20
217.424318766002
 30
0.0
 40
2.5
 41
0.0
 71
     5
 72
     1
  1
\A1;1.65
  7
STYLE3
 11
0.0000000000000001
 21
1.0
 31
0.0
 73
     1
 44
1.0
  0
POINT
  5
166C
330
18
100
AcDbEntity
  8
DEFPOINTS
  6
ByBlock
 62
     0
100
AcDbPoint
 10
270.5914869244393
 20
227.7371440847807
 30
0.0
  0
POINT
  5
166D
330
18
100
AcDbEntity
  8
DEFPOINTS
  6
ByBlock
 62
     0
100
AcDbPoint
 10
281.5666243560255
 20
224.4371440847807
 30
0.0
  0
POINT
  5
166E
330
18
100
AcDbEntity
  8
DEFPOINTS
  6
ByBlock
 62
     0
100
AcDbPoint
 10
287.0976366781654
 20
224.4371440847807
 30
0.0
  0
TEXT
  5
166F
330
18
100
AcDbEntity
  8
文字
100
AcDbText
 10
242.3653274357227
 20
202.8713634241179
 30
0.0
 40
4.0
  1
A.B.C 断面図 
  7
STYLE3
100
AcDbText
  0
TEXT
  5
1670
330
18
100
AcDbEntity
  8
文字
100
AcDbText
 10
276.5080743386524
 20
202.9835877999969
 30
0.0
 40
3.0
  1
S=2／1
  7
STYLE3
100
AcDbText
  0
LINE
  5
1671
330
18
100
AcDbEntity
  8
外形線
100
AcDbLine
 10
242.0283920984941
 20
202.1980171688443
 30
0.0
 11
291.8947726702619
 21
202.1980171688443
 31
0.0
  0
LINE
  5
1686
330
18
100
AcDbEntity
  8
0
  6
ByBlock
 62
     2
100
AcDbLine
 10
319.0968561735433
 20
328.6340000686365
 30
0.0
 11
319.0968561735433
 21
338.1956395471265
 31
0.0
  0
LINE
  5
1687
330
18
100
AcDbEntity
  8
0
  6
ByBlock
 62
     2
100
AcDbLine
 10
325.0968561735433
 20
328.6340000686365
 30
0.0
 11
325.0968561735433
 21
338.1956395471265
 31
0.0
  0
LINE
  5
1688
330
18
100
AcDbEntity
  8
0
  6
ByBlock
 62
     2
100
AcDbLine
 10
316.5968561735433
 20
336.9456395471265
 30
0.0
 11
314.0968561735433
 21
336.9456395471265
 31
0.0
  0
LINE
  5
1689
330
18
100
AcDbEntity
  8
0
  6
ByBlock
 62
     2
100
AcDbLine
 10
327.5968561735433
 20
336.9456395471265
 30
0.0
 11
330.0968561735433
 21
336.9456395471265
 31
0.0
  0
LINE
  5
168A
330
18
100
AcDbEntity
  8
0
  6
ByBlock
 62
     2
100
AcDbLine
 10
319.0968561735433
 20
336.9456395471265
 30
0.0
 11
325.0968561735433
 21
336.9456395471265
 31
0.0
  0
INSERT
  5
168B
330
18
100
AcDbEntity
  8
0
  6
ByBlock
 62
     2
100
AcDbBlockReference
  2
_OPEN
 10
319.0968561735433
 20
336.9456395471265
 30
0.0
 41
2.5
 42
2.5
 43
2.5
  0
INSERT
  5
168C
330
18
100
AcDbEntity
  8
0
  6
ByBlock
 62
     2
100
AcDbBlockReference
  2
_OPEN
 10
325.0968561735433
 20
336.9456395471265
 30
0.0
 41
2.5
 42
2.5
 43
2.5
 50
180.0
  0
MTEXT
  5
168D
330
18
100
AcDbEntity
  8
0
  6
ByBlock
 62
     6
100
AcDbMText
 10
321.4283527383958
 20
340.1847682738948
 30
0.0
 40
2.5
 41
0.0
 71
     5
 72
     1
  1
φ6.0
  7
STYLE3
 73
     1
 44
1.0
  0
POINT
  5
168E
330
18
100
AcDbEntity
  8
DEFPOINTS
  6
ByBlock
 62
     0
100
AcDbPoint
 10
319.0968561735433
 20
328.6340000686365
 30
0.0
  0
POINT
  5
168F
330
18
100
AcDbEntity
  8
DEFPOINTS
  6
ByBlock
 62
     0
100
AcDbPoint
 10
325.0968561735433
 20
328.6340000686365
 30
0.0
  0
POINT
  5
1690
330
18
100
AcDbEntity
  8
DEFPOINTS
  6
ByBlock
 62
     0
100
AcDbPoint
 10
325.0968561735433
 20
336.9456395471265
 30
0.0
  0
TEXT
  5
1691
330
18
100
AcDbEntity
  8
文字
100
AcDbText
 10
327.7549572647334
 20
341.6232424896419
 30
0.0
 40
1.5
  1
0
  7
STYLE3
100
AcDbText
  0
TEXT
  5
1692
330
18
100
AcDbEntity
  8
文字
100
AcDbText
 10
325.9578769916416
 20
339.8073037836867
 30
0.0
 40
1.5
  1
-0.03
  7
STYLE3
100
AcDbText
  0
LINE
  5
16AB
330
18
100
AcDbEntity
  8
0
  6
ByBlock
 62
     2
100
AcDbLine
 10
318.2968561735433
 20
264.1821445584325
 30
0.0
 11
318.2968561735433
 21
266.7248904344818
 31
0.0
  0
LINE
  5
16AC
330
18
100
AcDbEntity
  8
0
  6
ByBlock
 62
     2
100
AcDbLine
 10
325.8968561735434
 20
263.8910172689816
 30
0.0
 11
325.8968561735434
 21
266.7248904344818
 31
0.0
  0
LINE
  5
16AD
330
18
100
AcDbEntity
  8
0
  6
ByBlock
 62
     2
100
AcDbLine
 10
318.2968561735432
 20
265.4748904344818
 30
0.0
 11
325.8968561735434
 21
265.4748904344818
 31
0.0
  0
LINE
  5
16AE
330
18
100
AcDbEntity
  8
0
  6
ByBlock
 62
     2
100
AcDbLine
 10
325.8968561735434
 20
265.4748904344818
 30
0.0
 11
334.8849514116386
 21
265.4748904344818
 31
0.0
  0
MTEXT
  5
16B1
330
18
100
AcDbEntity
  8
0
  6
ByBlock
 62
     6
100
AcDbMText
 10
331.640903792591
 20
267.3498904344818
 30
0.0
 40
2.5
 41
0.0
 71
     5
 72
     1
  1
\A1;7.6
  7
STYLE3
 73
     1
 44
1.0
  0
POINT
  5
16B2
330
18
100
AcDbEntity
  8
DEFPOINTS
  6
ByBlock
 62
     0
100
AcDbPoint
 10
318.2968561735433
 20
264.1821445584325
 30
0.0
  0
POINT
  5
16B3
330
18
100
AcDbEntity
  8
DEFPOINTS
  6
ByBlock
 62
     0
100
AcDbPoint
 10
325.8968561735434
 20
263.8910172689816
 30
0.0
  0
POINT
  5
16B4
330
18
100
AcDbEntity
  8
DEFPOINTS
  6
ByBlock
 62
     0
100
AcDbPoint
 10
325.8968561735434
 20
265.4748904344818
 30
0.0
  0
INSERT
  5
16B5
330
18
100
AcDbEntity
  8
0
  6
ByBlock
 62
     2
100
AcDbBlockReference
  2
_OPEN
 10
325.8968561735434
 20
265.4748904344818
 30
0.0
 41
-2.5
 42
2.5
 43
2.5
  0
INSERT
  5
16B6
330
18
100
AcDbEntity
  8
0
  6
ByBlock
 62
     2
100
AcDbBlockReference
  2
_OPEN
 10
318.2968561735433
 20
265.4748904344818
 30
0.0
 41
-2.5
 42
2.5
 43
2.5
 50
180.0
  0
LINE
  5
16B7
330
18
100
AcDbEntity
  8
寸法線
100
AcDbLine
 10
315.7968561735433
 20
265.4748904344818
 30
0.0
 11
313.4998135347304
 21
265.4748904344818
 31
0.0
  0
LINE
  5
16C0
330
18
100
AcDbEntity
  8
目盛
100
AcDbLine
 10
322.0968561735433
 20
310.8378476459299
 30
0.0
 11
322.0968561735433
 21
308.3378476459299
 31
0.0
  0
POINT
  5
1A22
330
18
100
AcDbEntity
  8
DEFPOINTS
  6
ByBlock
 62
     0
100
AcDbPoint
 10
402.6797299563935
 20
251.8378476459298
 30
0.0
  0
POINT
  5
1A23
330
18
100
AcDbEntity
  8
DEFPOINTS
  6
ByBlock
 62
     0
100
AcDbPoint
 10
402.6797299563935
 20
251.8378476459298
 30
0.0
  0
LINE
  5
1A6E
330
18
100
AcDbEntity
  8
目盛
100
AcDbLine
 10
323.0387139664831
 20
310.808248572354
 30
0.0
 11
322.9445281871891
 21
309.3112084797116
 31
0.0
  0
LINE
  5
1A6F
330
18
100
AcDbEntity
  8
目盛
100
AcDbLine
 10
323.9768546770079
 20
310.7195681656471
 30
0.0
 11
323.7888548266615
 21
309.2313961136754
 31
0.0
  0
LINE
  5
1A70
330
18
100
AcDbEntity
  8
目盛
100
AcDbLine
 10
324.9075758923292
 20
310.5721564068602
 30
0.0
 11
324.6265039204506
 21
309.0987255307672
 31
0.0
  0
LINE
  5
1A71
330
18
100
AcDbEntity
  8
目盛
100
AcDbLine
 10
325.8272044810161
 20
310.3665950628594
 30
0.0
 11
325.4541696502688
 21
308.9137203211665
 31
0.0
  0
LINE
  5
1A72
330
18
100
AcDbEntity
  8
目盛
100
AcDbLine
 10
326.7321110891675
 20
310.1036953903572
 30
0.0
 11
325.9595686032302
 21
307.7260540996193
 31
0.0
  0
LINE
  5
1A73
330
18
100
AcDbEntity
  8
目盛
100
AcDbLine
 10
327.6187244638135
 20
309.7844949342537
 30
0.0
 11
327.0665376347864
 21
308.3898302054213
 31
0.0
  0
LINE
  5
1A74
330
18
100
AcDbEntity
  8
目盛
100
AcDbLine
 10
328.4835455470194
 20
309.4102534329203
 30
0.0
 11
327.8448766096718
 21
308.0530128542212
 31
0.0
  0
LINE
  5
1A75
330
18
100
AcDbEntity
  8
目盛
100
AcDbLine
 10
329.323161285069
 20
308.9824478465879
 30
0.0
 11
328.6005307739164
 21
307.667987826522
 31
0.0
  0
LINE
  5
1A76
330
18
100
AcDbEntity
  8
目盛
100
AcDbLine
 10
330.1342580982283
 20
308.5027665284602
 30
0.0
 11
329.3305179057598
 21
307.2362746402071
 31
0.0
  0
LINE
  5
1A78
330
18
100
AcDbEntity
  8
目盛
100
AcDbLine
 10
321.1549983806036
 20
310.808248572354
 30
0.0
 11
321.2491841598977
 21
309.3112084797115
 31
0.0
  0
LINE
  5
1A79
330
18
100
AcDbEntity
  8
目盛
100
AcDbLine
 10
319.2861364547574
 20
310.5721564068602
 30
0.0
 11
319.567208426636
 21
309.0987255307672
 31
0.0
  0
LINE
  5
1A7A
330
18
100
AcDbEntity
  8
目盛
100
AcDbLine
 10
318.3665078660705
 20
310.3665950628593
 30
0.0
 11
318.7395426968178
 21
308.9137203211664
 31
0.0
  0
LINE
  5
1A7B
330
18
100
AcDbEntity
  8
目盛
100
AcDbLine
 10
316.5749878832731
 20
309.7844949342537
 30
0.0
 11
317.1271747123001
 21
308.3898302054213
 31
0.0
  0
LINE
  5
1A7C
330
18
100
AcDbEntity
  8
目盛
100
AcDbLine
 10
317.4616012579191
 20
310.1036953903572
 30
0.0
 11
318.2341437438565
 21
307.7260540996193
 31
0.0
  0
LINE
  5
1A7D
330
18
100
AcDbEntity
  8
目盛
100
AcDbLine
 10
313.2800773891562
 20
307.9731025615541
 30
0.0
 11
314.7495405198875
 21
305.9505600756168
 31
0.0
  0
LINE
  5
1A7E
330
18
100
AcDbEntity
  8
目盛
100
AcDbLine
 10
320.2168576700787
 20
310.7195681656471
 30
0.0
 11
320.4048575204252
 21
309.2313961136753
 31
0.0
  0
LINE
  5
1A7F
330
18
100
AcDbEntity
  8
目盛
100
AcDbLine
 10
315.7101668000672
 20
309.4102534329203
 30
0.0
 11
316.3488357374149
 21
308.0530128542211
 31
0.0
  0
LINE
  5
1A80
330
18
100
AcDbEntity
  8
目盛
100
AcDbLine
 10
314.8705510620176
 20
308.9824478465879
 30
0.0
 11
315.5931815731702
 21
307.6679878265221
 31
0.0
  0
LINE
  5
1A81
330
18
100
AcDbEntity
  8
目盛
100
AcDbLine
 10
314.0594542488584
 20
308.5027665284601
 30
0.0
 11
314.8631944413269
 21
307.2362746402071
 31
0.0
  0
LINE
  5
1A82
330
18
100
AcDbEntity
  8
目盛
100
AcDbLine
 10
312.5354963273129
 20
307.3955462875669
 30
0.0
 11
313.491632311936
 21
306.2397764234031
 31
0.0
  0
LINE
  5
1A83
330
18
100
AcDbEntity
  8
目盛
100
AcDbLine
 10
311.1623267622221
 20
306.1060542348603
 30
0.0
 11
312.2557797033542
 21
305.0792335759672
 31
0.0
  0
LINE
  5
1A84
330
18
100
AcDbEntity
  8
目盛
100
AcDbLine
 10
310.5391575319064
 20
305.3992074921603
 30
0.0
 11
311.6949273960701
 21
304.4430715075372
 31
0.0
  0
LINE
  5
1A85
330
18
100
AcDbEntity
  8
目盛
100
AcDbLine
 10
309.4319372910131
 20
303.8752495706149
 30
0.0
 11
310.698429179266
 21
303.0715093781463
 31
0.0
  0
LINE
  5
1A86
330
18
100
AcDbEntity
  8
目盛
100
AcDbLine
 10
309.9616012579191
 20
304.654626430317
 30
0.0
 11
311.9841437438565
 21
303.1851632995859
 31
0.0
  0
LINE
  5
1A87
330
18
100
AcDbEntity
  8
目盛
100
AcDbLine
 10
307.831008429116
 20
300.4731025615541
 30
0.0
 11
310.2086497198538
 21
299.7005600756168
 31
0.0
  0
LINE
  5
1A88
330
18
100
AcDbEntity
  8
目盛
100
AcDbLine
 10
311.8286495846129
 20
306.7723770572511
 30
0.0
 11
312.8554702435061
 21
305.678924116119
 31
0.0
  0
LINE
  5
1A89
330
18
100
AcDbEntity
  8
目盛
100
AcDbLine
 10
308.9522559728853
 20
303.0641527574557
 30
0.0
 11
310.2667159929512
 21
302.3415222463031
 31
0.0
  0
LINE
  5
1A8A
330
18
100
AcDbEntity
  8
目盛
100
AcDbLine
 10
308.524450386553
 20
302.224537019406
 30
0.0
 11
309.8816909652521
 21
301.5858680820585
 31
0.0
  0
LINE
  5
1A8B
330
18
100
AcDbEntity
  8
目盛
100
AcDbLine
 10
308.1502088852195
 20
301.3597159362001
 30
0.0
 11
309.5448736140519
 21
300.8075291071731
 31
0.0
  0
LINE
  5
1A8C
330
18
100
AcDbEntity
  8
目盛
100
AcDbLine
 10
307.5681087566138
 20
299.5681959534028
 30
0.0
 11
309.0209834983069
 21
299.1951611226555
 31
0.0
  0
LINE
  5
1A8D
330
18
100
AcDbEntity
  8
目盛
100
AcDbLine
 10
307.2151356538262
 20
297.7178461493945
 30
0.0
 11
308.7033077057979
 21
297.529846299048
 31
0.0
  0
LINE
  5
1A8E
330
18
100
AcDbEntity
  8
目盛
100
AcDbLine
 10
307.1264552471193
 20
296.7797054388696
 30
0.0
 11
308.6234953397617
 21
296.6855196595755
 31
0.0
  0
LINE
  5
1A8F
330
18
100
AcDbEntity
  8
目盛
100
AcDbLine
 10
307.1264552471193
 20
294.8959898529902
 30
0.0
 11
308.6234953397617
 21
294.9901756322841
 31
0.0
  0
LINE
  5
1A90
330
18
100
AcDbEntity
  8
目盛
100
AcDbLine
 10
307.0968561735434
 20
295.8378476459299
 30
0.0
 11
309.5968561735434
 21
295.8378476459299
 31
0.0
  0
LINE
  5
1A91
330
18
100
AcDbEntity
  8
目盛
100
AcDbLine
 10
307.831008429116
 20
291.2025927303057
 30
0.0
 11
310.208649719854
 21
291.9751352162431
 31
0.0
  0
LINE
  5
1A92
330
18
100
AcDbEntity
  8
目盛
100
AcDbLine
 10
307.362547412613
 20
298.6485673647158
 30
0.0
 11
308.8359782887061
 21
298.3674953928371
 31
0.0
  0
LINE
  5
1A93
330
18
100
AcDbEntity
  8
目盛
100
AcDbLine
 10
307.2151356538262
 20
293.9578491424654
 30
0.0
 11
308.7033077057979
 21
294.1458489928119
 31
0.0
  0
LINE
  5
1A94
330
18
100
AcDbEntity
  8
目盛
100
AcDbLine
 10
307.362547412613
 20
293.027127927144
 30
0.0
 11
308.8359782887061
 21
293.3081998990227
 31
0.0
  0
LINE
  5
1A95
330
18
100
AcDbEntity
  8
目盛
100
AcDbLine
 10
307.5681087566139
 20
292.1074993384571
 30
0.0
 11
309.0209834983068
 21
292.4805341692044
 31
0.0
  0
LINE
  5
1A96
330
18
100
AcDbEntity
  8
目盛
100
AcDbLine
 10
308.1502088852195
 20
290.3159793556597
 30
0.0
 11
309.5448736140519
 21
290.8681661846868
 31
0.0
  0
LINE
  5
1A97
330
18
100
AcDbEntity
  8
目盛
100
AcDbLine
 10
308.9522559728854
 20
288.6115425344041
 30
0.0
 11
310.2667159929512
 21
289.3341730455567
 31
0.0
  0
LINE
  5
1A98
330
18
100
AcDbEntity
  8
目盛
100
AcDbLine
 10
309.4319372910131
 20
287.8004457212449
 30
0.0
 11
310.6984291792662
 21
288.6041859137133
 31
0.0
  0
LINE
  5
1A99
330
18
100
AcDbEntity
  8
目盛
100
AcDbLine
 10
310.5391575319065
 20
286.2764877996995
 30
0.0
 11
311.6949273960702
 21
287.2326237843225
 31
0.0
  0
LINE
  5
1A9A
330
18
100
AcDbEntity
  8
目盛
100
AcDbLine
 10
309.9616012579192
 20
287.0210688615428
 30
0.0
 11
311.9841437438564
 21
288.490531992274
 31
0.0
  0
LINE
  5
1A9B
330
18
100
AcDbEntity
  8
目盛
100
AcDbLine
 10
313.2800773891562
 20
283.7025927303056
 30
0.0
 11
314.7495405198875
 21
285.725135216243
 31
0.0
  0
LINE
  5
1A9C
330
18
100
AcDbEntity
  8
目盛
100
AcDbLine
 10
308.524450386553
 20
289.4511582724538
 30
0.0
 11
309.8816909652521
 21
290.0898272098014
 31
0.0
  0
LINE
  5
1A9D
330
18
100
AcDbEntity
  8
目盛
100
AcDbLine
 10
311.1623267622221
 20
285.5696410569996
 30
0.0
 11
312.2557797033543
 21
286.5964617158926
 31
0.0
  0
LINE
  5
1A9E
330
18
100
AcDbEntity
  8
目盛
100
AcDbLine
 10
311.8286495846131
 20
284.9033182346087
 30
0.0
 11
312.8554702435061
 21
285.9967711757409
 31
0.0
  0
LINE
  5
1A9F
330
18
100
AcDbEntity
  8
目盛
100
AcDbLine
 10
312.5354963273129
 20
284.280149004293
 30
0.0
 11
313.491632311936
 21
285.4359188684567
 31
0.0
  0
LINE
  5
1AA0
330
18
100
AcDbEntity
  8
目盛
100
AcDbLine
 10
314.0594542488582
 20
283.1729287633997
 30
0.0
 11
314.8631944413267
 21
284.4394206516528
 31
0.0
  0
LINE
  5
1AA1
330
18
100
AcDbEntity
  8
目盛
100
AcDbLine
 10
315.7101668000672
 20
282.2654418589396
 30
0.0
 11
316.3488357374148
 21
283.6226824376387
 31
0.0
  0
LINE
  5
1AA2
330
18
100
AcDbEntity
  8
目盛
100
AcDbLine
 10
316.5749878832731
 20
281.8912003576062
 30
0.0
 11
317.1271747123001
 21
283.2858650864385
 31
0.0
  0
LINE
  5
1AA3
330
18
100
AcDbEntity
  8
目盛
100
AcDbLine
 10
318.3665078660705
 20
281.3091002290004
 30
0.0
 11
318.7395426968178
 21
282.7619749706934
 31
0.0
  0
LINE
  5
1AA4
330
18
100
AcDbEntity
  8
目盛
100
AcDbLine
 10
317.461601257919
 20
281.5719999015027
 30
0.0
 11
318.2341437438564
 21
283.9496411922405
 31
0.0
  0
LINE
  5
1AA5
330
18
100
AcDbEntity
  8
目盛
100
AcDbLine
 10
322.0968561735432
 20
280.83784764593
 30
0.0
 11
322.0968561735432
 21
283.33784764593
 31
0.0
  0
LINE
  5
1AA6
330
18
100
AcDbEntity
  8
目盛
100
AcDbLine
 10
314.8705510620175
 20
282.693247445272
 30
0.0
 11
315.5931815731701
 21
284.0077074653379
 31
0.0
  0
LINE
  5
1AA7
330
18
100
AcDbEntity
  8
目盛
100
AcDbLine
 10
319.2861364547574
 20
281.1035388849997
 30
0.0
 11
319.5672084266359
 21
282.5769697610927
 31
0.0
  0
LINE
  5
1AA8
330
18
100
AcDbEntity
  8
目盛
100
AcDbLine
 10
320.2168576700787
 20
280.9561271262128
 30
0.0
 11
320.4048575204251
 21
282.4442991781845
 31
0.0
  0
LINE
  5
1AA9
330
18
100
AcDbEntity
  8
目盛
100
AcDbLine
 10
321.1549983806035
 20
280.8674467195059
 30
0.0
 11
321.2491841598975
 21
282.3644868121483
 31
0.0
  0
LINE
  5
1AAA
330
18
100
AcDbEntity
  8
目盛
100
AcDbLine
 10
323.038713966483
 20
280.8674467195057
 30
0.0
 11
322.944528187189
 21
282.3644868121483
 31
0.0
  0
LINE
  5
1AAB
330
18
100
AcDbEntity
  8
目盛
100
AcDbLine
 10
324.9075758923292
 20
281.1035388849997
 30
0.0
 11
324.6265039204506
 21
282.5769697610926
 31
0.0
  0
LINE
  5
1AAC
330
18
100
AcDbEntity
  8
目盛
100
AcDbLine
 10
325.8272044810162
 20
281.3091002290004
 30
0.0
 11
325.4541696502689
 21
282.7619749706934
 31
0.0
  0
LINE
  5
1AAD
330
18
100
AcDbEntity
  8
目盛
100
AcDbLine
 10
327.6187244638135
 20
281.8912003576061
 30
0.0
 11
327.0665376347865
 21
283.2858650864385
 31
0.0
  0
LINE
  5
1AAE
330
18
100
AcDbEntity
  8
目盛
100
AcDbLine
 10
326.7321110891675
 20
281.5719999015027
 30
0.0
 11
325.9595686032301
 21
283.9496411922405
 31
0.0
  0
LINE
  5
1AAF
330
18
100
AcDbEntity
  8
目盛
100
AcDbLine
 10
330.9136349579304
 20
283.7025927303058
 30
0.0
 11
329.4441718271992
 21
285.7251352162431
 31
0.0
  0
LINE
  5
1AB0
330
18
100
AcDbEntity
  8
目盛
100
AcDbLine
 10
323.9768546770079
 20
280.9561271262127
 30
0.0
 11
323.7888548266614
 21
282.4442991781845
 31
0.0
  0
LINE
  5
1AB1
330
18
100
AcDbEntity
  8
目盛
100
AcDbLine
 10
328.4835455470194
 20
282.2654418589396
 30
0.0
 11
327.8448766096718
 21
283.6226824376387
 31
0.0
  0
LINE
  5
1AB2
330
18
100
AcDbEntity
  8
目盛
100
AcDbLine
 10
329.323161285069
 20
282.693247445272
 30
0.0
 11
328.6005307739165
 21
284.0077074653378
 31
0.0
  0
LINE
  5
1AB3
330
18
100
AcDbEntity
  8
目盛
100
AcDbLine
 10
330.1342580982282
 20
283.1729287633997
 30
0.0
 11
329.3305179057597
 21
284.4394206516527
 31
0.0
  0
LINE
  5
1AB4
330
18
100
AcDbEntity
  8
目盛
100
AcDbLine
 10
331.6582160197736
 20
284.280149004293
 30
0.0
 11
330.7020800351505
 21
285.4359188684567
 31
0.0
  0
LINE
  5
1AB5
330
18
100
AcDbEntity
  8
目盛
100
AcDbLine
 10
333.0313855848644
 20
285.5696410569996
 30
0.0
 11
331.9379326437324
 21
286.5964617158926
 31
0.0
  0
LINE
  5
1AB6
330
18
100
AcDbEntity
  8
目盛
100
AcDbLine
 10
333.6545548151802
 20
286.2764877996996
 30
0.0
 11
332.4987849510165
 21
287.2326237843227
 31
0.0
  0
LINE
  5
1AB7
330
18
100
AcDbEntity
  8
目盛
100
AcDbLine
 10
334.7617750560735
 20
287.800445721245
 30
0.0
 11
333.4952831678206
 21
288.6041859137135
 31
0.0
  0
LINE
  5
1AB8
330
18
100
AcDbEntity
  8
目盛
100
AcDbLine
 10
334.2321110891675
 20
287.0210688615429
 30
0.0
 11
332.2095686032301
 21
288.4905319922739
 31
0.0
  0
LINE
  5
1AB9
330
18
100
AcDbEntity
  8
目盛
100
AcDbLine
 10
336.3627039179706
 20
291.2025927303058
 30
0.0
 11
333.9850626272327
 21
291.9751352162431
 31
0.0
  0
LINE
  5
1ABA
330
18
100
AcDbEntity
  8
目盛
100
AcDbLine
 10
332.3650627624737
 20
284.9033182346087
 30
0.0
 11
331.3382421035806
 21
285.9967711757409
 31
0.0
  0
LINE
  5
1ABB
330
18
100
AcDbEntity
  8
目盛
100
AcDbLine
 10
335.2414563742012
 20
288.6115425344042
 30
0.0
 11
333.9269963541354
 21
289.3341730455567
 31
0.0
  0
LINE
  5
1ABC
330
18
100
AcDbEntity
  8
目盛
100
AcDbLine
 10
335.6692619605335
 20
289.4511582724539
 30
0.0
 11
334.3120213818345
 21
290.0898272098014
 31
0.0
  0
LINE
  5
1ABD
330
18
100
AcDbEntity
  8
目盛
100
AcDbLine
 10
336.043503461867
 20
290.3159793556597
 30
0.0
 11
334.6488387330347
 21
290.8681661846868
 31
0.0
  0
LINE
  5
1ABE
330
18
100
AcDbEntity
  8
目盛
100
AcDbLine
 10
336.6256035904728
 20
292.1074993384571
 30
0.0
 11
335.1727288487798
 21
292.4805341692044
 31
0.0
  0
LINE
  5
1ABF
330
18
100
AcDbEntity
  8
目盛
100
AcDbLine
 10
336.9785766932606
 20
293.9578491424654
 30
0.0
 11
335.4904046412888
 21
294.1458489928119
 31
0.0
  0
LINE
  5
1AC0
330
18
100
AcDbEntity
  8
目盛
100
AcDbLine
 10
337.0672570999674
 20
294.8959898529902
 30
0.0
 11
335.570217007325
 21
294.9901756322843
 31
0.0
  0
LINE
  5
1AC1
330
18
100
AcDbEntity
  8
目盛
100
AcDbLine
 10
337.0672570999674
 20
296.7797054388697
 30
0.0
 11
335.5702170073251
 21
296.6855196595757
 31
0.0
  0
LINE
  5
1AC2
330
18
100
AcDbEntity
  8
目盛
100
AcDbLine
 10
337.0968561735433
 20
295.8378476459299
 30
0.0
 11
334.5968561735433
 21
295.8378476459299
 31
0.0
  0
LINE
  5
1AC3
330
18
100
AcDbEntity
  8
目盛
100
AcDbLine
 10
336.3627039179706
 20
300.4731025615542
 30
0.0
 11
333.9850626272327
 21
299.7005600756168
 31
0.0
  0
LINE
  5
1AC4
330
18
100
AcDbEntity
  8
目盛
100
AcDbLine
 10
336.8311649344737
 20
293.0271279271441
 30
0.0
 11
335.3577340583806
 21
293.3081998990227
 31
0.0
  0
LINE
  5
1AC5
330
18
100
AcDbEntity
  8
目盛
100
AcDbLine
 10
336.9785766932605
 20
297.7178461493945
 30
0.0
 11
335.4904046412887
 21
297.529846299048
 31
0.0
  0
LINE
  5
1AC6
330
18
100
AcDbEntity
  8
目盛
100
AcDbLine
 10
336.8311649344736
 20
298.6485673647158
 30
0.0
 11
335.3577340583806
 21
298.3674953928372
 31
0.0
  0
LINE
  5
1AC7
330
18
100
AcDbEntity
  8
目盛
100
AcDbLine
 10
336.6256035904728
 20
299.5681959534027
 30
0.0
 11
335.1727288487798
 21
299.1951611226554
 31
0.0
  0
LINE
  5
1AC8
330
18
100
AcDbEntity
  8
目盛
100
AcDbLine
 10
336.0435034618671
 20
301.3597159362001
 30
0.0
 11
334.6488387330347
 21
300.807529107173
 31
0.0
  0
LINE
  5
1AC9
330
18
100
AcDbEntity
  8
目盛
100
AcDbLine
 10
335.2414563742012
 20
303.0641527574557
 30
0.0
 11
333.9269963541354
 21
302.3415222463031
 31
0.0
  0
LINE
  5
1ACA
330
18
100
AcDbEntity
  8
目盛
100
AcDbLine
 10
334.7617750560735
 20
303.8752495706149
 30
0.0
 11
333.4952831678205
 21
303.0715093781465
 31
0.0
  0
LINE
  5
1ACB
330
18
100
AcDbEntity
  8
目盛
100
AcDbLine
 10
333.6545548151801
 20
305.3992074921603
 30
0.0
 11
332.4987849510165
 21
304.4430715075372
 31
0.0
  0
LINE
  5
1ACC
330
18
100
AcDbEntity
  8
目盛
100
AcDbLine
 10
334.2321110891675
 20
304.654626430317
 30
0.0
 11
332.2095686032302
 21
303.1851632995858
 31
0.0
  0
LINE
  5
1ACD
330
18
100
AcDbEntity
  8
目盛
100
AcDbLine
 10
330.9136349579304
 20
307.9731025615541
 30
0.0
 11
329.4441718271992
 21
305.9505600756168
 31
0.0
  0
LINE
  5
1ACE
330
18
100
AcDbEntity
  8
目盛
100
AcDbLine
 10
335.6692619605336
 20
302.224537019406
 30
0.0
 11
334.3120213818346
 21
301.5858680820584
 31
0.0
  0
LINE
  5
1ACF
330
18
100
AcDbEntity
  8
目盛
100
AcDbLine
 10
333.0313855848644
 20
306.1060542348602
 30
0.0
 11
331.9379326437323
 21
305.0792335759672
 31
0.0
  0
LINE
  5
1AD0
330
18
100
AcDbEntity
  8
目盛
100
AcDbLine
 10
332.3650627624736
 20
306.7723770572511
 30
0.0
 11
331.3382421035806
 21
305.6789241161189
 31
0.0
  0
LINE
  5
1AD1
330
18
100
AcDbEntity
  8
目盛
100
AcDbLine
 10
331.6582160197737
 20
307.3955462875667
 30
0.0
 11
330.7020800351506
 21
306.239776423403
 31
0.0
  0
TEXT
  5
1AD5
330
18
100
AcDbEntity
  8
文字
100
AcDbText
 10
321.2456015567423
 20
306.139256235888
 30
0.0
 40
1.8
  1
0
  7
STYLE3
100
AcDbText
  0
TEXT
  5
1AD6
330
18
100
AcDbEntity
  8
文字
100
AcDbText
 10
327.1215992918635
 20
303.4279625967824
 30
0.0
 40
1.8
  1
10
  7
STYLE3
100
AcDbText
  0
TEXT
  5
1AD7
330
18
100
AcDbEntity
  8
文字
100
AcDbText
 10
330.5401156912627
 20
297.9675981395412
 30
0.0
 40
1.8
  1
20
  7
STYLE3
100
AcDbText
  0
TEXT
  5
1AD8
330
18
100
AcDbEntity
  8
文字
100
AcDbText
 10
330.5998087826877
 20
291.785991669649
 30
0.0
 40
1.8
  1
30
  7
STYLE3
100
AcDbText
  0
TEXT
  5
1AD9
330
18
100
AcDbEntity
  8
文字
100
AcDbText
 10
327.4439969126603
 20
286.4188059285691
 30
0.0
 40
1.8
  1
40
  7
STYLE3
100
AcDbText
  0
TEXT
  5
1ADA
330
18
100
AcDbEntity
  8
文字
100
AcDbText
 10
320.3826734275004
 20
283.7876054891893
 30
0.0
 40
1.8
  1
50
  7
STYLE3
100
AcDbText
  0
TEXT
  5
1ADB
330
18
100
AcDbEntity
  8
文字
100
AcDbText
 10
314.2229236580686
 20
286.3179231759268
 30
0.0
 40
1.8
  1
40
  7
STYLE3
100
AcDbText
  0
TEXT
  5
1ADC
330
18
100
AcDbEntity
  8
文字
100
AcDbText
 10
310.3756182179348
 20
291.3231657024462
 30
0.0
 40
1.8
  1
30
  7
STYLE3
100
AcDbText
  0
TEXT
  5
1ADD
330
18
100
AcDbEntity
  8
文字
100
AcDbText
 10
310.1688119347443
 20
298.4268984381352
 30
0.0
 40
1.8
  1
20
  7
STYLE3
100
AcDbText
  0
TEXT
  5
1ADE
330
18
100
AcDbEntity
  8
文字
100
AcDbText
 10
313.9842337775623
 20
303.7118512836802
 30
0.0
 40
1.8
  1
10
  7
STYLE3
100
AcDbText
  0
LINE
  5
1C59
330
18
100
AcDbEntity
  8
外形線
100
AcDbLine
 10
320.5968561735433
 20
221.9378476459299
 30
0.0
 11
323.5968561735433
 21
221.9378476459299
 31
0.0
  0
LINE
  5
1C5D
330
18
100
AcDbEntity
  8
外形線
100
AcDbLine
 10
320.5968561735433
 20
247.1219904887842
 30
0.0
 11
323.5968561735433
 21
247.1219904887842
 31
0.0
  0
LINE
  5
1C5E
330
18
100
AcDbEntity
  8
外形線
 62
     4
100
AcDbLine
 10
321.3468561735433
 20
243.6219904887842
 30
0.0
 11
322.8468561735435
 21
243.6219904887843
 31
0.0
  0
LINE
  5
1C60
330
18
100
AcDbEntity
  8
外形線
100
AcDbLine
 10
320.5968561735433
 20
243.9319904887842
 30
0.0
 11
323.5968561735433
 21
243.9319904887842
 31
0.0
  0
LINE
  5
1C61
330
18
100
AcDbEntity
  8
外形線
100
AcDbLine
 10
320.5968561735433
 20
243.3119904887842
 30
0.0
 11
323.5968561735433
 21
243.3119904887842
 31
0.0
  0
LINE
  5
1C66
330
18
100
AcDbEntity
  8
外形線
100
AcDbLine
 10
320.5968561735433
 20
243.9319904887842
 30
0.0
 11
321.3468561735433
 21
243.6219904887842
 31
0.0
  0
LINE
  5
1C67
330
18
100
AcDbEntity
  8
外形線
100
AcDbLine
 10
321.3468561735433
 20
243.6219904887842
 30
0.0
 11
320.5968561735433
 21
243.3119904887842
 31
0.0
  0
LINE
  5
1C68
330
18
100
AcDbEntity
  8
外形線
100
AcDbLine
 10
323.5968561735433
 20
243.9319904887842
 30
0.0
 11
322.8468561735433
 21
243.6219904887842
 31
0.0
  0
LINE
  5
1C69
330
18
100
AcDbEntity
  8
外形線
100
AcDbLine
 10
322.8468561735433
 20
243.6219904887842
 30
0.0
 11
323.5968561735433
 21
243.3119904887842
 31
0.0
  0
LINE
  5
1C6A
330
18
100
AcDbEntity
  8
外形線
100
AcDbLine
 10
320.5968561735434
 20
243.3119904887842
 30
0.0
 11
320.5968561735433
 21
221.9378476459299
 31
0.0
  0
LINE
  5
1C6B
330
18
100
AcDbEntity
  8
外形線
100
AcDbLine
 10
323.5968561735433
 20
243.3119904887842
 30
0.0
 11
323.5968561735433
 21
221.9378476459299
 31
0.0
  0
LINE
  5
1C6E
330
18
100
AcDbEntity
  8
外形線
100
AcDbLine
 10
323.5968561735433
 20
247.1219904887842
 30
0.0
 11
323.334107599638
 21
248.63784764593
 31
0.0
  0
LINE
  5
1C6F
330
18
100
AcDbEntity
  8
外形線
100
AcDbLine
 10
320.5968561735432
 20
247.1219904887842
 30
0.0
 11
320.8596047474486
 21
248.6378476459299
 31
0.0
  0
LINE
  5
1C70
330
18
100
AcDbEntity
  8
外形線
100
AcDbLine
 10
323.5968561735433
 20
247.1219904887841
 30
0.0
 11
323.5968561735433
 21
243.9319904887842
 31
0.0
  0
LINE
  5
1C71
330
18
100
AcDbEntity
  8
外形線
100
AcDbLine
 10
320.5968561735433
 20
247.1219904887846
 30
0.0
 11
320.5968561735434
 21
243.9319904887842
 31
0.0
  0
LINE
  5
1C81
330
18
100
AcDbEntity
  8
外形線
100
AcDbLine
 10
401.1797299563935
 20
221.9378476459299
 30
0.0
 11
401.9797299563935
 21
209.6519904887842
 31
0.0
  0
LINE
  5
1C82
330
18
100
AcDbEntity
  8
外形線
100
AcDbLine
 10
404.1797299563935
 20
221.9378476459299
 30
0.0
 11
403.3797299563935
 21
209.6519904887842
 31
0.0
  0
ARC
  5
1C83
330
18
100
AcDbEntity
  8
外形線
100
AcDbCircle
 10
402.6797299563935
 20
208.9378476459299
 30
0.0
 40
1.0
100
AcDbArc
 50
134.427004000808
 51
45.57299599919653
  0
LINE
  5
1C84
330
18
100
AcDbEntity
  8
隠れ線
 62
     4
 48
0.3
100
AcDbLine
 10
402.6797299563935
 20
209.8848826235249
 30
0.0
 11
401.9797299563935
 21
209.6519904887842
 31
0.0
  0
LINE
  5
1C85
330
18
100
AcDbEntity
  8
外形線
100
AcDbLine
 10
403.3808666163146
 20
209.6519904887842
 30
0.0
 11
401.9797299563935
 21
209.6519904887843
 31
0.0
  0
LINE
  5
1C86
330
18
100
AcDbEntity
  8
中心線
 48
0.5
100
AcDbLine
 10
398.9311251400713
 20
208.9378476459299
 30
0.0
 11
406.8107785557821
 21
208.9378476459299
 31
0.0
  0
LINE
  5
1C87
330
18
100
AcDbEntity
  8
隠れ線
 62
     4
 48
0.3
100
AcDbLine
 10
402.6797299563935
 20
209.8848826235249
 30
0.0
 11
403.3797299563935
 21
209.6519904887842
 31
0.0
  0
POINT
  5
1C88
330
18
100
AcDbEntity
  8
DEFPOINTS
  6
ByBlock
 62
     0
100
AcDbPoint
 10
402.6797299563934
 20
208.9378476459299
 30
0.0
  0
POINT
  5
1C89
330
18
100
AcDbEntity
  8
DEFPOINTS
  6
ByBlock
 62
     0
100
AcDbPoint
 10
403.2038479049339
 20
208.0862019590285
 30
0.0
  0
LINE
  5
1C8B
330
18
100
AcDbEntity
  8
外形線
100
AcDbLine
 10
401.1797299563935
 20
221.9378476459299
 30
0.0
 11
404.1797299563935
 21
221.9378476459299
 31
0.0
  0
LINE
  5
1C8C
330
18
100
AcDbEntity
  8
外形線
100
AcDbLine
 10
404.1797299563936
 20
243.3119904887842
 30
0.0
 11
404.1797299563935
 21
221.9378476459299
 31
0.0
  0
LINE
  5
1C8D
330
18
100
AcDbEntity
  8
外形線
100
AcDbLine
 10
401.1797299563935
 20
243.3119904887842
 30
0.0
 11
401.1797299563935
 21
221.9378476459299
 31
0.0
  0
LINE
  5
1C8E
330
18
100
AcDbEntity
  8
外形線
100
AcDbLine
 10
401.1797299563935
 20
247.1219904887842
 30
0.0
 11
404.1797299563936
 21
247.1219904887842
 31
0.0
  0
LINE
  5
1C8F
330
18
100
AcDbEntity
  8
外形線
100
AcDbLine
 10
401.1797299563935
 20
243.9319904887842
 30
0.0
 11
404.1797299563935
 21
243.9319904887842
 31
0.0
  0
LINE
  5
1C90
330
18
100
AcDbEntity
  8
外形線
100
AcDbLine
 10
401.1797299563935
 20
243.3119904887842
 30
0.0
 11
404.1797299563935
 21
243.3119904887842
 31
0.0
  0
LINE
  5
1C91
330
18
100
AcDbEntity
  8
外形線
 62
     4
100
AcDbLine
 10
401.9297299563935
 20
243.6219904887842
 30
0.0
 11
403.4297299563936
 21
243.6219904887843
 31
0.0
  0
LINE
  5
1C92
330
18
100
AcDbEntity
  8
外形線
100
AcDbLine
 10
401.1797299563935
 20
247.1219904887846
 30
0.0
 11
401.1797299563935
 21
243.9319904887842
 31
0.0
  0
LINE
  5
1C93
330
18
100
AcDbEntity
  8
外形線
100
AcDbLine
 10
401.9297299563935
 20
243.6219904887842
 30
0.0
 11
401.1797299563935
 21
243.3119904887842
 31
0.0
  0
LINE
  5
1C94
330
18
100
AcDbEntity
  8
外形線
100
AcDbLine
 10
401.1797299563935
 20
243.9319904887842
 30
0.0
 11
401.9297299563935
 21
243.6219904887842
 31
0.0
  0
LINE
  5
1C95
330
18
100
AcDbEntity
  8
外形線
100
AcDbLine
 10
404.1797299563936
 20
247.1219904887841
 30
0.0
 11
404.1797299563936
 21
243.9319904887842
 31
0.0
  0
LINE
  5
1C96
330
18
100
AcDbEntity
  8
外形線
100
AcDbLine
 10
403.4297299563935
 20
243.6219904887842
 30
0.0
 11
404.1797299563935
 21
243.3119904887842
 31
0.0
  0
LINE
  5
1C97
330
18
100
AcDbEntity
  8
外形線
100
AcDbLine
 10
404.1797299563935
 20
243.9319904887842
 30
0.0
 11
403.4297299563935
 21
243.6219904887842
 31
0.0
  0
LINE
  5
1C98
330
18
100
AcDbEntity
  8
外形線
100
AcDbLine
 10
404.1797299563936
 20
247.1219904887842
 30
0.0
 11
403.9199493053083
 21
248.6207250142761
 31
0.0
  0
LINE
  5
1C99
330
18
100
AcDbEntity
  8
外形線
100
AcDbLine
 10
401.1797299563935
 20
247.1219904887842
 30
0.0
 11
401.4395106074786
 21
248.620725014276
 31
0.0
  0
POINT
  5
1CC8
330
18
100
AcDbEntity
  8
DEFPOINTS
  6
ByBlock
 62
     0
100
AcDbPoint
 10
402.6797299563934
 20
331.5964032304925
 30
0.0
  0
POINT
  5
1CC9
330
18
100
AcDbEntity
  8
DEFPOINTS
  6
ByBlock
 62
     0
100
AcDbPoint
 10
402.6797299563935
 20
251.8378476459298
 30
0.0
  0
POINT
  5
1CCB
330
18
100
AcDbEntity
  8
DEFPOINTS
  6
ByBlock
 62
     0
100
AcDbPoint
 10
402.6797299563936
 20
206.0502516227413
 30
0.0
  0
LINE
  5
1D0F
330
18
100
AcDbEntity
  8
0
  6
ByBlock
 62
     2
100
AcDbLine
 10
402.6797299563935
 20
329.4378476459298
 30
0.0
 11
425.3527652953854
 21
329.4378476459298
 31
0.0
  0
LINE
  5
1D10
330
18
100
AcDbEntity
  8
0
  6
ByBlock
 62
     2
100
AcDbLine
 10
409.0797299563935
 20
313.4878476459299
 30
0.0
 11
425.3527652953854
 21
313.4878476459299
 31
0.0
  0
LINE
  5
1D11
330
18
100
AcDbEntity
  8
0
  6
ByBlock
 62
     2
100
AcDbLine
 10
424.1027652953855
 20
326.9378476459298
 30
0.0
 11
424.1027652953855
 21
315.9878476459299
 31
0.0
  0
INSERT
  5
1D12
330
18
100
AcDbEntity
  8
0
  6
ByBlock
 62
     2
100
AcDbBlockReference
  2
_OPEN
 10
424.1027652953855
 20
329.4378476459298
 30
0.0
 41
2.5
 42
2.5
 43
2.5
 50
90.0
  0
INSERT
  5
1D13
330
18
100
AcDbEntity
  8
0
  6
ByBlock
 62
     2
100
AcDbBlockReference
  2
_OPEN
 10
424.1027652953855
 20
313.4878476459299
 30
0.0
 41
2.5
 42
2.5
 43
2.5
 50
270.0
  0
MTEXT
  5
1D14
330
18
100
AcDbEntity
  8
0
  6
ByBlock
 62
     6
100
AcDbMText
 10
422.5464611638302
 20
321.4628476459298
 30
0.0
 40
2.5
 41
0.0
 71
     5
 72
     1
  1
\A1;16
  7
STYLE3
 11
0.0000000000000001
 21
1.0
 31
0.0
 73
     1
 44
1.0
  0
POINT
  5
1D15
330
18
100
AcDbEntity
  8
DEFPOINTS
  6
ByBlock
 62
     0
100
AcDbPoint
 10
402.6797299563935
 20
329.4378476459298
 30
0.0
  0
POINT
  5
1D16
330
18
100
AcDbEntity
  8
DEFPOINTS
  6
ByBlock
 62
     0
100
AcDbPoint
 10
409.0797299563935
 20
313.4878476459299
 30
0.0
  0
POINT
  5
1D17
330
18
100
AcDbEntity
  8
DEFPOINTS
  6
ByBlock
 62
     0
100
AcDbPoint
 10
406.2036225836518
 20
313.4878476459299
 30
0.0
  0
POINT
  5
1D1E
330
18
100
AcDbEntity
  8
DEFPOINTS
  6
ByBlock
 62
     0
100
AcDbPoint
 10
396.2797299563935
 20
313.4878476459298
 30
0.0
  0
POINT
  5
1D1F
330
18
100
AcDbEntity
  8
DEFPOINTS
  6
ByBlock
 62
     0
100
AcDbPoint
 10
409.0797299563935
 20
313.4878476459299
 30
0.0
  0
POINT
  5
1D27
330
18
100
AcDbEntity
  8
DEFPOINTS
  6
ByBlock
 62
     0
100
AcDbPoint
 10
387.2159879878006
 20
295.8378476459298
 30
0.0
  0
LINE
  5
1D2A
330
18
100
AcDbEntity
  8
0
  6
ByBlock
 62
     2
100
AcDbLine
 10
322.0968561735433
 20
329.4378476459299
 30
0.0
 11
357.4645627481602
 21
329.4378476459299
 31
0.0
  0
LINE
  5
1D2B
330
18
100
AcDbEntity
  8
0
  6
ByBlock
 62
     2
100
AcDbLine
 10
322.0968561735433
 20
207.9378476459299
 30
0.0
 11
357.4645627481602
 21
207.9378476459299
 31
0.0
  0
LINE
  5
1D2C
330
18
100
AcDbEntity
  8
0
  6
ByBlock
 62
     2
100
AcDbLine
 10
356.2145627481602
 20
326.9378476459299
 30
0.0
 11
356.2145627481602
 21
210.4378476459299
 31
0.0
  0
INSERT
  5
1D2D
330
18
100
AcDbEntity
  8
0
  6
ByBlock
 62
     2
100
AcDbBlockReference
  2
_OPEN
 10
356.2145627481602
 20
329.4378476459299
 30
0.0
 41
2.5
 42
2.5
 43
2.5
 50
90.0
  0
INSERT
  5
1D2E
330
18
100
AcDbEntity
  8
0
  6
ByBlock
 62
     2
100
AcDbBlockReference
  2
_OPEN
 10
356.2145627481602
 20
207.9378476459299
 30
0.0
 41
2.5
 42
2.5
 43
2.5
 50
270.0
  0
MTEXT
  5
1D2F
330
18
100
AcDbEntity
  8
0
  6
ByBlock
 62
     6
100
AcDbMText
 10
354.3395627481602
 20
268.6878476459299
 30
0.0
 40
2.5
 41
0.0
 71
     5
 72
     1
  1
\A1;121.5
  7
STYLE3
 11
0.0000000000000001
 21
1.0
 31
0.0
 73
     1
 44
1.0
  0
POINT
  5
1D30
330
18
100
AcDbEntity
  8
DEFPOINTS
  6
ByBlock
 62
     0
100
AcDbPoint
 10
322.0968561735433
 20
329.4378476459299
 30
0.0
  0
POINT
  5
1D31
330
18
100
AcDbEntity
  8
DEFPOINTS
  6
ByBlock
 62
     0
100
AcDbPoint
 10
322.0968561735433
 20
207.9378476459299
 30
0.0
  0
POINT
  5
1D32
330
18
100
AcDbEntity
  8
DEFPOINTS
  6
ByBlock
 62
     0
100
AcDbPoint
 10
356.2145627481602
 20
207.9378476459299
 30
0.0
  0
LINE
  5
1D33
330
18
100
AcDbEntity
  8
0
  6
ByBlock
 62
     2
100
AcDbLine
 10
342.7420587646341
 20
295.8378476459299
 30
0.0
 11
350.938363437485
 21
295.8378476459299
 31
0.0
  0
LINE
  5
1D34
330
18
100
AcDbEntity
  8
0
  6
ByBlock
 62
     2
100
AcDbLine
 10
345.5976877045733
 20
208.9378476459299
 30
0.0
 11
350.938363437485
 21
208.9378476459299
 31
0.0
  0
LINE
  5
1D35
330
18
100
AcDbEntity
  8
0
  6
ByBlock
 62
     2
100
AcDbLine
 10
349.6883634374849
 20
293.3378476459299
 30
0.0
 11
349.6883634374849
 21
211.4378476459299
 31
0.0
  0
INSERT
  5
1D36
330
18
100
AcDbEntity
  8
0
  6
ByBlock
 62
     2
100
AcDbBlockReference
  2
_OPEN
 10
349.6883634374849
 20
295.8378476459299
 30
0.0
 41
2.5
 42
2.5
 43
2.5
 50
90.0
  0
INSERT
  5
1D37
330
18
100
AcDbEntity
  8
0
  6
ByBlock
 62
     2
100
AcDbBlockReference
  2
_OPEN
 10
349.6883634374849
 20
208.9378476459299
 30
0.0
 41
2.5
 42
2.5
 43
2.5
 50
270.0
  0
MTEXT
  5
1D38
330
18
100
AcDbEntity
  8
0
  6
ByBlock
 62
     6
100
AcDbMText
 10
347.813363437485
 20
252.3878476459299
 30
0.0
 40
2.5
 41
0.0
 71
     5
 72
     1
  1
\A1;86.9
  7
STYLE3
 11
0.0000000000000001
 21
1.0
 31
0.0
 73
     1
 44
1.0
  0
POINT
  5
1D39
330
18
100
AcDbEntity
  8
DEFPOINTS
  6
ByBlock
 62
     0
100
AcDbPoint
 10
342.7420587646341
 20
295.8378476459299
 30
0.0
  0
POINT
  5
1D3A
330
18
100
AcDbEntity
  8
DEFPOINTS
  6
ByBlock
 62
     0
100
AcDbPoint
 10
345.5976877045733
 20
208.9378476459299
 30
0.0
  0
POINT
  5
1D3B
330
18
100
AcDbEntity
  8
DEFPOINTS
  6
ByBlock
 62
     0
100
AcDbPoint
 10
349.6883634374849
 20
208.9378476459299
 30
0.0
  0
LINE
  5
1D3C
330
18
100
AcDbEntity
  8
0
  6
ByBlock
 62
     2
100
AcDbLine
 10
390.2797299563934
 20
313.3378476459299
 30
0.0
 11
377.7698926394462
 21
313.3378476459299
 31
0.0
  0
LINE
  5
1D3D
330
18
100
AcDbEntity
  8
0
  6
ByBlock
 62
     2
100
AcDbLine
 10
390.2797299563934
 20
278.3378476459299
 30
0.0
 11
377.7698926394462
 21
278.3378476459299
 31
0.0
  0
LINE
  5
1D3E
330
18
100
AcDbEntity
  8
0
  6
ByBlock
 62
     2
100
AcDbLine
 10
379.0198926394461
 20
310.8378476459299
 30
0.0
 11
379.0198926394461
 21
280.8378476459299
 31
0.0
  0
INSERT
  5
1D3F
330
18
100
AcDbEntity
  8
0
  6
ByBlock
 62
     2
100
AcDbBlockReference
  2
_OPEN
 10
379.0198926394461
 20
313.3378476459299
 30
0.0
 41
2.5
 42
2.5
 43
2.5
 50
90.0
  0
INSERT
  5
1D40
330
18
100
AcDbEntity
  8
0
  6
ByBlock
 62
     2
100
AcDbBlockReference
  2
_OPEN
 10
379.0198926394461
 20
278.3378476459299
 30
0.0
 41
2.5
 42
2.5
 43
2.5
 50
270.0
  0
MTEXT
  5
1D41
330
18
100
AcDbEntity
  8
0
  6
ByBlock
 62
     6
100
AcDbMText
 10
377.1448926394461
 20
295.8378476459299
 30
0.0
 40
2.5
 41
0.0
 71
     5
 72
     1
  1
2-φ35
  7
STYLE3
 11
0.0000000000000001
 21
1.0
 31
0.0
 73
     1
 44
1.0
  0
POINT
  5
1D42
330
18
100
AcDbEntity
  8
DEFPOINTS
  6
ByBlock
 62
     0
100
AcDbPoint
 10
390.2797299563934
 20
313.3378476459299
 30
0.0
  0
POINT
  5
1D43
330
18
100
AcDbEntity
  8
DEFPOINTS
  6
ByBlock
 62
     0
100
AcDbPoint
 10
390.2797299563934
 20
278.3378476459299
 30
0.0
  0
POINT
  5
1D44
330
18
100
AcDbEntity
  8
DEFPOINTS
  6
ByBlock
 62
     0
100
AcDbPoint
 10
379.0198926394461
 20
278.3378476459299
 30
0.0
  0
LINE
  5
1D45
330
18
100
AcDbEntity
  8
0
  6
ByBlock
 62
     2
100
AcDbLine
 10
329.296248506986
 20
251.8378476459299
 30
0.0
 11
345.5976877045733
 21
251.8378476459299
 31
0.0
  0
LINE
  5
1D46
330
18
100
AcDbEntity
  8
0
  6
ByBlock
 62
     2
100
AcDbLine
 10
326.2279047729319
 20
208.9378476459299
 30
0.0
 11
345.5976877045733
 21
208.9378476459299
 31
0.0
  0
LINE
  5
1D47
330
18
100
AcDbEntity
  8
0
  6
ByBlock
 62
     2
100
AcDbLine
 10
344.3476877045733
 20
249.3378476459299
 30
0.0
 11
344.3476877045733
 21
211.4378476459299
 31
0.0
  0
INSERT
  5
1D48
330
18
100
AcDbEntity
  8
0
  6
ByBlock
 62
     2
100
AcDbBlockReference
  2
_OPEN
 10
344.3476877045733
 20
251.8378476459299
 30
0.0
 41
2.5
 42
2.5
 43
2.5
 50
90.0
  0
INSERT
  5
1D49
330
18
100
AcDbEntity
  8
0
  6
ByBlock
 62
     2
100
AcDbBlockReference
  2
_OPEN
 10
344.3476877045733
 20
208.9378476459299
 30
0.0
 41
2.5
 42
2.5
 43
2.5
 50
270.0
  0
MTEXT
  5
1D4A
330
18
100
AcDbEntity
  8
0
  6
ByBlock
 62
     6
100
AcDbMText
 10
342.4726877045733
 20
230.3878476459299
 30
0.0
 40
2.5
 41
0.0
 71
     5
 72
     1
  1
\A1;42.9
  7
STYLE3
 11
0.0000000000000001
 21
1.0
 31
0.0
 73
     1
 44
1.0
  0
POINT
  5
1D4B
330
18
100
AcDbEntity
  8
DEFPOINTS
  6
ByBlock
 62
     0
100
AcDbPoint
 10
329.296248506986
 20
251.8378476459299
 30
0.0
  0
POINT
  5
1D4C
330
18
100
AcDbEntity
  8
DEFPOINTS
  6
ByBlock
 62
     0
100
AcDbPoint
 10
326.2279047729319
 20
208.9378476459299
 30
0.0
  0
POINT
  5
1D4D
330
18
100
AcDbEntity
  8
DEFPOINTS
  6
ByBlock
 62
     0
100
AcDbPoint
 10
344.3476877045733
 20
208.9378476459299
 30
0.0
  0
LINE
  5
1D4E
330
18
100
AcDbEntity
  8
0
  6
ByBlock
 62
     2
100
AcDbLine
 10
317.0968561735433
 20
249.8378476459299
 30
0.0
 11
317.0968561735433
 21
233.3066517397784
 31
0.0
  0
LINE
  5
1D4F
330
18
100
AcDbEntity
  8
0
  6
ByBlock
 62
     2
100
AcDbLine
 10
327.0968561735433
 20
249.8378476459299
 30
0.0
 11
327.0968561735433
 21
233.3066517397784
 31
0.0
  0
LINE
  5
1D50
330
18
100
AcDbEntity
  8
0
  6
ByBlock
 62
     2
100
AcDbLine
 10
319.5968561735433
 20
234.5566517397784
 30
0.0
 11
324.5968561735433
 21
234.5566517397784
 31
0.0
  0
LINE
  5
1D51
330
18
100
AcDbEntity
  8
0
  6
ByBlock
 62
     2
100
AcDbLine
 10
327.0968561735433
 20
234.5566517397784
 30
0.0
 11
337.9897133164005
 21
234.5566517397784
 31
0.0
  0
INSERT
  5
1D52
330
18
100
AcDbEntity
  8
0
  6
ByBlock
 62
     2
100
AcDbBlockReference
  2
_OPEN
 10
317.0968561735433
 20
234.5566517397784
 30
0.0
 41
2.5
 42
2.5
 43
2.5
 50
180.0
  0
INSERT
  5
1D53
330
18
100
AcDbEntity
  8
0
  6
ByBlock
 62
     2
100
AcDbBlockReference
  2
_OPEN
 10
327.0968561735433
 20
234.5566517397784
 30
0.0
 41
2.5
 42
2.5
 43
2.5
  0
MTEXT
  5
1D54
330
18
100
AcDbEntity
  8
0
  6
ByBlock
 62
     6
100
AcDbMText
 10
333.7932847449719
 20
237.0864136445403
 30
0.0
 40
2.5
 41
0.0
 71
     5
 72
     1
  1
\A1;(10)
  7
STYLE3
 73
     1
 44
1.0
  0
POINT
  5
1D55
330
18
100
AcDbEntity
  8
DEFPOINTS
  6
ByBlock
 62
     0
100
AcDbPoint
 10
317.0968561735433
 20
249.8378476459299
 30
0.0
  0
POINT
  5
1D56
330
18
100
AcDbEntity
  8
DEFPOINTS
  6
ByBlock
 62
     0
100
AcDbPoint
 10
327.0968561735433
 20
249.8378476459299
 30
0.0
  0
POINT
  5
1D57
330
18
100
AcDbEntity
  8
DEFPOINTS
  6
ByBlock
 62
     0
100
AcDbPoint
 10
327.0968561735433
 20
234.5566517397784
 30
0.0
  0
LINE
  5
1D58
330
18
100
AcDbEntity
  8
0
  6
ByBlock
 62
     2
100
AcDbLine
 10
318.2968561735433
 20
248.3378476459299
 30
0.0
 11
308.5360485686231
 21
248.3378476459299
 31
0.0
  0
LINE
  5
1D59
330
18
100
AcDbEntity
  8
0
  6
ByBlock
 62
     2
100
AcDbLine
 10
318.3482513572211
 20
208.9378476459299
 30
0.0
 11
308.5360485686231
 21
208.9378476459299
 31
0.0
  0
LINE
  5
1D5A
330
18
100
AcDbEntity
  8
0
  6
ByBlock
 62
     2
100
AcDbLine
 10
309.7860485686231
 20
245.8378476459299
 30
0.0
 11
309.7860485686231
 21
211.4378476459299
 31
0.0
  0
INSERT
  5
1D5B
330
18
100
AcDbEntity
  8
0
  6
ByBlock
 62
     2
100
AcDbBlockReference
  2
_OPEN
 10
309.7860485686231
 20
248.3378476459299
 30
0.0
 41
2.5
 42
2.5
 43
2.5
 50
90.0
  0
INSERT
  5
1D5C
330
18
100
AcDbEntity
  8
0
  6
ByBlock
 62
     2
100
AcDbBlockReference
  2
_OPEN
 10
309.7860485686231
 20
208.9378476459299
 30
0.0
 41
2.5
 42
2.5
 43
2.5
 50
270.0
  0
MTEXT
  5
1D5D
330
18
100
AcDbEntity
  8
0
  6
ByBlock
 62
     6
100
AcDbMText
 10
307.9110485686231
 20
228.6378476459299
 30
0.0
 40
2.5
 41
0.0
 71
     5
 72
     1
  1
\A1;39.4
  7
STYLE3
 11
0.0000000000000001
 21
1.0
 31
0.0
 73
     1
 44
1.0
  0
POINT
  5
1D5E
330
18
100
AcDbEntity
  8
DEFPOINTS
  6
ByBlock
 62
     0
100
AcDbPoint
 10
318.2968561735433
 20
248.3378476459299
 30
0.0
  0
POINT
  5
1D5F
330
18
100
AcDbEntity
  8
DEFPOINTS
  6
ByBlock
 62
     0
100
AcDbPoint
 10
318.3482513572211
 20
208.9378476459299
 30
0.0
  0
POINT
  5
1D60
330
18
100
AcDbEntity
  8
DEFPOINTS
  6
ByBlock
 62
     0
100
AcDbPoint
 10
309.7860485686231
 20
208.9378476459299
 30
0.0
  0
LINE
  5
1D61
330
18
100
AcDbEntity
  8
0
  6
ByBlock
 62
     2
100
AcDbLine
 10
257.8914869244393
 20
227.7371440847807
 30
0.0
 11
257.8914869244393
 21
238.7629083135256
 31
0.0
  0
LINE
  5
1D62
330
18
100
AcDbEntity
  8
0
  6
ByBlock
 62
     2
100
AcDbLine
 10
270.3456178692331
 20
227.7371440847808
 30
0.0
 11
270.3456178692331
 21
238.7629083135256
 31
0.0
  0
LINE
  5
1D63
330
18
100
AcDbEntity
  8
0
  6
ByBlock
 62
     2
100
AcDbLine
 10
260.3914869244393
 20
237.5129083135255
 30
0.0
 11
267.8456178692331
 21
237.5129083135255
 31
0.0
  0
INSERT
  5
1D64
330
18
100
AcDbEntity
  8
0
  6
ByBlock
 62
     2
100
AcDbBlockReference
  2
_OPEN
 10
257.8914869244393
 20
237.5129083135255
 30
0.0
 41
2.5
 42
2.5
 43
2.5
 50
180.0
  0
INSERT
  5
1D65
330
18
100
AcDbEntity
  8
0
  6
ByBlock
 62
     2
100
AcDbBlockReference
  2
_OPEN
 10
270.3456178692331
 20
237.5129083135255
 30
0.0
 41
2.5
 42
2.5
 43
2.5
  0
MTEXT
  5
1D66
330
18
100
AcDbEntity
  8
0
  6
ByBlock
 62
     6
100
AcDbMText
 10
264.1185523968362
 20
240.0426702182874
 30
0.0
 40
2.5
 41
0.0
 71
     5
 72
     1
  1
\A1;(6.35)
  7
STYLE3
 73
     1
 44
1.0
  0
POINT
  5
1D67
330
18
100
AcDbEntity
  8
DEFPOINTS
  6
ByBlock
 62
     0
100
AcDbPoint
 10
257.8914869244393
 20
227.7371440847807
 30
0.0
  0
POINT
  5
1D68
330
18
100
AcDbEntity
  8
DEFPOINTS
  6
ByBlock
 62
     0
100
AcDbPoint
 10
270.3456178692331
 20
227.7371440847808
 30
0.0
  0
POINT
  5
1D69
330
18
100
AcDbEntity
  8
DEFPOINTS
  6
ByBlock
 62
     0
100
AcDbPoint
 10
270.3456178692331
 20
237.5129083135255
 30
0.0
  0
LINE
  5
1D6A
330
18
100
AcDbEntity
  8
0
  6
ByBlock
 62
     2
100
AcDbLine
 10
255.7014869244392
 20
225.9371440847806
 30
0.0
 11
255.7014869244392
 21
245.362889715928
 31
0.0
  0
LINE
  5
1D6B
330
18
100
AcDbEntity
  8
0
  6
ByBlock
 62
     2
100
AcDbLine
 10
272.7814869244394
 20
225.9371440847806
 30
0.0
 11
272.7814869244394
 21
245.362889715928
 31
0.0
  0
LINE
  5
1D6C
330
18
100
AcDbEntity
  8
0
  6
ByBlock
 62
     2
100
AcDbLine
 10
258.2014869244392
 20
244.112889715928
 30
0.0
 11
270.2814869244394
 21
244.112889715928
 31
0.0
  0
INSERT
  5
1D6D
330
18
100
AcDbEntity
  8
0
  6
ByBlock
 62
     2
100
AcDbBlockReference
  2
_OPEN
 10
255.7014869244392
 20
244.112889715928
 30
0.0
 41
2.5
 42
2.5
 43
2.5
 50
180.0
  0
INSERT
  5
1D6E
330
18
100
AcDbEntity
  8
0
  6
ByBlock
 62
     2
100
AcDbBlockReference
  2
_OPEN
 10
272.7814869244394
 20
244.112889715928
 30
0.0
 41
2.5
 42
2.5
 43
2.5
  0
MTEXT
  5
1D6F
330
18
100
AcDbEntity
  8
0
  6
ByBlock
 62
     6
100
AcDbMText
 10
264.2414869244393
 20
245.9878897159279
 30
0.0
 40
2.5
 41
0.0
 71
     5
 72
     1
  1
\A1;8.54
  7
STYLE3
 73
     1
 44
1.0
  0
POINT
  5
1D70
330
18
100
AcDbEntity
  8
DEFPOINTS
  6
ByBlock
 62
     0
100
AcDbPoint
 10
255.7014869244392
 20
225.9371440847806
 30
0.0
  0
POINT
  5
1D71
330
18
100
AcDbEntity
  8
DEFPOINTS
  6
ByBlock
 62
     0
100
AcDbPoint
 10
272.7814869244394
 20
225.9371440847806
 30
0.0
  0
POINT
  5
1D72
330
18
100
AcDbEntity
  8
DEFPOINTS
  6
ByBlock
 62
     0
100
AcDbPoint
 10
272.7814869244394
 20
244.112889715928
 30
0.0
  0
LINE
  5
1D73
330
18
100
AcDbEntity
  8
文字
 62
     2
100
AcDbLine
 10
396.4181810335075
 20
261.5216651738042
 30
0.0
 11
389.6621367051431
 21
249.5947123618209
 31
0.0
1001
ACAD
1000
DSTYLE
1002
{
1070
   271
1070
     2
1002
}
  0
LINE
  5
1D74
330
18
100
AcDbEntity
  8
文字
 62
     2
100
AcDbLine
 10
389.6621367051431
 20
249.5947123618209
 30
0.0
 11
384.7514224194288
 21
249.5947123618209
 31
0.0
1001
ACAD
1000
DSTYLE
1002
{
1070
   271
1070
     2
1002
}
  0
TEXT
  5
1D75
330
18
100
AcDbEntity
  8
外形線
 62
     6
100
AcDbText
 10
385.8208190826805
 20
250.2952152022633
 30
0.0
 40
2.5
  1
C
  7
STYLE3
100
AcDbText
  0
HATCH
  5
1D76
330
18
100
AcDbEntity
  8
ROGO
 62
     4
100
AcDbHatch
 10
0.0
 20
0.0
 30
0.0
210
0.0
220
0.0
230
1.0
  2
SOLID
 70
     1
 71
     1
 91
        1
 92
        7
 72
     0
 73
     1
 93
       11
 10
325.9965737727194
 20
300.8378476459299
 10
326.5437483991795
 20
300.8378476459299
 10
326.7370108472803
 20
301.2254327447416
 10
326.9302732953812
 20
300.8378476459299
 10
327.4774359501005
 20
300.8378476459299
 10
327.10721741282
 20
301.5803156719937
 10
328.0067052475908
 20
302.3227836980576
 10
327.4595425928716
 20
302.3227836980576
 10
327.203344812644
 20
302.1606588987142
 10
327.2841854737403
 20
302.3227836980576
 10
326.7370108472803
 20
302.3227836980575
 97
       11
330
1DC4
330
1DC7
330
1DC6
330
1DC5
330
1D7B
330
1D78
330
1DC1
330
1DC0
330
1DC2
330
1DBF
330
1DC3
 75
     0
 76
     1
 47
0.0514683685270805
 98
        1
 10
326.689919059767
 20
301.6857171949232
450
        0
451
        0
460
0.0
461
0.0
452
        0
462
0.0
453
        0
470

  0
HATCH
  5
1D77
330
18
100
AcDbEntity
  8
ROGO
 62
     4
100
AcDbHatch
 10
0.0
 20
0.0
 30
0.0
210
0.0
220
0.0
230
1.0
  2
SOLID
 70
     1
 71
     1
 91
        1
 92
        5
 93
        8
 72
     4
 94
        3
 73
     0
 74
     0
 95
       26
 96
       22
 40
0.0
 40
0.0
 40
0.0
 40
0.0
 40
0.1723984759424608
 40
0.2878059064036966
 40
0.3710240621887089
 40
0.4331603664333254
 40
0.5137544142124919
 40
0.5725802121924054
 40
0.6788058922657609
 40
0.7652720686804421
 40
0.824082923352279
 40
0.8817499774613345
 40
0.9849051260984204
 40
1.057848128260906
 40
1.097133570529051
 40
1.152937380796411
 40
1.193234564309733
 40
1.251611879021433
 40
1.284648389624335
 40
1.356539542405977
 40
1.389365667278781
 40
1.389365667278781
 40
1.389365667278781
 40
1.389365667278781
 10
325.5862885965473
 20
302.3227836980576
 10
325.5277738901087
 20
302.3192926103292
 10
325.4300881186282
 20
302.3134645096892
 10
325.3228297357927
 20
302.2483061939865
 10
325.2442459652777
 20
302.2104260126122
 10
325.1882001154491
 20
302.1589311332131
 10
325.1471182803317
 20
302.1057406844235
 10
325.0953269148663
 20
302.0423646546932
 10
325.0530925362691
 20
301.9685658326529
 10
325.0315851348428
 20
301.8872266651832
 10
325.0125340827866
 20
301.8223988767652
 10
324.9984055036494
 20
301.7501567667721
 10
325.0020002141567
 20
301.6721098745342
 10
325.0071480041201
 20
301.5996239166094
 10
325.0301316345292
 20
301.5478797952872
 10
325.0563059184627
 20
301.5110415465511
 10
325.0883559706841
 20
301.4704682996323
 10
325.1234257365855
 20
301.4435967695793
 10
325.1524312955791
 20
301.3949171871652
 10
325.203204548114
 20
301.3887053213696
 10
325.2354780473622
 20
301.3763418544427
 10
325.2455949444028
 20
301.3724662312571
 72
     1
 10
325.2455949444027
 20
301.3724662312571
 11
326.0641158885919
 21
301.3724662312571
 72
     1
 10
326.0641158885919
 20
301.3724662312571
 11
326.2404202853711
 21
301.726042198643
 72
     1
 10
326.2404202853711
 20
301.726042198643
 11
325.6327466599344
 21
301.7260421986429
 72
     4
 94
        3
 73
     0
 74
     0
 95
       16
 96
       12
 40
0.0
 40
0.0
 40
0.0
 40
0.0
 40
0.0520638816757992
 40
0.1046647644702509
 40
0.1360388269655522
 40
0.1661200957203435
 40
0.1991564750640134
 40
0.2222266184462811
 40
0.24411818227865
 40
0.2885111307737157
 40
0.3794005943324707
 40
0.3794005943324707
 40
0.3794005943324707
 40
0.3794005943324707
 10
325.6327466599345
 20
301.7260421986429
 10
325.6144170819159
 20
301.7314350292559
 10
325.5775688695968
 20
301.742276313612
 10
325.5744849717816
 20
301.7948308774038
 10
325.5786863363921
 20
301.8322803046306
 10
325.5962816607647
 20
301.8595456745577
 10
325.6176278410968
 20
301.8793848185863
 10
325.6255759707638
 20
301.9052222017125
 10
325.6489387737698
 20
301.9247326585111
 10
325.690367283435
 20
301.9575270109601
 10
325.7361800434241
 20
301.9645114752893
 10
325.7669593377635
 20
301.9692039863592
 72
     1
 10
325.7669593377635
 20
301.9692039863593
 11
326.3616686061212
 21
301.9692039863593
 72
     1
 10
326.3616686061212
 20
301.9692039863593
 11
326.5379748699356
 21
302.3227836980577
 72
     1
 10
326.5379748699356
 20
302.3227836980577
 11
325.5862885965473
 21
302.3227836980575
 97
        8
330
1D79
330
1D9D
330
1DA9
330
1DA2
330
1DBD
330
1DBC
330
1DBE
330
1D7A
 75
     0
 76
     1
 47
0.0514683685270805
 98
        1
 10
325.7505077866251
 20
302.1487773375758
450
        0
451
        0
460
0.0
461
0.0
452
        0
462
0.0
453
        0
470

  0
LINE
  5
1D78
102
{ACAD_REACTORS
330
1D76
330
1D81
102
}
330
18
100
AcDbEntity
  8
ROGO
 62
     4
100
AcDbLine
 10
316.4922091903753
 20
300.8378476459299
 30
0.0
 11
326.5437483991795
 21
300.8378476459299
 31
0.0
  0
LINE
  5
1D79
102
{ACAD_REACTORS
330
1D77
102
}
330
18
100
AcDbEntity
  8
ROGO
 62
     4
100
AcDbLine
 10
325.5862885965476
 20
302.3227836980576
 30
0.0
 11
326.5379748699356
 21
302.3227836980576
 31
0.0
  0
LINE
  5
1D7A
102
{ACAD_REACTORS
330
1D77
102
}
330
18
100
AcDbEntity
  8
ROGO
 62
     4
100
AcDbLine
 10
326.5379748699356
 20
302.3227836980576
 30
0.0
 11
326.3616686061212
 21
301.9692039863593
 31
0.0
  0
LINE
  5
1D7B
102
{ACAD_REACTORS
330
1D76
102
}
330
18
100
AcDbEntity
  8
ROGO
 62
     4
100
AcDbLine
 10
326.7370108472803
 20
302.3227836980576
 30
0.0
 11
325.9965737727195
 21
300.8378476459299
 31
0.0
  0
HATCH
  5
1D7C
330
18
100
AcDbEntity
  8
ROGO
 62
     4
100
AcDbHatch
 10
0.0
 20
0.0
 30
0.0
210
0.0
220
0.0
230
1.0
  2
SOLID
 70
     1
 71
     0
 91
        1
 92
        7
 72
     0
 73
     1
 93
        4
 10
317.2498115763668
 20
300.9866903097447
 10
317.1824709331463
 20
300.8378476459299
 10
325.9965737727195
 20
300.8378476459299
 10
326.0707915320681
 20
300.9866903097447
 97
        0
 75
     0
 76
     1
 47
0.0514683685270805
 98
        1
 10
322.819544685661
 20
300.9473238172402
450
        0
451
        0
460
0.0
461
0.0
452
        0
462
0.0
453
        0
470

  0
HATCH
  5
1D7D
330
18
100
AcDbEntity
  8
ROGO
 62
     4
100
AcDbHatch
 10
0.0
 20
0.0
 30
0.0
210
0.0
220
0.0
230
1.0
  2
SOLID
 70
     1
 71
     1
 91
        2
 92
        7
 72
     0
 73
     1
 93
        8
 10
321.2902375439246
 20
302.3227836980576
 10
320.7409912165854
 20
302.3227836980575
 10
320.055698822071
 20
301.3724662312572
 10
320.5820046013362
 20
301.3724662312571
 10
320.7124800332121
 20
301.5534007971338
 10
321.3187487272979
 20
301.5534007971339
 10
321.449224159174
 20
301.3724662312571
 10
321.975529938439
 20
301.3724662312571
 97
        8
330
1D7F
330
1D87
330
1D8C
330
1D88
330
1D7E
330
1DA0
330
1DA6
330
1D9F
 92
       22
 72
     0
 73
     1
 93
        3
 10
321.181132354833
 20
301.7442379398162
 10
320.8500964056771
 20
301.7442379398162
 10
321.015614380255
 20
301.9737671503692
 97
        3
330
1DAB
330
1DAA
330
1DAC
 75
     0
 76
     1
 47
0.0514683685270805
 98
        2
 10
321.3540631351789
 20
301.8358988219097
 10
321.3540631351789
 20
301.8358988219097
450
        0
451
        0
460
0.0
461
0.0
452
        0
462
0.0
453
        0
470

  0
LINE
  5
1D7E
102
{ACAD_REACTORS
330
1D7D
102
}
330
18
100
AcDbEntity
  8
ROGO
 62
     4
100
AcDbLine
 10
320.7124800332122
 20
301.5534007971339
 30
0.0
 11
321.3187487272979
 21
301.5534007971339
 31
0.0
  0
LINE
  5
1D7F
102
{ACAD_REACTORS
330
1D7D
102
}
330
18
100
AcDbEntity
  8
ROGO
 62
     4
100
AcDbLine
 10
320.7409912165855
 20
302.3227836980576
 30
0.0
 11
321.2902375439246
 21
302.3227836980576
 31
0.0
  0
LINE
  5
1D80
330
18
100
AcDbEntity
  8
ROGO
 62
     4
100
AcDbLine
 10
317.2394891797856
 20
300.9866903097447
 30
0.0
 11
326.070791532068
 21
300.9866903097447
 31
0.0
  0
HATCH
  5
1D81
330
18
100
AcDbEntity
  8
ROGO
 62
     4
100
AcDbHatch
 10
0.0
 20
0.0
 30
0.0
210
0.0
220
0.0
230
1.0
  2
SOLID
 70
     1
 71
     1
 91
        2
 92
        5
 93
        6
 72
     1
 10
316.4922091903753
 20
300.8378476459299
 11
317.1824709331463
 21
300.8378476459299
 72
     1
 10
317.1824709331463
 20
300.8378476459299
 11
317.4243475462814
 21
301.3724662312571
 72
     1
 10
317.4243475462814
 20
301.3724662312571
 11
318.0696007023272
 21
301.3724662312571
 72
     4
 94
        3
 73
     0
 74
     0
 95
       18
 96
       14
 40
0.108740278791501
 40
0.108740278791501
 40
0.108740278791501
 40
0.108740278791501
 40
0.6623149649549278
 40
1.384304701649787
 40
2.097394834876493
 40
2.774073369849618
 40
3.428974823686337
 40
4.005208313035923
 40
4.455173659284313
 40
4.720999734343524
 40
5.086034088486724
 40
5.569973738255373
 40
6.060470601257719
 40
6.060470601257719
 40
6.060470601257719
 40
6.060470601257719
 10
318.0696007023272
 20
301.3724662312571
 10
318.1150125534319
 20
301.3728043995621
 10
318.2196519870857
 20
301.3735836177409
 10
318.3660417359703
 20
301.4517882383001
 10
318.5048610442351
 20
301.5514152269798
 10
318.6166705533586
 20
301.6758887552289
 10
318.6863312462224
 20
301.818202909492
 10
318.6971214673613
 20
301.9545979544227
 10
318.6905343024533
 20
302.0624847392854
 10
318.6434657006051
 20
302.1376845067296
 10
318.5945321452678
 20
302.2140045805026
 10
318.5048045514403
 20
302.2801158631243
 10
318.4312857805779
 20
302.3090824324313
 10
318.3938999903273
 20
302.3227836980577
 72
     1
 10
318.3938999903274
 20
302.3227836980576
 11
317.2269417389137
 21
302.3227836980576
 72
     1
 10
317.2269417389137
 20
302.3227836980576
 11
316.4922091903753
 21
300.8378476459299
 97
        6
330
1D83
330
1D8D
330
1D84
330
1D78
330
1D8A
330
1D89
 92
       20
 93
        4
 72
     1
 10
317.5736926619698
 20
301.7025629423031
 11
317.6880350030934
 21
301.9552932077973
 72
     1
 10
317.6880350030934
 20
301.9552932077973
 11
317.9818460878854
 21
301.9552932077973
 72
     4
 94
        3
 73
     0
 74
     0
 95
       15
 96
       11
 40
0.0
 40
0.0
 40
0.0
 40
0.0
 40
0.1114278057886432
 40
0.1622327562563865
 40
0.2198997572250677
 40
0.259185199493265
 40
0.3213155338880433
 40
0.3585299069784071
 40
0.4223775764185194
 40
0.4436601464819452
 40
0.4436601464819452
 40
0.4436601464819452
 40
0.4436601464819452
 10
317.9818460878854
 20
301.9552932077973
 10
318.0236962109022
 20
301.9554849036997
 10
318.0846276880917
 20
301.9557640023896
 10
318.117947189953
 20
301.8803915888987
 10
318.1030118005395
 20
301.8318635125638
 10
318.0842367987926
 20
301.7820403032758
 10
318.0510571184492
 20
301.7481846811238
 10
318.0065251275028
 20
301.7155760097218
 10
317.9644402679674
 20
301.7116285840339
 10
317.9370687910244
 20
301.7043760713436
 10
317.9302259185131
 20
301.7025629423031
 72
     1
 10
317.930225918513
 20
301.7025629423031
 11
317.5736926619698
 21
301.7025629423031
 97
        4
330
1D90
330
1D8E
330
1D92
330
1D8F
 75
     0
 76
     1
 47
0.0514683685270805
 98
        2
 10
317.2331789497162
 20
301.8609291771481
 10
317.2331789497162
 20
301.8609291771481
450
        0
451
        0
460
0.0
461
0.0
452
        0
462
0.0
453
        0
470

  0
HATCH
  5
1D82
330
18
100
AcDbEntity
  8
ROGO
 62
     4
100
AcDbHatch
 10
0.0
 20
0.0
 30
0.0
210
0.0
220
0.0
230
1.0
  2
SOLID
 70
     1
 71
     1
 91
        1
 92
        1
 93
       12
 72
     1
 10
319.083309970117
 20
302.3227836980576
 11
320.3686538793972
 21
302.3227836980577
 72
     1
 10
320.3686538793972
 20
302.3227836980576
 11
320.2609431975278
 21
302.1050943156757
 72
     1
 10
320.2609431975278
 20
302.1050943156757
 11
319.5853989187299
 21
302.1050943156757
 72
     1
 10
319.5853989187299
 20
302.1050943156757
 11
319.5011825502529
 21
301.93488826998
 72
     1
 10
319.5011825502529
 20
301.93488826998
 11
320.1767268290509
 21
301.93488826998
 72
     1
 10
320.1767268290509
 20
301.93488826998
 11
320.0903708325676
 21
301.7603579150222
 72
     1
 10
320.0903708325676
 20
301.7603579150222
 11
319.4148265537697
 21
301.7603579150222
 72
     1
 10
319.4148265537697
 20
301.7603579150222
 11
319.3306066199765
 21
301.5901446636208
 72
     1
 10
319.3306066199766
 20
301.5901446636208
 11
320.0061508987745
 21
301.5901446636208
 72
     1
 10
320.0061508987745
 20
301.5901446636208
 11
319.8984456348723
 21
301.3724662312571
 72
     1
 10
319.8984456348723
 20
301.3724662312571
 11
318.613101725592
 21
301.3724662312571
 72
     1
 10
318.613101725592
 20
301.3724662312571
 11
319.083309970117
 21
302.3227836980576
 97
       12
330
1D91
330
1D93
330
1D95
330
1D94
330
1D96
330
1D99
330
1D98
330
1D9A
330
1D97
330
1D86
330
1D8B
330
1D85
 75
     0
 76
     1
 98
        1
 10
266.5067169930838
 20
236.6125832328918
450
        0
451
        0
460
0.0
461
0.0
452
        0
462
0.0
453
        0
470

  0
SPLINE
  5
1D83
102
{ACAD_REACTORS
330
1D81
102
}
330
18
100
AcDbEntity
  8
ROGO
 62
     4
100
AcDbSpline
210
0.0
220
0.0
230
1.0
 70
     8
 71
     3
 72
    18
 73
    14
 74
     0
 42
0.0000000001
 43
0.0000000001
 40
0.1087402787915014
 40
0.1087402787915014
 40
0.1087402787915014
 40
0.1087402787915014
 40
0.5992371417938475
 40
1.083176791562496
 40
1.448211145705696
 40
1.714037220764907
 40
2.164002567013297
 40
2.740236056362883
 40
3.395137510199602
 40
4.071816045172726
 40
4.784906178399433
 40
5.506895915094292
 40
6.060470601257719
 40
6.060470601257719
 40
6.060470601257719
 40
6.060470601257719
 10
318.3938999903273
 20
302.3227836980577
 30
0.0
 10
318.4312857805779
 20
302.3090824324313
 30
0.0
 10
318.5048045514403
 20
302.2801158631243
 30
0.0
 10
318.5945321452678
 20
302.2140045805026
 30
0.0
 10
318.6434657006051
 20
302.1376845067296
 30
0.0
 10
318.6905343024533
 20
302.0624847392854
 30
0.0
 10
318.6971214673613
 20
301.9545979544227
 30
0.0
 10
318.6863312462224
 20
301.818202909492
 30
0.0
 10
318.6166705533586
 20
301.6758887552289
 30
0.0
 10
318.5048610442351
 20
301.5514152269798
 30
0.0
 10
318.3660417359703
 20
301.4517882383001
 30
0.0
 10
318.2196519870857
 20
301.3735836177409
 30
0.0
 10
318.1150125534319
 20
301.3728043995621
 30
0.0
 10
318.0696007023272
 20
301.3724662312571
 30
0.0
  0
LINE
  5
1D84
102
{ACAD_REACTORS
330
1D81
102
}
330
18
100
AcDbEntity
  8
ROGO
 62
     4
100
AcDbLine
 10
317.2269417389137
 20
302.3227836980576
 30
0.0
 11
316.4922091903753
 21
300.8378476459299
 31
0.0
  0
LINE
  5
1D85
102
{ACAD_REACTORS
330
1D82
102
}
330
18
100
AcDbEntity
  8
ROGO
 62
     4
100
AcDbLine
 10
319.083309970117
 20
302.3227836980576
 30
0.0
 11
318.613101725592
 21
301.3724662312571
 31
0.0
  0
LINE
  5
1D86
102
{ACAD_REACTORS
330
1D82
102
}
330
18
100
AcDbEntity
  8
ROGO
 62
     4
100
AcDbLine
 10
320.0061508987745
 20
301.5901446636208
 30
0.0
 11
319.8984456348723
 21
301.3724662312571
 31
0.0
  0
LINE
  5
1D87
102
{ACAD_REACTORS
330
1D7D
102
}
330
18
100
AcDbEntity
  8
ROGO
 62
     4
100
AcDbLine
 10
320.7409912165855
 20
302.3227836980576
 30
0.0
 11
320.0556988220711
 21
301.3724662312571
 31
0.0
  0
LINE
  5
1D88
102
{ACAD_REACTORS
330
1D7D
102
}
330
18
100
AcDbEntity
  8
ROGO
 62
     4
100
AcDbLine
 10
320.7124800332122
 20
301.5534007971339
 30
0.0
 11
320.5820046013362
 21
301.3724662312571
 31
0.0
  0
LINE
  5
1D89
102
{ACAD_REACTORS
330
1D81
102
}
330
18
100
AcDbEntity
  8
ROGO
 62
     4
100
AcDbLine
 10
318.0696007025509
 20
301.3724662312571
 30
0.0
 11
317.4243475462814
 21
301.3724662312571
 31
0.0
  0
LINE
  5
1D8A
102
{ACAD_REACTORS
330
1D81
102
}
330
18
100
AcDbEntity
  8
ROGO
 62
     4
100
AcDbLine
 10
317.4243475462815
 20
301.3724662312571
 30
0.0
 11
317.1824709331463
 21
300.8378476459299
 31
0.0
  0
LINE
  5
1D8B
102
{ACAD_REACTORS
330
1D82
102
}
330
18
100
AcDbEntity
  8
ROGO
 62
     4
100
AcDbLine
 10
318.613101725592
 20
301.3724662312571
 30
0.0
 11
319.8984456348723
 21
301.3724662312571
 31
0.0
  0
LINE
  5
1D8C
102
{ACAD_REACTORS
330
1D7D
102
}
330
18
100
AcDbEntity
  8
ROGO
 62
     4
100
AcDbLine
 10
320.0556988220711
 20
301.3724662312571
 30
0.0
 11
320.5820046013362
 21
301.3724662312571
 31
0.0
  0
LINE
  5
1D8D
102
{ACAD_REACTORS
330
1D81
102
}
330
18
100
AcDbEntity
  8
ROGO
 62
     4
100
AcDbLine
 10
317.2269417389137
 20
302.3227836980576
 30
0.0
 11
318.3938999903273
 21
302.3227836980576
 31
0.0
  0
LINE
  5
1D8E
102
{ACAD_REACTORS
330
1D81
102
}
330
18
100
AcDbEntity
  8
ROGO
 62
     4
100
AcDbLine
 10
317.9818460878854
 20
301.9552932077973
 30
0.0
 11
317.6880350030934
 21
301.9552932077973
 31
0.0
  0
LINE
  5
1D8F
102
{ACAD_REACTORS
330
1D81
102
}
330
18
100
AcDbEntity
  8
ROGO
 62
     4
100
AcDbLine
 10
317.9302259185131
 20
301.7025629423031
 30
0.0
 11
317.5736926619699
 21
301.7025629423032
 31
0.0
  0
LINE
  5
1D90
102
{ACAD_REACTORS
330
1D81
102
}
330
18
100
AcDbEntity
  8
ROGO
 62
     4
100
AcDbLine
 10
317.6880350030934
 20
301.9552932077973
 30
0.0
 11
317.5736926619699
 21
301.7025629423032
 31
0.0
  0
LINE
  5
1D91
102
{ACAD_REACTORS
330
1D82
102
}
330
18
100
AcDbEntity
  8
ROGO
 62
     4
100
AcDbLine
 10
319.083309970117
 20
302.3227836980576
 30
0.0
 11
320.3686538793972
 21
302.3227836980577
 31
0.0
  0
SPLINE
  5
1D92
102
{ACAD_REACTORS
330
1D81
102
}
330
18
100
AcDbEntity
  8
ROGO
 62
     4
100
AcDbSpline
210
0.0
220
0.0
230
1.0
 70
     8
 71
     3
 72
    15
 73
    11
 74
     9
 42
0.0000000001
 43
0.0000000001
 44
0.0000000001
 40
0.0
 40
0.0
 40
0.0
 40
0.0
 40
0.1114278057886432
 40
0.1622327562563865
 40
0.2198997572250677
 40
0.259185199493265
 40
0.3213155338880433
 40
0.3585299069784071
 40
0.4223775764185194
 40
0.4436601464819452
 40
0.4436601464819452
 40
0.4436601464819452
 40
0.4436601464819452
 10
317.9818460878854
 20
301.9552932077973
 30
0.0
 10
318.0236962109022
 20
301.9554849036997
 30
0.0
 10
318.0846276880917
 20
301.9557640023896
 30
0.0
 10
318.117947189953
 20
301.8803915888987
 30
0.0
 10
318.1030118005395
 20
301.8318635125638
 30
0.0
 10
318.0842367987926
 20
301.7820403032758
 30
0.0
 10
318.0510571184492
 20
301.7481846811238
 30
0.0
 10
318.0065251275028
 20
301.7155760097218
 30
0.0
 10
317.9644402679674
 20
301.7116285840339
 30
0.0
 10
317.9370687910244
 20
301.7043760713436
 30
0.0
 10
317.9302259185131
 20
301.7025629423031
 30
0.0
 11
317.9818460878854
 21
301.9552932077973
 31
0.0
 11
318.0902485326151
 21
301.929504336564
 31
0.0
 11
318.1108966597293
 21
301.8830845364921
 31
0.0
 11
318.1005727445854
 21
301.8263491879269
 31
0.0
 11
318.0850867234563
 21
301.7902447682002
 31
0.0
 11
318.0437904692279
 21
301.7438249681284
 31
0.0
 11
318.0128184269698
 21
301.7231938711418
 31
0.0
 11
317.9508740456273
 21
301.7077207165498
 31
0.0
 11
317.9302259185131
 21
301.7025629423031
 31
0.0
  0
LINE
  5
1D93
102
{ACAD_REACTORS
330
1D82
102
}
330
18
100
AcDbEntity
  8
ROGO
 62
     4
100
AcDbLine
 10
320.3686538793972
 20
302.3227836980576
 30
0.0
 11
320.2609431975278
 21
302.1050943156757
 31
0.0
  0
LINE
  5
1D94
102
{ACAD_REACTORS
330
1D82
102
}
330
18
100
AcDbEntity
  8
ROGO
 62
     4
100
AcDbLine
 10
319.5853989187299
 20
302.1050943156757
 30
0.0
 11
319.5011825502529
 21
301.93488826998
 31
0.0
  0
LINE
  5
1D95
102
{ACAD_REACTORS
330
1D82
102
}
330
18
100
AcDbEntity
  8
ROGO
 62
     4
100
AcDbLine
 10
319.5853989187299
 20
302.1050943156757
 30
0.0
 11
320.2609431975278
 21
302.1050943156757
 31
0.0
  0
LINE
  5
1D96
102
{ACAD_REACTORS
330
1D82
102
}
330
18
100
AcDbEntity
  8
ROGO
 62
     4
100
AcDbLine
 10
319.5011825502529
 20
301.93488826998
 30
0.0
 11
320.1767268290509
 21
301.93488826998
 31
0.0
  0
LINE
  5
1D97
102
{ACAD_REACTORS
330
1D82
102
}
330
18
100
AcDbEntity
  8
ROGO
 62
     4
100
AcDbLine
 10
319.3306066199766
 20
301.5901446636208
 30
0.0
 11
320.0061508987745
 21
301.5901446636208
 31
0.0
  0
LINE
  5
1D98
102
{ACAD_REACTORS
330
1D82
102
}
330
18
100
AcDbEntity
  8
ROGO
 62
     4
100
AcDbLine
 10
319.4148265537697
 20
301.7603579150222
 30
0.0
 11
320.0903708325676
 21
301.7603579150222
 31
0.0
  0
LINE
  5
1D99
102
{ACAD_REACTORS
330
1D82
102
}
330
18
100
AcDbEntity
  8
ROGO
 62
     4
100
AcDbLine
 10
320.1767268290509
 20
301.93488826998
 30
0.0
 11
320.0903708325676
 21
301.7603579150222
 31
0.0
  0
LINE
  5
1D9A
102
{ACAD_REACTORS
330
1D82
102
}
330
18
100
AcDbEntity
  8
ROGO
 62
     4
100
AcDbLine
 10
319.4148265537697
 20
301.7603579150222
 30
0.0
 11
319.3306066199765
 21
301.5901446636208
 31
0.0
  0
HATCH
  5
1D9B
330
18
100
AcDbEntity
  8
ROGO
 62
     4
100
AcDbHatch
 10
0.0
 20
0.0
 30
0.0
210
0.0
220
0.0
230
1.0
  2
SOLID
 70
     1
 71
     1
 91
        2
 92
        7
 72
     1
 73
     1
 93
        4
 10
324.3419156809048
 20
302.3227836980576
 42
0.0
 10
323.957641681127
 20
302.3227836980576
 42
0.9597396185048657
 10
323.9576416811268
 20
301.3724662312571
 42
0.0
 10
324.3695313066317
 20
301.3724662312571
 42
0.9713627655752649
 97
        4
330
1DBB
330
1DA3
330
1DA8
330
1DA4
 92
       22
 72
     1
 73
     1
 93
        2
 10
324.2778298343973
 20
301.8016331475076
 42
0.1034173650209057
 10
324.2834888705478
 20
301.8421204795909
 42
0.0
 97
        8
330
1DB3
330
1DB9
330
1DB5
330
1DB8
330
1DB4
330
1DB7
330
1DB2
330
1DB6
 75
     0
 76
     1
 47
0.0514683685270805
 98
        2
 10
324.4353319448614
 20
301.9360199065673
 10
324.4353319448614
 20
301.9360199065673
450
        0
451
        0
460
0.0
461
0.0
452
        0
462
0.0
453
        0
470

  0
HATCH
  5
1D9C
330
18
100
AcDbEntity
  8
ROGO
 62
     4
100
AcDbHatch
 10
0.0
 20
0.0
 30
0.0
210
0.0
220
0.0
230
1.0
  2
SOLID
 70
     1
 71
     1
 91
        1
 92
        5
 93
        8
 72
     1
 10
323.2996611970401
 20
301.9692039863593
 11
323.4759674608545
 21
302.3227836980577
 72
     1
 10
323.4759674608545
 20
302.3227836980577
 11
322.5242811874663
 21
302.3227836980576
 72
     4
 94
        3
 73
     0
 74
     0
 95
       26
 96
       22
 40
0.0
 40
0.0
 40
0.0
 40
0.0
 40
0.172398475942452
 40
0.2878059064037132
 40
0.3710240621887256
 40
0.4331603664333846
 40
0.5137544142125073
 40
0.5725802121924657
 40
0.6788058922658211
 40
0.7652720686804854
 40
0.8240829233522674
 40
0.8817499774613789
 40
0.9849051260984648
 40
1.05784812826095
 40
1.097133570529095
 40
1.152937380796455
 40
1.193234564309741
 40
1.251611879021481
 40
1.284648389624348
 40
1.356539542406023
 40
1.389365667278791
 40
1.389365667278791
 40
1.389365667278791
 40
1.389365667278791
 10
322.5242811874662
 20
302.3227836980576
 10
322.4657664810276
 20
302.3192926103293
 10
322.368080709547
 20
302.3134645096893
 10
322.2608223267116
 20
302.2483061939865
 10
322.1822385561965
 20
302.2104260126122
 10
322.1261927063681
 20
302.1589311332131
 10
322.0851108712505
 20
302.1057406844236
 10
322.0333195057853
 20
302.0423646546932
 10
321.991085127188
 20
301.9685658326529
 10
321.9695777257618
 20
301.8872266651832
 10
321.9505266737055
 20
301.8223988767652
 10
321.9363980945684
 20
301.750156766772
 10
321.9399928050758
 20
301.6721098745344
 10
321.945140595039
 20
301.5996239166093
 10
321.9681242254483
 20
301.5478797952873
 10
321.9942985093815
 20
301.5110415465509
 10
322.0263485616031
 20
301.4704682996323
 10
322.0614183275044
 20
301.4435967695793
 10
322.090423886498
 20
301.3949171871652
 10
322.141197139033
 20
301.3887053213696
 10
322.1734706382811
 20
301.3763418544427
 10
322.1835875353217
 20
301.3724662312571
 72
     1
 10
322.1835875353217
 20
301.3724662312572
 11
323.0021084795108
 21
301.3724662312571
 72
     1
 10
323.0021084795108
 20
301.3724662312571
 11
323.1784128762901
 21
301.726042198643
 72
     1
 10
323.1784128762901
 20
301.726042198643
 11
322.5707392508534
 21
301.726042198643
 72
     4
 94
        3
 73
     0
 74
     0
 95
       16
 96
       12
 40
0.0
 40
0.0
 40
0.0
 40
0.0
 40
0.0520638816757735
 40
0.1046647644702809
 40
0.1360388269655169
 40
0.1661200957203374
 40
0.1991564750640073
 40
0.2222266184463259
 40
0.2441181822786546
 40
0.2885111307736739
 40
0.3794005943324437
 40
0.3794005943324437
 40
0.3794005943324437
 40
0.3794005943324437
 10
322.5707392508534
 20
301.726042198643
 10
322.5524096728349
 20
301.731435029256
 10
322.5155614605157
 20
301.7422763136121
 10
322.5124775627005
 20
301.7948308774037
 10
322.5166789273111
 20
301.8322803046306
 10
322.5342742516837
 20
301.8595456745576
 10
322.5556204320156
 20
301.8793848185863
 10
322.563568561683
 20
301.9052222017126
 10
322.5869313646889
 20
301.9247326585111
 10
322.6283598743537
 20
301.95752701096
 10
322.6741726343428
 20
301.9645114752893
 10
322.7049519286824
 20
301.9692039863593
 72
     1
 10
322.7049519286824
 20
301.9692039863592
 11
323.2996611970401
 21
301.9692039863593
 97
        8
330
1DB1
330
1D9E
330
1DA5
330
1DA1
330
1DB0
330
1DAD
330
1DAF
330
1DAE
 75
     0
 76
     1
 47
0.0514683685270805
 98
        1
 10
322.8571211128405
 20
302.1112318887921
450
        0
451
        0
460
0.0
461
0.0
452
        0
462
0.0
453
        0
470

  0
SPLINE
  5
1D9D
102
{ACAD_REACTORS
330
1D77
102
}
330
18
100
AcDbEntity
  8
ROGO
 62
     4
100
AcDbSpline
210
0.0
220
0.0
230
1.0
 70
     8
 71
     3
 72
    26
 73
    22
 74
    20
 42
0.0000000001
 43
0.0000000001
 44
0.0000000001
 40
0.0
 40
0.0
 40
0.0
 40
0.0
 40
0.1723984759424608
 40
0.2878059064036966
 40
0.3710240621887089
 40
0.4331603664333254
 40
0.5137544142124919
 40
0.5725802121924054
 40
0.6788058922657609
 40
0.7652720686804421
 40
0.824082923352279
 40
0.8817499774613345
 40
0.9849051260984204
 40
1.057848128260906
 40
1.097133570529051
 40
1.152937380796411
 40
1.193234564309733
 40
1.251611879021433
 40
1.284648389624335
 40
1.356539542405977
 40
1.389365667278781
 40
1.389365667278781
 40
1.389365667278781
 40
1.389365667278781
 10
325.5862885965473
 20
302.3227836980576
 30
0.0
 10
325.5277738901087
 20
302.3192926103292
 30
0.0
 10
325.4300881186282
 20
302.3134645096892
 30
0.0
 10
325.3228297357927
 20
302.2483061939865
 30
0.0
 10
325.2442459652777
 20
302.2104260126122
 30
0.0
 10
325.1882001154491
 20
302.1589311332131
 30
0.0
 10
325.1471182803317
 20
302.1057406844235
 30
0.0
 10
325.0953269148663
 20
302.0423646546932
 30
0.0
 10
325.0530925362691
 20
301.9685658326529
 30
0.0
 10
325.0315851348428
 20
301.8872266651832
 30
0.0
 10
325.0125340827866
 20
301.8223988767652
 30
0.0
 10
324.9984055036494
 20
301.7501567667721
 30
0.0
 10
325.0020002141567
 20
301.6721098745342
 30
0.0
 10
325.0071480041201
 20
301.5996239166094
 30
0.0
 10
325.0301316345292
 20
301.5478797952872
 30
0.0
 10
325.0563059184627
 20
301.5110415465511
 30
0.0
 10
325.0883559706841
 20
301.4704682996323
 30
0.0
 10
325.1234257365855
 20
301.4435967695793
 30
0.0
 10
325.1524312955791
 20
301.3949171871652
 30
0.0
 10
325.203204548114
 20
301.3887053213696
 30
0.0
 10
325.2354780473622
 20
301.3763418544427
 30
0.0
 10
325.2455949444028
 20
301.3724662312571
 30
0.0
 11
325.5862885965473
 21
302.3227836980576
 31
0.0
 11
325.415941770475
 21
302.2962659048917
 31
0.0
 11
325.3127011349041
 21
302.2446883305732
 31
0.0
 11
325.2404328384177
 21
302.2034263047479
 31
0.0
 11
325.1939747750304
 21
302.1621641107747
 31
0.0
 11
325.1423546056582
 21
302.1002709879628
 31
0.0
 11
325.1062204574149
 21
302.0538511878909
 31
0.0
 11
325.0545999912163
 21
301.9610114195991
 31
0.0
 11
325.0287900549433
 21
301.8784871998005
 31
0.0
 11
325.0133040338142
 21
301.8217518512352
 31
0.0
 11
325.0029798218439
 21
301.7650165026701
 31
0.0
 11
325.0029798218439
 21
301.661861354033
 31
0.0
 11
325.0133040338142
 21
301.5896526827278
 31
0.0
 11
325.0287900549433
 21
301.5535482630012
 31
0.0
 11
325.0597620972014
 21
301.5071284629292
 31
0.0
 11
325.0855723303008
 21
301.4761818174493
 31
0.0
 11
325.1268682877027
 21
301.434919791624
 31
0.0
 11
325.147516414817
 21
301.4091309203907
 31
0.0
 11
325.2146229021446
 21
301.3833422173055
 31
0.0
 11
325.2455949444028
 21
301.3724662312571
 31
0.0
  0
SPLINE
  5
1D9E
102
{ACAD_REACTORS
330
1D9C
102
}
330
18
100
AcDbEntity
  8
ROGO
 62
     4
100
AcDbSpline
210
0.0
220
0.0
230
1.0
 70
     8
 71
     3
 72
    26
 73
    22
 74
    20
 42
0.0000000001
 43
0.0000000001
 44
0.0000000001
 40
0.0
 40
0.0
 40
0.0
 40
0.0
 40
0.172398475942452
 40
0.2878059064037132
 40
0.3710240621887256
 40
0.4331603664333846
 40
0.5137544142125073
 40
0.5725802121924657
 40
0.6788058922658211
 40
0.7652720686804854
 40
0.8240829233522674
 40
0.8817499774613789
 40
0.9849051260984648
 40
1.05784812826095
 40
1.097133570529095
 40
1.152937380796455
 40
1.193234564309741
 40
1.251611879021481
 40
1.284648389624348
 40
1.356539542406023
 40
1.389365667278791
 40
1.389365667278791
 40
1.389365667278791
 40
1.389365667278791
 10
322.5242811874662
 20
302.3227836980576
 30
0.0
 10
322.4657664810276
 20
302.3192926103293
 30
0.0
 10
322.368080709547
 20
302.3134645096893
 30
0.0
 10
322.2608223267116
 20
302.2483061939865
 30
0.0
 10
322.1822385561965
 20
302.2104260126122
 30
0.0
 10
322.1261927063681
 20
302.1589311332131
 30
0.0
 10
322.0851108712505
 20
302.1057406844236
 30
0.0
 10
322.0333195057853
 20
302.0423646546932
 30
0.0
 10
321.991085127188
 20
301.9685658326529
 30
0.0
 10
321.9695777257618
 20
301.8872266651832
 30
0.0
 10
321.9505266737055
 20
301.8223988767652
 30
0.0
 10
321.9363980945684
 20
301.750156766772
 30
0.0
 10
321.9399928050758
 20
301.6721098745344
 30
0.0
 10
321.945140595039
 20
301.5996239166093
 30
0.0
 10
321.9681242254483
 20
301.5478797952873
 30
0.0
 10
321.9942985093815
 20
301.5110415465509
 30
0.0
 10
322.0263485616031
 20
301.4704682996323
 30
0.0
 10
322.0614183275044
 20
301.4435967695793
 30
0.0
 10
322.090423886498
 20
301.3949171871652
 30
0.0
 10
322.141197139033
 20
301.3887053213696
 30
0.0
 10
322.1734706382811
 20
301.3763418544427
 30
0.0
 10
322.1835875353217
 20
301.3724662312571
 30
0.0
 11
322.5242811874662
 21
302.3227836980576
 31
0.0
 11
322.353934361394
 21
302.2962659048918
 31
0.0
 11
322.2506937258231
 21
302.2446883305732
 31
0.0
 11
322.1784254293366
 21
302.2034263047479
 31
0.0
 11
322.1319673659493
 21
302.1621641107747
 31
0.0
 11
322.080347196577
 21
302.1002709879628
 31
0.0
 11
322.0442130483338
 21
302.0538511878909
 31
0.0
 11
321.9925925821352
 21
301.9610114195991
 31
0.0
 11
321.9667826458622
 21
301.8784871998005
 31
0.0
 11
321.9512966247332
 21
301.8217518512353
 31
0.0
 11
321.9409724127629
 21
301.7650165026701
 31
0.0
 11
321.9409724127629
 21
301.661861354033
 31
0.0
 11
321.9512966247332
 21
301.5896526827278
 31
0.0
 11
321.9667826458622
 21
301.5535482630012
 31
0.0
 11
321.9977546881203
 21
301.5071284629292
 31
0.0
 11
322.0235649212197
 21
301.4761818174493
 31
0.0
 11
322.0648608786217
 21
301.434919791624
 31
0.0
 11
322.0855090057359
 21
301.4091309203907
 31
0.0
 11
322.1526154930636
 21
301.3833422173056
 31
0.0
 11
322.1835875353217
 21
301.3724662312571
 31
0.0
  0
LINE
  5
1D9F
102
{ACAD_REACTORS
330
1D7D
102
}
330
18
100
AcDbEntity
  8
ROGO
 62
     4
100
AcDbLine
 10
321.2902375439246
 20
302.3227836980576
 30
0.0
 11
321.9755299384391
 21
301.3724662312571
 31
0.0
  0
LINE
  5
1DA0
102
{ACAD_REACTORS
330
1D7D
102
}
330
18
100
AcDbEntity
  8
ROGO
 62
     4
100
AcDbLine
 10
321.3187487272979
 20
301.5534007971339
 30
0.0
 11
321.4492241591739
 21
301.3724662312571
 31
0.0
  0
LINE
  5
1DA1
102
{ACAD_REACTORS
330
1D9C
102
}
330
18
100
AcDbEntity
  8
ROGO
 62
     4
100
AcDbLine
 10
323.17841287629
 20
301.726042198643
 30
0.0
 11
323.0021084795108
 21
301.3724662312571
 31
0.0
  0
LINE
  5
1DA2
102
{ACAD_REACTORS
330
1D77
102
}
330
18
100
AcDbEntity
  8
ROGO
 62
     4
100
AcDbLine
 10
326.2404202853711
 20
301.726042198643
 30
0.0
 11
326.0641158885919
 21
301.3724662312571
 31
0.0
  0
ARC
  5
1DA3
102
{ACAD_REACTORS
330
1D9B
102
}
330
18
100
AcDbEntity
  8
ROGO
 62
     4
100
AcDbCircle
 10
323.9771729993303
 20
301.8476249646574
 30
0.0
 40
0.4755599797263065
100
AcDbArc
 50
92.3538081120337
 51
270.0
  0
ARC
  5
1DA4
102
{ACAD_REACTORS
330
1D9B
102
}
330
18
100
AcDbEntity
  8
ROGO
 62
     4
100
AcDbCircle
 10
324.3419156809048
 20
301.8472237183313
 30
0.0
 40
0.4755599797263065
100
AcDbArc
 50
273.3290215232082
 51
90.0000000000006
  0
LINE
  5
1DA5
102
{ACAD_REACTORS
330
1D9C
102
}
330
18
100
AcDbEntity
  8
ROGO
 62
     4
100
AcDbLine
 10
322.1835875353217
 20
301.3724662312571
 30
0.0
 11
323.0021084795108
 21
301.3724662312571
 31
0.0
  0
LINE
  5
1DA6
102
{ACAD_REACTORS
330
1D7D
102
}
330
18
100
AcDbEntity
  8
ROGO
 62
     4
100
AcDbLine
 10
321.9755299384391
 20
301.3724662312571
 30
0.0
 11
321.4492241591739
 21
301.3724662312571
 31
0.0
  0
LINE
  5
1DA7
330
18
100
AcDbEntity
  8
ROGO
 62
     4
100
AcDbLine
 10
323.9576416811273
 20
301.3724662312571
 30
0.0
 11
324.3695313066313
 21
301.3724662312571
 31
0.0
  0
LINE
  5
1DA8
102
{ACAD_REACTORS
330
1D9B
102
}
330
18
100
AcDbEntity
  8
ROGO
 62
     4
100
AcDbLine
 10
323.957641681127
 20
301.3724662312571
 30
0.0
 11
324.3695313066317
 21
301.3724662312571
 31
0.0
  0
LINE
  5
1DA9
102
{ACAD_REACTORS
330
1D77
102
}
330
18
100
AcDbEntity
  8
ROGO
 62
     4
100
AcDbLine
 10
325.2455949444027
 20
301.3724662312571
 30
0.0
 11
326.0641158885919
 21
301.3724662312571
 31
0.0
  0
LINE
  5
1DAA
102
{ACAD_REACTORS
330
1D7D
102
}
330
18
100
AcDbEntity
  8
ROGO
 62
     4
100
AcDbLine
 10
321.015614380255
 20
301.9737671503693
 30
0.0
 11
320.850096405677
 21
301.7442379398161
 31
0.0
  0
LINE
  5
1DAB
102
{ACAD_REACTORS
330
1D7D
102
}
330
18
100
AcDbEntity
  8
ROGO
 62
     4
100
AcDbLine
 10
320.850096405677
 20
301.7442379398162
 30
0.0
 11
321.1811323548331
 21
301.7442379398162
 31
0.0
  0
LINE
  5
1DAC
102
{ACAD_REACTORS
330
1D7D
102
}
330
18
100
AcDbEntity
  8
ROGO
 62
     4
100
AcDbLine
 10
321.015614380255
 20
301.9737671503693
 30
0.0
 11
321.1811323548331
 21
301.7442379398161
 31
0.0
  0
SPLINE
  5
1DAD
102
{ACAD_REACTORS
330
1D9C
102
}
330
18
100
AcDbEntity
  8
ROGO
 62
     4
100
AcDbSpline
210
0.0
220
0.0
230
1.0
 70
     8
 71
     3
 72
    16
 73
    12
 74
    10
 42
0.0000000001
 43
0.0000000001
 44
0.0000000001
 40
0.0
 40
0.0
 40
0.0
 40
0.0
 40
0.0908894635587698
 40
0.1352824120537892
 40
0.1571739758861179
 40
0.1802441192684364
 40
0.2132804986121064
 40
0.2433617673669269
 40
0.2747358298621628
 40
0.3273367126566702
 40
0.3794005943324437
 40
0.3794005943324437
 40
0.3794005943324437
 40
0.3794005943324437
 10
322.7049519286824
 20
301.9692039863593
 30
0.0
 10
322.6741726343428
 20
301.9645114752893
 30
0.0
 10
322.6283598743537
 20
301.95752701096
 30
0.0
 10
322.5869313646889
 20
301.9247326585111
 30
0.0
 10
322.563568561683
 20
301.9052222017126
 30
0.0
 10
322.5556204320156
 20
301.8793848185863
 30
0.0
 10
322.5342742516837
 20
301.8595456745576
 30
0.0
 10
322.5166789273111
 20
301.8322803046306
 30
0.0
 10
322.5124775627005
 20
301.7948308774037
 30
0.0
 10
322.5155614605157
 20
301.7422763136121
 30
0.0
 10
322.5524096728349
 20
301.731435029256
 30
0.0
 10
322.5707392508534
 20
301.726042198643
 30
0.0
 11
322.7049519286824
 21
301.9692039863593
 31
0.0
 11
322.6171976110669
 21
301.9455380968591
 31
0.0
 11
322.5810634628236
 21
301.9197493937738
 31
0.0
 11
322.5655774416946
 21
301.9042760710338
 31
0.0
 11
322.5552532297243
 21
301.8836449740472
 31
0.0
 11
322.5346051026102
 21
301.857856270962
 31
0.0
 11
322.5191190814811
 21
301.8320673997286
 31
0.0
 11
322.513956975496
 21
301.8011209223967
 31
0.0
 11
322.5242811874662
 21
301.7495431799301
 31
0.0
 11
322.5707392508534
 21
301.726042198643
 31
0.0
  0
LINE
  5
1DAE
102
{ACAD_REACTORS
330
1D9C
102
}
330
18
100
AcDbEntity
  8
ROGO
 62
     4
100
AcDbLine
 10
323.4759674608545
 20
302.3227836980576
 30
0.0
 11
323.2996611970401
 21
301.9692039863593
 31
0.0
  0
LINE
  5
1DAF
102
{ACAD_REACTORS
330
1D9C
102
}
330
18
100
AcDbEntity
  8
ROGO
 62
     4
100
AcDbLine
 10
322.7049519286824
 20
301.9692039863593
 30
0.0
 11
323.2996611970401
 21
301.9692039863593
 31
0.0
  0
LINE
  5
1DB0
102
{ACAD_REACTORS
330
1D9C
102
}
330
18
100
AcDbEntity
  8
ROGO
 62
     4
100
AcDbLine
 10
322.5707392508533
 20
301.726042198643
 30
0.0
 11
323.17841287629
 21
301.726042198643
 31
0.0
  0
LINE
  5
1DB1
102
{ACAD_REACTORS
330
1D9C
102
}
330
18
100
AcDbEntity
  8
ROGO
 62
     4
100
AcDbLine
 10
322.5242811874665
 20
302.3227836980577
 30
0.0
 11
323.4759674608545
 21
302.3227836980577
 31
0.0
  0
LINE
  5
1DB2
102
{ACAD_REACTORS
330
1D9B
102
}
330
18
100
AcDbEntity
  8
ROGO
 62
     4
100
AcDbLine
 10
324.1663783139849
 20
301.9386515323063
 30
0.0
 11
324.2008172022131
 21
301.9338379053411
 31
0.0
  0
LINE
  5
1DB3
102
{ACAD_REACTORS
330
1D9B
102
}
330
18
100
AcDbEntity
  8
ROGO
 62
     4
100
AcDbLine
 10
324.2834888705478
 20
301.842120479591
 30
0.0
 11
324.2708421420991
 21
301.7516400018474
 31
0.0
  0
LINE
  5
1DB4
102
{ACAD_REACTORS
330
1D9B
102
}
330
18
100
AcDbEntity
  8
ROGO
 62
     4
100
AcDbLine
 10
324.0444916235567
 20
301.7850836795539
 30
0.0
 11
324.0571383520054
 21
301.8755641572974
 31
0.0
  0
LINE
  5
1DB5
102
{ACAD_REACTORS
330
1D9B
102
}
330
18
100
AcDbEntity
  8
ROGO
 62
     4
100
AcDbLine
 10
324.1335354396732
 20
301.7036785928417
 30
0.0
 11
324.1679743279014
 21
301.6988649658765
 31
0.0
  0
ARC
  5
1DB6
102
{ACAD_REACTORS
330
1D9B
102
}
330
18
100
AcDbEntity
  8
ROGO
 62
     4
100
AcDbCircle
 10
324.1838324947943
 20
301.835410594605
 30
0.0
 40
0.0998820093152177
100
AcDbArc
 50
3.851923331663601
 51
80.20940670206341
  0
ARC
  5
1DB7
102
{ACAD_REACTORS
330
1D9B
102
}
330
18
100
AcDbEntity
  8
ROGO
 62
     4
100
AcDbCircle
 10
324.1529751321685
 20
301.8357382312465
 30
0.0
 40
0.1037824301982561
100
AcDbArc
 50
82.57970078354313
 51
157.4341870372611
  0
ARC
  5
1DB8
102
{ACAD_REACTORS
330
1D9B
102
}
330
18
100
AcDbEntity
  8
ROGO
 62
     4
100
AcDbCircle
 10
324.1392632431415
 20
301.7993460806969
 30
0.0
 40
0.0958388019806556
100
AcDbArc
 50
188.5583509056651
 51
266.5736774635929
  0
ARC
  5
1DB9
102
{ACAD_REACTORS
330
1D9B
102
}
330
18
100
AcDbEntity
  8
ROGO
 62
     4
100
AcDbCircle
 10
324.1885879112416
 20
301.7853267079641
 30
0.0
 40
0.0888850530907803
100
AcDbArc
 50
256.5902863289752
 51
337.7287536965499
  0
LINE
  5
1DBA
330
18
100
AcDbEntity
  8
ROGO
 62
     4
100
AcDbLine
 10
323.9576416811271
 20
302.3227836980576
 30
0.0
 11
324.2269550902735
 21
302.3227836980576
 31
0.0
  0
LINE
  5
1DBB
102
{ACAD_REACTORS
330
1D9B
102
}
330
18
100
AcDbEntity
  8
ROGO
 62
     4
100
AcDbLine
 10
323.957641681127
 20
302.3227836980576
 30
0.0
 11
324.3419156809048
 21
302.3227836980576
 31
0.0
  0
SPLINE
  5
1DBC
102
{ACAD_REACTORS
330
1D77
102
}
330
18
100
AcDbEntity
  8
ROGO
 62
     4
100
AcDbSpline
210
0.0
220
0.0
230
1.0
 70
     8
 71
     3
 72
    16
 73
    12
 74
    10
 42
0.0000000001
 43
0.0000000001
 44
0.0000000001
 40
0.0
 40
0.0
 40
0.0
 40
0.0
 40
0.090889463558755
 40
0.1352824120538207
 40
0.1571739758861895
 40
0.1802441192684573
 40
0.2132804986121272
 40
0.2433617673669184
 40
0.2747358298622198
 40
0.3273367126566715
 40
0.3794005943324707
 40
0.3794005943324707
 40
0.3794005943324707
 40
0.3794005943324707
 10
325.7669593377635
 20
301.9692039863592
 30
0.0
 10
325.7361800434241
 20
301.9645114752893
 30
0.0
 10
325.690367283435
 20
301.9575270109601
 30
0.0
 10
325.6489387737698
 20
301.9247326585111
 30
0.0
 10
325.6255759707638
 20
301.9052222017125
 30
0.0
 10
325.6176278410968
 20
301.8793848185863
 30
0.0
 10
325.5962816607647
 20
301.8595456745577
 30
0.0
 10
325.5786863363921
 20
301.8322803046306
 30
0.0
 10
325.5744849717816
 20
301.7948308774038
 30
0.0
 10
325.5775688695968
 20
301.742276313612
 30
0.0
 10
325.6144170819159
 20
301.7314350292559
 30
0.0
 10
325.6327466599345
 20
301.7260421986429
 30
0.0
 11
325.7669593377635
 21
301.9692039863592
 31
0.0
 11
325.6792050201479
 21
301.9455380968591
 31
0.0
 11
325.6430708719047
 21
301.9197493937738
 31
0.0
 11
325.6275848507756
 21
301.9042760710338
 31
0.0
 11
325.6172606388054
 21
301.8836449740472
 31
0.0
 11
325.5966125116912
 21
301.857856270962
 31
0.0
 11
325.5811264905621
 21
301.8320673997286
 31
0.0
 11
325.575964384577
 21
301.8011209223967
 31
0.0
 11
325.5862885965473
 21
301.7495431799301
 31
0.0
 11
325.6327466599345
 21
301.7260421986429
 31
0.0
  0
LINE
  5
1DBD
102
{ACAD_REACTORS
330
1D77
102
}
330
18
100
AcDbEntity
  8
ROGO
 62
     4
100
AcDbLine
 10
325.6327466599345
 20
301.726042198643
 30
0.0
 11
326.2404202853712
 21
301.726042198643
 31
0.0
  0
LINE
  5
1DBE
102
{ACAD_REACTORS
330
1D77
102
}
330
18
100
AcDbEntity
  8
ROGO
 62
     4
100
AcDbLine
 10
325.7669593377634
 20
301.9692039863593
 30
0.0
 11
326.3616686061212
 21
301.9692039863593
 31
0.0
  0
LINE
  5
1DBF
102
{ACAD_REACTORS
330
1D76
102
}
330
18
100
AcDbEntity
  8
ROGO
 62
     4
100
AcDbLine
 10
327.10721741282
 20
301.5803156719937
 30
0.0
 11
327.4774359501005
 21
300.8378476459299
 31
0.0
  0
LINE
  5
1DC0
102
{ACAD_REACTORS
330
1D76
102
}
330
18
100
AcDbEntity
  8
ROGO
 62
     4
100
AcDbLine
 10
326.7370108472803
 20
301.2254327447416
 30
0.0
 11
326.9302732953812
 21
300.8378476459299
 31
0.0
  0
LINE
  5
1DC1
102
{ACAD_REACTORS
330
1D76
102
}
330
18
100
AcDbEntity
  8
ROGO
 62
     4
100
AcDbLine
 10
326.7370108472803
 20
301.2254327447415
 30
0.0
 11
326.5437483991795
 21
300.8378476459299
 31
0.0
  0
LINE
  5
1DC2
102
{ACAD_REACTORS
330
1D76
102
}
330
18
100
AcDbEntity
  8
ROGO
 62
     4
100
AcDbLine
 10
326.9302732953812
 20
300.8378476459299
 30
0.0
 11
327.4774359501005
 21
300.8378476459299
 31
0.0
  0
LINE
  5
1DC3
102
{ACAD_REACTORS
330
1D76
102
}
330
18
100
AcDbEntity
  8
ROGO
 62
     4
100
AcDbLine
 10
327.10721741282
 20
301.5803156719937
 30
0.0
 11
328.0067052475908
 21
302.3227836980576
 31
0.0
  0
LINE
  5
1DC4
102
{ACAD_REACTORS
330
1D76
102
}
330
18
100
AcDbEntity
  8
ROGO
 62
     4
100
AcDbLine
 10
327.4595425928716
 20
302.3227836980576
 30
0.0
 11
328.0067052475908
 21
302.3227836980576
 31
0.0
  0
LINE
  5
1DC5
102
{ACAD_REACTORS
330
1D76
102
}
330
18
100
AcDbEntity
  8
ROGO
 62
     4
100
AcDbLine
 10
326.7370108472803
 20
302.3227836980576
 30
0.0
 11
327.2841854737403
 21
302.3227836980576
 31
0.0
  0
LINE
  5
1DC6
102
{ACAD_REACTORS
330
1D76
102
}
330
18
100
AcDbEntity
  8
ROGO
 62
     4
100
AcDbLine
 10
327.2841854737403
 20
302.3227836980576
 30
0.0
 11
327.2033448126441
 21
302.1606588987142
 31
0.0
  0
LINE
  5
1DC7
102
{ACAD_REACTORS
330
1D76
102
}
330
18
100
AcDbEntity
  8
ROGO
 62
     4
100
AcDbLine
 10
327.2033448126441
 20
302.1606588987142
 30
0.0
 11
327.4595425928716
 21
302.3227836980576
 31
0.0
  0
LINE
  5
1DC8
330
18
100
AcDbEntity
  8
寸法線
 62
     2
100
AcDbLine
 10
398.5594476875712
 20
312.4318073984472
 30
0.0
 11
393.8289962654081
 21
329.2056729733608
 31
0.0
1001
ACAD
1000
DSTYLE
1002
{
1070
   271
1070
     2
1002
}
  0
LINE
  5
1DC9
330
18
100
AcDbEntity
  8
寸法線
 62
     2
100
AcDbLine
 10
393.8289962654081
 20
329.2056729733608
 30
0.0
 11
389.0373295987414
 21
329.2056729733608
 31
0.0
1001
ACAD
1000
DSTYLE
1002
{
1070
   271
1070
     2
1002
}
  0
TEXT
  5
1DCA
330
18
100
AcDbEntity
  8
外形線
 62
     6
100
AcDbText
 10
389.9594488869335
 20
329.8306729733608
 30
0.0
 40
2.5
  1
B
  7
STYLE3
100
AcDbText
  0
LINE
  5
1DCB
330
18
100
AcDbEntity
  8
寸法線
 62
     2
100
AcDbLine
 10
409.7866132880757
 20
272.4653817042661
 30
0.0
 11
416.5687638044023
 21
262.7022478685397
 31
0.0
1001
ACAD
1000
DSTYLE
1002
{
1070
   271
1070
     2
1002
}
  0
LINE
  5
1DCC
330
18
100
AcDbEntity
  8
寸法線
 62
     2
100
AcDbLine
 10
416.5687638044023
 20
262.7022478685397
 30
0.0
 11
421.5985257091642
 21
262.7022478685397
 31
0.0
1001
ACAD
1000
DSTYLE
1002
{
1070
   271
1070
     2
1002
}
  0
LINE
  5
1DDB
330
18
100
AcDbEntity
  8
目盛
100
AcDbLine
 10
472.9097894192896
 20
291.0929721066721
 30
0.0
 11
471.5151246904571
 21
291.6451589356991
 31
0.0
  0
LINE
  5
1DDC
330
18
100
AcDbEntity
  8
目盛
100
AcDbLine
 10
445.016494842642
 20
291.092972106672
 30
0.0
 11
446.4111595714745
 21
291.6451589356992
 31
0.0
  0
CIRCLE
  5
1DDD
330
18
100
AcDbEntity
  8
外形線
100
AcDbCircle
 10
458.9631421309658
 20
296.6148403969423
 30
0.0
 40
15.0
  0
CIRCLE
  5
1DDE
330
18
100
AcDbEntity
  8
外形線
100
AcDbCircle
 10
458.9631421309658
 20
296.6148403969423
 30
0.0
 40
17.5
  0
LINE
  5
1DDF
330
18
100
AcDbEntity
  8
目盛
100
AcDbLine
 10
469.2313487198961
 20
285.6803109856211
 30
0.0
 11
468.204528061003
 21
286.7737639267533
 31
0.0
  0
LINE
  5
1DE0
330
18
100
AcDbEntity
  8
目盛
100
AcDbLine
 10
468.5245019771961
 20
285.0571417553054
 30
0.0
 11
467.568365992573
 21
286.2129116194691
 31
0.0
  0
LINE
  5
1DE2
330
18
100
AcDbEntity
  8
外形線
100
AcDbLine
 10
460.4631421309658
 20
244.0889832397966
 30
0.0
 11
460.4631421309658
 21
222.7148403969422
 31
0.0
  0
LINE
  5
1DE3
330
18
100
AcDbEntity
  8
外形線
100
AcDbLine
 10
457.4631421309659
 20
244.0889832397965
 30
0.0
 11
457.4631421309658
 21
222.7148403969422
 31
0.0
  0
LINE
  5
1DE7
330
18
100
AcDbEntity
  8
外形線
100
AcDbLine
 10
460.4631421309658
 20
222.7148403969422
 30
0.0
 11
459.6631421309658
 21
210.4289832397965
 31
0.0
  0
LINE
  5
1DE8
330
18
100
AcDbEntity
  8
外形線
100
AcDbLine
 10
457.4631421309658
 20
222.7148403969422
 30
0.0
 11
458.2631421309658
 21
210.4289832397965
 31
0.0
  0
LINE
  5
1DE9
330
18
100
AcDbEntity
  8
隠れ線
 62
     4
 48
0.3
100
AcDbLine
 10
458.9631421309658
 20
210.6618753745373
 30
0.0
 11
458.2631421309658
 21
210.4289832397965
 31
0.0
  0
ARC
  5
1DEA
330
18
100
AcDbEntity
  8
外形線
100
AcDbCircle
 10
458.9631421309658
 20
209.7148403969423
 30
0.0
 40
1.0
100
AcDbArc
 50
134.427004000808
 51
45.57299599919653
  0
LINE
  5
1DEB
330
18
100
AcDbEntity
  8
外形線
100
AcDbLine
 10
459.6642787908869
 20
210.4289832397966
 30
0.0
 11
458.2631421309658
 21
210.4289832397967
 31
0.0
  0
LINE
  5
1DEC
330
18
100
AcDbEntity
  8
中心線
 48
0.5
100
AcDbLine
 10
455.2145373146436
 20
209.7148403969423
 30
0.0
 11
463.0941907303544
 21
209.7148403969423
 31
0.0
  0
POINT
  5
1DED
330
18
100
AcDbEntity
  8
DEFPOINTS
  6
ByBlock
 62
     0
100
AcDbPoint
 10
455.2145373146436
 20
209.7148403969423
 30
0.0
  0
POINT
  5
1DEE
330
18
100
AcDbEntity
  8
DEFPOINTS
  6
ByBlock
 62
     0
100
AcDbPoint
 10
463.0941907303544
 20
209.7148403969423
 30
0.0
  0
POINT
  5
1DEF
330
18
100
AcDbEntity
  8
DEFPOINTS
  6
ByBlock
 62
     0
100
AcDbPoint
 10
458.9631421309658
 20
208.7148403969423
 30
0.0
  0
POINT
  5
1DF0
330
18
100
AcDbEntity
  8
DEFPOINTS
  6
ByBlock
 62
     0
100
AcDbPoint
 10
458.9631421309658
 20
209.7148403969423
 30
0.0
  0
POINT
  5
1DF1
330
18
100
AcDbEntity
  8
DEFPOINTS
  6
ByBlock
 62
     0
100
AcDbPoint
 10
459.4872600795063
 20
208.8631947100409
 30
0.0
  0
LINE
  5
1DF3
330
18
100
AcDbEntity
  8
隠れ線
 62
     4
 48
0.3
100
AcDbLine
 10
458.9631421309658
 20
210.6618753745373
 30
0.0
 11
459.6631421309658
 21
210.4289832397965
 31
0.0
  0
LINE
  5
1DF4
330
18
100
AcDbEntity
  8
外形線
100
AcDbLine
 10
457.4631421309658
 20
222.7148403969422
 30
0.0
 11
460.4631421309658
 21
222.7148403969422
 31
0.0
  0
LINE
  5
1DF7
330
18
100
AcDbEntity
  8
外形線
100
AcDbLine
 10
455.1631421309657
 20
279.5323932654567
 30
0.0
 11
455.1631421309657
 21
249.1148403969423
 31
0.0
  0
LINE
  5
1DF8
330
18
100
AcDbEntity
  8
外形線
100
AcDbLine
 10
462.7631421309659
 20
279.5323932654568
 30
0.0
 11
462.7631421309659
 21
249.1148403969423
 31
0.0
  0
LINE
  5
1DFA
330
18
100
AcDbEntity
  8
外形線
100
AcDbLine
 10
457.4631421309657
 20
247.8989832397965
 30
0.0
 11
457.725890704871
 21
249.4148403969422
 31
0.0
  0
LINE
  5
1DFB
330
18
100
AcDbEntity
  8
外形線
100
AcDbLine
 10
460.4631421309658
 20
247.8989832397965
 30
0.0
 11
460.2003935570605
 21
249.4148403969423
 31
0.0
  0
LINE
  5
1DFD
330
18
100
AcDbEntity
  8
外形線
100
AcDbLine
 10
457.4631421309658
 20
244.0889832397965
 30
0.0
 11
460.4631421309658
 21
244.0889832397965
 31
0.0
  0
LINE
  5
1DFE
330
18
100
AcDbEntity
  8
外形線
100
AcDbLine
 10
457.4631421309658
 20
244.7089832397965
 30
0.0
 11
460.4631421309658
 21
244.7089832397965
 31
0.0
  0
LINE
  5
1DFF
330
18
100
AcDbEntity
  8
外形線
 62
     4
100
AcDbLine
 10
458.2131421309658
 20
244.3989832397966
 30
0.0
 11
459.713142130966
 21
244.3989832397966
 31
0.0
  0
LINE
  5
1E00
330
18
100
AcDbEntity
  8
外形線
100
AcDbLine
 10
457.4631421309658
 20
247.8989832397965
 30
0.0
 11
460.4631421309658
 21
247.8989832397966
 31
0.0
  0
LINE
  5
1E02
330
18
100
AcDbEntity
  8
外形線
100
AcDbLine
 10
457.4631421309658
 20
247.898983239797
 30
0.0
 11
457.4631421309659
 21
244.7089832397965
 31
0.0
  0
LINE
  5
1E03
330
18
100
AcDbEntity
  8
外形線
100
AcDbLine
 10
458.2131421309658
 20
244.3989832397965
 30
0.0
 11
457.4631421309658
 21
244.0889832397965
 31
0.0
  0
LINE
  5
1E04
330
18
100
AcDbEntity
  8
外形線
100
AcDbLine
 10
457.4631421309658
 20
244.7089832397965
 30
0.0
 11
458.2131421309658
 21
244.3989832397965
 31
0.0
  0
LINE
  5
1E07
330
18
100
AcDbEntity
  8
外形線
100
AcDbLine
 10
460.4631421309658
 20
247.8989832397965
 30
0.0
 11
460.4631421309658
 21
244.7089832397966
 31
0.0
  0
LINE
  5
1E08
330
18
100
AcDbEntity
  8
外形線
100
AcDbLine
 10
459.7131421309658
 20
244.3989832397965
 30
0.0
 11
460.4631421309658
 21
244.0889832397965
 31
0.0
  0
LINE
  5
1E09
330
18
100
AcDbEntity
  8
外形線
100
AcDbLine
 10
460.4631421309658
 20
244.7089832397965
 30
0.0
 11
459.7131421309658
 21
244.3989832397965
 31
0.0
  0
LINE
  5
1E0A
330
18
100
AcDbEntity
  8
外形線
100
AcDbLine
 10
457.8577289069715
 20
255.0148403969423
 30
0.0
 11
460.06855535496
 21
255.0148403969423
 31
0.0
  0
LINE
  5
1E0B
330
18
100
AcDbEntity
  8
中心線
 48
0.5
100
AcDbLine
 10
451.8436166550982
 20
252.6148403969423
 30
0.0
 11
466.1625344644084
 21
252.6148403969423
 31
0.0
  0
LINE
  5
1E0C
330
18
100
AcDbEntity
  8
外形線
100
AcDbLine
 10
460.7131421309658
 20
249.4148403969423
 30
0.0
 11
457.7131421309657
 21
249.4148403969422
 31
0.0
  0
POINT
  5
1E0D
330
18
100
AcDbEntity
  8
DEFPOINTS
  6
ByBlock
 62
     0
100
AcDbPoint
 10
455.1631421309657
 20
249.1148403969423
 30
0.0
  0
POINT
  5
1E0E
330
18
100
AcDbEntity
  8
DEFPOINTS
  6
ByBlock
 62
     0
100
AcDbPoint
 10
453.9631421309658
 20
250.6148403969423
 30
0.0
  0
LINE
  5
1E0F
330
18
100
AcDbEntity
  8
外形線
100
AcDbLine
 10
456.8404148582385
 20
252.1148403969422
 30
0.0
 11
457.2131421309658
 21
252.1148403969423
 31
0.0
  0
LINE
  5
1E10
330
18
100
AcDbEntity
  8
外形線
100
AcDbLine
 10
456.8495057673295
 20
253.1148403969423
 30
0.0
 11
457.2131421309657
 21
253.1148403969422
 31
0.0
  0
LINE
  5
1E11
330
18
100
AcDbEntity
  8
外形線
100
AcDbLine
 10
455.1631421309657
 20
255.6148403969423
 30
0.0
 11
454.4631421309658
 21
255.6148403969423
 31
0.0
  0
LINE
  5
1E12
330
18
100
AcDbEntity
  8
外形線
100
AcDbLine
 10
454.4631421309658
 20
254.6148403969423
 30
0.0
 11
453.9631421309658
 21
254.6148403969423
 31
0.0
  0
LINE
  5
1E13
330
18
100
AcDbEntity
  8
外形線
100
AcDbLine
 10
455.1631421309657
 20
249.6148403969423
 30
0.0
 11
454.4631421309658
 21
249.6148403969423
 31
0.0
  0
LINE
  5
1E14
330
18
100
AcDbEntity
  8
外形線
100
AcDbLine
 10
454.4631421309658
 20
250.6148403969423
 30
0.0
 11
453.9631421309658
 21
250.6148403969423
 31
0.0
  0
LINE
  5
1E15
330
18
100
AcDbEntity
  8
外形線
100
AcDbLine
 10
454.4631421309658
 20
255.6148403969423
 30
0.0
 11
454.4631421309658
 21
249.6148403969423
 31
0.0
  0
LINE
  5
1E16
330
18
100
AcDbEntity
  8
外形線
100
AcDbLine
 10
453.9631421309658
 20
254.6148403969423
 30
0.0
 11
453.9631421309658
 21
250.6148403969423
 31
0.0
  0
LINE
  5
1E17
330
18
100
AcDbEntity
  8
外形線
100
AcDbLine
 10
457.2131421309657
 20
249.9148403969422
 30
0.0
 11
457.7131421309657
 21
249.9148403969422
 31
0.0
  0
LINE
  5
1E18
330
18
100
AcDbEntity
  8
外形線
100
AcDbLine
 10
457.7131421309657
 20
255.0043325213194
 30
0.0
 11
457.7131421309657
 21
249.4148403969422
 31
0.0
  0
LINE
  5
1E19
330
18
100
AcDbEntity
  8
外形線
100
AcDbLine
 10
457.2131421309657
 20
254.7793715527486
 30
0.0
 11
457.2131421309657
 21
249.9148403969422
 31
0.0
  0
ARC
  5
1E1A
330
18
100
AcDbEntity
  8
外形線
100
AcDbCircle
 10
457.8577289069715
 20
254.0148403969423
 30
0.0
 40
1.0
100
AcDbArc
 50
89.99999999999982
 51
179.4791436254985
  0
LINE
  5
1E1B
330
18
100
AcDbEntity
  8
外形線
100
AcDbLine
 10
456.8131421309658
 20
249.1148403969423
 30
0.0
 11
456.8577702267244
 21
254.0239309303991
 31
0.0
  0
LINE
  5
1E1C
330
18
100
AcDbEntity
  8
外形線
100
AcDbLine
 10
455.1631421309657
 20
249.1148403969423
 30
0.0
 11
456.8131421309658
 21
249.1148403969423
 31
0.0
  0
LINE
  5
1E1E
330
18
100
AcDbEntity
  8
外形線
100
AcDbLine
 10
463.4631421309658
 20
254.6148403969423
 30
0.0
 11
463.9631421309657
 21
254.6148403969423
 31
0.0
  0
LINE
  5
1E1F
330
18
100
AcDbEntity
  8
外形線
100
AcDbLine
 10
463.4631421309658
 20
250.6148403969423
 30
0.0
 11
463.9631421309657
 21
250.6148403969423
 31
0.0
  0
LINE
  5
1E20
330
18
100
AcDbEntity
  8
外形線
100
AcDbLine
 10
462.7631421309659
 20
255.6148403969423
 30
0.0
 11
463.4631421309658
 21
255.6148403969423
 31
0.0
  0
LINE
  5
1E21
330
18
100
AcDbEntity
  8
外形線
100
AcDbLine
 10
462.7631421309659
 20
249.6148403969423
 30
0.0
 11
463.4631421309658
 21
249.6148403969423
 31
0.0
  0
LINE
  5
1E22
330
18
100
AcDbEntity
  8
外形線
100
AcDbLine
 10
463.4631421309658
 20
255.6148403969423
 30
0.0
 11
463.4631421309658
 21
249.6148403969423
 31
0.0
  0
LINE
  5
1E23
330
18
100
AcDbEntity
  8
外形線
100
AcDbLine
 10
460.7131421309658
 20
252.1148403969422
 30
0.0
 11
461.085869403693
 21
252.1148403969422
 31
0.0
  0
LINE
  5
1E24
330
18
100
AcDbEntity
  8
外形線
100
AcDbLine
 10
460.7131421309658
 20
253.1148403969423
 30
0.0
 11
461.0767784946022
 21
253.1148403969422
 31
0.0
  0
LINE
  5
1E25
330
18
100
AcDbEntity
  8
外形線
100
AcDbLine
 10
460.7131421309658
 20
254.7793715527486
 30
0.0
 11
460.7131421309658
 21
249.4148403969423
 31
0.0
  0
ARC
  5
1E26
330
18
100
AcDbEntity
  8
外形線
100
AcDbCircle
 10
460.06855535496
 20
254.0148403969423
 30
0.0
 40
1.0
100
AcDbArc
 50
0.5208563745014782
 51
90.00000000000019
  0
LINE
  5
1E27
330
18
100
AcDbEntity
  8
外形線
100
AcDbLine
 10
461.1131421309657
 20
249.1148403969423
 30
0.0
 11
461.0685140352071
 21
254.0239309303991
 31
0.0
  0
LINE
  5
1E28
330
18
100
AcDbEntity
  8
外形線
100
AcDbLine
 10
462.7631421309659
 20
249.1148403969423
 30
0.0
 11
461.1131421309657
 21
249.1148403969423
 31
0.0
  0
POINT
  5
1E29
330
18
100
AcDbEntity
  8
DEFPOINTS
  6
ByBlock
 62
     0
100
AcDbPoint
 10
463.9631421309657
 20
250.6148403969423
 30
0.0
  0
POINT
  5
1E2A
330
18
100
AcDbEntity
  8
DEFPOINTS
  6
ByBlock
 62
     0
100
AcDbPoint
 10
466.1625344644084
 20
252.6148403969423
 30
0.0
  0
LINE
  5
1E2B
330
18
100
AcDbEntity
  8
外形線
100
AcDbLine
 10
463.9631421309657
 20
254.6148403969423
 30
0.0
 11
463.9631421309657
 21
250.6148403969423
 31
0.0
  0
LINE
  5
1E2C
330
18
100
AcDbEntity
  8
目盛
100
AcDbLine
 10
448.6949355420356
 20
285.6803109856211
 30
0.0
 11
449.7217562009285
 21
286.7737639267533
 31
0.0
  0
LINE
  5
1E2D
330
18
100
AcDbEntity
  8
目盛
100
AcDbLine
 10
448.0286127196446
 20
286.3466338080119
 30
0.0
 11
449.1220656607768
 21
287.373454466905
 31
0.0
  0
LINE
  5
1E2E
330
18
100
AcDbEntity
  8
目盛
100
AcDbLine
 10
445.3907363439754
 20
290.2281510234662
 30
0.0
 11
446.7479769226746
 21
290.8668199608138
 31
0.0
  0
LINE
  5
1E2F
330
18
100
AcDbEntity
  8
目盛
100
AcDbLine
 10
446.8278872153416
 20
287.7980616125551
 30
0.0
 11
448.8504297012789
 21
289.2675247432864
 31
0.0
  0
LINE
  5
1E30
330
18
100
AcDbEntity
  8
目盛
100
AcDbLine
 10
447.405443489329
 20
287.0534805507119
 30
0.0
 11
448.5612133534926
 21
288.0096165353349
 31
0.0
  0
LINE
  5
1E31
330
18
100
AcDbEntity
  8
目盛
100
AcDbLine
 10
446.2982232484356
 20
288.5774384722573
 30
0.0
 11
447.5647151366886
 21
289.3811786647257
 31
0.0
  0
LINE
  5
1E32
330
18
100
AcDbEntity
  8
目盛
100
AcDbLine
 10
445.8185419303078
 20
289.3885352854165
 30
0.0
 11
447.1330019503737
 21
290.111165796569
 31
0.0
  0
TEXT
  5
1E43
330
18
100
AcDbEntity
  8
文字
100
AcDbText
 10
457.2489593849229
 20
284.5645982402017
 30
0.0
 40
1.8
  1
50
  7
STYLE3
100
AcDbText
  0
LINE
  5
1E45
330
18
100
AcDbEntity
  8
目盛
100
AcDbLine
 10
451.73683701944
 20
283.4702401962843
 30
0.0
 11
452.4594675305926
 21
284.7847002163502
 31
0.0
  0
LINE
  5
1E46
330
18
100
AcDbEntity
  8
目盛
100
AcDbLine
 10
454.3278872153415
 20
282.3489926525151
 30
0.0
 11
455.1004297012788
 21
284.7266339432529
 31
0.0
  0
LINE
  5
1E47
330
18
100
AcDbEntity
  8
目盛
100
AcDbLine
 10
452.5764527574897
 20
283.042434609952
 30
0.0
 11
453.2151216948372
 21
284.3996751886511
 31
0.0
  0
LINE
  5
1E48
330
18
100
AcDbEntity
  8
目盛
100
AcDbLine
 10
450.9257402062807
 20
283.949921514412
 30
0.0
 11
451.7294803987493
 21
285.2164134026652
 31
0.0
  0
LINE
  5
1E49
330
18
100
AcDbEntity
  8
目盛
100
AcDbLine
 10
453.4412738406955
 20
282.6681931086185
 30
0.0
 11
453.9934606697226
 21
284.0628578374509
 31
0.0
  0
LINE
  5
1E4A
330
18
100
AcDbEntity
  8
目盛
100
AcDbLine
 10
458.021284338026
 20
281.6444394705182
 30
0.0
 11
458.11547011732
 21
283.1414795631607
 31
0.0
  0
LINE
  5
1E4B
330
18
100
AcDbEntity
  8
目盛
100
AcDbLine
 10
457.0831436275012
 20
281.7331198772252
 30
0.0
 11
457.2711434778476
 21
283.2212919291968
 31
0.0
  0
LINE
  5
1E4C
330
18
100
AcDbEntity
  8
目盛
100
AcDbLine
 10
456.1524224121798
 20
281.880531636012
 30
0.0
 11
456.4334943840584
 21
283.353962512105
 31
0.0
  0
LINE
  5
1E4D
330
18
100
AcDbEntity
  8
目盛
100
AcDbLine
 10
455.2327938234929
 20
282.0860929800129
 30
0.0
 11
455.6058286542402
 21
283.5389677217058
 31
0.0
  0
TEXT
  5
1E4E
330
18
100
AcDbEntity
  8
文字
100
AcDbText
 10
451.0892096154911
 20
287.0949159269391
 30
0.0
 40
1.8
  1
40
  7
STYLE3
100
AcDbText
  0
LINE
  5
1E4F
330
18
100
AcDbEntity
  8
目盛
100
AcDbLine
 10
449.4017822847355
 20
285.0571417553054
 30
0.0
 11
450.3579182693584
 21
286.2129116194691
 31
0.0
  0
LINE
  5
1E50
330
18
100
AcDbEntity
  8
目盛
100
AcDbLine
 10
450.1463633465787
 20
284.479585481318
 30
0.0
 11
451.6158264773099
 21
286.5021279672554
 31
0.0
  0
LINE
  5
1E51
330
18
100
AcDbEntity
  8
目盛
100
AcDbLine
 10
467.0005440556507
 20
283.949921514412
 30
0.0
 11
466.1968038631822
 21
285.2164134026651
 31
0.0
  0
LINE
  5
1E52
330
18
100
AcDbEntity
  8
目盛
100
AcDbLine
 10
466.1894472424915
 20
283.4702401962843
 30
0.0
 11
465.4668167313389
 21
284.7847002163501
 31
0.0
  0
LINE
  5
1E53
330
18
100
AcDbEntity
  8
目盛
100
AcDbLine
 10
465.3498315044418
 20
283.0424346099519
 30
0.0
 11
464.7111625670943
 21
284.3996751886511
 31
0.0
  0
LINE
  5
1E54
330
18
100
AcDbEntity
  8
目盛
100
AcDbLine
 10
463.59839704659
 20
282.3489926525151
 30
0.0
 11
462.8258545606525
 21
284.7266339432529
 31
0.0
  0
LINE
  5
1E55
330
18
100
AcDbEntity
  8
目盛
100
AcDbLine
 10
460.8431406344303
 20
281.7331198772251
 30
0.0
 11
460.6551407840838
 21
283.2212919291968
 31
0.0
  0
LINE
  5
1E56
330
18
100
AcDbEntity
  8
目盛
100
AcDbLine
 10
462.6934904384387
 20
282.0860929800128
 30
0.0
 11
462.3204556076914
 21
283.5389677217058
 31
0.0
  0
LINE
  5
1E57
330
18
100
AcDbEntity
  8
目盛
100
AcDbLine
 10
461.7738618497517
 20
281.880531636012
 30
0.0
 11
461.4927898778731
 21
283.353962512105
 31
0.0
  0
LINE
  5
1E58
330
18
100
AcDbEntity
  8
目盛
100
AcDbLine
 10
459.9049999239054
 20
281.6444394705182
 30
0.0
 11
459.8108141446115
 21
283.1414795631607
 31
0.0
  0
LINE
  5
1E59
330
18
100
AcDbEntity
  8
目盛
100
AcDbLine
 10
458.9631421309658
 20
281.6148403969423
 30
0.0
 11
458.9631421309658
 21
284.1148403969423
 31
0.0
  0
LINE
  5
1E5A
330
18
100
AcDbEntity
  8
目盛
100
AcDbLine
 10
464.4850104212359
 20
282.6681931086185
 30
0.0
 11
463.932823592209
 21
284.0628578374509
 31
0.0
  0
TEXT
  5
1E5B
330
18
100
AcDbEntity
  8
文字
100
AcDbText
 10
464.3102828700828
 20
287.1957986795814
 30
0.0
 40
1.8
  1
40
  7
STYLE3
100
AcDbText
  0
LINE
  5
1E5C
330
18
100
AcDbEntity
  8
目盛
100
AcDbLine
 10
467.7799209153529
 20
284.4795854813181
 30
0.0
 11
466.3104577846217
 21
286.5021279672555
 31
0.0
  0
LINE
  5
1E5F
330
18
100
AcDbEntity
  8
目盛
100
AcDbLine
 10
472.535547917956
 20
290.2281510234662
 30
0.0
 11
471.1783073392569
 21
290.8668199608138
 31
0.0
  0
LINE
  5
1E60
330
18
100
AcDbEntity
  8
目盛
100
AcDbLine
 10
472.1077423316237
 20
289.3885352854166
 30
0.0
 11
470.7932823115579
 21
290.1111657965691
 31
0.0
  0
LINE
  5
1E61
330
18
100
AcDbEntity
  8
目盛
100
AcDbLine
 10
471.09839704659
 20
287.7980616125552
 30
0.0
 11
469.0758545606525
 21
289.2675247432863
 31
0.0
  0
LINE
  5
1E62
330
18
100
AcDbEntity
  8
目盛
100
AcDbLine
 10
471.6280610134959
 20
288.5774384722574
 30
0.0
 11
470.361569125243
 21
289.3811786647258
 31
0.0
  0
LINE
  5
1E63
330
18
100
AcDbEntity
  8
目盛
100
AcDbLine
 10
470.5208407726026
 20
287.0534805507119
 30
0.0
 11
469.365070908439
 21
288.009616535335
 31
0.0
  0
LINE
  5
1E64
330
18
100
AcDbEntity
  8
目盛
100
AcDbLine
 10
469.8976715422869
 20
286.346633808012
 30
0.0
 11
468.8042186011549
 21
287.373454466905
 31
0.0
  0
TEXT
  5
1E65
330
18
100
AcDbEntity
  8
文字
100
AcDbText
 10
467.4660947401102
 20
292.5629844206614
 30
0.0
 40
1.8
  1
30
  7
STYLE3
100
AcDbText
  0
TEXT
  5
1E66
330
18
100
AcDbEntity
  8
文字
100
AcDbText
 10
467.4064016486851
 20
298.7445908905536
 30
0.0
 40
1.8
  1
20
  7
STYLE3
100
AcDbText
  0
LINE
  5
1E67
330
18
100
AcDbEntity
  8
目盛
100
AcDbLine
 10
468.5245019771961
 20
308.1725390385791
 30
0.0
 11
467.5683659925731
 21
307.0167691744154
 31
0.0
  0
LINE
  5
1E68
330
18
100
AcDbEntity
  8
目盛
100
AcDbLine
 10
469.2313487198961
 20
307.5493698082634
 30
0.0
 11
468.2045280610031
 21
306.4559168671313
 31
0.0
  0
LINE
  5
1E69
330
18
100
AcDbEntity
  8
中心線
 48
0.5
100
AcDbLine
 10
438.1039845927715
 20
296.6148403969423
 30
0.0
 11
479.6083447220565
 21
296.6148403969423
 31
0.0
  0
LINE
  5
1E6A
330
18
100
AcDbEntity
  8
外形線
100
AcDbLine
 10
455.9631421309658
 20
329.4109928196489
 30
0.0
 11
455.9631421309658
 21
314.2148403969422
 31
0.0
  0
LINE
  5
1E6B
330
18
100
AcDbEntity
  8
外形線
100
AcDbLine
 10
461.9631421309658
 20
329.4109928196489
 30
0.0
 11
461.9631421309658
 21
314.2148403969422
 31
0.0
  0
TEXT
  5
1E6C
330
18
100
AcDbEntity
  8
文字
100
AcDbText
 10
447.0350978921667
 20
299.2038911891476
 30
0.0
 40
1.8
  1
20
  7
STYLE3
100
AcDbText
  0
TEXT
  5
1E6D
330
18
100
AcDbEntity
  8
文字
100
AcDbText
 10
447.2419041753573
 20
292.1001584534585
 30
0.0
 40
1.8
  1
30
  7
STYLE3
100
AcDbText
  0
LINE
  5
1E6E
330
18
100
AcDbEntity
  8
目盛
100
AcDbLine
 10
448.6949355420354
 20
307.5493698082635
 30
0.0
 11
449.7217562009285
 21
306.4559168671313
 31
0.0
  0
LINE
  5
1E6F
330
18
100
AcDbEntity
  8
目盛
100
AcDbLine
 10
447.4054434893289
 20
306.1762002431726
 30
0.0
 11
448.5612133534925
 21
305.2200642585495
 31
0.0
  0
LINE
  5
1E70
330
18
100
AcDbEntity
  8
目盛
100
AcDbLine
 10
448.0286127196446
 20
306.8830469858726
 30
0.0
 11
449.1220656607766
 21
305.8562263269796
 31
0.0
  0
LINE
  5
1E71
330
18
100
AcDbEntity
  8
目盛
100
AcDbLine
 10
444.2288333700355
 20
293.8041206781564
 30
0.0
 11
445.7022642461285
 21
294.085192650035
 31
0.0
  0
LINE
  5
1E72
330
18
100
AcDbEntity
  8
目盛
100
AcDbLine
 10
444.0814216112487
 20
294.7348418934777
 30
0.0
 11
445.5695936632205
 21
294.9228417438242
 31
0.0
  0
LINE
  5
1E73
330
18
100
AcDbEntity
  8
目盛
100
AcDbLine
 10
443.9631421309659
 20
296.6148403969423
 30
0.0
 11
446.4631421309659
 21
296.6148403969423
 31
0.0
  0
LINE
  5
1E74
330
18
100
AcDbEntity
  8
目盛
100
AcDbLine
 10
443.9927412045418
 20
295.6729826040025
 30
0.0
 11
445.4897812971842
 21
295.7671683832964
 31
0.0
  0
LINE
  5
1E75
330
18
100
AcDbEntity
  8
目盛
100
AcDbLine
 10
443.9927412045418
 20
297.556698189882
 30
0.0
 11
445.4897812971842
 21
297.4625124105879
 31
0.0
  0
LINE
  5
1E76
330
18
100
AcDbEntity
  8
目盛
100
AcDbLine
 10
444.0814216112486
 20
298.4948389004068
 30
0.0
 11
445.5695936632204
 21
298.3068390500603
 31
0.0
  0
LINE
  5
1E77
330
18
100
AcDbEntity
  8
目盛
100
AcDbLine
 10
444.4343947140364
 20
292.8844920894695
 30
0.0
 11
445.8872694557292
 21
293.2575269202167
 31
0.0
  0
LINE
  5
1E78
330
18
100
AcDbEntity
  8
目盛
100
AcDbLine
 10
444.6972943865385
 20
291.979585481318
 30
0.0
 11
447.0749356772764
 21
292.7521279672554
 31
0.0
  0
LINE
  5
1E79
330
18
100
AcDbEntity
  8
目盛
100
AcDbLine
 10
444.2288333700355
 20
299.4255601157281
 30
0.0
 11
445.7022642461286
 21
299.1444881438495
 31
0.0
  0
LINE
  5
1E7A
330
18
100
AcDbEntity
  8
目盛
100
AcDbLine
 10
444.4343947140363
 20
300.3451887044152
 30
0.0
 11
445.8872694557294
 21
299.9721538736679
 31
0.0
  0
LINE
  5
1E7B
330
18
100
AcDbEntity
  8
目盛
100
AcDbLine
 10
445.016494842642
 20
302.1367086872125
 30
0.0
 11
446.4111595714744
 21
301.5845218581854
 31
0.0
  0
LINE
  5
1E7C
330
18
100
AcDbEntity
  8
目盛
100
AcDbLine
 10
445.3907363439755
 20
303.0015297704183
 30
0.0
 11
446.7479769226746
 21
302.3628608330708
 31
0.0
  0
LINE
  5
1E7D
330
18
100
AcDbEntity
  8
目盛
100
AcDbLine
 10
445.8185419303078
 20
303.841145508468
 30
0.0
 11
447.1330019503737
 21
303.1185149973155
 31
0.0
  0
LINE
  5
1E7E
330
18
100
AcDbEntity
  8
目盛
100
AcDbLine
 10
444.6972943865384
 20
301.2500953125665
 30
0.0
 11
447.0749356772763
 21
300.4775528266291
 31
0.0
  0
LINE
  5
1E7F
330
18
100
AcDbEntity
  8
目盛
100
AcDbLine
 10
446.8278872153415
 20
305.4316191813293
 30
0.0
 11
448.850429701279
 21
303.9621560505982
 31
0.0
  0
LINE
  5
1E80
330
18
100
AcDbEntity
  8
目盛
100
AcDbLine
 10
446.2982232484356
 20
304.6522423216272
 30
0.0
 11
447.5647151366885
 21
303.8485021291587
 31
0.0
  0
TEXT
  5
1E81
330
18
100
AcDbEntity
  8
文字
100
AcDbText
 10
450.8505197349848
 20
304.4888440346926
 30
0.0
 40
1.8
  1
10
  7
STYLE3
100
AcDbText
  0
TEXT
  5
1E82
330
18
100
AcDbEntity
  8
文字
100
AcDbText
 10
463.9878852492859
 20
304.2049553477947
 30
0.0
 40
1.8
  1
10
  7
STYLE3
100
AcDbText
  0
LINE
  5
1E86
102
{ACAD_REACTORS
330
1E89
102
}
330
18
100
AcDbEntity
  8
ROGO
 62
     4
100
AcDbLine
 10
458.8418158958615
 20
302.1494589822695
 30
0.0
 11
458.3155101165964
 21
302.1494589822695
 31
0.0
  0
LINE
  5
1E87
102
{ACAD_REACTORS
330
1E89
102
}
330
18
100
AcDbEntity
  8
ROGO
 62
     4
100
AcDbLine
 10
458.1565235013472
 20
303.09977644907
 30
0.0
 11
458.8418158958615
 21
302.1494589822695
 31
0.0
  0
LINE
  5
1E88
330
18
100
AcDbEntity
  8
ROGO
 62
     4
100
AcDbLine
 10
454.1057751372081
 20
301.7636830607571
 30
0.0
 11
462.9370774894905
 21
301.7636830607571
 31
0.0
  0
HATCH
  5
1E89
330
18
100
AcDbEntity
  8
ROGO
 62
     4
100
AcDbHatch
 10
0.0
 20
0.0
 30
0.0
210
0.0
220
0.0
230
1.0
  2
SOLID
 70
     1
 71
     1
 91
        2
 92
        7
 72
     0
 73
     1
 93
        8
 10
458.1565235013473
 20
303.0997764490699
 10
457.6072771740079
 20
303.09977644907
 10
456.9219847794935
 20
302.1494589822694
 10
457.4482905587587
 20
302.1494589822694
 10
457.5787659906346
 20
302.3303935481462
 10
458.1850346847204
 20
302.3303935481461
 10
458.3155101165965
 20
302.1494589822695
 10
458.8418158958615
 20
302.1494589822694
 97
        8
330
1EB1
330
1EAC
330
1EA7
330
1EAB
330
1EB2
330
1E98
330
1E86
330
1E87
 92
       22
 72
     0
 73
     1
 93
        3
 10
458.0474183122555
 20
302.5212306908285
 10
457.7163823630995
 20
302.5212306908285
 10
457.8819003376775
 20
302.7507599013815
 97
        3
330
1E96
330
1E97
330
1E95
 75
     0
 76
     1
 47
0.0514683685270805
 98
        2
 10
458.2203490926014
 20
302.612891572922
 10
458.2203490926014
 20
302.612891572922
450
        0
451
        0
460
0.0
461
0.0
452
        0
462
0.0
453
        0
470

  0
HATCH
  5
1E8A
330
18
100
AcDbEntity
  8
ROGO
 62
     4
100
AcDbHatch
 10
0.0
 20
0.0
 30
0.0
210
0.0
220
0.0
230
1.0
  2
SOLID
 70
     1
 71
     0
 91
        1
 92
        7
 72
     0
 73
     1
 93
        4
 10
454.1160975337892
 20
301.7636830607571
 10
454.0487568905688
 20
301.6148403969423
 10
462.862859730142
 20
301.6148403969423
 10
462.9370774894907
 20
301.7636830607571
 97
        0
 75
     0
 76
     1
 47
0.0514683685270805
 98
        1
 10
459.6858306430834
 20
301.7243165682525
450
        0
451
        0
460
0.0
461
0.0
452
        0
462
0.0
453
        0
470

  0
LINE
  5
1E8B
102
{ACAD_REACTORS
330
1EBA
330
1E94
102
}
330
18
100
AcDbEntity
  8
ROGO
 62
     4
100
AcDbLine
 10
453.3584951477978
 20
301.6148403969423
 30
0.0
 11
463.410034356602
 21
301.6148403969423
 31
0.0
  0
TEXT
  5
1E8F
330
18
100
AcDbEntity
  8
文字
100
AcDbText
 10
455.519134723033
 20
299.6284724527776
 30
0.0
 40
1.0
  1
PIC-TEST
  7
STYLE3
100
AcDbText
  0
TEXT
  5
1E90
330
18
100
AcDbEntity
  8
文字
100
AcDbText
 10
456.2616025175274
 20
291.5827240545614
 30
0.0
 40
1.0
  1
PC-1L
  7
STYLE3
100
AcDbText
  0
TEXT
  5
1E91
330
18
100
AcDbEntity
  8
文字
100
AcDbText
 10
452.0227076462234
 20
296.2407893476928
 30
0.0
 40
0.8
  1
Jeweled
  7
STYLE3
100
AcDbText
  0
LINE
  5
1E93
102
{ACAD_REACTORS
330
1E94
102
}
330
18
100
AcDbEntity
  8
ROGO
 62
     4
100
AcDbLine
 10
454.0932276963362
 20
303.09977644907
 30
0.0
 11
453.3584951477978
 21
301.6148403969423
 31
0.0
  0
HATCH
  5
1E94
330
18
100
AcDbEntity
  8
ROGO
 62
     4
100
AcDbHatch
 10
0.0
 20
0.0
 30
0.0
210
0.0
220
0.0
230
1.0
  2
SOLID
 70
     1
 71
     1
 91
        2
 92
        5
 93
        6
 72
     1
 10
453.3584951477978
 20
301.6148403969423
 11
454.0487568905687
 21
301.6148403969423
 72
     1
 10
454.0487568905687
 20
301.6148403969423
 11
454.2906335037039
 21
302.1494589822694
 72
     1
 10
454.2906335037039
 20
302.1494589822694
 11
454.9358866597495
 21
302.1494589822694
 72
     4
 94
        3
 73
     0
 74
     0
 95
       18
 96
       14
 40
0.108740278791501
 40
0.108740278791501
 40
0.108740278791501
 40
0.108740278791501
 40
0.6623149649549278
 40
1.384304701649787
 40
2.097394834876493
 40
2.774073369849618
 40
3.428974823686337
 40
4.005208313035923
 40
4.455173659284313
 40
4.720999734343524
 40
5.086034088486724
 40
5.569973738255373
 40
6.060470601257719
 40
6.060470601257719
 40
6.060470601257719
 40
6.060470601257719
 10
454.9358866597497
 20
302.1494589822695
 10
454.9812985108544
 20
302.1497971505744
 10
455.0859379445082
 20
302.1505763687532
 10
455.2323276933927
 20
302.2287809893124
 10
455.3711470016576
 20
302.3284079779922
 10
455.4829565107811
 20
302.4528815062412
 10
455.5526172036449
 20
302.5951956605043
 10
455.5634074247838
 20
302.7315907054351
 10
455.5568202598758
 20
302.8394774902977
 10
455.5097516580276
 20
302.914677257742
 10
455.4608181026903
 20
302.990997331515
 10
455.3710905088628
 20
303.0571086141366
 10
455.2975717380004
 20
303.0860751834437
 10
455.2601859477498
 20
303.09977644907
 72
     1
 10
455.2601859477499
 20
303.09977644907
 11
454.0932276963361
 21
303.09977644907
 72
     1
 10
454.0932276963361
 20
303.09977644907
 11
453.3584951477978
 21
301.6148403969423
 97
        6
330
1EAF
330
1EA6
330
1E93
330
1E8B
330
1EA9
330
1EAA
 92
       20
 93
        4
 72
     1
 10
454.4399786193923
 20
302.4795556933156
 11
454.5543209605159
 21
302.7322859588096
 72
     1
 10
454.5543209605159
 20
302.7322859588096
 11
454.8481320453078
 21
302.7322859588096
 72
     4
 94
        3
 73
     0
 74
     0
 95
       15
 96
       11
 40
0.0
 40
0.0
 40
0.0
 40
0.0
 40
0.1114278057886432
 40
0.1622327562563865
 40
0.2198997572250677
 40
0.259185199493265
 40
0.3213155338880433
 40
0.3585299069784071
 40
0.4223775764185194
 40
0.4436601464819452
 40
0.4436601464819452
 40
0.4436601464819452
 40
0.4436601464819452
 10
454.8481320453078
 20
302.7322859588096
 10
454.8899821683247
 20
302.732477654712
 10
454.9509136455141
 20
302.7327567534019
 10
454.9842331473756
 20
302.657384339911
 10
454.9692977579619
 20
302.6088562635761
 10
454.9505227562152
 20
302.5590330542881
 10
454.9173430758716
 20
302.5251774321361
 10
454.8728110849252
 20
302.4925687607342
 10
454.8307262253898
 20
302.4886213350462
 10
454.8033547484468
 20
302.4813688223559
 10
454.7965118759356
 20
302.4795556933155
 72
     1
 10
454.7965118759357
 20
302.4795556933156
 11
454.4399786193923
 21
302.4795556933156
 97
        4
330
1EA3
330
1EA5
330
1EA1
330
1EA4
 75
     0
 76
     1
 47
0.0514683685270805
 98
        2
 10
454.0994649071386
 20
302.6379219281605
 10
454.0994649071386
 20
302.6379219281605
450
        0
451
        0
460
0.0
461
0.0
452
        0
462
0.0
453
        0
470

  0
LINE
  5
1E95
102
{ACAD_REACTORS
330
1E89
102
}
330
18
100
AcDbEntity
  8
ROGO
 62
     4
100
AcDbLine
 10
457.8819003376775
 20
302.7507599013816
 30
0.0
 11
458.0474183122555
 21
302.5212306908285
 31
0.0
  0
LINE
  5
1E96
102
{ACAD_REACTORS
330
1E89
102
}
330
18
100
AcDbEntity
  8
ROGO
 62
     4
100
AcDbLine
 10
457.7163823630995
 20
302.5212306908285
 30
0.0
 11
458.0474183122555
 21
302.5212306908285
 31
0.0
  0
LINE
  5
1E97
102
{ACAD_REACTORS
330
1E89
102
}
330
18
100
AcDbEntity
  8
ROGO
 62
     4
100
AcDbLine
 10
457.8819003376775
 20
302.7507599013816
 30
0.0
 11
457.7163823630995
 21
302.5212306908285
 31
0.0
  0
LINE
  5
1E98
102
{ACAD_REACTORS
330
1E89
102
}
330
18
100
AcDbEntity
  8
ROGO
 62
     4
100
AcDbLine
 10
458.1850346847204
 20
302.3303935481462
 30
0.0
 11
458.3155101165964
 21
302.1494589822695
 31
0.0
  0
LINE
  5
1E99
102
{ACAD_REACTORS
330
1EB0
102
}
330
18
100
AcDbEntity
  8
ROGO
 62
     4
100
AcDbLine
 10
456.2811125111921
 20
302.5373506660345
 30
0.0
 11
456.1968925773991
 21
302.3671374146331
 31
0.0
  0
LINE
  5
1E9A
102
{ACAD_REACTORS
330
1EB0
102
}
330
18
100
AcDbEntity
  8
ROGO
 62
     4
100
AcDbLine
 10
457.0430127864733
 20
302.7118810209924
 30
0.0
 11
456.95665678999
 21
302.5373506660345
 31
0.0
  0
LINE
  5
1E9B
102
{ACAD_REACTORS
330
1EB0
102
}
330
18
100
AcDbEntity
  8
ROGO
 62
     4
100
AcDbLine
 10
456.2811125111921
 20
302.5373506660345
 30
0.0
 11
456.95665678999
 21
302.5373506660346
 31
0.0
  0
LINE
  5
1E9C
102
{ACAD_REACTORS
330
1EB0
102
}
330
18
100
AcDbEntity
  8
ROGO
 62
     4
100
AcDbLine
 10
456.1968925773991
 20
302.3671374146331
 30
0.0
 11
456.8724368561969
 21
302.3671374146331
 31
0.0
  0
LINE
  5
1E9D
102
{ACAD_REACTORS
330
1EB0
102
}
330
18
100
AcDbEntity
  8
ROGO
 62
     4
100
AcDbLine
 10
456.3674685076755
 20
302.7118810209924
 30
0.0
 11
457.0430127864733
 21
302.7118810209924
 31
0.0
  0
LINE
  5
1E9E
102
{ACAD_REACTORS
330
1EB0
102
}
330
18
100
AcDbEntity
  8
ROGO
 62
     4
100
AcDbLine
 10
456.4516848761524
 20
302.882087066688
 30
0.0
 11
457.1272291549503
 21
302.882087066688
 31
0.0
  0
LINE
  5
1E9F
102
{ACAD_REACTORS
330
1EB0
102
}
330
18
100
AcDbEntity
  8
ROGO
 62
     4
100
AcDbLine
 10
456.4516848761524
 20
302.882087066688
 30
0.0
 11
456.3674685076755
 21
302.7118810209924
 31
0.0
  0
LINE
  5
1EA0
102
{ACAD_REACTORS
330
1EB0
102
}
330
18
100
AcDbEntity
  8
ROGO
 62
     4
100
AcDbLine
 10
457.2349398368197
 20
303.09977644907
 30
0.0
 11
457.1272291549503
 21
302.882087066688
 31
0.0
  0
SPLINE
  5
1EA1
102
{ACAD_REACTORS
330
1E94
102
}
330
18
100
AcDbEntity
  8
ROGO
 62
     4
100
AcDbSpline
210
0.0
220
0.0
230
1.0
 70
     8
 71
     3
 72
    15
 73
    11
 74
     9
 42
0.0000000001
 43
0.0000000001
 44
0.0000000001
 40
0.0
 40
0.0
 40
0.0
 40
0.0
 40
0.1114278057886432
 40
0.1622327562563865
 40
0.2198997572250677
 40
0.259185199493265
 40
0.3213155338880433
 40
0.3585299069784071
 40
0.4223775764185194
 40
0.4436601464819452
 40
0.4436601464819452
 40
0.4436601464819452
 40
0.4436601464819452
 10
454.8481320453078
 20
302.7322859588096
 30
0.0
 10
454.8899821683247
 20
302.732477654712
 30
0.0
 10
454.9509136455141
 20
302.7327567534019
 30
0.0
 10
454.9842331473756
 20
302.657384339911
 30
0.0
 10
454.9692977579619
 20
302.6088562635761
 30
0.0
 10
454.9505227562152
 20
302.5590330542881
 30
0.0
 10
454.9173430758716
 20
302.5251774321361
 30
0.0
 10
454.8728110849252
 20
302.4925687607342
 30
0.0
 10
454.8307262253898
 20
302.4886213350462
 30
0.0
 10
454.8033547484468
 20
302.4813688223559
 30
0.0
 10
454.7965118759356
 20
302.4795556933155
 30
0.0
 11
454.8481320453078
 21
302.7322859588096
 31
0.0
 11
454.9565344900377
 21
302.7064970875763
 31
0.0
 11
454.9771826171518
 21
302.6600772875045
 31
0.0
 11
454.9668587020078
 21
302.6033419389392
 31
0.0
 11
454.9513726808788
 21
302.5672375192126
 31
0.0
 11
454.9100764266504
 21
302.5208177191407
 31
0.0
 11
454.8791043843923
 21
302.5001866221541
 31
0.0
 11
454.8171600030498
 21
302.4847134675622
 31
0.0
 11
454.7965118759356
 21
302.4795556933155
 31
0.0
  0
LINE
  5
1EA2
102
{ACAD_REACTORS
330
1EB0
102
}
330
18
100
AcDbEntity
  8
ROGO
 62
     4
100
AcDbLine
 10
455.9495959275394
 20
303.09977644907
 30
0.0
 11
457.2349398368197
 21
303.09977644907
 31
0.0
  0
LINE
  5
1EA3
102
{ACAD_REACTORS
330
1E94
102
}
330
18
100
AcDbEntity
  8
ROGO
 62
     4
100
AcDbLine
 10
454.5543209605159
 20
302.7322859588096
 30
0.0
 11
454.4399786193923
 21
302.4795556933156
 31
0.0
  0
LINE
  5
1EA4
102
{ACAD_REACTORS
330
1E94
102
}
330
18
100
AcDbEntity
  8
ROGO
 62
     4
100
AcDbLine
 10
454.7965118759356
 20
302.4795556933155
 30
0.0
 11
454.4399786193923
 21
302.4795556933156
 31
0.0
  0
LINE
  5
1EA5
102
{ACAD_REACTORS
330
1E94
102
}
330
18
100
AcDbEntity
  8
ROGO
 62
     4
100
AcDbLine
 10
454.8481320453078
 20
302.7322859588096
 30
0.0
 11
454.5543209605159
 21
302.7322859588096
 31
0.0
  0
LINE
  5
1EA6
102
{ACAD_REACTORS
330
1E94
102
}
330
18
100
AcDbEntity
  8
ROGO
 62
     4
100
AcDbLine
 10
454.0932276963362
 20
303.09977644907
 30
0.0
 11
455.2601859477498
 21
303.09977644907
 31
0.0
  0
LINE
  5
1EA7
102
{ACAD_REACTORS
330
1E89
102
}
330
18
100
AcDbEntity
  8
ROGO
 62
     4
100
AcDbLine
 10
456.9219847794935
 20
302.1494589822695
 30
0.0
 11
457.4482905587587
 21
302.1494589822695
 31
0.0
  0
LINE
  5
1EA8
102
{ACAD_REACTORS
330
1EB0
102
}
330
18
100
AcDbEntity
  8
ROGO
 62
     4
100
AcDbLine
 10
455.4793876830145
 20
302.1494589822695
 30
0.0
 11
456.7647315922947
 21
302.1494589822695
 31
0.0
  0
LINE
  5
1EA9
102
{ACAD_REACTORS
330
1E94
102
}
330
18
100
AcDbEntity
  8
ROGO
 62
     4
100
AcDbLine
 10
454.290633503704
 20
302.1494589822695
 30
0.0
 11
454.0487568905688
 21
301.6148403969423
 31
0.0
  0
LINE
  5
1EAA
102
{ACAD_REACTORS
330
1E94
102
}
330
18
100
AcDbEntity
  8
ROGO
 62
     4
100
AcDbLine
 10
454.9358866599733
 20
302.1494589822695
 30
0.0
 11
454.2906335037039
 21
302.1494589822695
 31
0.0
  0
LINE
  5
1EAB
102
{ACAD_REACTORS
330
1E89
102
}
330
18
100
AcDbEntity
  8
ROGO
 62
     4
100
AcDbLine
 10
457.5787659906346
 20
302.3303935481462
 30
0.0
 11
457.4482905587587
 21
302.1494589822695
 31
0.0
  0
LINE
  5
1EAC
102
{ACAD_REACTORS
330
1E89
102
}
330
18
100
AcDbEntity
  8
ROGO
 62
     4
100
AcDbLine
 10
457.6072771740079
 20
303.09977644907
 30
0.0
 11
456.9219847794935
 21
302.1494589822695
 31
0.0
  0
LINE
  5
1EAD
102
{ACAD_REACTORS
330
1EB0
102
}
330
18
100
AcDbEntity
  8
ROGO
 62
     4
100
AcDbLine
 10
456.8724368561969
 20
302.3671374146331
 30
0.0
 11
456.7647315922947
 21
302.1494589822695
 31
0.0
  0
LINE
  5
1EAE
102
{ACAD_REACTORS
330
1EB0
102
}
330
18
100
AcDbEntity
  8
ROGO
 62
     4
100
AcDbLine
 10
455.9495959275395
 20
303.09977644907
 30
0.0
 11
455.4793876830145
 21
302.1494589822695
 31
0.0
  0
SPLINE
  5
1EAF
102
{ACAD_REACTORS
330
1E94
102
}
330
18
100
AcDbEntity
  8
ROGO
 62
     4
100
AcDbSpline
210
0.0
220
0.0
230
1.0
 70
     8
 71
     3
 72
    18
 73
    14
 74
     0
 42
0.0000000001
 43
0.0000000001
 40
0.1087402787915014
 40
0.1087402787915014
 40
0.1087402787915014
 40
0.1087402787915014
 40
0.5992371417938475
 40
1.083176791562496
 40
1.448211145705696
 40
1.714037220764907
 40
2.164002567013297
 40
2.740236056362883
 40
3.395137510199602
 40
4.071816045172726
 40
4.784906178399433
 40
5.506895915094292
 40
6.060470601257719
 40
6.060470601257719
 40
6.060470601257719
 40
6.060470601257719
 10
455.2601859477498
 20
303.09977644907
 30
0.0
 10
455.2975717380004
 20
303.0860751834437
 30
0.0
 10
455.3710905088628
 20
303.0571086141366
 30
0.0
 10
455.4608181026903
 20
302.990997331515
 30
0.0
 10
455.5097516580276
 20
302.914677257742
 30
0.0
 10
455.5568202598758
 20
302.8394774902977
 30
0.0
 10
455.5634074247838
 20
302.7315907054351
 30
0.0
 10
455.5526172036449
 20
302.5951956605043
 30
0.0
 10
455.4829565107811
 20
302.4528815062412
 30
0.0
 10
455.3711470016576
 20
302.3284079779922
 30
0.0
 10
455.2323276933927
 20
302.2287809893124
 30
0.0
 10
455.0859379445082
 20
302.1505763687532
 30
0.0
 10
454.9812985108544
 20
302.1497971505744
 30
0.0
 10
454.9358866597497
 20
302.1494589822695
 30
0.0
  0
HATCH
  5
1EB0
330
18
100
AcDbEntity
  8
ROGO
 62
     4
100
AcDbHatch
 10
0.0
 20
0.0
 30
0.0
210
0.0
220
0.0
230
1.0
  2
SOLID
 70
     1
 71
     1
 91
        1
 92
        1
 93
       12
 72
     1
 10
455.9495959275394
 20
303.09977644907
 11
457.2349398368197
 21
303.09977644907
 72
     1
 10
457.2349398368197
 20
303.09977644907
 11
457.1272291549503
 21
302.882087066688
 72
     1
 10
457.1272291549503
 20
302.882087066688
 11
456.4516848761524
 21
302.882087066688
 72
     1
 10
456.4516848761524
 20
302.882087066688
 11
456.3674685076755
 21
302.7118810209924
 72
     1
 10
456.3674685076755
 20
302.7118810209924
 11
457.0430127864733
 21
302.7118810209924
 72
     1
 10
457.0430127864733
 20
302.7118810209924
 11
456.95665678999
 21
302.5373506660345
 72
     1
 10
456.95665678999
 20
302.5373506660346
 11
456.2811125111921
 21
302.5373506660345
 72
     1
 10
456.2811125111921
 20
302.5373506660345
 11
456.1968925773991
 21
302.3671374146331
 72
     1
 10
456.1968925773991
 20
302.3671374146331
 11
456.8724368561969
 21
302.3671374146331
 72
     1
 10
456.8724368561969
 20
302.3671374146331
 11
456.7647315922947
 21
302.1494589822695
 72
     1
 10
456.7647315922947
 20
302.1494589822695
 11
455.4793876830145
 21
302.1494589822695
 72
     1
 10
455.4793876830145
 20
302.1494589822695
 11
455.9495959275395
 21
303.09977644907
 97
       12
330
1EA2
330
1EA0
330
1E9E
330
1E9F
330
1E9D
330
1E9A
330
1E9B
330
1E99
330
1E9C
330
1EAD
330
1EA8
330
1EAE
 75
     0
 76
     1
 98
        1
 10
403.3730029505063
 20
237.3895759839042
450
        0
451
        0
460
0.0
461
0.0
452
        0
462
0.0
453
        0
470

  0
LINE
  5
1EB1
102
{ACAD_REACTORS
330
1E89
102
}
330
18
100
AcDbEntity
  8
ROGO
 62
     4
100
AcDbLine
 10
457.6072771740079
 20
303.09977644907
 30
0.0
 11
458.1565235013472
 21
303.09977644907
 31
0.0
  0
LINE
  5
1EB2
102
{ACAD_REACTORS
330
1E89
102
}
330
18
100
AcDbEntity
  8
ROGO
 62
     4
100
AcDbLine
 10
457.5787659906346
 20
302.3303935481462
 30
0.0
 11
458.1850346847204
 21
302.3303935481462
 31
0.0
  0
TEXT
  5
1EB3
330
18
100
AcDbEntity
  8
文字
100
AcDbText
 10
461.3969262822464
 20
296.2055006123671
 30
0.0
 40
0.8
  1
0.01mm
  7
STYLE3
100
AcDbText
  0
POINT
  5
1EB4
330
18
100
AcDbEntity
  8
DEFPOINTS
  6
ByBlock
 62
     0
100
AcDbPoint
 10
458.9631421309658
 20
296.6148403969423
 30
0.0
  0
POINT
  5
1EB5
330
18
100
AcDbEntity
  8
DEFPOINTS
  6
ByBlock
 62
     0
100
AcDbPoint
 10
458.9631421309658
 20
296.6148403969423
 30
0.0
  0
POINT
  5
1EB6
330
18
100
AcDbEntity
  8
DEFPOINTS
  6
ByBlock
 62
     0
100
AcDbPoint
 10
458.9631421309658
 20
296.6148403969423
 30
0.0
  0
POINT
  5
1EB7
330
18
100
AcDbEntity
  8
DEFPOINTS
  6
ByBlock
 62
     0
100
AcDbPoint
 10
458.9631421309658
 20
296.6148403969423
 30
0.0
  0
LINE
  5
1EB8
102
{ACAD_REACTORS
330
1EBA
102
}
330
18
100
AcDbEntity
  8
ROGO
 62
     4
100
AcDbLine
 10
463.6032968047028
 20
302.0024254957539
 30
0.0
 11
463.410034356602
 21
301.6148403969423
 31
0.0
  0
LINE
  5
1EB9
102
{ACAD_REACTORS
330
1EBA
102
}
330
18
100
AcDbEntity
  8
ROGO
 62
     4
100
AcDbLine
 10
463.6032968047028
 20
303.09977644907
 30
0.0
 11
462.8628597301419
 21
301.6148403969423
 31
0.0
  0
HATCH
  5
1EBA
330
18
100
AcDbEntity
  8
ROGO
 62
     4
100
AcDbHatch
 10
0.0
 20
0.0
 30
0.0
210
0.0
220
0.0
230
1.0
  2
SOLID
 70
     1
 71
     1
 91
        1
 92
        7
 72
     0
 73
     1
 93
       11
 10
462.8628597301419
 20
301.6148403969422
 10
463.4100343566021
 20
301.6148403969423
 10
463.6032968047029
 20
302.0024254957538
 10
463.7965592528036
 20
301.6148403969423
 10
464.343721907523
 20
301.6148403969423
 10
463.9735033702425
 20
302.3573084230061
 10
464.8729912050132
 20
303.0997764490699
 10
464.3258285502942
 20
303.09977644907
 10
464.0696307700666
 20
302.9376516497267
 10
464.1504714311627
 20
303.09977644907
 10
463.6032968047028
 20
303.09977644907
 97
       11
330
1EDF
330
1EDC
330
1EDD
330
1EDE
330
1EB9
330
1E8B
330
1EB8
330
1EE2
330
1EE1
330
1EE3
330
1EE0
 75
     0
 76
     1
 47
0.0514683685270805
 98
        1
 10
463.5562050171895
 20
302.4627099459356
450
        0
451
        0
460
0.0
461
0.0
452
        0
462
0.0
453
        0
470

  0
LINE
  5
1EBB
102
{ACAD_REACTORS
330
1EDB
102
}
330
18
100
AcDbEntity
  8
ROGO
 62
     4
100
AcDbLine
 10
462.6332452951859
 20
302.7461967373716
 30
0.0
 11
463.2279545635436
 21
302.7461967373716
 31
0.0
  0
LINE
  5
1EBC
102
{ACAD_REACTORS
330
1EDB
102
}
330
18
100
AcDbEntity
  8
ROGO
 62
     4
100
AcDbLine
 10
462.499032617357
 20
302.5030349496554
 30
0.0
 11
463.1067062427937
 21
302.5030349496554
 31
0.0
  0
SPLINE
  5
1EBD
102
{ACAD_REACTORS
330
1EDB
102
}
330
18
100
AcDbEntity
  8
ROGO
 62
     4
100
AcDbSpline
210
0.0
220
0.0
230
1.0
 70
     8
 71
     3
 72
    16
 73
    12
 74
    10
 42
0.0000000001
 43
0.0000000001
 44
0.0000000001
 40
0.0
 40
0.0
 40
0.0
 40
0.0
 40
0.090889463558755
 40
0.1352824120538207
 40
0.1571739758861895
 40
0.1802441192684573
 40
0.2132804986121272
 40
0.2433617673669184
 40
0.2747358298622198
 40
0.3273367126566715
 40
0.3794005943324707
 40
0.3794005943324707
 40
0.3794005943324707
 40
0.3794005943324707
 10
462.6332452951859
 20
302.7461967373716
 30
0.0
 10
462.6024660008464
 20
302.7415042263016
 30
0.0
 10
462.5566532408572
 20
302.7345197619723
 30
0.0
 10
462.5152247311923
 20
302.7017254095235
 30
0.0
 10
462.4918619281864
 20
302.6822149527249
 30
0.0
 10
462.4839137985193
 20
302.6563775695987
 30
0.0
 10
462.4625676181872
 20
302.6365384255701
 30
0.0
 10
462.4449722938146
 20
302.6092730556429
 30
0.0
 10
462.4407709292041
 20
302.5718236284162
 30
0.0
 10
462.4438548270193
 20
302.5192690646243
 30
0.0
 10
462.4807030393384
 20
302.5084277802682
 30
0.0
 10
462.499032617357
 20
302.5030349496553
 30
0.0
 11
462.6332452951859
 21
302.7461967373716
 31
0.0
 11
462.5454909775704
 21
302.7225308478715
 31
0.0
 11
462.5093568293272
 21
302.6967421447862
 31
0.0
 11
462.4938708081981
 21
302.6812688220462
 31
0.0
 11
462.4835465962278
 21
302.6606377250595
 31
0.0
 11
462.4628984691137
 21
302.6348490219743
 31
0.0
 11
462.4474124479847
 21
302.609060150741
 31
0.0
 11
462.4422503419995
 21
302.578113673409
 31
0.0
 11
462.4525745539697
 21
302.5265359309425
 31
0.0
 11
462.499032617357
 21
302.5030349496553
 31
0.0
  0
LINE
  5
1EBE
102
{ACAD_REACTORS
330
1ED8
102
}
330
18
100
AcDbEntity
  8
ROGO
 62
     4
100
AcDbLine
 10
460.8239276385495
 20
303.09977644907
 30
0.0
 11
461.2082016383273
 21
303.09977644907
 31
0.0
  0
LINE
  5
1EBF
330
18
100
AcDbEntity
  8
ROGO
 62
     4
100
AcDbLine
 10
460.8239276385496
 20
303.09977644907
 30
0.0
 11
461.093241047696
 21
303.09977644907
 31
0.0
  0
ARC
  5
1EC0
102
{ACAD_REACTORS
330
1ED8
102
}
330
18
100
AcDbEntity
  8
ROGO
 62
     4
100
AcDbCircle
 10
461.0548738686642
 20
302.5623194589765
 30
0.0
 40
0.0888850530907803
100
AcDbArc
 50
256.5902863289752
 51
337.7287536965499
  0
ARC
  5
1EC1
102
{ACAD_REACTORS
330
1ED8
102
}
330
18
100
AcDbEntity
  8
ROGO
 62
     4
100
AcDbCircle
 10
461.005549200564
 20
302.5763388317092
 30
0.0
 40
0.0958388019806556
100
AcDbArc
 50
188.5583509056651
 51
266.5736774635929
  0
ARC
  5
1EC2
102
{ACAD_REACTORS
330
1ED8
102
}
330
18
100
AcDbEntity
  8
ROGO
 62
     4
100
AcDbCircle
 10
461.019261089591
 20
302.6127309822588
 30
0.0
 40
0.1037824301982561
100
AcDbArc
 50
82.57970078354313
 51
157.4341870372611
  0
ARC
  5
1EC3
102
{ACAD_REACTORS
330
1ED8
102
}
330
18
100
AcDbEntity
  8
ROGO
 62
     4
100
AcDbCircle
 10
461.0501184522168
 20
302.6124033456174
 30
0.0
 40
0.0998820093152177
100
AcDbArc
 50
3.851923331663601
 51
80.20940670206341
  0
LINE
  5
1EC4
102
{ACAD_REACTORS
330
1ED8
102
}
330
18
100
AcDbEntity
  8
ROGO
 62
     4
100
AcDbLine
 10
460.9998213970957
 20
302.4806713438541
 30
0.0
 11
461.0342602853239
 21
302.4758577168888
 31
0.0
  0
LINE
  5
1EC5
102
{ACAD_REACTORS
330
1ED8
102
}
330
18
100
AcDbEntity
  8
ROGO
 62
     4
100
AcDbLine
 10
460.9107775809792
 20
302.5620764305663
 30
0.0
 11
460.9234243094278
 21
302.6525569083097
 31
0.0
  0
LINE
  5
1EC6
102
{ACAD_REACTORS
330
1ED8
102
}
330
18
100
AcDbEntity
  8
ROGO
 62
     4
100
AcDbLine
 10
461.1497748279703
 20
302.6191132306033
 30
0.0
 11
461.1371280995216
 21
302.5286327528598
 31
0.0
  0
LINE
  5
1EC7
102
{ACAD_REACTORS
330
1ED8
102
}
330
18
100
AcDbEntity
  8
ROGO
 62
     4
100
AcDbLine
 10
461.0326642714074
 20
302.7156442833187
 30
0.0
 11
461.0671031596356
 21
302.7108306563534
 31
0.0
  0
LINE
  5
1EC8
102
{ACAD_REACTORS
330
1ED7
102
}
330
18
100
AcDbEntity
  8
ROGO
 62
     4
100
AcDbLine
 10
459.390567144889
 20
303.09977644907
 30
0.0
 11
460.342253418277
 21
303.09977644907
 31
0.0
  0
LINE
  5
1EC9
102
{ACAD_REACTORS
330
1ED7
102
}
330
18
100
AcDbEntity
  8
ROGO
 62
     4
100
AcDbLine
 10
459.4370252082758
 20
302.5030349496554
 30
0.0
 11
460.0446988337125
 21
302.5030349496554
 31
0.0
  0
LINE
  5
1ECA
102
{ACAD_REACTORS
330
1ED7
102
}
330
18
100
AcDbEntity
  8
ROGO
 62
     4
100
AcDbLine
 10
459.5712378861048
 20
302.7461967373716
 30
0.0
 11
460.1659471544626
 21
302.7461967373716
 31
0.0
  0
LINE
  5
1ECB
102
{ACAD_REACTORS
330
1ED7
102
}
330
18
100
AcDbEntity
  8
ROGO
 62
     4
100
AcDbLine
 10
460.342253418277
 20
303.09977644907
 30
0.0
 11
460.1659471544626
 21
302.7461967373716
 31
0.0
  0
SPLINE
  5
1ECC
102
{ACAD_REACTORS
330
1ED7
102
}
330
18
100
AcDbEntity
  8
ROGO
 62
     4
100
AcDbSpline
210
0.0
220
0.0
230
1.0
 70
     8
 71
     3
 72
    16
 73
    12
 74
    10
 42
0.0000000001
 43
0.0000000001
 44
0.0000000001
 40
0.0
 40
0.0
 40
0.0
 40
0.0
 40
0.0908894635587698
 40
0.1352824120537892
 40
0.1571739758861179
 40
0.1802441192684364
 40
0.2132804986121064
 40
0.2433617673669269
 40
0.2747358298621628
 40
0.3273367126566702
 40
0.3794005943324437
 40
0.3794005943324437
 40
0.3794005943324437
 40
0.3794005943324437
 10
459.5712378861048
 20
302.7461967373716
 30
0.0
 10
459.5404585917653
 20
302.7415042263016
 30
0.0
 10
459.4946458317762
 20
302.7345197619724
 30
0.0
 10
459.4532173221113
 20
302.7017254095235
 30
0.0
 10
459.4298545191054
 20
302.6822149527249
 30
0.0
 10
459.4219063894382
 20
302.6563775695987
 30
0.0
 10
459.4005602091061
 20
302.6365384255699
 30
0.0
 10
459.3829648847337
 20
302.6092730556431
 30
0.0
 10
459.378763520123
 20
302.571823628416
 30
0.0
 10
459.3818474179382
 20
302.5192690646244
 30
0.0
 10
459.4186956302574
 20
302.5084277802684
 30
0.0
 10
459.4370252082759
 20
302.5030349496554
 30
0.0
 11
459.5712378861048
 21
302.7461967373716
 31
0.0
 11
459.4834835684893
 21
302.7225308478715
 31
0.0
 11
459.4473494202461
 21
302.6967421447862
 31
0.0
 11
459.4318633991171
 21
302.6812688220462
 31
0.0
 11
459.4215391871468
 21
302.6606377250595
 31
0.0
 11
459.4008910600327
 21
302.6348490219743
 31
0.0
 11
459.3854050389035
 21
302.609060150741
 31
0.0
 11
459.3802429329184
 21
302.5781136734091
 31
0.0
 11
459.3905671448887
 21
302.5265359309425
 31
0.0
 11
459.4370252082759
 21
302.5030349496554
 31
0.0
  0
LINE
  5
1ECD
102
{ACAD_REACTORS
330
1EDB
102
}
330
18
100
AcDbEntity
  8
ROGO
 62
     4
100
AcDbLine
 10
462.1118809018252
 20
302.1494589822695
 30
0.0
 11
462.9304018460143
 21
302.1494589822695
 31
0.0
  0
LINE
  5
1ECE
102
{ACAD_REACTORS
330
1ED8
102
}
330
18
100
AcDbEntity
  8
ROGO
 62
     4
100
AcDbLine
 10
460.8239276385495
 20
302.1494589822695
 30
0.0
 11
461.2358172640542
 21
302.1494589822695
 31
0.0
  0
LINE
  5
1ECF
330
18
100
AcDbEntity
  8
ROGO
 62
     4
100
AcDbLine
 10
460.8239276385498
 20
302.1494589822695
 30
0.0
 11
461.2358172640538
 21
302.1494589822695
 31
0.0
  0
LINE
  5
1ED0
102
{ACAD_REACTORS
330
1ED7
102
}
330
18
100
AcDbEntity
  8
ROGO
 62
     4
100
AcDbLine
 10
459.0498734927441
 20
302.1494589822695
 30
0.0
 11
459.8683944369333
 21
302.1494589822695
 31
0.0
  0
ARC
  5
1ED1
102
{ACAD_REACTORS
330
1ED8
102
}
330
18
100
AcDbEntity
  8
ROGO
 62
     4
100
AcDbCircle
 10
461.2082016383273
 20
302.6242164693436
 30
0.0
 40
0.4755599797263065
100
AcDbArc
 50
273.3290215232082
 51
90.0000000000006
  0
ARC
  5
1ED2
102
{ACAD_REACTORS
330
1ED8
102
}
330
18
100
AcDbEntity
  8
ROGO
 62
     4
100
AcDbCircle
 10
460.8434589567528
 20
302.6246177156697
 30
0.0
 40
0.4755599797263065
100
AcDbArc
 50
92.3538081120337
 51
270.0
  0
LINE
  5
1ED3
102
{ACAD_REACTORS
330
1EDB
102
}
330
18
100
AcDbEntity
  8
ROGO
 62
     4
100
AcDbLine
 10
463.1067062427936
 20
302.5030349496554
 30
0.0
 11
462.9304018460143
 21
302.1494589822694
 31
0.0
  0
LINE
  5
1ED4
102
{ACAD_REACTORS
330
1ED7
102
}
330
18
100
AcDbEntity
  8
ROGO
 62
     4
100
AcDbLine
 10
460.0446988337125
 20
302.5030349496554
 30
0.0
 11
459.8683944369333
 21
302.1494589822695
 31
0.0
  0
SPLINE
  5
1ED5
102
{ACAD_REACTORS
330
1ED7
102
}
330
18
100
AcDbEntity
  8
ROGO
 62
     4
100
AcDbSpline
210
0.0
220
0.0
230
1.0
 70
     8
 71
     3
 72
    26
 73
    22
 74
    20
 42
0.0000000001
 43
0.0000000001
 44
0.0000000001
 40
0.0
 40
0.0
 40
0.0
 40
0.0
 40
0.172398475942452
 40
0.2878059064037132
 40
0.3710240621887256
 40
0.4331603664333846
 40
0.5137544142125073
 40
0.5725802121924657
 40
0.6788058922658211
 40
0.7652720686804854
 40
0.8240829233522674
 40
0.8817499774613789
 40
0.9849051260984648
 40
1.05784812826095
 40
1.097133570529095
 40
1.152937380796455
 40
1.193234564309741
 40
1.251611879021481
 40
1.284648389624348
 40
1.356539542406023
 40
1.389365667278791
 40
1.389365667278791
 40
1.389365667278791
 40
1.389365667278791
 10
459.3905671448887
 20
303.09977644907
 30
0.0
 10
459.3320524384502
 20
303.0962853613416
 30
0.0
 10
459.2343666669696
 20
303.0904572607016
 30
0.0
 10
459.1271082841339
 20
303.0252989449988
 30
0.0
 10
459.0485245136191
 20
302.9874187636246
 30
0.0
 10
458.9924786637904
 20
302.9359238842255
 30
0.0
 10
458.9513968286731
 20
302.882733435436
 30
0.0
 10
458.8996054632076
 20
302.8193574057056
 30
0.0
 10
458.8573710846105
 20
302.7455585836652
 30
0.0
 10
458.8358636831842
 20
302.6642194161956
 30
0.0
 10
458.8168126311281
 20
302.5993916277775
 30
0.0
 10
458.8026840519908
 20
302.5271495177845
 30
0.0
 10
458.8062787624983
 20
302.4491026255467
 30
0.0
 10
458.8114265524616
 20
302.3766166676217
 30
0.0
 10
458.8344101828706
 20
302.3248725462995
 30
0.0
 10
458.860584466804
 20
302.2880342975633
 30
0.0
 10
458.8926345190254
 20
302.2474610506447
 30
0.0
 10
458.9277042849269
 20
302.2205895205917
 30
0.0
 10
458.9567098439204
 20
302.1719099381775
 30
0.0
 10
459.0074830964554
 20
302.165698072382
 30
0.0
 10
459.0397565957036
 20
302.153334605455
 30
0.0
 10
459.0498734927442
 20
302.1494589822695
 30
0.0
 11
459.3905671448887
 21
303.09977644907
 31
0.0
 11
459.2202203188164
 21
303.0732586559041
 31
0.0
 11
459.1169796832455
 21
303.0216810815856
 31
0.0
 11
459.0447113867591
 21
302.9804190557603
 31
0.0
 11
458.9982533233718
 21
302.939156861787
 31
0.0
 11
458.9466331539996
 21
302.8772637389752
 31
0.0
 11
458.9104990057562
 21
302.8308439389033
 31
0.0
 11
458.8588785395577
 21
302.7380041706114
 31
0.0
 11
458.8330686032847
 21
302.6554799508129
 31
0.0
 11
458.8175825821557
 21
302.5987446022477
 31
0.0
 11
458.8072583701854
 21
302.5420092536825
 31
0.0
 11
458.8072583701854
 21
302.4388541050454
 31
0.0
 11
458.8175825821557
 21
302.3666454337401
 31
0.0
 11
458.8330686032847
 21
302.3305410140135
 31
0.0
 11
458.8640406455428
 21
302.2841212139416
 31
0.0
 11
458.8898508786421
 21
302.2531745684617
 31
0.0
 11
458.9311468360442
 21
302.2119125426364
 31
0.0
 11
458.9517949631583
 21
302.1861236714031
 31
0.0
 11
459.018901450486
 21
302.1603349683179
 31
0.0
 11
459.0498734927442
 21
302.1494589822695
 31
0.0
  0
SPLINE
  5
1ED6
102
{ACAD_REACTORS
330
1EDB
102
}
330
18
100
AcDbEntity
  8
ROGO
 62
     4
100
AcDbSpline
210
0.0
220
0.0
230
1.0
 70
     8
 71
     3
 72
    26
 73
    22
 74
    20
 42
0.0000000001
 43
0.0000000001
 44
0.0000000001
 40
0.0
 40
0.0
 40
0.0
 40
0.0
 40
0.1723984759424608
 40
0.2878059064036966
 40
0.3710240621887089
 40
0.4331603664333254
 40
0.5137544142124919
 40
0.5725802121924054
 40
0.6788058922657609
 40
0.7652720686804421
 40
0.824082923352279
 40
0.8817499774613345
 40
0.9849051260984204
 40
1.057848128260906
 40
1.097133570529051
 40
1.152937380796411
 40
1.193234564309733
 40
1.251611879021433
 40
1.284648389624335
 40
1.356539542405977
 40
1.389365667278781
 40
1.389365667278781
 40
1.389365667278781
 40
1.389365667278781
 10
462.4525745539697
 20
303.09977644907
 30
0.0
 10
462.3940598475312
 20
303.0962853613416
 30
0.0
 10
462.2963740760507
 20
303.0904572607016
 30
0.0
 10
462.1891156932153
 20
303.0252989449988
 30
0.0
 10
462.1105319227
 20
302.9874187636246
 30
0.0
 10
462.0544860728716
 20
302.9359238842255
 30
0.0
 10
462.0134042377542
 20
302.8827334354359
 30
0.0
 10
461.9616128722888
 20
302.8193574057056
 30
0.0
 10
461.9193784936916
 20
302.7455585836653
 30
0.0
 10
461.8978710922653
 20
302.6642194161955
 30
0.0
 10
461.878820040209
 20
302.5993916277775
 30
0.0
 10
461.864691461072
 20
302.5271495177844
 30
0.0
 10
461.8682861715793
 20
302.4491026255467
 30
0.0
 10
461.8734339615427
 20
302.3766166676217
 30
0.0
 10
461.8964175919516
 20
302.3248725462995
 30
0.0
 10
461.9225918758854
 20
302.2880342975634
 30
0.0
 10
461.9546419281065
 20
302.2474610506446
 30
0.0
 10
461.9897116940079
 20
302.2205895205918
 30
0.0
 10
462.0187172530016
 20
302.1719099381774
 30
0.0
 10
462.0694905055366
 20
302.165698072382
 30
0.0
 10
462.1017640047846
 20
302.153334605455
 30
0.0
 10
462.1118809018253
 20
302.1494589822695
 30
0.0
 11
462.4525745539697
 21
303.09977644907
 31
0.0
 11
462.2822277278975
 21
303.073258655904
 31
0.0
 11
462.1789870923266
 21
303.0216810815856
 31
0.0
 11
462.1067187958401
 21
302.9804190557603
 31
0.0
 11
462.0602607324529
 21
302.939156861787
 31
0.0
 11
462.0086405630806
 21
302.8772637389751
 31
0.0
 11
461.9725064148374
 21
302.8308439389033
 31
0.0
 11
461.9208859486388
 21
302.7380041706114
 31
0.0
 11
461.8950760123658
 21
302.6554799508129
 31
0.0
 11
461.8795899912367
 21
302.5987446022476
 31
0.0
 11
461.8692657792665
 21
302.5420092536825
 31
0.0
 11
461.8692657792665
 21
302.4388541050454
 31
0.0
 11
461.8795899912367
 21
302.3666454337401
 31
0.0
 11
461.8950760123658
 21
302.3305410140135
 31
0.0
 11
461.9260480546238
 21
302.2841212139416
 31
0.0
 11
461.9518582877232
 21
302.2531745684617
 31
0.0
 11
461.9931542451253
 21
302.2119125426364
 31
0.0
 11
462.0138023722395
 21
302.1861236714031
 31
0.0
 11
462.0809088595671
 21
302.1603349683179
 31
0.0
 11
462.1118809018253
 21
302.1494589822695
 31
0.0
  0
HATCH
  5
1ED7
330
18
100
AcDbEntity
  8
ROGO
 62
     4
100
AcDbHatch
 10
0.0
 20
0.0
 30
0.0
210
0.0
220
0.0
230
1.0
  2
SOLID
 70
     1
 71
     1
 91
        1
 92
        5
 93
        8
 72
     1
 10
460.1659471544625
 20
302.7461967373716
 11
460.342253418277
 21
303.09977644907
 72
     1
 10
460.342253418277
 20
303.09977644907
 11
459.3905671448889
 21
303.0997764490701
 72
     4
 94
        3
 73
     0
 74
     0
 95
       26
 96
       22
 40
0.0
 40
0.0
 40
0.0
 40
0.0
 40
0.172398475942452
 40
0.2878059064037132
 40
0.3710240621887256
 40
0.4331603664333846
 40
0.5137544142125073
 40
0.5725802121924657
 40
0.6788058922658211
 40
0.7652720686804854
 40
0.8240829233522674
 40
0.8817499774613789
 40
0.9849051260984648
 40
1.05784812826095
 40
1.097133570529095
 40
1.152937380796455
 40
1.193234564309741
 40
1.251611879021481
 40
1.284648389624348
 40
1.356539542406023
 40
1.389365667278791
 40
1.389365667278791
 40
1.389365667278791
 40
1.389365667278791
 10
459.3905671448887
 20
303.09977644907
 10
459.3320524384502
 20
303.0962853613416
 10
459.2343666669696
 20
303.0904572607016
 10
459.1271082841339
 20
303.0252989449988
 10
459.0485245136191
 20
302.9874187636246
 10
458.9924786637904
 20
302.9359238842255
 10
458.9513968286731
 20
302.882733435436
 10
458.8996054632076
 20
302.8193574057056
 10
458.8573710846105
 20
302.7455585836652
 10
458.8358636831842
 20
302.6642194161956
 10
458.8168126311281
 20
302.5993916277775
 10
458.8026840519908
 20
302.5271495177845
 10
458.8062787624983
 20
302.4491026255467
 10
458.8114265524616
 20
302.3766166676217
 10
458.8344101828706
 20
302.3248725462995
 10
458.860584466804
 20
302.2880342975633
 10
458.8926345190254
 20
302.2474610506447
 10
458.9277042849269
 20
302.2205895205917
 10
458.9567098439204
 20
302.1719099381775
 10
459.0074830964554
 20
302.165698072382
 10
459.0397565957036
 20
302.153334605455
 10
459.0498734927442
 20
302.1494589822695
 72
     1
 10
459.049873492744
 20
302.1494589822694
 11
459.8683944369333
 21
302.1494589822696
 72
     1
 10
459.8683944369333
 20
302.1494589822696
 11
460.0446988337125
 21
302.5030349496554
 72
     1
 10
460.0446988337125
 20
302.5030349496554
 11
459.4370252082759
 21
302.5030349496554
 72
     4
 94
        3
 73
     0
 74
     0
 95
       16
 96
       12
 40
0.0
 40
0.0
 40
0.0
 40
0.0
 40
0.0520638816757735
 40
0.1046647644702809
 40
0.1360388269655169
 40
0.1661200957203374
 40
0.1991564750640073
 40
0.2222266184463259
 40
0.2441181822786546
 40
0.2885111307736739
 40
0.3794005943324437
 40
0.3794005943324437
 40
0.3794005943324437
 40
0.3794005943324437
 10
459.4370252082759
 20
302.5030349496554
 10
459.4186956302574
 20
302.5084277802684
 10
459.3818474179382
 20
302.5192690646244
 10
459.378763520123
 20
302.571823628416
 10
459.3829648847337
 20
302.6092730556431
 10
459.4005602091061
 20
302.6365384255699
 10
459.4219063894382
 20
302.6563775695987
 10
459.4298545191054
 20
302.6822149527249
 10
459.4532173221113
 20
302.7017254095235
 10
459.4946458317762
 20
302.7345197619724
 10
459.5404585917653
 20
302.7415042263016
 10
459.5712378861048
 20
302.7461967373716
 72
     1
 10
459.5712378861048
 20
302.7461967373716
 11
460.1659471544625
 21
302.7461967373716
 97
        8
330
1EC8
330
1ED5
330
1ED0
330
1ED4
330
1EC9
330
1ECC
330
1ECA
330
1ECB
 75
     0
 76
     1
 47
0.0514683685270805
 98
        1
 10
459.723407070263
 20
302.8882246398045
450
        0
451
        0
460
0.0
461
0.0
452
        0
462
0.0
453
        0
470

  0
HATCH
  5
1ED8
330
18
100
AcDbEntity
  8
ROGO
 62
     4
100
AcDbHatch
 10
0.0
 20
0.0
 30
0.0
210
0.0
220
0.0
230
1.0
  2
SOLID
 70
     1
 71
     1
 91
        2
 92
        7
 72
     1
 73
     1
 93
        4
 10
461.2082016383273
 20
303.09977644907
 42
0.0
 10
460.8239276385495
 20
303.09977644907
 42
0.9597396185048657
 10
460.8239276385492
 20
302.1494589822695
 42
0.0
 10
461.2358172640542
 20
302.1494589822695
 42
0.9713627655752649
 97
        4
330
1EBE
330
1ED2
330
1ECE
330
1ED1
 92
       22
 72
     1
 73
     1
 93
        2
 10
461.1441157918197
 20
302.57862589852
 42
0.1034173650209057
 10
461.1497748279703
 20
302.6191132306033
 42
0.0
 97
        8
330
1EC6
330
1EC0
330
1EC4
330
1EC1
330
1EC5
330
1EC2
330
1EC7
330
1EC3
 75
     0
 76
     1
 47
0.0514683685270805
 98
        2
 10
461.3016179022838
 20
302.7130126575797
 10
461.3016179022838
 20
302.7130126575797
450
        0
451
        0
460
0.0
461
0.0
452
        0
462
0.0
453
        0
470

  0
LINE
  5
1ED9
102
{ACAD_REACTORS
330
1EDB
102
}
330
18
100
AcDbEntity
  8
ROGO
 62
     4
100
AcDbLine
 10
463.4042608273581
 20
303.09977644907
 30
0.0
 11
463.2279545635436
 21
302.7461967373716
 31
0.0
  0
LINE
  5
1EDA
102
{ACAD_REACTORS
330
1EDB
102
}
330
18
100
AcDbEntity
  8
ROGO
 62
     4
100
AcDbLine
 10
462.45257455397
 20
303.09977644907
 30
0.0
 11
463.4042608273581
 21
303.09977644907
 31
0.0
  0
HATCH
  5
1EDB
330
18
100
AcDbEntity
  8
ROGO
 62
     4
100
AcDbHatch
 10
0.0
 20
0.0
 30
0.0
210
0.0
220
0.0
230
1.0
  2
SOLID
 70
     1
 71
     1
 91
        1
 92
        5
 93
        8
 72
     4
 94
        3
 73
     0
 74
     0
 95
       26
 96
       22
 40
0.0
 40
0.0
 40
0.0
 40
0.0
 40
0.1723984759424608
 40
0.2878059064036966
 40
0.3710240621887089
 40
0.4331603664333254
 40
0.5137544142124919
 40
0.5725802121924054
 40
0.6788058922657609
 40
0.7652720686804421
 40
0.824082923352279
 40
0.8817499774613345
 40
0.9849051260984204
 40
1.057848128260906
 40
1.097133570529051
 40
1.152937380796411
 40
1.193234564309733
 40
1.251611879021433
 40
1.284648389624335
 40
1.356539542405977
 40
1.389365667278781
 40
1.389365667278781
 40
1.389365667278781
 40
1.389365667278781
 10
462.4525745539697
 20
303.09977644907
 10
462.3940598475312
 20
303.0962853613416
 10
462.2963740760507
 20
303.0904572607016
 10
462.1891156932153
 20
303.0252989449988
 10
462.1105319227
 20
302.9874187636246
 10
462.0544860728716
 20
302.9359238842255
 10
462.0134042377542
 20
302.8827334354359
 10
461.9616128722888
 20
302.8193574057056
 10
461.9193784936916
 20
302.7455585836653
 10
461.8978710922653
 20
302.6642194161955
 10
461.878820040209
 20
302.5993916277775
 10
461.864691461072
 20
302.5271495177844
 10
461.8682861715793
 20
302.4491026255467
 10
461.8734339615427
 20
302.3766166676217
 10
461.8964175919516
 20
302.3248725462995
 10
461.9225918758854
 20
302.2880342975634
 10
461.9546419281065
 20
302.2474610506446
 10
461.9897116940079
 20
302.2205895205918
 10
462.0187172530016
 20
302.1719099381774
 10
462.0694905055366
 20
302.165698072382
 10
462.1017640047846
 20
302.153334605455
 10
462.1118809018253
 20
302.1494589822695
 72
     1
 10
462.1118809018253
 20
302.1494589822695
 11
462.9304018460143
 21
302.1494589822695
 72
     1
 10
462.9304018460143
 20
302.1494589822695
 11
463.1067062427936
 21
302.5030349496554
 72
     1
 10
463.1067062427936
 20
302.5030349496554
 11
462.499032617357
 21
302.5030349496554
 72
     4
 94
        3
 73
     0
 74
     0
 95
       16
 96
       12
 40
0.0
 40
0.0
 40
0.0
 40
0.0
 40
0.0520638816757992
 40
0.1046647644702509
 40
0.1360388269655522
 40
0.1661200957203435
 40
0.1991564750640134
 40
0.2222266184462811
 40
0.24411818227865
 40
0.2885111307737157
 40
0.3794005943324707
 40
0.3794005943324707
 40
0.3794005943324707
 40
0.3794005943324707
 10
462.499032617357
 20
302.5030349496553
 10
462.4807030393384
 20
302.5084277802682
 10
462.4438548270193
 20
302.5192690646243
 10
462.4407709292041
 20
302.5718236284162
 10
462.4449722938146
 20
302.6092730556429
 10
462.4625676181872
 20
302.6365384255701
 10
462.4839137985193
 20
302.6563775695987
 10
462.4918619281864
 20
302.6822149527249
 10
462.5152247311923
 20
302.7017254095235
 10
462.5566532408572
 20
302.7345197619723
 10
462.6024660008464
 20
302.7415042263016
 10
462.6332452951859
 20
302.7461967373716
 72
     1
 10
462.6332452951861
 20
302.7461967373716
 11
463.2279545635436
 21
302.7461967373716
 72
     1
 10
463.2279545635436
 20
302.7461967373716
 11
463.4042608273581
 21
303.09977644907
 72
     1
 10
463.4042608273581
 20
303.09977644907
 11
462.4525745539695
 21
303.0997764490698
 97
        8
330
1EDA
330
1ED6
330
1ECD
330
1ED3
330
1EBC
330
1EBD
330
1EBB
330
1ED9
 75
     0
 76
     1
 47
0.0514683685270805
 98
        1
 10
462.6167937440476
 20
302.9257700885882
450
        0
451
        0
460
0.0
461
0.0
452
        0
462
0.0
453
        0
470

  0
LINE
  5
1EDC
102
{ACAD_REACTORS
330
1EBA
102
}
330
18
100
AcDbEntity
  8
ROGO
 62
     4
100
AcDbLine
 10
464.0696307700665
 20
302.9376516497266
 30
0.0
 11
464.325828550294
 21
303.09977644907
 31
0.0
  0
LINE
  5
1EDD
102
{ACAD_REACTORS
330
1EBA
102
}
330
18
100
AcDbEntity
  8
ROGO
 62
     4
100
AcDbLine
 10
464.1504714311628
 20
303.09977644907
 30
0.0
 11
464.0696307700665
 21
302.9376516497266
 31
0.0
  0
LINE
  5
1EDE
102
{ACAD_REACTORS
330
1EBA
102
}
330
18
100
AcDbEntity
  8
ROGO
 62
     4
100
AcDbLine
 10
463.6032968047028
 20
303.09977644907
 30
0.0
 11
464.1504714311628
 21
303.09977644907
 31
0.0
  0
LINE
  5
1EDF
102
{ACAD_REACTORS
330
1EBA
102
}
330
18
100
AcDbEntity
  8
ROGO
 62
     4
100
AcDbLine
 10
464.325828550294
 20
303.09977644907
 30
0.0
 11
464.8729912050133
 21
303.09977644907
 31
0.0
  0
LINE
  5
1EE0
102
{ACAD_REACTORS
330
1EBA
102
}
330
18
100
AcDbEntity
  8
ROGO
 62
     4
100
AcDbLine
 10
463.9735033702425
 20
302.3573084230061
 30
0.0
 11
464.8729912050133
 21
303.09977644907
 31
0.0
  0
LINE
  5
1EE1
102
{ACAD_REACTORS
330
1EBA
102
}
330
18
100
AcDbEntity
  8
ROGO
 62
     4
100
AcDbLine
 10
463.7965592528037
 20
301.6148403969423
 30
0.0
 11
464.343721907523
 21
301.6148403969423
 31
0.0
  0
LINE
  5
1EE2
102
{ACAD_REACTORS
330
1EBA
102
}
330
18
100
AcDbEntity
  8
ROGO
 62
     4
100
AcDbLine
 10
463.6032968047028
 20
302.0024254957539
 30
0.0
 11
463.7965592528037
 21
301.6148403969423
 31
0.0
  0
LINE
  5
1EE3
102
{ACAD_REACTORS
330
1EBA
102
}
330
18
100
AcDbEntity
  8
ROGO
 62
     4
100
AcDbLine
 10
463.9735033702425
 20
302.3573084230061
 30
0.0
 11
464.343721907523
 21
301.6148403969423
 31
0.0
  0
TEXT
  5
1EE4
330
18
100
AcDbEntity
  8
文字
100
AcDbText
 10
458.1118875141648
 20
306.9162489869003
 30
0.0
 40
1.8
  1
0
  7
STYLE3
100
AcDbText
  0
LINE
  5
1EE5
330
18
100
AcDbEntity
  8
外形線
100
AcDbLine
 10
456.1361083901456
 20
314.2648403969422
 30
0.0
 11
461.790175871786
 21
314.2648403969422
 31
0.0
  0
LINE
  5
1EE6
330
18
100
AcDbEntity
  8
外形線
100
AcDbLine
 10
455.9631421309658
 20
314.2148403969422
 30
0.0
 11
461.9631421309658
 21
314.2148403969422
 31
0.0
  0
LINE
  5
1EE7
330
18
100
AcDbEntity
  8
目盛
100
AcDbLine
 10
453.4412738406956
 20
310.5614876852661
 30
0.0
 11
453.9934606697226
 21
309.1668229564337
 31
0.0
  0
LINE
  5
1EE8
330
18
100
AcDbEntity
  8
目盛
100
AcDbLine
 10
449.4017822847354
 20
308.1725390385792
 30
0.0
 11
450.3579182693585
 21
307.0167691744154
 31
0.0
  0
LINE
  5
1EE9
330
18
100
AcDbEntity
  8
目盛
100
AcDbLine
 10
450.9257402062809
 20
309.2797592794725
 30
0.0
 11
451.7294803987494
 21
308.0132673912195
 31
0.0
  0
LINE
  5
1EEA
330
18
100
AcDbEntity
  8
目盛
100
AcDbLine
 10
451.7368370194401
 20
309.7594405976002
 30
0.0
 11
452.4594675305927
 21
308.4449805775345
 31
0.0
  0
LINE
  5
1EEB
330
18
100
AcDbEntity
  8
目盛
100
AcDbLine
 10
452.5764527574897
 20
310.1872461839326
 30
0.0
 11
453.2151216948373
 21
308.8300056052335
 31
0.0
  0
LINE
  5
1EEC
330
18
100
AcDbEntity
  8
目盛
100
AcDbLine
 10
450.1463633465787
 20
308.7500953125664
 30
0.0
 11
451.6158264773099
 21
306.7275528266291
 31
0.0
  0
LINE
  5
1EED
330
18
100
AcDbEntity
  8
針
100
AcDbLine
 10
467.2530615239126
 20
308.1440266847268
 30
0.0
 11
467.3663239031253
 21
308.061736749406
 31
0.0
  0
LINE
  5
1EEE
330
18
100
AcDbEntity
  8
目盛
100
AcDbLine
 10
457.0831436275012
 20
311.4965609166595
 30
0.0
 11
457.2711434778476
 21
310.0083888646877
 31
0.0
  0
LINE
  5
1EEF
330
18
100
AcDbEntity
  8
目盛
100
AcDbLine
 10
454.3278872153416
 20
310.8806881413695
 30
0.0
 11
455.100429701279
 21
308.5030468506317
 31
0.0
  0
LINE
  5
1EF0
330
18
100
AcDbEntity
  8
目盛
100
AcDbLine
 10
455.232793823493
 20
311.1435878138717
 30
0.0
 11
455.6058286542402
 21
309.6907130721788
 31
0.0
  0
LINE
  5
1EF1
330
18
100
AcDbEntity
  8
目盛
100
AcDbLine
 10
456.1524224121799
 20
311.3491491578726
 30
0.0
 11
456.4334943840584
 21
309.8757182817795
 31
0.0
  0
LINE
  5
1EF2
330
18
100
AcDbEntity
  8
目盛
100
AcDbLine
 10
458.0212843380261
 20
311.5852413233664
 30
0.0
 11
458.1154701173202
 21
310.0882012307239
 31
0.0
  0
ARC
  5
1EF3
330
18
100
AcDbEntity
  8
外形線
100
AcDbCircle
 10
456.1361083901456
 20
314.1648403969422
 30
0.0
 40
0.1
100
AcDbArc
 50
89.99999999999944
 51
209.9315118405063
  0
LINE
  5
1EF4
330
18
100
AcDbEntity
  8
外形線
100
AcDbLine
 10
456.1779348421242
 20
313.8917793722985
 30
0.0
 11
456.0494461444581
 21
314.1149439524554
 31
0.0
  0
LINE
  5
1EF5
330
18
100
AcDbEntity
  8
目盛
100
AcDbLine
 10
463.59839704659
 20
310.8806881413695
 30
0.0
 11
462.8258545606526
 21
308.5030468506317
 31
0.0
  0
LINE
  5
1EF6
330
18
100
AcDbEntity
  8
目盛
100
AcDbLine
 10
462.6934904384386
 20
311.1435878138717
 30
0.0
 11
462.3204556076912
 21
309.6907130721788
 31
0.0
  0
LINE
  5
1EF7
330
18
100
AcDbEntity
  8
目盛
100
AcDbLine
 10
461.7738618497517
 20
311.3491491578726
 30
0.0
 11
461.4927898778731
 21
309.8757182817795
 31
0.0
  0
LINE
  5
1EF8
330
18
100
AcDbEntity
  8
目盛
100
AcDbLine
 10
460.8431406344303
 20
311.4965609166594
 30
0.0
 11
460.6551407840839
 21
310.0083888646878
 31
0.0
  0
LINE
  5
1EF9
330
18
100
AcDbEntity
  8
目盛
100
AcDbLine
 10
459.9049999239055
 20
311.5852413233664
 30
0.0
 11
459.8108141446116
 21
310.088201230724
 31
0.0
  0
LINE
  5
1EFA
330
18
100
AcDbEntity
  8
目盛
100
AcDbLine
 10
458.9631421309658
 20
311.6148403969423
 30
0.0
 11
458.9631421309658
 21
309.1148403969423
 31
0.0
  0
LINE
  5
1EFB
330
18
100
AcDbEntity
  8
目盛
100
AcDbLine
 10
467.7799209153529
 20
308.7500953125665
 30
0.0
 11
466.3104577846217
 21
306.7275528266291
 31
0.0
  0
LINE
  5
1EFC
330
18
100
AcDbEntity
  8
目盛
100
AcDbLine
 10
467.0005440556508
 20
309.2797592794726
 30
0.0
 11
466.1968038631822
 21
308.0132673912194
 31
0.0
  0
LINE
  5
1EFD
330
18
100
AcDbEntity
  8
目盛
100
AcDbLine
 10
466.1894472424915
 20
309.7594405976002
 30
0.0
 11
465.4668167313389
 21
308.4449805775344
 31
0.0
  0
LINE
  5
1EFE
330
18
100
AcDbEntity
  8
目盛
100
AcDbLine
 10
465.3498315044418
 20
310.1872461839326
 30
0.0
 11
464.7111625670943
 21
308.8300056052336
 31
0.0
  0
LINE
  5
1EFF
330
18
100
AcDbEntity
  8
目盛
100
AcDbLine
 10
464.4850104212359
 20
310.5614876852661
 30
0.0
 11
463.9328235922089
 21
309.1668229564337
 31
0.0
  0
ARC
  5
1F00
330
18
100
AcDbEntity
  8
外形線
100
AcDbCircle
 10
461.790175871786
 20
314.1648403969422
 30
0.0
 40
0.1
100
AcDbArc
 50
330.0684881594922
 51
90.0
  0
LINE
  5
1F01
330
18
100
AcDbEntity
  8
外形線
100
AcDbLine
 10
461.7483494198073
 20
313.8917793722985
 30
0.0
 11
461.8768381174734
 21
314.1149439524554
 31
0.0
  0
ARC
  5
1F02
330
18
100
AcDbEntity
  8
外形線
100
AcDbCircle
 10
458.9631421309658
 20
324.2148403969423
 30
0.0
 40
6.0
100
AcDbArc
 50
60.0
 51
120.0
  0
LINE
  5
1F03
330
18
100
AcDbEntity
  8
外形線
100
AcDbLine
 10
455.9631421309658
 20
329.4109928196489
 30
0.0
 11
461.9631421309658
 21
329.4109928196489
 31
0.0
  0
POINT
  5
1F04
330
18
100
AcDbEntity
  8
DEFPOINTS
  6
ByBlock
 62
     0
100
AcDbPoint
 10
455.9631421309658
 20
329.4109928196489
 30
0.0
  0
POINT
  5
1F05
330
18
100
AcDbEntity
  8
DEFPOINTS
  6
ByBlock
 62
     0
100
AcDbPoint
 10
458.9631421309658
 20
330.2148403969422
 30
0.0
  0
POINT
  5
1F06
330
18
100
AcDbEntity
  8
DEFPOINTS
  6
ByBlock
 62
     0
100
AcDbPoint
 10
461.9631421309658
 20
329.4109928196489
 30
0.0
  0
LINE
  5
1F07
330
18
100
AcDbEntity
  8
目盛
100
AcDbLine
 10
469.8976715422869
 20
306.8830469858726
 30
0.0
 11
468.8042186011548
 21
305.8562263269795
 31
0.0
  0
LINE
  5
1F08
330
18
100
AcDbEntity
  8
目盛
100
AcDbLine
 10
470.5208407726026
 20
306.1762002431727
 30
0.0
 11
469.3650709084389
 21
305.2200642585496
 31
0.0
  0
LINE
  5
1F09
330
18
100
AcDbEntity
  8
目盛
100
AcDbLine
 10
473.844862650683
 20
298.4948389004068
 30
0.0
 11
472.3566905987111
 21
298.3068390500604
 31
0.0
  0
LINE
  5
1F0A
330
18
100
AcDbEntity
  8
目盛
100
AcDbLine
 10
473.6974508918962
 20
293.8041206781564
 30
0.0
 11
472.2240200158031
 21
294.085192650035
 31
0.0
  0
LINE
  5
1F0B
330
18
100
AcDbEntity
  8
目盛
100
AcDbLine
 10
473.9631421309658
 20
296.6148403969423
 30
0.0
 11
471.4631421309658
 21
296.6148403969423
 31
0.0
  0
LINE
  5
1F0C
330
18
100
AcDbEntity
  8
目盛
100
AcDbLine
 10
473.9335430573899
 20
297.556698189882
 30
0.0
 11
472.4365029647475
 21
297.4625124105881
 31
0.0
  0
LINE
  5
1F0D
330
18
100
AcDbEntity
  8
目盛
100
AcDbLine
 10
473.9335430573898
 20
295.6729826040026
 30
0.0
 11
472.4365029647475
 21
295.7671683832966
 31
0.0
  0
LINE
  5
1F0E
330
18
100
AcDbEntity
  8
目盛
100
AcDbLine
 10
473.844862650683
 20
294.7348418934778
 30
0.0
 11
472.3566905987112
 21
294.9228417438242
 31
0.0
  0
LINE
  5
1F0F
330
18
100
AcDbEntity
  8
目盛
100
AcDbLine
 10
473.4918895478953
 20
292.8844920894695
 30
0.0
 11
472.0390148062023
 21
293.2575269202167
 31
0.0
  0
LINE
  5
1F10
330
18
100
AcDbEntity
  8
目盛
100
AcDbLine
 10
473.2289898753931
 20
291.9795854813181
 30
0.0
 11
470.8513485846552
 21
292.7521279672555
 31
0.0
  0
LINE
  5
1F11
330
18
100
AcDbEntity
  8
目盛
100
AcDbLine
 10
473.4918895478953
 20
300.3451887044151
 30
0.0
 11
472.0390148062024
 21
299.9721538736678
 31
0.0
  0
LINE
  5
1F12
330
18
100
AcDbEntity
  8
目盛
100
AcDbLine
 10
473.6974508918961
 20
299.4255601157282
 30
0.0
 11
472.2240200158031
 21
299.1444881438496
 31
0.0
  0
LINE
  5
1F13
330
18
100
AcDbEntity
  8
目盛
100
AcDbLine
 10
473.2289898753931
 20
301.2500953125666
 30
0.0
 11
470.8513485846552
 21
300.4775528266292
 31
0.0
  0
LINE
  5
1F14
330
18
100
AcDbEntity
  8
目盛
100
AcDbLine
 10
472.5355479179561
 20
303.0015297704184
 30
0.0
 11
471.178307339257
 21
302.3628608330708
 31
0.0
  0
LINE
  5
1F15
330
18
100
AcDbEntity
  8
目盛
100
AcDbLine
 10
471.09839704659
 20
305.4316191813294
 30
0.0
 11
469.0758545606526
 21
303.9621560505981
 31
0.0
  0
LINE
  5
1F16
330
18
100
AcDbEntity
  8
目盛
100
AcDbLine
 10
471.628061013496
 20
304.6522423216272
 30
0.0
 11
470.361569125243
 21
303.8485021291588
 31
0.0
  0
LINE
  5
1F17
330
18
100
AcDbEntity
  8
目盛
100
AcDbLine
 10
472.1077423316237
 20
303.8411455084681
 30
0.0
 11
470.7932823115579
 21
303.1185149973155
 31
0.0
  0
LINE
  5
1F18
330
18
100
AcDbEntity
  8
目盛
100
AcDbLine
 10
472.9097894192896
 20
302.1367086872124
 30
0.0
 11
471.5151246904572
 21
301.5845218581854
 31
0.0
  0
POINT
  5
1F19
330
18
100
AcDbEntity
  8
DEFPOINTS
  6
ByBlock
 62
     0
100
AcDbPoint
 10
479.6083447220565
 20
296.6148403969423
 30
0.0
  0
LINE
  5
1F1A
330
18
100
AcDbEntity
  8
中心線
 48
0.5
100
AcDbLine
 10
458.9631421309658
 20
332.8926785721963
 30
0.0
 11
458.9631421309658
 21
206.1656640061503
 31
0.0
  0
LINE
  5
1F27
330
18
100
AcDbEntity
  8
外形線
100
AcDbLine
 10
410.7297299563931
 20
277.8378476459298
 30
0.0
 11
409.0797299563936
 21
277.8378476459298
 31
0.0
  0
ARC
  5
1F28
330
18
100
AcDbEntity
  8
外形線
100
AcDbCircle
 10
355.7644403404093
 20
295.8378476459296
 30
0.0
 40
62.37903158457702
100
AcDbArc
 50
346.4545064755767
 51
13.54549352442418
  0
LINE
  5
1F29
330
18
100
AcDbEntity
  8
外形線
100
AcDbLine
 10
415.7797299563934
 20
312.33784764593
 30
0.0
 11
415.7797299563936
 21
279.3378476459301
 31
0.0
  0
LINE
  5
1F2A
330
18
100
AcDbEntity
  8
外形線
100
AcDbLine
 10
410.5797299563934
 20
312.98784764593
 30
0.0
 11
410.5797299563936
 21
278.6878476459301
 31
0.0
  0
LINE
  5
1F2B
330
18
100
AcDbEntity
  8
外形線
100
AcDbLine
 10
411.5797299563933
 20
312.98784764593
 30
0.0
 11
411.5797299563936
 21
278.6878476459301
 31
0.0
  0
LINE
  5
1F2C
330
18
100
AcDbEntity
  8
外形線
100
AcDbLine
 10
415.2797299563933
 20
313.13784764593
 30
0.0
 11
415.2797299563937
 21
278.5378476459302
 31
0.0
  0
LINE
  5
1F2D
330
18
100
AcDbEntity
  8
外形線
100
AcDbLine
 10
415.9222605942828
 20
280.8447040204872
 30
0.0
 11
415.7797299563936
 21
280.8447040204872
 31
0.0
  0
ARC
  5
1F2E
330
18
100
AcDbEntity
  8
外形線
100
AcDbCircle
 10
415.9222605942828
 20
281.3447040204873
 30
0.0
 40
0.5
100
AcDbArc
 50
269.9999999999939
 51
346.4545064755755
  0
LINE
  5
1F2F
330
18
100
AcDbEntity
  8
外形線
100
AcDbLine
 10
411.5797299563936
 20
278.6878476459301
 30
0.0
 11
410.5797299563936
 21
278.6878476459301
 31
0.0
  0
POINT
  5
1F30
330
18
100
AcDbEntity
  8
DEFPOINTS
  6
ByBlock
 62
     0
100
AcDbPoint
 10
415.0797299563936
 20
278.33784764593
 30
0.0
  0
LINE
  5
1F31
330
18
100
AcDbEntity
  8
外形線
100
AcDbLine
 10
415.2797299563935
 20
279.03784764593
 30
0.0
 11
411.5797299563936
 21
279.03784764593
 31
0.0
  0
LINE
  5
1F32
330
18
100
AcDbEntity
  8
外形線
100
AcDbLine
 10
415.2797299563935
 20
279.73784764593
 30
0.0
 11
411.5797299563936
 21
279.73784764593
 31
0.0
  0
LINE
  5
1F33
330
18
100
AcDbEntity
  8
外形線
100
AcDbLine
 10
415.2797299563935
 20
280.53784764593
 30
0.0
 11
411.5797299563936
 21
280.5378476459301
 31
0.0
  0
LINE
  5
1F34
330
18
100
AcDbEntity
  8
外形線
100
AcDbLine
 10
415.2797299563935
 20
281.33784764593
 30
0.0
 11
411.5797299563936
 21
281.33784764593
 31
0.0
  0
LINE
  5
1F35
330
18
100
AcDbEntity
  8
外形線
100
AcDbLine
 10
415.2797299563935
 20
282.23784764593
 30
0.0
 11
411.5797299563936
 21
282.23784764593
 31
0.0
  0
LINE
  5
1F36
330
18
100
AcDbEntity
  8
外形線
100
AcDbLine
 10
415.7797299563936
 20
279.33784764593
 30
0.0
 11
415.2797299563935
 21
278.83784764593
 31
0.0
  0
LINE
  5
1F37
330
18
100
AcDbEntity
  8
外形線
100
AcDbLine
 10
415.0797299563936
 20
278.33784764593
 30
0.0
 11
411.9297299563936
 21
278.33784764593
 31
0.0
  0
LINE
  5
1F38
330
18
100
AcDbEntity
  8
外形線
 48
0.5
100
AcDbLine
 10
415.2797299563935
 20
278.53784764593
 30
0.0
 11
415.0797299563936
 21
278.33784764593
 31
0.0
  0
LINE
  5
1F39
330
18
100
AcDbEntity
  8
外形線
100
AcDbLine
 10
411.9297299563936
 20
278.33784764593
 30
0.0
 11
411.5797299563936
 21
278.6878476459301
 31
0.0
  0
LINE
  5
1F3A
330
18
100
AcDbEntity
  8
外形線
100
AcDbLine
 10
410.5797299563936
 20
280.83784764593
 30
0.0
 11
410.0797299563935
 21
280.83784764593
 31
0.0
  0
ARC
  5
1F3B
330
18
100
AcDbEntity
  8
外形線
100
AcDbCircle
 10
410.0797299563935
 20
281.8378476459301
 30
0.0
 40
1.0
100
AcDbArc
 50
180.0000000000006
 51
270.0000000000004
  0
LINE
  5
1F3D
330
18
100
AcDbEntity
  8
外形線
100
AcDbLine
 10
415.9222605942826
 20
310.8309912713729
 30
0.0
 11
415.7797299563934
 21
310.8309912713729
 31
0.0
  0
POINT
  5
1F3E
330
18
100
AcDbEntity
  8
DEFPOINTS
  6
ByBlock
 62
     0
100
AcDbPoint
 10
418.1434719249862
 20
295.83784764593
 30
0.0
  0
ARC
  5
1F3F
330
18
100
AcDbEntity
  8
外形線
100
AcDbCircle
 10
415.9222605942827
 20
310.3309912713728
 30
0.0
 40
0.5
100
AcDbArc
 50
13.5454935244253
 51
90.00000000000689
  0
LINE
  5
1F40
330
18
100
AcDbEntity
  8
外形線
100
AcDbLine
 10
415.2797299563935
 20
295.83784764593
 30
0.0
 11
411.5797299563936
 21
295.83784764593
 31
0.0
  0
LINE
  5
1F41
330
18
100
AcDbEntity
  8
外形線
100
AcDbLine
 10
415.2797299563935
 20
294.3378476459301
 30
0.0
 11
411.5797299563935
 21
294.3378476459301
 31
0.0
  0
LINE
  5
1F42
330
18
100
AcDbEntity
  8
外形線
100
AcDbLine
 10
415.2797299563935
 20
297.33784764593
 30
0.0
 11
411.5797299563935
 21
297.33784764593
 31
0.0
  0
LINE
  5
1F43
330
18
100
AcDbEntity
  8
外形線
100
AcDbLine
 10
415.2797299563935
 20
295.13784764593
 30
0.0
 11
411.5797299563935
 21
295.13784764593
 31
0.0
  0
LINE
  5
1F44
330
18
100
AcDbEntity
  8
外形線
100
AcDbLine
 10
415.2797299563935
 20
296.53784764593
 30
0.0
 11
411.5797299563935
 21
296.53784764593
 31
0.0
  0
LINE
  5
1F45
330
18
100
AcDbEntity
  8
外形線
100
AcDbLine
 10
415.2797299563933
 20
309.4378476459301
 30
0.0
 11
411.5797299563935
 21
309.4378476459301
 31
0.0
  0
LINE
  5
1F46
330
18
100
AcDbEntity
  8
外形線
100
AcDbLine
 10
415.2797299563933
 20
310.33784764593
 30
0.0
 11
411.5797299563935
 21
310.33784764593
 31
0.0
  0
LINE
  5
1F47
330
18
100
AcDbEntity
  8
外形線
100
AcDbLine
 10
415.2797299563933
 20
311.1378476459301
 30
0.0
 11
411.5797299563935
 21
311.13784764593
 31
0.0
  0
LINE
  5
1F48
330
18
100
AcDbEntity
  8
外形線
100
AcDbLine
 10
415.2797299563933
 20
311.9378476459301
 30
0.0
 11
411.5797299563934
 21
311.9378476459301
 31
0.0
  0
ARC
  5
1F49
330
18
100
AcDbEntity
  8
外形線
100
AcDbCircle
 10
410.0797299563934
 20
309.83784764593
 30
0.0
 40
1.0
100
AcDbArc
 50
90.00000000000039
 51
180.0000000000001
  0
LINE
  5
1F4A
330
18
100
AcDbEntity
  8
外形線
100
AcDbLine
 10
410.5797299563934
 20
310.83784764593
 30
0.0
 11
410.0797299563934
 21
310.83784764593
 31
0.0
  0
LINE
  5
1F4B
330
18
100
AcDbEntity
  8
外形線
100
AcDbLine
 10
411.5797299563934
 20
312.98784764593
 30
0.0
 11
410.5797299563934
 21
312.98784764593
 31
0.0
  0
POINT
  5
1F4C
330
18
100
AcDbEntity
  8
DEFPOINTS
  6
ByBlock
 62
     0
100
AcDbPoint
 10
415.0797299563934
 20
313.33784764593
 30
0.0
  0
LINE
  5
1F4D
330
18
100
AcDbEntity
  8
外形線
100
AcDbLine
 10
415.2797299563933
 20
312.63784764593
 30
0.0
 11
411.5797299563934
 21
312.63784764593
 31
0.0
  0
LINE
  5
1F4E
330
18
100
AcDbEntity
  8
外形線
100
AcDbLine
 10
415.7797299563934
 20
312.33784764593
 30
0.0
 11
415.2797299563933
 21
312.83784764593
 31
0.0
  0
LINE
  5
1F4F
330
18
100
AcDbEntity
  8
外形線
100
AcDbLine
 10
411.9297299563934
 20
313.33784764593
 30
0.0
 11
411.5797299563934
 21
312.98784764593
 31
0.0
  0
LINE
  5
1F50
330
18
100
AcDbEntity
  8
外形線
 48
0.5
100
AcDbLine
 10
415.2797299563934
 20
313.13784764593
 30
0.0
 11
415.0797299563934
 21
313.33784764593
 31
0.0
  0
LINE
  5
1F51
330
18
100
AcDbEntity
  8
外形線
100
AcDbLine
 10
415.0797299563934
 20
313.33784764593
 30
0.0
 11
411.9297299563934
 21
313.33784764593
 31
0.0
  0
DIMENSION
  5
1F70
330
18
100
AcDbEntity
  8
寸法線
100
AcDbDimension
  2
*D2
 10
396.2797299563935
 20
337.6069638284489
 30
0.0
 11
391.7478589720971
 21
339.4819638284488
 31
0.0
 70
    32
  1
9
 71
     5
 42
9.063741968592808
  3
STYLE3
100
AcDbAlignedDimension
 13
387.2159879878006
 23
295.8378476459298
 33
0.0
 14
396.2797299563935
 24
313.4878476459298
 34
0.0
100
AcDbRotatedDimension
1001
ACAD
1000
DSTYLE
1002
{
1070
   271
1070
     2
1002
}
  0
DIMENSION
  5
1F98
330
18
100
AcDbEntity
  8
寸法線
100
AcDbDimension
  2
*D3
 10
418.1434719249862
 20
337.6069638284489
 30
0.0
 11
413.6116009406898
 21
339.4819638284488
 31
0.0
 70
    32
  1
9
 71
     5
 42
9.063741968592751
  3
STYLE3
100
AcDbAlignedDimension
 13
409.0797299563935
 23
313.4878476459299
 33
0.0
 14
418.1434719249862
 24
295.8378476459296
 34
0.0
100
AcDbRotatedDimension
1001
ACAD
1000
DSTYLE
1002
{
1070
    75
1070
     1
1070
   271
1070
     2
1070
   279
1070
     1
1002
}
  0
LINE
  5
1FAE
330
18
100
AcDbEntity
  8
0
  6
ByBlock
 62
     2
100
AcDbLine
 10
402.6797299563935
 20
331.5964032304924
 30
0.0
 11
402.6797299563935
 21
338.8569638284488
 31
0.0
  0
LINE
  5
1FAF
330
18
100
AcDbEntity
  8
0
  6
ByBlock
 62
     2
100
AcDbLine
 10
398.7797299563935
 20
337.6069638284489
 30
0.0
 11
400.1797299563935
 21
337.6069638284489
 31
0.0
  0
MTEXT
  5
1FB2
330
18
100
AcDbEntity
  8
0
  6
ByBlock
 62
     6
100
AcDbMText
 10
397.0063717943932
 20
339.7641707690234
 30
0.0
 40
2.5
 41
0.0
 71
     4
 72
     1
  1
\A1;6.4
  7
STYLE3
 73
     1
 44
1.0
  0
INSERT
  5
1FB3
330
18
100
AcDbEntity
  8
0
  6
ByBlock
 62
     2
100
AcDbBlockReference
  2
_OPEN
 10
396.2797299563935
 20
337.6069638284489
 30
0.0
 41
2.5
 42
2.5
 43
2.5
 50
180.0
  0
INSERT
  5
1FB4
330
18
100
AcDbEntity
  8
0
  6
ByBlock
 62
     2
100
AcDbBlockReference
  2
_OPEN
 10
402.6797299563935
 20
337.6069638284489
 30
0.0
 41
2.5
 42
2.5
 43
2.5
  0
POINT
  5
1FB5
330
18
100
AcDbEntity
  8
DEFPOINTS
  6
ByBlock
 62
     0
100
AcDbPoint
 10
396.2797299563935
 20
313.4878476459298
 30
0.0
  0
POINT
  5
1FB6
330
18
100
AcDbEntity
  8
DEFPOINTS
  6
ByBlock
 62
     0
100
AcDbPoint
 10
402.6797299563935
 20
331.5964032304924
 30
0.0
  0
POINT
  5
1FB7
330
18
100
AcDbEntity
  8
DEFPOINTS
  6
ByBlock
 62
     0
100
AcDbPoint
 10
402.6797299563935
 20
337.6069638284489
 30
0.0
  0
LINE
  5
1FB8
330
18
100
AcDbEntity
  8
0
  6
ByBlock
 62
     2
100
AcDbLine
 10
409.0797299563935
 20
313.4878476459299
 30
0.0
 11
409.0797299563935
 21
338.8569638284488
 31
0.0
  0
LINE
  5
1FB9
330
18
100
AcDbEntity
  8
0
  6
ByBlock
 62
     2
100
AcDbLine
 10
405.1797299563935
 20
337.6069638284489
 30
0.0
 11
406.5797299563935
 21
337.6069638284489
 31
0.0
  0
MTEXT
  5
1FBC
330
18
100
AcDbEntity
  8
0
  6
ByBlock
 62
     6
100
AcDbMText
 10
403.2849124714926
 20
335.3953034913636
 30
0.0
 40
2.5
 41
0.0
 71
     4
 72
     1
  1
\A1;6.4
  7
STYLE3
 73
     1
 44
1.0
  0
INSERT
  5
1FBD
330
18
100
AcDbEntity
  8
0
  6
ByBlock
 62
     2
100
AcDbBlockReference
  2
_OPEN
 10
402.6797299563935
 20
337.6069638284489
 30
0.0
 41
2.5
 42
2.5
 43
2.5
 50
180.0
  0
INSERT
  5
1FBE
330
18
100
AcDbEntity
  8
0
  6
ByBlock
 62
     2
100
AcDbBlockReference
  2
_OPEN
 10
409.0797299563935
 20
337.6069638284489
 30
0.0
 41
2.5
 42
2.5
 43
2.5
  0
POINT
  5
1FBF
330
18
100
AcDbEntity
  8
DEFPOINTS
  6
ByBlock
 62
     0
100
AcDbPoint
 10
402.6797299563935
 20
331.5964032304924
 30
0.0
  0
POINT
  5
1FC0
330
18
100
AcDbEntity
  8
DEFPOINTS
  6
ByBlock
 62
     0
100
AcDbPoint
 10
409.0797299563935
 20
313.4878476459299
 30
0.0
  0
POINT
  5
1FC1
330
18
100
AcDbEntity
  8
DEFPOINTS
  6
ByBlock
 62
     0
100
AcDbPoint
 10
409.0797299563935
 20
337.6069638284489
 30
0.0
  0
LINE
  5
2052
330
18
100
AcDbEntity
  8
外形線
100
AcDbLine
 10
455.6623086706736
 20
278.6148403969423
 30
0.0
 11
461.6623086706739
 21
278.6148403969423
 31
0.0
  0
LINE
  5
2053
330
18
100
AcDbEntity
  8
外形線
100
AcDbLine
 10
460.6123086706737
 20
269.0148403969423
 30
0.0
 11
461.1623086706737
 21
269.0148403969423
 31
0.0
  0
LINE
  5
2054
330
18
100
AcDbEntity
  8
外形線
100
AcDbLine
 10
460.6123086706737
 20
269.0148403969423
 30
0.0
 11
461.1623086706735
 21
269.0148403969423
 31
0.0
  0
LINE
  5
2055
330
18
100
AcDbEntity
  8
中心線
100
AcDbLine
 10
458.1547537538391
 20
268.6148403969423
 30
0.0
 11
461.1795682585718
 21
268.6148403969423
 31
0.0
  0
LINE
  5
2056
330
18
100
AcDbEntity
  8
外形線
100
AcDbLine
 10
455.6623086706736
 20
270.6648403969421
 30
0.0
 11
461.6623086706737
 21
270.6648403969421
 31
0.0
  0
LINE
  5
2057
330
18
100
AcDbEntity
  8
外形線
100
AcDbLine
 10
455.6623086706736
 20
278.6148403969423
 30
0.0
 11
455.6623086706736
 21
270.664840396942
 31
0.0
  0
LINE
  5
2058
330
18
100
AcDbEntity
  8
外形線
100
AcDbLine
 10
455.6623086706736
 20
270.6648403969421
 30
0.0
 11
456.3824295216853
 21
269.0148403969423
 31
0.0
  0
LINE
  5
2059
330
18
100
AcDbEntity
  8
中心線
100
AcDbLine
 10
459.8623086706736
 20
269.9441217709075
 30
0.0
 11
459.8623086706736
 21
267.1013250434977
 31
0.0
  0
LINE
  5
205A
330
18
100
AcDbEntity
  8
外形線
100
AcDbLine
 10
456.3824295216853
 20
269.0148403969423
 30
0.0
 11
459.1123086706736
 21
269.0148403969423
 31
0.0
  0
LINE
  5
205B
330
18
100
AcDbEntity
  8
外形線
100
AcDbLine
 10
456.3824295216853
 20
269.0148403969423
 30
0.0
 11
459.1123086706736
 21
269.0148403969423
 31
0.0
  0
CIRCLE
  5
205C
330
18
100
AcDbEntity
  8
外形線
100
AcDbCircle
 10
459.8623086706736
 20
268.6148403969423
 30
0.0
 40
0.85
  0
LINE
  5
205D
330
18
100
AcDbEntity
  8
外形線
100
AcDbLine
 10
461.1623086706737
 20
269.0148403969423
 30
0.0
 11
461.1623086706736
 21
262.6148403969423
 31
0.0
  0
LINE
  5
205E
330
18
100
AcDbEntity
  8
外形線
100
AcDbLine
 10
461.1623086706737
 20
262.6148403969423
 30
0.0
 11
462.6623086706737
 21
262.6148403969423
 31
0.0
  0
LINE
  5
205F
330
18
100
AcDbEntity
  8
外形線
100
AcDbLine
 10
461.6623086706737
 20
278.6148403969423
 30
0.0
 11
461.6623086706737
 21
270.6648403969424
 31
0.0
  0
LINE
  5
2060
330
18
100
AcDbEntity
  8
外形線
100
AcDbLine
 10
461.6623086706737
 20
270.6648403969421
 30
0.0
 11
461.1623086706736
 21
269.0148403969423
 31
0.0
  0
LINE
  5
2061
330
18
100
AcDbEntity
  8
外形線
100
AcDbLine
 10
461.1623086706736
 20
279.2666416431811
 30
0.0
 11
461.1623086706736
 21
278.6148403969423
 31
0.0
  0
LINE
  5
2062
330
18
100
AcDbEntity
  8
外形線
100
AcDbLine
 10
461.1623086706736
 20
279.2666416431811
 30
0.0
 11
461.1623086706736
 21
278.6148403969423
 31
0.0
  0
INSERT
  5
20C0
330
18
100
AcDbEntity
  8
寸法線
100
AcDbBlockReference
  2
PC_PCN針
 10
322.0968561735434
 20
295.83784764593
 30
0.0
 50
306.0000000000002
  0
INSERT
  5
20D2
330
18
100
AcDbEntity
  8
寸法線
100
AcDbBlockReference
  2
PC_PCN針
 10
458.9631421309657
 20
296.6148403969422
 30
0.0
 50
234.0000000000003
  0
LINE
  5
2109
330
18
100
AcDbEntity
  8
外形線
100
AcDbLine
 10
318.0323610705467
 20
358.3590558541568
 30
0.0
 11
426.0323610705466
 21
358.3590558541568
 31
0.0
  0
LINE
  5
210A
330
18
100
AcDbEntity
  8
外形線
100
AcDbLine
 10
318.0323610705467
 20
357.3590558541568
 30
0.0
 11
426.0323610705466
 21
357.3590558541568
 31
0.0
  0
TEXT
  5
210B
330
18
100
AcDbEntity
  8
文字
100
AcDbText
 10
318.0999710705467
 20
359.4886418541568
 30
0.0
 40
4.0
  1
Model No.PC-1LW Pic Test Indicator
  7
STYLE3
100
AcDbText
  0
LINE
  5
210E
330
18
100
AcDbEntity
  8
外形線
100
AcDbLine
 10
350.6804620705466
 20
192.8189648541568
 30
0.0
 11
491.4718800705466
 21
192.8189648541568
 31
0.0
  0
LINE
  5
210F
330
18
100
AcDbEntity
  8
外形線
100
AcDbLine
 10
350.6804620705466
 20
182.0387588541568
 30
0.0
 11
491.4718800705466
 21
182.0387588541568
 31
0.0
  0
TEXT
  5
2110
330
18
100
AcDbEntity
  8
0
  6
Continuous
100
AcDbText
 10
352.1379290705466
 20
183.9367488541568
 30
0.0
 40
2.1
  1
Design and specifications are subject to change without notice for future improvement.
  7
STYLE3
100
AcDbText
  0
TEXT
  5
2111
330
18
100
AcDbEntity
  8
0
  6
Continuous
100
AcDbText
 10
352.4294230705466
 20
187.8658968541568
 30
0.0
 40
3.5
  1
仕様及び外観は予告なく変更される場合がございますのでご了承下さい。
  7
STYLE3
100
AcDbText
  0
TEXT
  5
2112
330
18
100
AcDbEntity
  8
0
  6
Continuous
100
AcDbText
 10
351.8464380705466
 20
174.1721208541568
 30
0.0
 40
2.1
  1
3RD Angle Projection
  7
STYLE3
100
AcDbText
  0
TEXT
  5
2113
330
18
100
AcDbEntity
  8
0
  6
Continuous
100
AcDbText
 10
354.4698810705467
 20
177.6684038541568
 30
0.0
 40
3.0
  1
三　　角　　法
  7
STYLE3
100
AcDbText
  0
LINE
  5
2114
330
18
100
AcDbEntity
  8
外形線
100
AcDbLine
 10
350.6804620705466
 20
172.4239808541568
 30
0.0
 11
350.6804620705466
 21
192.8189648541568
 31
0.0
  0
LINE
  5
2115
330
18
100
AcDbEntity
  8
外形線
100
AcDbLine
 10
452.7032290705466
 20
182.0387588541568
 30
0.0
 11
452.7032290705466
 21
172.4239808541568
 31
0.0
  0
LINE
  5
2116
330
18
100
AcDbEntity
  8
外形線
100
AcDbLine
 10
422.9708790705466
 20
182.0387588541568
 30
0.0
 11
422.9708790705466
 21
172.4239808541568
 31
0.0
  0
LINE
  5
2117
330
18
100
AcDbEntity
  8
外形線
100
AcDbLine
 10
403.4408070705466
 20
182.0387588541568
 30
0.0
 11
403.4408070705466
 21
172.4239808541568
 31
0.0
  0
LINE
  5
2118
330
18
100
AcDbEntity
  8
外形線
100
AcDbLine
 10
385.9511900705467
 20
182.0387588541568
 30
0.0
 11
385.9511900705467
 21
172.4239808541568
 31
0.0
  0
TEXT
  5
2119
330
18
100
AcDbEntity
  8
0
  6
Continuous
100
AcDbText
 10
387.4086590705466
 20
177.6743588541568
 30
0.0
 40
3.0
  1
単位
  7
STYLE3
100
AcDbText
  0
TEXT
  5
211A
330
18
100
AcDbEntity
  8
0
  6
Continuous
100
AcDbText
 10
387.5803800705467
 20
174.1721218541568
 30
0.0
 40
2.1
  1
Unit
  7
STYLE3
100
AcDbText
  0
TEXT
  5
211B
330
18
100
AcDbEntity
  8
0
  6
Continuous
100
AcDbText
 10
404.7265550705466
 20
177.3830008541568
 30
0.0
 40
3.0
  1
尺 度
  7
STYLE3
100
AcDbText
  0
TEXT
  5
211C
330
18
100
AcDbEntity
  8
0
  6
Continuous
100
AcDbText
 10
395.4507070705466
 20
175.9202648541568
 30
0.0
 40
2.399999999999999
  1
mm
  7
STYLE3
100
AcDbText
  0
TEXT
  5
211D
330
18
100
AcDbEntity
  8
0
  6
Continuous
100
AcDbText
 10
405.1897700705466
 20
174.4634788541568
 30
0.0
 40
2.1
  1
Scale
  7
STYLE3
100
AcDbText
  0
TEXT
  5
211E
330
18
100
AcDbEntity
  8
0
  6
Continuous
100
AcDbText
 10
414.8090590705466
 20
176.2116218541568
 30
0.0
 40
2.399999999999999
  1
1/1
  7
STYLE3
100
AcDbText
  0
TEXT
  5
211F
330
18
100
AcDbEntity
  8
0
  6
Continuous
100
AcDbText
 10
424.9028300705466
 20
174.1721228541568
 30
0.0
 40
2.1
  1
Date
  7
STYLE3
100
AcDbText
  0
TEXT
  5
2120
330
18
100
AcDbEntity
  8
0
  6
Continuous
100
AcDbText
 10
424.5194690705465
 20
177.5052058541568
 30
0.0
 40
3.0
  1
日 付
  7
STYLE3
100
AcDbText
  0
TEXT
  5
2121
330
18
100
AcDbEntity
  8
0
  6
Continuous
100
AcDbText
 10
433.6476380705466
 20
175.9202638541568
 30
0.0
 40
2.1
  1
2010.06.14
  7
STYLE3
100
AcDbText
  0
TEXT
  5
2122
330
18
100
AcDbEntity
  8
0
  6
Continuous
100
AcDbText
 10
454.0521920705466
 20
177.9597608541568
 30
0.0
 40
3.0
  1
株式会社　尾崎製作所
  7
STYLE3
100
AcDbText
  0
TEXT
  5
2123
330
18
100
AcDbEntity
  8
0
  6
Continuous
100
AcDbText
 10
454.9266710705466
 20
174.1721218541568
 30
0.0
 40
2.1
  1
OZAKI MFG. CO., LTD.
  7
STYLE3
100
AcDbText
  0
ENDSEC
  0
SECTION
  2
OBJECTS
  0
DICTIONARY
  5
C
330
0
100
AcDbDictionary
281
     1
  3
ACAD_COLOR
350
207C
  3
ACAD_GROUP
350
D
  3
ACAD_IMAGE_DICT
350
B2C
  3
ACAD_LAYOUT
350
207F
  3
ACAD_MATERIAL
350
207B
  3
ACAD_MLINESTYLE
350
1B
  3
ACAD_PLOTSETTINGS
350
2080
  3
ACAD_PLOTSTYLENAME
350
2079
  3
ACAD_TABLESTYLE
350
207D
  3
ACDBVARIABLEDICTIONARY
350
1297
  0
DICTIONARY
  5
20A6
330
20A5
100
AcDbDictionary
280
     1
281
     1
  3
ACAD_SORTENTS
360
20D1
  0
DICTIONARY
  5
207C
102
{ACAD_REACTORS
330
C
102
}
330
C
100
AcDbDictionary
281
     1
  0
DICTIONARY
  5
D
102
{ACAD_REACTORS
330
C
102
}
330
C
100
AcDbDictionary
281
     1
  0
DICTIONARY
  5
B2C
102
{ACAD_REACTORS
330
C
102
}
330
C
100
AcDbDictionary
281
     1
  3
ROGO01
350
B2D
  0
DICTIONARY
  5
207F
102
{ACAD_REACTORS
330
C
102
}
330
C
100
AcDbDictionary
281
     1
  3
Model
350
2081
  3
レイアウト1
350
2082
  0
DICTIONARY
  5
207B
102
{ACAD_REACTORS
330
C
102
}
330
C
100
AcDbDictionary
281
     1
  0
DICTIONARY
  5
1B
102
{ACAD_REACTORS
330
C
102
}
330
C
100
AcDbDictionary
281
     1
  3
STANDARD
350
1C
  0
DICTIONARY
  5
2080
102
{ACAD_REACTORS
330
C
102
}
330
C
100
AcDbDictionary
281
     1
  0
ACDBDICTIONARYWDFLT
  5
2079
102
{ACAD_REACTORS
330
C
102
}
330
C
100
AcDbDictionary
281
     1
  3
Normal
350
207A
100
AcDbDictionaryWithDefault
340
207A
  0
DICTIONARY
  5
207D
102
{ACAD_REACTORS
330
C
102
}
330
C
100
AcDbDictionary
281
     1
  3
Standard
350
207E
  0
DICTIONARY
  5
1297
102
{ACAD_REACTORS
330
C
102
}
330
C
100
AcDbDictionary
281
     1
  3
CTABLESTYLE
350
2092
  3
SORTENTS
350
1298
  0
SORTENTSTABLE
  5
20D1
102
{ACAD_REACTORS
330
20A6
102
}
330
20A6
100
AcDbSortentsTable
330
20A5
  0
IMAGEDEF
  5
B2D
102
{ACAD_REACTORS
330
B2C
102
}
330
B2C
100
AcDbRasterImageDef
 90
        0
  1
D:\ﾃｽﾄ\rogo01.TIF
 10
3388.0
 20
4668.0
 11
0.0635
 21
0.0635
280
     1
281
     5
  0
LAYOUT
  5
2081
102
{ACAD_REACTORS
330
207F
102
}
330
207F
100
AcDbPlotSettings
  1

  2
A4 EPSON LP-6100.pc3
  4
A4
  6

 40
5.873749732971191
 41
5.873747825622558
 42
5.873748779296875
 43
5.873748779296875
 44
209.9733276367187
 45
297.0106506347656
 46
0.0
 47
25.0
 48
0.0
 49
0.0
140
0.0
141
0.0
142
1.0
143
1.0
 70
 28336
 72
     1
 73
     1
 74
     1
  7
AutoCAD LT 98.ctb
 75
    16
147
1.0
 76
     1
 77
     2
 78
   300
148
-236.4886379941706
149
-171.6235136330668
100
AcDbLayout
  1
Model
 70
     1
 71
     0
 10
0.0
 20
0.0
 11
12.0
 21
9.0
 12
0.0
 22
0.0
 32
0.0
 14
0.0
 24
0.0
 34
0.0
 15
0.0
 25
0.0
 35
0.0
146
0.0
 13
0.0
 23
0.0
 33
0.0
 16
1.0
 26
0.0
 36
0.0
 17
0.0
 27
1.0
 37
0.0
 76
     0
330
18
1001
ACAD_PSEXT
1000
A4 EPSON LP-6100.pc3
1000
EPSON LP-6100
1000
\\SATO-MATE2
1000

1070
     0
  0
LAYOUT
  5
2082
102
{ACAD_REACTORS
330
207F
102
}
330
207F
100
AcDbPlotSettings
  1

  2
WIDR Printer
  4

  6

 40
0.0
 41
0.0
 42
0.0
 43
0.0
 44
0.0
 45
0.0
 46
0.0
 47
0.0
 48
0.0
 49
0.0
140
0.0
141
0.0
142
1.0
143
1.0
 70
   688
 72
     0
 73
     0
 74
     5
  7
AutoCad LT 98.ctb
 75
    16
147
1.0
 76
     0
 77
     2
 78
   300
148
0.0
149
0.0
100
AcDbLayout
  1
レイアウト1
 70
     1
 71
     1
 10
0.0
 20
0.0
 11
420.0
 21
297.0
 12
0.0
 22
0.0
 32
0.0
 14
1.000000000000000E+20
 24
1.000000000000000E+20
 34
1.000000000000000E+20
 15
-1.000000000000000E+20
 25
-1.000000000000000E+20
 35
-1.000000000000000E+20
146
0.0
 13
0.0
 23
0.0
 33
0.0
 16
1.0
 26
0.0
 36
0.0
 17
0.0
 27
1.0
 37
0.0
 76
     0
330
15
  0
MLINESTYLE
  5
1C
102
{ACAD_REACTORS
330
1B
102
}
330
1B
100
AcDbMlineStyle
  2
STANDARD
 70
     0
  3

 62
   256
 51
90.0
 52
90.0
 71
     2
 49
0.5
 62
   256
  6
BYLAYER
 49
-0.5
 62
   256
  6
BYLAYER
  0
ACDBPLACEHOLDER
  5
207A
102
{ACAD_REACTORS
330
2079
102
}
330
2079
  0
ACAD_PROXY_OBJECT
  5
207E
102
{ACAD_REACTORS
330
207D
102
}
330
207D
100
AcDbProxyObject
 90
      499
 91
      505
 95
  2555929
 70
     0
 93
     1849
310
4214DD185B99185C992420000000000000F83F0000000000003E0FC00000000000004901028000000C1008070000C3001FDFF8000000C1003FBFF000000182007F7FE00000030400FEFFC00000060801FDFF8000000C1003FBFF000000182000000000000000C2020B0000001820100E000186003FBFF000000182007F7FE0
310
0000030400FEFFC00000060801FDFF8000000C1003FBFF000000182007F7FE0000003040000000000000012404160000003040201C00030C007F7FE00000030400FEFFC00000060801FDFF8000000C1003FBFF000000182007F7FE00000030400FEFFC000000608044
340
F
340
F
340
F
 94
        0
  0
DICTIONARYVAR
  5
2092
102
{ACAD_REACTORS
330
1297
102
}
330
1297
100
DictionaryVariables
280
     0
  1
STANDARD
  0
DICTIONARYVAR
  5
1298
102
{ACAD_REACTORS
330
1297
102
}
330
1297
100
DictionaryVariables
280
     0
  1
96
  0
ENDSEC
  0
EOF
