  0
SECTION
  2
HEADER
  9
$ACADVER
  1
AC1018
  9
$ACADMAINTVER
 70
     0
  9
$DWGCODEPAGE
  3
ANSI_932
  9
$INSBASE
 10
0.0
 20
0.0
 30
0.0
  9
$EXTMIN
 10
236.4581716882884
 20
171.6339896600952
 30
-0.0000000000112498
  9
$EXTMAX
 10
491.9212646124544
 20
367.0557778768852
 30
0.0000000000002956
  9
$LIMMIN
 10
0.0
 20
0.0
  9
$LIMMAX
 10
420.0
 20
297.0
  9
$ORTHOMODE
 70
     1
  9
$REGENMODE
 70
     1
  9
$FILLMODE
 70
     1
  9
$QTEXTMODE
 70
     0
  9
$MIRRTEXT
 70
     1
  9
$LTSCALE
 40
1.0
  9
$ATTMODE
 70
     1
  9
$TEXTSIZE
 40
1.0
  9
$TRACEWID
 40
1.0
  9
$TEXTSTYLE
  7
STYLE3
  9
$CLAYER
  8
文字
  9
$CELTYPE
  6
BYLAYER
  9
$CECOLOR
 62
   256
  9
$CELTSCALE
 40
1.0
  9
$DISPSILH
 70
     0
  9
$DIMSCALE
 40
1.0
  9
$DIMASZ
 40
2.5
  9
$DIMEXO
 40
0.0
  9
$DIMDLI
 40
3.75
  9
$DIMRND
 40
0.0
  9
$DIMDLE
 40
0.0
  9
$DIMEXE
 40
1.25
  9
$DIMTP
 40
0.0
  9
$DIMTM
 40
0.0
  9
$DIMTXT
 40
2.5
  9
$DIMCEN
 40
2.5
  9
$DIMTSZ
 40
0.0
  9
$DIMTOL
 70
     0
  9
$DIMLIM
 70
     0
  9
$DIMTIH
 70
     0
  9
$DIMTOH
 70
     0
  9
$DIMSE1
 70
     0
  9
$DIMSE2
 70
     0
  9
$DIMTAD
 70
     1
  9
$DIMZIN
 70
     8
  9
$DIMBLK
  1

  9
$DIMASO
 70
     1
  9
$DIMSHO
 70
     1
  9
$DIMPOST
  1

  9
$DIMAPOST
  1

  9
$DIMALT
 70
     0
  9
$DIMALTD
 70
     4
  9
$DIMALTF
 40
0.0394
  9
$DIMLFAC
 40
1.0
  9
$DIMTOFL
 70
     1
  9
$DIMTVP
 40
0.0
  9
$DIMTIX
 70
     0
  9
$DIMSOXD
 70
     0
  9
$DIMSAH
 70
     1
  9
$DIMBLK1
  1
OPEN
  9
$DIMBLK2
  1
OPEN
  9
$DIMSTYLE
  2
STYLE3
  9
$DIMCLRD
 70
     2
  9
$DIMCLRE
 70
     2
  9
$DIMCLRT
 70
     6
  9
$DIMTFAC
 40
1.0
  9
$DIMGAP
 40
0.625
  9
$DIMJUST
 70
     0
  9
$DIMSD1
 70
     0
  9
$DIMSD2
 70
     0
  9
$DIMTOLJ
 70
     1
  9
$DIMTZIN
 70
     0
  9
$DIMALTZ
 70
     0
  9
$DIMALTTZ
 70
     0
  9
$DIMUPT
 70
     0
  9
$DIMDEC
 70
     2
  9
$DIMTDEC
 70
     4
  9
$DIMALTU
 70
     8
  9
$DIMALTTD
 70
     4
  9
$DIMTXSTY
  7
STYLE3
  9
$DIMAUNIT
 70
     0
  9
$DIMADEC
 70
     0
  9
$DIMALTRND
 40
0.0
  9
$DIMAZIN
 70
     0
  9
$DIMDSEP
 70
    46
  9
$DIMATFIT
 70
     3
  9
$DIMFRAC
 70
     0
  9
$DIMLDRBLK
  1

  9
$DIMLUNIT
 70
     2
  9
$DIMLWD
 70
    -2
  9
$DIMLWE
 70
    -2
  9
$DIMTMOVE
 70
     0
  9
$LUNITS
 70
     2
  9
$LUPREC
 70
     4
  9
$SKETCHINC
 40
1.0
  9
$FILLETRAD
 40
0.1
  9
$AUNITS
 70
     0
  9
$AUPREC
 70
     0
  9
$MENU
  1
.
  9
$ELEVATION
 40
0.0
  9
$PELEVATION
 40
0.0
  9
$THICKNESS
 40
0.0
  9
$LIMCHECK
 70
     0
  9
$CHAMFERA
 40
0.35
  9
$CHAMFERB
 40
0.35
  9
$CHAMFERC
 40
20.0
  9
$CHAMFERD
 40
0.0
  9
$SKPOLY
 70
     0
  9
$TDCREATE
 40
2451066.662483449
  9
$TDUCREATE
 40
2451066.287483449
  9
$TDUPDATE
 40
2456919.637211366
  9
$TDUUPDATE
 40
2456919.262211366
  9
$TDINDWG
 40
0.6357778588
  9
$TDUSRTIMER
 40
0.6357760417
  9
$USRTIMER
 70
     1
  9
$ANGBASE
 50
0.0
  9
$ANGDIR
 70
     0
  9
$PDMODE
 70
     0
  9
$PDSIZE
 40
0.0
  9
$PLINEWID
 40
0.0
  9
$SPLFRAME
 70
     0
  9
$SPLINETYPE
 70
     6
  9
$SPLINESEGS
 70
     8
  9
$HANDSEED
  5
305A
  9
$SURFTAB1
 70
     6
  9
$SURFTAB2
 70
     6
  9
$SURFTYPE
 70
     6
  9
$SURFU
 70
     6
  9
$SURFV
 70
     6
  9
$UCSBASE
  2

  9
$UCSNAME
  2

  9
$UCSORG
 10
0.0
 20
0.0
 30
0.0
  9
$UCSXDIR
 10
1.0
 20
0.0
 30
0.0
  9
$UCSYDIR
 10
0.0
 20
1.0
 30
0.0
  9
$UCSORTHOREF
  2

  9
$UCSORTHOVIEW
 70
     0
  9
$UCSORGTOP
 10
0.0
 20
0.0
 30
0.0
  9
$UCSORGBOTTOM
 10
0.0
 20
0.0
 30
0.0
  9
$UCSORGLEFT
 10
0.0
 20
0.0
 30
0.0
  9
$UCSORGRIGHT
 10
0.0
 20
0.0
 30
0.0
  9
$UCSORGFRONT
 10
0.0
 20
0.0
 30
0.0
  9
$UCSORGBACK
 10
0.0
 20
0.0
 30
0.0
  9
$PUCSBASE
  2

  9
$PUCSNAME
  2

  9
$PUCSORG
 10
0.0
 20
0.0
 30
0.0
  9
$PUCSXDIR
 10
1.0
 20
0.0
 30
0.0
  9
$PUCSYDIR
 10
0.0
 20
1.0
 30
0.0
  9
$PUCSORTHOREF
  2

  9
$PUCSORTHOVIEW
 70
     0
  9
$PUCSORGTOP
 10
0.0
 20
0.0
 30
0.0
  9
$PUCSORGBOTTOM
 10
0.0
 20
0.0
 30
0.0
  9
$PUCSORGLEFT
 10
0.0
 20
0.0
 30
0.0
  9
$PUCSORGRIGHT
 10
0.0
 20
0.0
 30
0.0
  9
$PUCSORGFRONT
 10
0.0
 20
0.0
 30
0.0
  9
$PUCSORGBACK
 10
0.0
 20
0.0
 30
0.0
  9
$USERI1
 70
     0
  9
$USERI2
 70
     0
  9
$USERI3
 70
     0
  9
$USERI4
 70
     0
  9
$USERI5
 70
     0
  9
$USERR1
 40
0.0
  9
$USERR2
 40
0.0
  9
$USERR3
 40
0.0
  9
$USERR4
 40
0.0
  9
$USERR5
 40
0.0
  9
$WORLDVIEW
 70
     1
  9
$SHADEDGE
 70
     3
  9
$SHADEDIF
 70
    70
  9
$TILEMODE
 70
     1
  9
$MAXACTVP
 70
    48
  9
$PINSBASE
 10
0.0
 20
0.0
 30
0.0
  9
$PLIMCHECK
 70
     0
  9
$PEXTMIN
 10
1.000000000000000E+20
 20
1.000000000000000E+20
 30
1.000000000000000E+20
  9
$PEXTMAX
 10
-1.000000000000000E+20
 20
-1.000000000000000E+20
 30
-1.000000000000000E+20
  9
$PLIMMIN
 10
0.0
 20
0.0
  9
$PLIMMAX
 10
420.0
 20
297.0
  9
$UNITMODE
 70
     0
  9
$VISRETAIN
 70
     1
  9
$PLINEGEN
 70
     0
  9
$PSLTSCALE
 70
     1
  9
$TREEDEPTH
 70
  3020
  9
$CMLSTYLE
  2
STANDARD
  9
$CMLJUST
 70
     0
  9
$CMLSCALE
 40
20.0
  9
$PROXYGRAPHICS
 70
     1
  9
$MEASUREMENT
 70
     1
  9
$CELWEIGHT
370
    -1
  9
$ENDCAPS
280
     0
  9
$JOINSTYLE
280
     0
  9
$LWDISPLAY
290
     0
  9
$INSUNITS
 70
     0
  9
$HYPERLINKBASE
  1

  9
$STYLESHEET
  1
AUTOCAD LT 98.CTB
  9
$XEDIT
290
     1
  9
$CEPSNTYPE
380
     0
  9
$PSTYLEMODE
290
     1
  9
$FINGERPRINTGUID
  2
{B3662552-CC1D-4D43-997F-A2AEB82354FD}
  9
$VERSIONGUID
  2
{9611306B-0A1B-4627-89C8-50C3E14053BE}
  9
$EXTNAMES
290
     1
  9
$PSVPSCALE
 40
0.0
  9
$OLESTARTUP
290
     0
  9
$SORTENTS
280
    96
  9
$INDEXCTL
280
     0
  9
$HIDETEXT
280
     0
  9
$XCLIPFRAME
290
     0
  9
$HALOGAP
280
     0
  9
$OBSCOLOR
 70
   257
  9
$OBSLTYPE
280
     0
  9
$INTERSECTIONDISPLAY
280
     0
  9
$INTERSECTIONCOLOR
 70
   257
  9
$DIMASSOC
280
     1
  9
$PROJECTNAME
  1

  0
ENDSEC
  0
SECTION
  2
CLASSES
  0
CLASS
  1
HATCH
  2
AcDbHatch
  3
ObjectDBX Classes
 90
        0
 91
       20
280
     0
281
     1
  0
CLASS
  1
LWPOLYLINE
  2
AcDbPolyline
  3
ObjectDBX Classes
 90
        0
 91
        1
280
     0
281
     1
  0
CLASS
  1
IMAGEDEF
  2
AcDbRasterImageDef
  3
ISM
 90
        0
 91
        1
280
     0
281
     0
  0
CLASS
  1
DICTIONARYVAR
  2
AcDbDictionaryVar
  3
ObjectDBX Classes
 90
        0
 91
        2
280
     0
281
     0
  0
CLASS
  1
RASTERVARIABLES
  2
AcDbRasterVariables
  3
ISM
 90
        0
 91
        1
280
     0
281
     0
  0
CLASS
  1
ACDBDICTIONARYWDFLT
  2
AcDbDictionaryWithDefault
  3
ObjectDBX Classes
 90
        0
 91
        1
280
     0
281
     0
  0
CLASS
  1
TABLESTYLE
  2
AcDbTableStyle
  3
ObjectDBX Classes
 90
     2047
 91
        2
280
     0
281
     0
  0
CLASS
  1
SORTENTSTABLE
  2
AcDbSortentsTable
  3
ObjectDBX Classes
 90
        0
 91
        1
280
     0
281
     0
  0
ENDSEC
  0
SECTION
  2
TABLES
  0
TABLE
  2
VPORT
  5
8
330
0
100
AcDbSymbolTable
 70
     2
  0
VPORT
  5
3059
330
8
100
AcDbSymbolTableRecord
100
AcDbViewportTableRecord
  2
*Active
 70
     0
 10
0.0
 20
0.0
 11
1.0
 21
1.0
 12
364.1897181503714
 22
269.3448837684902
 13
0.0
 23
0.0
 14
10.0
 24
10.0
 15
10.0
 25
10.0
 16
0.0
 26
0.0
 36
1.0
 17
0.0
 27
0.0
 37
0.0
 40
196.9078854655868
 41
1.530456852791878
 42
50.0
 43
0.0
 44
0.0
 50
0.0
 51
0.0
 71
     0
 72
   100
 73
     1
 74
     1
 75
     0
 76
     0
 77
     0
 78
     0
281
     0
 65
     1
110
0.0
120
0.0
130
0.0
111
1.0
121
0.0
131
0.0
112
0.0
122
1.0
132
0.0
 79
     0
146
0.0
  0
ENDTAB
  0
TABLE
  2
LTYPE
  5
5
330
0
100
AcDbSymbolTable
 70
     3
  0
LTYPE
  5
12
330
5
100
AcDbSymbolTableRecord
100
AcDbLinetypeTableRecord
  2
BYBLOCK
 70
     0
  3

 72
    65
 73
     0
 40
0.0
  0
LTYPE
  5
13
330
5
100
AcDbSymbolTableRecord
100
AcDbLinetypeTableRecord
  2
BYLAYER
 70
     0
  3

 72
    65
 73
     0
 40
0.0
  0
LTYPE
  5
14
330
5
100
AcDbSymbolTableRecord
100
AcDbLinetypeTableRecord
  2
CONTINUOUS
 70
     0
  3
Solid line
 72
    65
 73
     0
 40
0.0
  0
LTYPE
  5
22
330
5
100
AcDbSymbolTableRecord
100
AcDbLinetypeTableRecord
  2
CENTER2
 70
     0
  3
Center (.5x) ___ _ ___ _ ___ _ ___ _ ___ _ ___
 72
    65
 73
     4
 40
28.575
 49
19.05
 74
     0
 49
-3.174999999999998
 74
     0
 49
3.174999999999998
 74
     0
 49
-3.174999999999998
 74
     0
  0
LTYPE
  5
23
330
5
100
AcDbSymbolTableRecord
100
AcDbLinetypeTableRecord
  2
HIDDEN2
 70
     0
  3
Hidden (.5x) _ _ _ _ _ _ _ _ _ _ _ _ _ _ _ _ _
 72
    65
 73
     2
 40
4.762499999999998
 49
3.174999999999998
 74
     0
 49
-1.587499999999999
 74
     0
  0
ENDTAB
  0
TABLE
  2
LAYER
  5
2
330
0
100
AcDbSymbolTable
 70
    12
  0
LAYER
  5
E
330
2
100
AcDbSymbolTableRecord
100
AcDbLayerTableRecord
  2
0
 70
     0
 62
     7
  6
CONTINUOUS
370
    -3
390
29D0
  0
LAYER
  5
25
330
2
100
AcDbSymbolTableRecord
100
AcDbLayerTableRecord
  2
外形線
 70
     0
 62
     7
  6
CONTINUOUS
370
    -3
390
29D0
  0
LAYER
  5
26
330
2
100
AcDbSymbolTableRecord
100
AcDbLayerTableRecord
  2
寸法線
 70
     0
 62
     2
  6
CONTINUOUS
370
    -3
390
29D0
  0
LAYER
  5
27
330
2
100
AcDbSymbolTableRecord
100
AcDbLayerTableRecord
  2
中心線
 70
     0
 62
     4
  6
CENTER2
370
    -3
390
29D0
  0
LAYER
  5
28
330
2
100
AcDbSymbolTableRecord
100
AcDbLayerTableRecord
  2
隠れ線
 70
     0
 62
     6
  6
HIDDEN2
370
    -3
390
29D0
  0
LAYER
  5
2B
330
2
100
AcDbSymbolTableRecord
100
AcDbLayerTableRecord
  2
文字
 70
     0
 62
     6
  6
CONTINUOUS
370
    -3
390
29D0
  0
LAYER
  5
2C
330
2
100
AcDbSymbolTableRecord
100
AcDbLayerTableRecord
  2
目盛
 70
     0
 62
    70
  6
CONTINUOUS
370
    -3
390
29D0
  0
LAYER
  5
2D
330
2
100
AcDbSymbolTableRecord
100
AcDbLayerTableRecord
  2
針
 70
     0
 62
     5
  6
CONTINUOUS
370
    -3
390
29D0
  0
LAYER
  5
53
330
2
100
AcDbSymbolTableRecord
100
AcDbLayerTableRecord
  2
DEFPOINTS
 70
     0
 62
     7
  6
CONTINUOUS
290
     0
370
    -3
390
29D0
  0
LAYER
  5
A5
330
2
100
AcDbSymbolTableRecord
100
AcDbLayerTableRecord
  2
C
 70
     0
 62
     7
  6
CONTINUOUS
370
    -3
390
29D0
  0
LAYER
  5
AD4
330
2
100
AcDbSymbolTableRecord
100
AcDbLayerTableRecord
  2
ROGO
 70
     0
 62
     6
  6
CONTINUOUS
370
    -3
390
29D0
  0
LAYER
  5
1F40
330
2
100
AcDbSymbolTableRecord
100
AcDbLayerTableRecord
  2
ASHADE
 70
     0
 62
     7
  6
CONTINUOUS
370
    -3
390
29D0
  0
ENDTAB
  0
TABLE
  2
STYLE
  5
3
330
0
100
AcDbSymbolTable
 70
     2
  0
STYLE
  5
F
330
3
100
AcDbSymbolTableRecord
100
AcDbTextStyleTableRecord
  2
STANDARD
 70
     0
 40
0.0
 41
1.0
 50
0.0
 71
     0
 42
2.5
  3
txt
  4

  0
STYLE
  5
3F
330
3
100
AcDbSymbolTableRecord
100
AcDbTextStyleTableRecord
  2
STYLE3
 70
     0
 40
0.0
 41
1.0
 50
0.0
 71
     0
 42
1.0
  3
romans.shx
  4
bigfont.shx
  0
ENDTAB
  0
TABLE
  2
VIEW
  5
6
330
0
100
AcDbSymbolTable
 70
     0
  0
ENDTAB
  0
TABLE
  2
UCS
  5
7
330
0
100
AcDbSymbolTable
 70
     0
  0
ENDTAB
  0
TABLE
  2
APPID
  5
9
330
0
100
AcDbSymbolTable
 70
     7
  0
APPID
  5
10
330
9
100
AcDbSymbolTableRecord
100
AcDbRegAppTableRecord
  2
ACAD
 70
     0
  0
APPID
  5
1F42
330
9
100
AcDbSymbolTableRecord
100
AcDbRegAppTableRecord
  2
AVE_RENDER
 70
     0
  0
APPID
  5
1F43
330
9
100
AcDbSymbolTableRecord
100
AcDbRegAppTableRecord
  2
AVE_ENTITY_MATERIAL
 70
     0
  0
APPID
  5
1F44
330
9
100
AcDbSymbolTableRecord
100
AcDbRegAppTableRecord
  2
AVE_FINISH
 70
     0
  0
APPID
  5
1F45
330
9
100
AcDbSymbolTableRecord
100
AcDbRegAppTableRecord
  2
AVE_MATERIAL
 70
     0
  0
APPID
  5
1F46
330
9
100
AcDbSymbolTableRecord
100
AcDbRegAppTableRecord
  2
AVE_GLOBAL
 70
     0
  0
APPID
  5
2F36
330
9
100
AcDbSymbolTableRecord
100
AcDbRegAppTableRecord
  2
ACAD_PSEXT
 70
     0
  0
ENDTAB
  0
TABLE
  2
DIMSTYLE
  5
A
330
0
100
AcDbSymbolTable
 70
     2
100
AcDbDimStyleTable
 71
     1
340
8F
  0
DIMSTYLE
105
1D
330
A
100
AcDbSymbolTableRecord
100
AcDbDimStyleTableRecord
  2
STANDARD
 70
     0
 41
2.5
 42
0.625
 43
3.75
 44
1.25
 73
     0
 74
     0
 77
     1
 78
     8
140
2.5
141
2.5
143
0.0394
147
0.625
171
     4
172
     1
273
     8
274
     4
277
     6
340
F
  0
DIMSTYLE
105
8F
102
{ACAD_REACTORS
330
2FCC
330
2FD9
330
2FE6
330
2FF3
102
}
330
A
100
AcDbSymbolTableRecord
100
AcDbDimStyleTableRecord
  2
STYLE3
 70
     0
 41
2.5
 42
0.0
 43
3.75
 44
1.25
 73
     0
 74
     0
 77
     1
 78
     8
140
2.5
141
2.5
143
0.0394
147
0.625
171
     4
172
     1
173
     1
176
     2
177
     2
178
     6
271
     1
273
     8
274
     4
340
3F
341
45
343
45
344
45
  0
ENDTAB
  0
TABLE
  2
BLOCK_RECORD
  5
1
330
0
100
AcDbSymbolTable
 70
     9
  0
BLOCK_RECORD
  5
18
330
1
100
AcDbSymbolTableRecord
100
AcDbBlockTableRecord
  2
*MODEL_SPACE
340
29D7
  0
BLOCK_RECORD
  5
15
330
1
100
AcDbSymbolTableRecord
100
AcDbBlockTableRecord
  2
*PAPER_SPACE
340
29D8
  0
BLOCK_RECORD
  5
45
330
1
100
AcDbSymbolTableRecord
100
AcDbBlockTableRecord
  2
_OPEN
340
0
102
{BLKREFS
331
1637
331
1638
331
1654
331
1669
331
166A
331
2628
331
2629
331
2632
331
2633
331
2864
331
2865
331
287A
331
287B
331
2882
331
2883
331
2894
331
2895
331
28A0
331
28A1
331
28B0
331
28B1
331
28B9
331
28BA
331
28C2
331
28C3
331
28CB
331
28CC
331
28F6
331
28F7
331
2908
331
2909
331
29BA
331
29BB
331
3038
331
3039
331
3041
331
3042
331
304A
331
304B
331
3053
331
3054
102
}
  0
BLOCK_RECORD
  5
ADD
330
1
100
AcDbSymbolTableRecord
100
AcDbBlockTableRecord
  2
ROGO1
340
0
102
{BLKREFS
331
B43
331
B44
331
FCB
331
FCC
331
1B90
331
1B91
331
1BCE
331
1BCF
331
21C9
331
21CA
331
21E1
331
21E2
102
}
  0
BLOCK_RECORD
  5
1ECD
330
1
100
AcDbSymbolTableRecord
100
AcDbBlockTableRecord
  2
AVE_RENDER
340
0
102
{BLKREFS
331
22B4
331
22B5
331
22B6
331
22B7
331
22B8
331
22B9
331
22BA
331
22BB
102
}
  0
BLOCK_RECORD
  5
1ED0
330
1
100
AcDbSymbolTableRecord
100
AcDbBlockTableRecord
  2
AVE_GLOBAL
340
0
102
{BLKREFS
331
22BC
102
}
  0
BLOCK_RECORD
  5
29DD
102
{ACAD_XDICTIONARY
360
29DE
102
}
330
1
100
AcDbSymbolTableRecord
100
AcDbBlockTableRecord
  2
PC_PCN針
340
0
102
{BLKREFS
331
2F2B
102
}
  0
BLOCK_RECORD
  5
2FCD
330
1
100
AcDbSymbolTableRecord
100
AcDbBlockTableRecord
  2
*D5
340
0
  0
BLOCK_RECORD
  5
2FDA
330
1
100
AcDbSymbolTableRecord
100
AcDbBlockTableRecord
  2
*D6
340
0
  0
BLOCK_RECORD
  5
2FE7
330
1
100
AcDbSymbolTableRecord
100
AcDbBlockTableRecord
  2
*D7
340
0
  0
BLOCK_RECORD
  5
2FF4
330
1
100
AcDbSymbolTableRecord
100
AcDbBlockTableRecord
  2
*D8
340
0
  0
ENDTAB
  0
ENDSEC
  0
SECTION
  2
BLOCKS
  0
BLOCK
  5
19
330
18
100
AcDbEntity
  8
0
100
AcDbBlockBegin
  2
*MODEL_SPACE
 70
     0
 10
0.0
 20
0.0
 30
0.0
  3
*MODEL_SPACE
  1

  0
ENDBLK
  5
1A
330
18
100
AcDbEntity
  8
0
100
AcDbBlockEnd
  0
BLOCK
  5
16
330
15
100
AcDbEntity
 67
     1
  8
0
100
AcDbBlockBegin
  2
*PAPER_SPACE
 70
     0
 10
0.0
 20
0.0
 30
0.0
  3
*PAPER_SPACE
  1

  0
ENDBLK
  5
17
330
15
100
AcDbEntity
 67
     1
  8
0
100
AcDbBlockEnd
  0
BLOCK
  5
46
330
45
100
AcDbEntity
  8
0
100
AcDbBlockBegin
  2
_OPEN
 70
     0
 10
0.0
 20
0.0
 30
0.0
  3
_OPEN
  1

  0
LINE
  5
47
330
45
100
AcDbEntity
  8
0
  6
ByBlock
 62
     0
100
AcDbLine
 10
-1.0
 20
0.1666666666666666
 30
0.0
 11
0.0
 21
0.0
 31
0.0
  0
LINE
  5
48
330
45
100
AcDbEntity
  8
0
  6
ByBlock
 62
     0
100
AcDbLine
 10
0.0
 20
0.0
 30
0.0
 11
-1.0
 21
-0.1666666666666666
 31
0.0
  0
LINE
  5
49
330
45
100
AcDbEntity
  8
0
  6
ByBlock
 62
     0
100
AcDbLine
 10
0.0
 20
0.0
 30
0.0
 11
-1.0
 21
0.0
 31
0.0
  0
ENDBLK
  5
4A
330
45
100
AcDbEntity
  8
0
100
AcDbBlockEnd
  0
BLOCK
  5
B2A
330
ADD
100
AcDbEntity
  8
0
100
AcDbBlockBegin
  2
ROGO1
 70
     0
 10
0.0
 20
0.0
 30
0.0
  3
ROGO1
  1

  0
MTEXT
  5
B42
330
ADD
100
AcDbEntity
  8
DEFPOINTS
  6
Continuous
100
AcDbMText
 10
1039.786461861274
 20
160.9640365185991
 30
0.0
 40
1.0
 41
0.0
 71
     4
 72
     1
  1
\A1;
 73
     1
 44
1.0
  0
ENDBLK
  5
B2B
330
ADD
100
AcDbEntity
  8
0
100
AcDbBlockEnd
  0
BLOCK
  5
1ECE
330
1ECD
100
AcDbEntity
  8
ASHADE
100
AcDbBlockBegin
  2
AVE_RENDER
 70
     0
 10
0.0
 20
0.0
 30
0.0
  3
AVE_RENDER
  1
AVE_RENDER
  0
ENDBLK
  5
1ECF
330
1ECD
100
AcDbEntity
  8
0
100
AcDbBlockEnd
  0
BLOCK
  5
1ED1
330
1ED0
100
AcDbEntity
  8
ASHADE
100
AcDbBlockBegin
  2
AVE_GLOBAL
 70
     0
 10
0.0
 20
0.0
 30
0.0
  3
AVE_GLOBAL
  1
AVE_GLOBAL
  0
ENDBLK
  5
1ED2
330
1ED0
100
AcDbEntity
  8
0
100
AcDbBlockEnd
  0
BLOCK
  5
29E0
330
29DD
100
AcDbEntity
  8
0
100
AcDbBlockBegin
  2
PC_PCN針
 70
     0
 10
0.0
 20
0.0
 30
0.0
  3
PC_PCN針
  1

  0
HATCH
  5
29E1
330
29DD
100
AcDbEntity
  8
針
 62
     5
100
AcDbHatch
 10
0.0
 20
0.0
 30
0.0
210
0.0
220
0.0
230
1.0
  2
SOLID
 70
     1
 71
     1
 91
        2
 92
        7
 72
     1
 73
     1
 93
        7
 10
-2.023904563850578
 20
-0.2645931338153105
 42
-0.1640812035095904
 10
-1.421638696153195
 20
-0.4784803210162636
 42
-0.0813437861988258
 10
-1.5
 20
0.0
 42
-0.0813437861988211
 10
-1.421638696153195
 20
0.4784803210162353
 42
-0.1640812035095877
 10
-2.023904563850578
 20
0.2645931338153105
 42
0.0
 10
-14.19999999999993
 20
0.07000000000005
 42
0.0
 10
-14.20000000000004
 20
-0.0700000000000216
 42
0.0
 97
        6
330
29E5
330
29E7
330
29E2
330
29E8
330
29E6
330
29EE
 92
        7
 72
     1
 73
     1
 93
        9
 10
1.601307174430758
 20
0.4866168858272319
 42
-0.1053331282509662
 10
1.399713151580612
 20
0.5392616185973793
 42
-0.0921949713546931
 10
1.5
 20
0.0
 42
-0.0921949713546883
 10
1.399713151580612
 20
-0.5392616185973509
 42
-0.1053331282510194
 10
1.60130717443087
 20
-0.4866168858272319
 42
0.0
 10
6.657469727507077
 20
-0.256172195646343
 42
-0.2863987309427536
 10
6.842033426437637
 20
-0.359972204586029
 42
3.911320250910648
 10
6.842033426437637
 20
0.3599722045860858
 42
-0.2863987309427981
 10
6.657469727507077
 20
0.256172195646343
 42
0.0
 97
        8
330
29EC
330
29E9
330
29E4
330
29EE
330
29E3
330
29EA
330
29ED
330
29EB
 75
     0
 76
     1
 47
0.0259966004614645
 98
        2
 10
-6.998752094249081
 20
-0.0094903483859525
 10
3.014397170732763
 20
0.0944959703959967
450
        0
451
        0
460
0.0
461
0.0
452
        1
462
1.0
453
        2
463
0.0
 63
     5
421
      255
463
1.0
 63
    51
421
 16777113
470
LINEAR
  0
LINE
  5
29E2
102
{ACAD_REACTORS
330
29E1
102
}
330
29DD
100
AcDbEntity
  8
針
100
AcDbLine
 10
-14.20000000000004
 20
0.0700000000000216
 30
0.0
 11
-14.20000000000004
 21
-0.0699999999999932
 31
0.0
  0
ARC
  5
29E3
102
{ACAD_REACTORS
330
29E1
102
}
330
29DD
100
AcDbEntity
  8
針
100
AcDbCircle
 10
1.624072039381869
 20
-0.9860983779005325
 30
0.0
 40
0.5
100
AcDbArc
 50
92.60956348104661
 51
116.6614474826241
  0
ARC
  5
29E4
102
{ACAD_REACTORS
330
29E1
102
}
330
29DD
100
AcDbEntity
  8
針
100
AcDbCircle
 10
1.624072039381869
 20
0.9860983779005325
 30
0.0
 40
0.5
100
AcDbArc
 50
243.3385525173759
 51
267.3904365189533
  0
ARC
  5
29E5
102
{ACAD_REACTORS
330
29E1
102
}
330
29DD
100
AcDbEntity
  8
針
100
AcDbCircle
 10
-2.039884094318265
 20
1.2644654529671
 30
0.0
 40
1.0
100
AcDbArc
 50
270.9155986228672
 51
308.1881170613605
  0
ARC
  5
29E6
102
{ACAD_REACTORS
330
29E1
102
}
330
29DD
100
AcDbEntity
  8
針
100
AcDbCircle
 10
-2.039884094318265
 20
-1.2644654529671
 30
0.0
 40
1.0
100
AcDbArc
 50
51.8118829386395
 51
89.08440137713276
  0
LINE
  5
29E7
102
{ACAD_REACTORS
330
29E1
102
}
330
29DD
100
AcDbEntity
  8
針
100
AcDbLine
 10
-14.20000000000004
 20
0.0700000000000216
 30
0.0
 11
-2.023904563850578
 21
0.2645931338153105
 31
0.0
  0
LINE
  5
29E8
102
{ACAD_REACTORS
330
29E1
102
}
330
29DD
100
AcDbEntity
  8
針
100
AcDbLine
 10
-2.023904563850578
 20
-0.2645931338153105
 30
0.0
 11
-14.20000000000004
 21
-0.0699999999999932
 31
0.0
  0
LINE
  5
29E9
102
{ACAD_REACTORS
330
29E1
102
}
330
29DD
100
AcDbEntity
  8
針
100
AcDbLine
 10
1.601307174430758
 20
0.4866168858272319
 30
0.0
 11
6.657469727507077
 21
0.256172195646343
 31
0.0
  0
LINE
  5
29EA
102
{ACAD_REACTORS
330
29E1
102
}
330
29DD
100
AcDbEntity
  8
針
100
AcDbLine
 10
1.601307174430758
 20
-0.4866168858272319
 30
0.0
 11
6.657469727507077
 21
-0.256172195646343
 31
0.0
  0
ARC
  5
29EB
102
{ACAD_REACTORS
330
29E1
102
}
330
29DD
100
AcDbEntity
  8
針
100
AcDbCircle
 10
7.5
 20
0.0
 30
0.0
 40
0.75
100
AcDbArc
 50
208.6829815593726
 51
151.3170184406274
  0
ARC
  5
29EC
102
{ACAD_REACTORS
330
29E1
102
}
330
29DD
100
AcDbEntity
  8
針
100
AcDbCircle
 10
6.666575673487612
 20
0.4559647924756405
 30
0.0
 40
0.2
100
AcDbArc
 50
267.3904365189468
 51
331.3170184406275
  0
ARC
  5
29ED
102
{ACAD_REACTORS
330
29E1
102
}
330
29DD
100
AcDbEntity
  8
針
100
AcDbCircle
 10
6.666575673487612
 20
-0.4559647924756405
 30
0.0
 40
0.2
100
AcDbArc
 50
28.68298155937256
 51
92.60956348105315
  0
CIRCLE
  5
29EE
102
{ACAD_REACTORS
330
29E1
102
}
330
29DD
100
AcDbEntity
  8
外形線
100
AcDbCircle
 10
0.0
 20
0.0
 30
0.0
 40
1.5
  0
CIRCLE
  5
29EF
330
29DD
100
AcDbEntity
  8
外形線
 62
     4
100
AcDbCircle
 10
0.0
 20
0.0
 30
0.0
 40
0.25
  0
ENDBLK
  5
29F0
330
29DD
100
AcDbEntity
  8
0
100
AcDbBlockEnd
  0
BLOCK
  5
2FD7
330
2FCD
100
AcDbEntity
  8
0
100
AcDbBlockBegin
  2
*D5
 70
     1
 10
0.0
 20
0.0
 30
0.0
  3
*D5
  1

  0
LINE
  5
3050
330
2FCD
100
AcDbEntity
  8
文字
 62
     2
370
    -2
100
AcDbLine
 10
290.8287716641016
 20
240.3716799057975
 30
0.0
 11
281.1705216179564
 21
240.3716799057975
 31
0.0
  0
LINE
  5
3051
330
2FCD
100
AcDbEntity
  8
文字
 62
     2
370
    -2
100
AcDbLine
 10
292.4453694191168
 20
226.5716799057975
 30
0.0
 11
281.1705216179564
 21
226.5716799057975
 31
0.0
  0
LINE
  5
3052
330
2FCD
100
AcDbEntity
  8
文字
 62
     2
370
    -2
100
AcDbLine
 10
282.4205216179564
 20
237.8716799057975
 30
0.0
 11
282.4205216179564
 21
229.0716799057975
 31
0.0
  0
INSERT
  5
3053
330
2FCD
100
AcDbEntity
  8
文字
 62
     2
370
    -2
100
AcDbBlockReference
  2
_OPEN
 10
282.4205216179564
 20
240.3716799057975
 30
0.0
 41
2.5
 42
2.5
 43
2.5
 50
90.0
  0
INSERT
  5
3054
330
2FCD
100
AcDbEntity
  8
文字
 62
     2
370
    -2
100
AcDbBlockReference
  2
_OPEN
 10
282.4205216179564
 20
226.5716799057975
 30
0.0
 41
2.5
 42
2.5
 43
2.5
 50
270.0
  0
MTEXT
  5
3055
330
2FCD
100
AcDbEntity
  8
文字
 62
     6
100
AcDbMText
 10
280.5455216179563
 20
233.4716799057975
 30
0.0
 40
2.5
 41
0.0
 71
     5
 72
     1
  1
\A1;13.8
  7
STYLE3
 11
0.0000000000000001
 21
1.0
 31
0.0
 73
     1
 44
1.0
  0
POINT
  5
3056
330
2FCD
100
AcDbEntity
  8
DEFPOINTS
 62
     0
100
AcDbPoint
 10
290.8287716641016
 20
240.3716799057975
 30
0.0
  0
POINT
  5
3057
330
2FCD
100
AcDbEntity
  8
DEFPOINTS
 62
     0
100
AcDbPoint
 10
292.4453694191168
 20
226.5716799057975
 30
0.0
  0
POINT
  5
3058
330
2FCD
100
AcDbEntity
  8
DEFPOINTS
 62
     0
100
AcDbPoint
 10
282.4205216179564
 20
226.5716799057975
 30
0.0
  0
ENDBLK
  5
2FD8
330
2FCD
100
AcDbEntity
  8
0
100
AcDbBlockEnd
  0
BLOCK
  5
2FE4
330
2FDA
100
AcDbEntity
  8
0
100
AcDbBlockBegin
  2
*D6
 70
     1
 10
0.0
 20
0.0
 30
0.0
  3
*D6
  1

  0
LINE
  5
3047
330
2FDA
100
AcDbEntity
  8
文字
 62
     2
370
    -2
100
AcDbLine
 10
302.9172477758916
 20
244.3716799057975
 30
0.0
 11
327.7386909673197
 21
244.3716799057975
 31
0.0
  0
LINE
  5
3048
330
2FDA
100
AcDbEntity
  8
文字
 62
     2
370
    -2
100
AcDbLine
 10
297.789519629349
 20
226.5716799057975
 30
0.0
 11
327.7386909673197
 21
226.5716799057975
 31
0.0
  0
LINE
  5
3049
330
2FDA
100
AcDbEntity
  8
文字
 62
     2
370
    -2
100
AcDbLine
 10
326.4886909673196
 20
241.8716799057975
 30
0.0
 11
326.4886909673196
 21
229.0716799057975
 31
0.0
  0
INSERT
  5
304A
330
2FDA
100
AcDbEntity
  8
文字
 62
     2
370
    -2
100
AcDbBlockReference
  2
_OPEN
 10
326.4886909673196
 20
244.3716799057975
 30
0.0
 41
2.5
 42
2.5
 43
2.5
 50
90.0
  0
INSERT
  5
304B
330
2FDA
100
AcDbEntity
  8
文字
 62
     2
370
    -2
100
AcDbBlockReference
  2
_OPEN
 10
326.4886909673196
 20
226.5716799057975
 30
0.0
 41
2.5
 42
2.5
 43
2.5
 50
270.0
  0
MTEXT
  5
304C
330
2FDA
100
AcDbEntity
  8
文字
 62
     6
100
AcDbMText
 10
324.6136909673196
 20
235.4716799057975
 30
0.0
 40
2.5
 41
0.0
 71
     5
 72
     1
  1
\A1;17.8
  7
STYLE3
 11
0.0000000000000001
 21
1.0
 31
0.0
 73
     1
 44
1.0
  0
POINT
  5
304D
330
2FDA
100
AcDbEntity
  8
DEFPOINTS
 62
     0
100
AcDbPoint
 10
302.9172477758916
 20
244.3716799057975
 30
0.0
  0
POINT
  5
304E
330
2FDA
100
AcDbEntity
  8
DEFPOINTS
 62
     0
100
AcDbPoint
 10
297.789519629349
 20
226.5716799057975
 30
0.0
  0
POINT
  5
304F
330
2FDA
100
AcDbEntity
  8
DEFPOINTS
 62
     0
100
AcDbPoint
 10
326.4886909673196
 20
226.5716799057975
 30
0.0
  0
ENDBLK
  5
2FE5
330
2FDA
100
AcDbEntity
  8
0
100
AcDbBlockEnd
  0
BLOCK
  5
2FF1
330
2FE7
100
AcDbEntity
  8
0
100
AcDbBlockBegin
  2
*D7
 70
     1
 10
0.0
 20
0.0
 30
0.0
  3
*D7
  1

  0
LINE
  5
303E
330
2FE7
100
AcDbEntity
  8
文字
 62
     2
370
    -2
100
AcDbLine
 10
327.7386909673197
 20
297.3716799057975
 30
0.0
 11
335.7734839672441
 21
297.3716799057975
 31
0.0
  0
LINE
  5
303F
330
2FE7
100
AcDbEntity
  8
文字
 62
     2
370
    -2
100
AcDbLine
 10
294.8287716641016
 20
225.5716799057975
 30
0.0
 11
335.7734839672441
 21
225.5716799057974
 31
0.0
  0
LINE
  5
3040
330
2FE7
100
AcDbEntity
  8
文字
 62
     2
370
    -2
100
AcDbLine
 10
334.5234839672441
 20
294.8716799057975
 30
0.0
 11
334.5234839672441
 21
228.0716799057974
 31
0.0
  0
INSERT
  5
3041
330
2FE7
100
AcDbEntity
  8
文字
 62
     2
370
    -2
100
AcDbBlockReference
  2
_OPEN
 10
334.5234839672441
 20
297.3716799057975
 30
0.0
 41
2.5
 42
2.5
 43
2.5
 50
90.0
  0
INSERT
  5
3042
330
2FE7
100
AcDbEntity
  8
文字
 62
     2
370
    -2
100
AcDbBlockReference
  2
_OPEN
 10
334.5234839672441
 20
225.5716799057974
 30
0.0
 41
2.5
 42
2.5
 43
2.5
 50
270.0
  0
MTEXT
  5
3043
330
2FE7
100
AcDbEntity
  8
文字
 62
     6
100
AcDbMText
 10
332.648483967244
 20
261.4716799057975
 30
0.0
 40
2.5
 41
0.0
 71
     5
 72
     1
  1
\A1;71.8
  7
STYLE3
 11
0.0000000000000001
 21
1.0
 31
0.0
 73
     1
 44
1.0
  0
POINT
  5
3044
330
2FE7
100
AcDbEntity
  8
DEFPOINTS
 62
     0
100
AcDbPoint
 10
327.7386909673197
 20
297.3716799057975
 30
0.0
  0
POINT
  5
3045
330
2FE7
100
AcDbEntity
  8
DEFPOINTS
 62
     0
100
AcDbPoint
 10
294.8287716641016
 20
225.5716799057975
 30
0.0
  0
POINT
  5
3046
330
2FE7
100
AcDbEntity
  8
DEFPOINTS
 62
     0
100
AcDbPoint
 10
334.5234839672441
 20
225.5716799057974
 30
0.0
  0
ENDBLK
  5
2FF2
330
2FE7
100
AcDbEntity
  8
0
100
AcDbBlockEnd
  0
BLOCK
  5
2FFE
330
2FF4
100
AcDbEntity
  8
0
100
AcDbBlockBegin
  2
*D8
 70
     1
 10
0.0
 20
0.0
 30
0.0
  3
*D8
  1

  0
LINE
  5
3035
330
2FF4
100
AcDbEntity
  8
文字
 62
     2
370
    -2
100
AcDbLine
 10
408.3821953381622
 20
278.8716799057975
 30
0.0
 11
412.157826881341
 21
278.8716799057975
 31
0.0
  0
LINE
  5
3036
330
2FF4
100
AcDbEntity
  8
文字
 62
     2
370
    -2
100
AcDbLine
 10
370.3493130715945
 20
226.5716799057974
 30
0.0
 11
412.157826881341
 21
226.5716799057974
 31
0.0
  0
LINE
  5
3037
330
2FF4
100
AcDbEntity
  8
文字
 62
     2
370
    -2
100
AcDbLine
 10
410.9078268813409
 20
276.3716799057975
 30
0.0
 11
410.9078268813409
 21
229.0716799057974
 31
0.0
  0
INSERT
  5
3038
330
2FF4
100
AcDbEntity
  8
文字
 62
     2
370
    -2
100
AcDbBlockReference
  2
_OPEN
 10
410.9078268813409
 20
278.8716799057975
 30
0.0
 41
2.5
 42
2.5
 43
2.5
 50
90.0
  0
INSERT
  5
3039
330
2FF4
100
AcDbEntity
  8
文字
 62
     2
370
    -2
100
AcDbBlockReference
  2
_OPEN
 10
410.9078268813409
 20
226.5716799057974
 30
0.0
 41
2.5
 42
2.5
 43
2.5
 50
270.0
  0
MTEXT
  5
303A
330
2FF4
100
AcDbEntity
  8
文字
 62
     6
100
AcDbMText
 10
409.0328268813409
 20
252.7216799057975
 30
0.0
 40
2.5
 41
0.0
 71
     5
 72
     1
  1
\A1;52.3
  7
STYLE3
 11
0.0000000000000001
 21
1.0
 31
0.0
 73
     1
 44
1.0
  0
POINT
  5
303B
330
2FF4
100
AcDbEntity
  8
DEFPOINTS
 62
     0
100
AcDbPoint
 10
408.3821953381622
 20
278.8716799057975
 30
0.0
  0
POINT
  5
303C
330
2FF4
100
AcDbEntity
  8
DEFPOINTS
 62
     0
100
AcDbPoint
 10
370.3493130715945
 20
226.5716799057974
 30
0.0
  0
POINT
  5
303D
330
2FF4
100
AcDbEntity
  8
DEFPOINTS
 62
     0
100
AcDbPoint
 10
410.9078268813409
 20
226.5716799057974
 30
0.0
  0
ENDBLK
  5
2FFF
330
2FF4
100
AcDbEntity
  8
0
100
AcDbBlockEnd
  0
ENDSEC
  0
SECTION
  2
ENTITIES
  0
LWPOLYLINE
  5
10B
330
18
100
AcDbEntity
  8
C
100
AcDbPolyline
 90
        5
 70
     0
 43
0.4
 10
236.6915604445414
 20
366.8501752555372
 10
491.6915604445414
 20
366.8501752555372
 10
491.6915604445414
 20
171.8501752555372
 10
236.6915604445414
 20
171.8501752555372
 10
236.6915604445414
 20
366.8501752555372
  0
INSERT
  5
B43
330
18
100
AcDbEntity
  8
文字
100
AcDbBlockReference
  2
ROGO1
 10
301.1334577592202
 20
275.1168679656769
 30
0.0
  0
INSERT
  5
B44
330
18
100
AcDbEntity
  8
文字
100
AcDbBlockReference
  2
ROGO1
 10
301.1095809474122
 20
275.1436630917189
 30
0.0
  0
INSERT
  5
FCB
330
18
100
AcDbEntity
  8
文字
100
AcDbBlockReference
  2
ROGO1
 10
579.0605083803766
 20
282.754069537204
 30
0.0
  0
INSERT
  5
FCC
330
18
100
AcDbEntity
  8
文字
100
AcDbBlockReference
  2
ROGO1
 10
579.0366315685687
 20
282.780864663246
 30
0.0
  0
LINE
  5
1203
330
18
100
AcDbEntity
  8
中心線
 48
0.5
100
AcDbLine
 10
359.9554503450875
 20
244.3716799057975
 30
0.0
 11
374.6903661174276
 21
244.3716799057975
 31
0.0
  0
ARC
  5
1204
330
18
100
AcDbEntity
  8
外形線
100
AcDbCircle
 10
367.3885651063472
 20
244.3716799057974
 30
0.0
 40
3.0
100
AcDbArc
 50
54.59406822686052
 51
215.4059317731395
  0
ARC
  5
1205
330
18
100
AcDbEntity
  8
外形線
100
AcDbCircle
 10
367.3885651063472
 20
244.3716799057974
 30
0.0
 40
3.0
100
AcDbArc
 50
234.5940682268605
 51
35.4059317731395
  0
LINE
  5
1206
330
18
100
AcDbEntity
  8
外形線
100
AcDbLine
 10
369.5098854499067
 20
245.7858934681705
 30
0.0
 11
369.8337685632756
 21
246.1097765815394
 31
0.0
  0
LINE
  5
1208
330
18
100
AcDbEntity
  8
外形線
100
AcDbLine
 10
365.9743515439741
 20
242.2503595622379
 30
0.0
 11
365.2672447627875
 21
242.9574663434244
 31
0.0
  0
LINE
  5
1209
330
18
100
AcDbEntity
  8
外形線
100
AcDbLine
 10
365.9743515439741
 20
242.2503595622379
 30
0.0
 11
365.6504684306053
 21
241.926476448869
 31
0.0
  0
LINE
  5
120A
330
18
100
AcDbEntity
  8
外形線
100
AcDbLine
 10
365.2672447627875
 20
242.9574663434244
 30
0.0
 11
364.9433616494186
 21
242.6335832300555
 31
0.0
  0
LINE
  5
120B
330
18
100
AcDbEntity
  8
外形線
100
AcDbLine
 10
369.5098854499067
 20
245.7858934681705
 30
0.0
 11
368.8027786687203
 21
246.493000249357
 31
0.0
  0
LINE
  5
120C
330
18
100
AcDbEntity
  8
外形線
100
AcDbLine
 10
368.8027786687203
 20
246.493000249357
 30
0.0
 11
369.1266617820892
 21
246.816883362726
 31
0.0
  0
LINE
  5
120D
330
18
100
AcDbEntity
  8
外形線
100
AcDbLine
 10
365.9743515439741
 20
242.9574663434244
 30
0.0
 11
368.8027786687203
 21
245.7858934681706
 31
0.0
  0
CIRCLE
  5
1210
330
18
100
AcDbEntity
  8
外形線
100
AcDbCircle
 10
367.3885651063472
 20
244.3716799057975
 30
0.0
 40
2.0
  0
LINE
  5
1249
330
18
100
AcDbEntity
  8
外形線
100
AcDbLine
 10
403.9347175290536
 20
275.8716799057975
 30
0.0
 11
388.7385651063473
 21
275.8716799057975
 31
0.0
  0
LINE
  5
124A
330
18
100
AcDbEntity
  8
外形線
100
AcDbLine
 10
403.9347175290536
 20
281.8716799057975
 30
0.0
 11
388.7385651063473
 21
281.8716799057975
 31
0.0
  0
LINE
  5
1253
330
18
100
AcDbEntity
  8
外形線
100
AcDbLine
 10
388.7385651063473
 20
281.8716799057975
 30
0.0
 11
388.7385651063473
 21
275.8716799057975
 31
0.0
  0
LINE
  5
1259
330
18
100
AcDbEntity
  8
外形線
100
AcDbLine
 10
403.9347175290536
 20
281.8716799057975
 30
0.0
 11
403.9347175290536
 21
275.8716799057975
 31
0.0
  0
ARC
  5
125A
330
18
100
AcDbEntity
  8
外形線
100
AcDbCircle
 10
398.7385651063473
 20
278.8716799057975
 30
0.0
 40
6.0
100
AcDbArc
 50
330.0
 51
30.0
  0
LINE
  5
12CA
330
18
100
AcDbEntity
  8
外形線
100
AcDbLine
 10
392.7385651063474
 20
294.3079379372047
 30
0.0
 11
392.7385651063474
 21
291.1579379372048
 31
0.0
  0
LINE
  5
12CC
330
18
100
AcDbEntity
  8
外形線
100
AcDbLine
 10
392.5385651063473
 20
294.5079379372047
 30
0.0
 11
357.9385651063475
 21
294.5079379372049
 31
0.0
  0
LINE
  5
12CD
330
18
100
AcDbEntity
  8
外形線
100
AcDbLine
 10
392.3885651063473
 20
290.8079379372047
 30
0.0
 11
358.0885651063475
 21
290.8079379372048
 31
0.0
  0
LINE
  5
12CE
330
18
100
AcDbEntity
  8
外形線
100
AcDbLine
 10
392.3885651063474
 20
289.8079379372047
 30
0.0
 11
358.0885651063474
 21
289.8079379372047
 31
0.0
  0
LINE
  5
12CF
330
18
100
AcDbEntity
  8
外形線
 48
0.5
100
AcDbLine
 10
392.5385651063473
 20
294.5079379372048
 30
0.0
 11
392.7385651063474
 21
294.3079379372047
 31
0.0
  0
LINE
  5
12D0
330
18
100
AcDbEntity
  8
外形線
100
AcDbLine
 10
392.7385651063474
 20
291.1579379372048
 30
0.0
 11
392.3885651063474
 21
290.8079379372048
 31
0.0
  0
LINE
  5
12EF
330
18
100
AcDbEntity
  8
外形線
100
AcDbLine
 10
357.7385651063473
 20
291.1579379372048
 30
0.0
 11
358.0885651063474
 21
290.8079379372048
 31
0.0
  0
LINE
  5
12F0
330
18
100
AcDbEntity
  8
外形線
 48
0.5
100
AcDbLine
 10
357.9385651063474
 20
294.5079379372048
 30
0.0
 11
357.7385651063473
 21
294.3079379372047
 31
0.0
  0
LINE
  5
12F1
330
18
100
AcDbEntity
  8
外形線
100
AcDbLine
 10
357.7385651063473
 20
294.3079379372047
 30
0.0
 11
357.7385651063473
 21
291.1579379372048
 31
0.0
  0
LINE
  5
12F5
330
18
100
AcDbEntity
  8
外形線
100
AcDbLine
 10
391.7385651063473
 20
295.0079379372048
 30
0.0
 11
358.7385651063473
 21
295.0079379372048
 31
0.0
  0
LINE
  5
12FF
330
18
100
AcDbEntity
  8
外形線
100
AcDbLine
 10
392.3885651063473
 20
290.8079379372048
 30
0.0
 11
392.3885651063474
 21
289.8079379372047
 31
0.0
  0
LINE
  5
1300
330
18
100
AcDbEntity
  8
外形線
100
AcDbLine
 10
358.0885651063474
 20
290.8079379372048
 30
0.0
 11
358.0885651063474
 21
289.8079379372047
 31
0.0
  0
LINE
  5
1308
330
18
100
AcDbEntity
  8
外形線
100
AcDbLine
 10
391.7385651063473
 20
295.0079379372048
 30
0.0
 11
392.2385651063473
 21
294.5079379372047
 31
0.0
  0
LINE
  5
1309
330
18
100
AcDbEntity
  8
外形線
100
AcDbLine
 10
358.7385651063473
 20
295.0079379372048
 30
0.0
 11
358.2385651063473
 21
294.5079379372047
 31
0.0
  0
LINE
  5
1312
330
18
100
AcDbEntity
  8
外形線
100
AcDbLine
 10
392.0385651063473
 20
294.5079379372046
 30
0.0
 11
392.0385651063473
 21
290.8079379372048
 31
0.0
  0
LINE
  5
1313
330
18
100
AcDbEntity
  8
外形線
100
AcDbLine
 10
391.3385651063474
 20
294.5079379372046
 30
0.0
 11
391.3385651063474
 21
290.8079379372048
 31
0.0
  0
LINE
  5
1314
330
18
100
AcDbEntity
  8
外形線
100
AcDbLine
 10
390.5385651063473
 20
294.5079379372046
 30
0.0
 11
390.5385651063473
 21
290.8079379372048
 31
0.0
  0
LINE
  5
1315
330
18
100
AcDbEntity
  8
外形線
100
AcDbLine
 10
389.7385651063473
 20
294.5079379372046
 30
0.0
 11
389.7385651063473
 21
290.8079379372048
 31
0.0
  0
LINE
  5
1316
330
18
100
AcDbEntity
  8
外形線
100
AcDbLine
 10
388.8385651063473
 20
294.5079379372046
 30
0.0
 11
388.8385651063473
 21
290.8079379372048
 31
0.0
  0
LINE
  5
1328
330
18
100
AcDbEntity
  8
外形線
100
AcDbLine
 10
375.9385651063474
 20
294.5079379372048
 30
0.0
 11
375.9385651063474
 21
290.8079379372048
 31
0.0
  0
LINE
  5
1329
330
18
100
AcDbEntity
  8
外形線
100
AcDbLine
 10
374.5385651063473
 20
294.5079379372048
 30
0.0
 11
374.5385651063473
 21
290.8079379372048
 31
0.0
  0
LINE
  5
132A
330
18
100
AcDbEntity
  8
外形線
100
AcDbLine
 10
376.7385651063473
 20
294.5079379372048
 30
0.0
 11
376.7385651063473
 21
290.8079379372048
 31
0.0
  0
LINE
  5
132B
330
18
100
AcDbEntity
  8
外形線
100
AcDbLine
 10
373.7385651063473
 20
294.5079379372048
 30
0.0
 11
373.7385651063473
 21
290.8079379372048
 31
0.0
  0
LINE
  5
132C
330
18
100
AcDbEntity
  8
外形線
100
AcDbLine
 10
375.2385651063473
 20
294.5079379372048
 30
0.0
 11
375.2385651063473
 21
290.8079379372048
 31
0.0
  0
LINE
  5
132D
330
18
100
AcDbEntity
  8
外形線
100
AcDbLine
 10
361.6385651063473
 20
294.5079379372046
 30
0.0
 11
361.6385651063473
 21
290.8079379372048
 31
0.0
  0
LINE
  5
132E
330
18
100
AcDbEntity
  8
外形線
100
AcDbLine
 10
360.7385651063473
 20
294.5079379372046
 30
0.0
 11
360.7385651063473
 21
290.8079379372048
 31
0.0
  0
LINE
  5
132F
330
18
100
AcDbEntity
  8
外形線
100
AcDbLine
 10
359.9385651063474
 20
294.5079379372046
 30
0.0
 11
359.9385651063474
 21
290.8079379372048
 31
0.0
  0
LINE
  5
1330
330
18
100
AcDbEntity
  8
外形線
100
AcDbLine
 10
359.1385651063474
 20
294.5079379372046
 30
0.0
 11
359.1385651063474
 21
290.8079379372048
 31
0.0
  0
LINE
  5
1331
330
18
100
AcDbEntity
  8
外形線
100
AcDbLine
 10
358.4385651063474
 20
294.5079379372046
 30
0.0
 11
358.4385651063474
 21
290.8079379372048
 31
0.0
  0
LINE
  5
1336
330
18
100
AcDbEntity
  8
外形線
100
AcDbLine
 10
390.2385651063473
 20
289.8079379372047
 30
0.0
 11
390.2385651063473
 21
289.3716799057972
 31
0.0
  0
LINE
  5
1339
330
18
100
AcDbEntity
  8
外形線
100
AcDbLine
 10
360.2385651063473
 20
289.8079379372047
 30
0.0
 11
360.2385651063473
 21
289.3716799057974
 31
0.0
  0
ARC
  5
133C
330
18
100
AcDbEntity
  8
外形線
100
AcDbCircle
 10
375.2385651063473
 20
234.9926483212205
 30
0.0
 40
62.37903158457704
100
AcDbArc
 50
76.4545064755762
 51
103.5454935244236
  0
LINE
  5
1343
330
18
100
AcDbEntity
  8
外形線
100
AcDbLine
 10
390.2317087317901
 20
295.150468575094
 30
0.0
 11
390.2317087317901
 21
295.0079379372048
 31
0.0
  0
ARC
  5
1345
330
18
100
AcDbEntity
  8
外形線
100
AcDbCircle
 10
389.7317087317901
 20
295.150468575094
 30
0.0
 40
0.5
100
AcDbArc
 50
359.9999999999935
 51
76.45450647557509
  0
ARC
  5
1346
330
18
100
AcDbEntity
  8
外形線
100
AcDbCircle
 10
360.7454214809046
 20
295.150468575094
 30
0.0
 40
0.5
100
AcDbArc
 50
103.5454935244249
 51
180.0000000000065
  0
LINE
  5
1347
330
18
100
AcDbEntity
  8
外形線
100
AcDbLine
 10
360.2454214809045
 20
295.150468575094
 30
0.0
 11
360.2454214809045
 21
295.0079379372048
 31
0.0
  0
POINT
  5
14D3
330
18
100
AcDbEntity
  8
DEFPOINTS
  6
ByBlock
 62
     0
100
AcDbPoint
 10
367.3885651063472
 20
244.3716799057975
 30
0.0
  0
POINT
  5
14D4
330
18
100
AcDbEntity
  8
DEFPOINTS
  6
ByBlock
 62
     0
100
AcDbPoint
 10
367.3885651063472
 20
244.3716799057975
 30
0.0
  0
CIRCLE
  5
14E2
102
{ACAD_REACTORS
330
14E5
102
}
330
18
100
AcDbEntity
  8
外形線
100
AcDbCircle
 10
362.4536705445708
 20
262.4042544699245
 30
0.0
 40
0.222687898198611
  0
HATCH
  5
14E5
330
18
100
AcDbEntity
  8
外形線
100
AcDbHatch
 10
0.0
 20
0.0
 30
0.0
210
0.0
220
0.0
230
1.0
  2
SOLID
 70
     1
 71
     1
 91
        1
 92
        7
 72
     1
 73
     1
 93
        2
 10
362.6763584427695
 20
262.4042544699245
 42
1.0
 10
362.2309826463723
 20
262.4042544699245
 42
1.0
 97
        1
330
14E2
 75
     0
 76
     1
 47
0.0124670341605454
 98
        1
 10
362.5116478459174
 20
262.3810825298333
450
        0
451
        0
460
0.0
461
0.0
452
        0
462
0.0
453
        0
470

  0
TEXT
  5
14EC
330
18
100
AcDbEntity
  8
寸法線
 62
     6
100
AcDbText
 10
383.1842099256696
 20
245.9552006650714
 30
0.0
 40
2.5
  1
B
  7
STYLE3
100
AcDbText
  0
CIRCLE
  5
14EE
102
{ACAD_REACTORS
330
14F1
102
}
330
18
100
AcDbEntity
  8
外形線
100
AcDbCircle
 10
377.9648320126199
 20
251.8965323980797
 30
0.0
 40
0.222687898198611
  0
HATCH
  5
14F1
330
18
100
AcDbEntity
  8
外形線
100
AcDbHatch
 10
0.0
 20
0.0
 30
0.0
210
0.0
220
0.0
230
1.0
  2
SOLID
 70
     1
 71
     1
 91
        1
 92
        7
 72
     1
 73
     1
 93
        2
 10
378.1875199108185
 20
251.8965323980797
 42
1.0
 10
377.7421441144213
 20
251.8965323980797
 42
1.0
 97
        1
330
14EE
 75
     0
 76
     1
 47
0.0200805185115556
 98
        1
 10
378.0893481160355
 20
251.7797459701015
450
        0
451
        0
460
0.0
461
0.0
452
        0
462
0.0
453
        0
470

  0
LINE
  5
157C
330
18
100
AcDbEntity
  8
外形線
100
AcDbLine
 10
462.7005007559133
 20
253.6161077760326
 30
0.0
 11
475.5808940758251
 21
253.6161077760326
 31
0.0
  0
LINE
  5
157F
330
18
100
AcDbEntity
  8
外形線
100
AcDbLine
 10
451.9057566442389
 20
256.9161077760327
 30
0.0
 11
464.6057566442388
 21
256.9161077760327
 31
0.0
  0
LINE
  5
1584
330
18
100
AcDbEntity
  8
外形線
100
AcDbLine
 10
462.7005007559133
 20
253.6161077760326
 30
0.0
 11
464.6057566442388
 21
256.9161077760327
 31
0.0
  0
LINE
  5
1585
330
18
100
AcDbEntity
  8
外形線
100
AcDbLine
 10
453.8110125325647
 20
253.6161077760326
 30
0.0
 11
451.9057566442389
 21
256.9161077760327
 31
0.0
  0
LINE
  5
1586
330
18
100
AcDbEntity
  8
外形線
100
AcDbLine
 10
453.8110125325647
 20
253.6161077760326
 30
0.0
 11
440.9306192126527
 21
253.6161077760326
 31
0.0
  0
CIRCLE
  5
1588
330
18
100
AcDbEntity
  8
外形線
100
AcDbCircle
 10
451.2157566442389
 20
255.1161077760327
 30
0.0
 40
1.5
  0
CIRCLE
  5
1589
330
18
100
AcDbEntity
  8
外形線
100
AcDbCircle
 10
465.2957566442388
 20
255.1161077760327
 30
0.0
 40
1.5
  0
LINE
  5
158C
330
18
100
AcDbEntity
  8
中心線
100
AcDbLine
 10
448.2789511396898
 20
255.1161077760327
 30
0.0
 11
454.3560153202016
 21
255.1161077760327
 31
0.0
  0
LINE
  5
158D
330
18
100
AcDbEntity
  8
中心線
100
AcDbLine
 10
465.2957566442388
 20
258.5325298901742
 30
0.0
 11
465.2957566442388
 21
251.3918802063423
 31
0.0
  0
LINE
  5
158E
330
18
100
AcDbEntity
  8
中心線
100
AcDbLine
 10
451.2157566442389
 20
258.5325298901742
 30
0.0
 11
451.2157566442389
 21
251.3918802063423
 31
0.0
  0
LINE
  5
1591
330
18
100
AcDbEntity
  8
中心線
100
AcDbLine
 10
462.3872783621325
 20
255.1161077760327
 30
0.0
 11
468.6204983044174
 21
255.1161077760327
 31
0.0
  0
LINE
  5
15A3
330
18
100
AcDbEntity
  8
寸法線
100
AcDbLine
 10
440.9306192126527
 20
251.4473516417912
 30
0.0
 11
443.0993753468944
 21
253.6161077760326
 31
0.0
  0
LINE
  5
15A4
330
18
100
AcDbEntity
  8
寸法線
100
AcDbLine
 10
440.9306192126527
 20
246.9572235812566
 30
0.0
 11
447.589503407429
 21
253.6161077760326
 31
0.0
  0
LINE
  5
15A5
330
18
100
AcDbEntity
  8
寸法線
100
AcDbLine
 10
443.9853045457669
 20
245.5217808538362
 30
0.0
 11
452.0796314679635
 21
253.6161077760326
 31
0.0
  0
LINE
  5
15A6
330
18
100
AcDbEntity
  8
寸法線
100
AcDbLine
 10
453.1772830792894
 20
254.7137593873586
 30
0.0
 11
455.3796314679636
 21
256.9161077760327
 31
0.0
  0
LINE
  5
15A7
330
18
100
AcDbEntity
  8
寸法線
100
AcDbLine
 10
448.4754326063015
 20
245.5217808538361
 30
0.0
 11
459.8697595284983
 21
256.9161077760329
 31
0.0
  0
LINE
  5
15A8
330
18
100
AcDbEntity
  8
寸法線
100
AcDbLine
 10
452.965560666836
 20
245.5217808538361
 30
0.0
 11
464.3598875890328
 21
256.9161077760329
 31
0.0
  0
LINE
  5
15A9
330
18
100
AcDbEntity
  8
寸法線
100
AcDbLine
 10
457.4556887273707
 20
245.5217808538361
 30
0.0
 11
465.5500156495673
 21
253.6161077760328
 31
0.0
  0
LINE
  5
15AA
330
18
100
AcDbEntity
  8
寸法線
100
AcDbLine
 10
461.9458167879053
 20
245.5217808538361
 30
0.0
 11
470.0401437101017
 21
253.6161077760326
 31
0.0
  0
LINE
  5
15AB
330
18
100
AcDbEntity
  8
寸法線
100
AcDbLine
 10
466.4359448484398
 20
245.5217808538361
 30
0.0
 11
474.5302717706364
 21
253.6161077760326
 31
0.0
  0
LINE
  5
15AC
330
18
100
AcDbEntity
  8
寸法線
100
AcDbLine
 10
470.9260729089745
 20
245.5217808538362
 30
0.0
 11
475.5808940758251
 21
250.1766020206869
 31
0.0
  0
LINE
  5
1634
330
18
100
AcDbEntity
  8
0
  6
ByBlock
 62
     2
100
AcDbLine
 10
464.6057566442388
 20
256.9161077760327
 30
0.0
 11
476.2256503532412
 21
277.0423540585753
 31
0.0
  0
LINE
  5
1635
330
18
100
AcDbEntity
  8
0
  6
ByBlock
 62
     2
100
AcDbLine
 10
451.9057566442389
 20
256.9161077760327
 30
0.0
 11
440.2858629352365
 21
277.0423540585751
 31
0.0
  0
ARC
  5
1636
330
18
100
AcDbEntity
  8
0
  6
ByBlock
 62
     2
100
AcDbCircle
 10
458.2557566442391
 20
245.9175851479699
 30
0.0
 40
34.6897874180055
100
AcDbArc
 50
64.13004734756666
 51
115.869952652434
  0
INSERT
  5
1637
330
18
100
AcDbEntity
  8
0
  6
ByBlock
 62
     2
100
AcDbBlockReference
  2
_OPEN
 10
475.6006503532411
 20
275.9598223038448
 30
0.0
 41
2.5
 42
2.5
 43
2.5
 50
332.0650236737839
  0
INSERT
  5
1638
330
18
100
AcDbEntity
  8
0
  6
ByBlock
 62
     2
100
AcDbBlockReference
  2
_OPEN
 10
440.9108629352366
 20
275.9598223038446
 30
0.0
 41
2.5
 42
2.5
 43
2.5
 50
207.9349763262168
  0
MTEXT
  5
1639
330
18
100
AcDbEntity
  8
0
  6
ByBlock
 62
     6
100
AcDbMText
 10
459.7502177424622
 20
282.4823725659754
 30
0.0
 40
2.5
 41
0.0
 71
     5
 72
     1
  1
\A1;60°
  7
STYLE3
 73
     1
 44
1.0
  0
POINT
  5
163A
330
18
100
AcDbEntity
  8
DEFPOINTS
  6
ByBlock
 62
     0
100
AcDbPoint
 10
464.2795750130286
 20
280.0803567475671
 30
0.0
  0
POINT
  5
163B
330
18
100
AcDbEntity
  8
DEFPOINTS
  6
ByBlock
 62
     0
100
AcDbPoint
 10
453.8110125325647
 20
253.6161077760326
 30
0.0
  0
POINT
  5
163C
330
18
100
AcDbEntity
  8
DEFPOINTS
  6
ByBlock
 62
     0
100
AcDbPoint
 10
462.7005007559133
 20
253.6161077760326
 30
0.0
  0
POINT
  5
163D
330
18
100
AcDbEntity
  8
DEFPOINTS
  6
ByBlock
 62
     0
100
AcDbPoint
 10
464.6057566442388
 20
256.9161077760327
 30
0.0
  0
POINT
  5
163E
330
18
100
AcDbEntity
  8
DEFPOINTS
  6
ByBlock
 62
     0
100
AcDbPoint
 10
451.9057566442389
 20
256.9161077760327
 30
0.0
  0
LINE
  5
164E
330
18
100
AcDbEntity
  8
0
  6
ByBlock
 62
     2
100
AcDbLine
 10
448.9833616939517
 20
261.9778443097134
 30
0.0
 11
440.2858629352365
 21
277.0423540585752
 31
0.0
  0
LINE
  5
164F
330
18
100
AcDbEntity
  8
0
  6
ByBlock
 62
     2
100
AcDbLine
 10
449.9167185385622
 20
254.3661077760327
 30
0.0
 11
437.6899019661538
 21
275.5435752942695
 31
0.0
  0
LINE
  5
1651
330
18
100
AcDbEntity
  8
0
  6
ByBlock
 62
     2
100
AcDbLine
 10
436.1498384566926
 20
273.211043539539
 30
0.0
 11
433.9847749472315
 21
271.9610435395389
 31
0.0
  0
LINE
  5
1652
330
18
100
AcDbEntity
  8
0
  6
ByBlock
 62
     2
100
AcDbLine
 10
440.9108629352366
 20
275.9598223038446
 30
0.0
 11
438.3149019661537
 21
274.4610435395389
 31
0.0
  0
INSERT
  5
1654
330
18
100
AcDbEntity
  8
0
  6
ByBlock
 62
     2
100
AcDbBlockReference
  2
_OPEN
 10
438.3149019661537
 20
274.4610435395389
 30
0.0
 41
2.5
 42
2.5
 43
2.5
 50
29.99999999999952
  0
MTEXT
  5
1655
330
18
100
AcDbEntity
  8
0
  6
ByBlock
 62
     6
100
AcDbMText
 10
436.3666305420625
 20
276.8342305537875
 30
0.0
 40
2.5
 41
0.0
 71
     5
 72
     1
  1
φ1.5
  7
STYLE3
 11
0.8660254037844429
 21
0.4999999999999928
 31
0.0
 73
     1
 44
1.0
  0
POINT
  5
1656
330
18
100
AcDbEntity
  8
DEFPOINTS
  6
ByBlock
 62
     0
100
AcDbPoint
 10
448.9833616939517
 20
261.9778443097134
 30
0.0
 50
60.0000000000005
  0
POINT
  5
1657
330
18
100
AcDbEntity
  8
DEFPOINTS
  6
ByBlock
 62
     0
100
AcDbPoint
 10
449.9167185385622
 20
254.3661077760327
 30
0.0
 50
60.0000000000005
  0
POINT
  5
1658
330
18
100
AcDbEntity
  8
DEFPOINTS
  6
ByBlock
 62
     0
100
AcDbPoint
 10
438.3149019661537
 20
274.4610435395389
 30
0.0
 50
60.0000000000005
  0
LINE
  5
1664
330
18
100
AcDbEntity
  8
0
  6
ByBlock
 62
     2
100
AcDbLine
 10
464.6057566442388
 20
256.9161077760327
 30
0.0
 11
482.3619063979648
 21
256.9161077760327
 31
0.0
  0
LINE
  5
1665
330
18
100
AcDbEntity
  8
0
  6
ByBlock
 62
     2
100
AcDbLine
 10
475.5808940758251
 20
253.6161077760326
 30
0.0
 11
482.3619063979648
 21
253.6161077760326
 31
0.0
  0
LINE
  5
1666
330
18
100
AcDbEntity
  8
0
  6
ByBlock
 62
     2
100
AcDbLine
 10
481.111906397965
 20
259.4161077760327
 30
0.0
 11
481.111906397965
 21
261.9161077760327
 31
0.0
  0
LINE
  5
1667
330
18
100
AcDbEntity
  8
0
  6
ByBlock
 62
     2
100
AcDbLine
 10
481.111906397965
 20
251.1161077760327
 30
0.0
 11
481.111906397965
 21
242.743175734037
 31
0.0
  0
LINE
  5
1668
330
18
100
AcDbEntity
  8
0
  6
ByBlock
 62
     2
100
AcDbLine
 10
481.111906397965
 20
256.9161077760327
 30
0.0
 11
481.111906397965
 21
253.6161077760326
 31
0.0
  0
INSERT
  5
1669
330
18
100
AcDbEntity
  8
0
  6
ByBlock
 62
     2
100
AcDbBlockReference
  2
_OPEN
 10
481.111906397965
 20
256.9161077760327
 30
0.0
 41
2.5
 42
2.5
 43
2.5
 50
270.0
  0
INSERT
  5
166A
330
18
100
AcDbEntity
  8
0
  6
ByBlock
 62
     2
100
AcDbBlockReference
  2
_OPEN
 10
481.111906397965
 20
253.6161077760326
 30
0.0
 41
2.5
 42
2.5
 43
2.5
 50
90.0
  0
MTEXT
  5
166B
330
18
100
AcDbEntity
  8
0
  6
ByBlock
 62
     6
100
AcDbMText
 10
479.2369063979648
 20
246.603282457254
 30
0.0
 40
2.5
 41
0.0
 71
     5
 72
     1
  1
\A1;1.65
  7
STYLE3
 11
0.0000000000000001
 21
1.0
 31
0.0
 73
     1
 44
1.0
  0
POINT
  5
166C
330
18
100
AcDbEntity
  8
DEFPOINTS
  6
ByBlock
 62
     0
100
AcDbPoint
 10
464.6057566442388
 20
256.9161077760327
 30
0.0
  0
POINT
  5
166D
330
18
100
AcDbEntity
  8
DEFPOINTS
  6
ByBlock
 62
     0
100
AcDbPoint
 10
475.5808940758251
 20
253.6161077760326
 30
0.0
  0
POINT
  5
166E
330
18
100
AcDbEntity
  8
DEFPOINTS
  6
ByBlock
 62
     0
100
AcDbPoint
 10
481.111906397965
 20
253.6161077760326
 30
0.0
  0
TEXT
  5
166F
330
18
100
AcDbEntity
  8
文字
100
AcDbText
 10
436.3795971555224
 20
232.0503271153699
 30
0.0
 40
4.0
  1
A.B.C 断面図 
  7
STYLE3
100
AcDbText
  0
TEXT
  5
1670
330
18
100
AcDbEntity
  8
文字
100
AcDbText
 10
470.5223440584521
 20
232.1625514912489
 30
0.0
 40
3.0
  1
S=2／1
  7
STYLE3
100
AcDbText
  0
LINE
  5
1671
330
18
100
AcDbEntity
  8
外形線
100
AcDbLine
 10
436.0426618182938
 20
231.3769808600963
 30
0.0
 11
485.9090423900616
 21
231.3769808600963
 31
0.0
  0
LINE
  5
1700
330
18
100
AcDbEntity
  8
中心線
 48
0.5
100
AcDbLine
 10
367.3885651063472
 20
249.3836483466194
 30
0.0
 11
367.3885651063472
 21
224.0956846225103
 31
0.0
  0
LINE
  5
1715
330
18
100
AcDbEntity
  8
外形線
100
AcDbLine
 10
360.7385651063473
 20
288.8716799057974
 30
0.0
 11
389.7385651063473
 21
288.8716799057972
 31
0.0
  0
ARC
  5
1717
330
18
100
AcDbEntity
  8
外形線
100
AcDbCircle
 10
367.3885651063472
 20
244.3716799057974
 30
0.0
 40
4.0
100
AcDbArc
 50
180.0
 51
332.6209851501372
  0
LINE
  5
1718
330
18
100
AcDbEntity
  8
外形線
100
AcDbLine
 10
361.7385651063472
 20
288.7716799057973
 30
0.0
 11
361.7385651063472
 21
250.3739972623938
 31
0.0
  0
LINE
  5
171A
330
18
100
AcDbEntity
  8
外形線
100
AcDbLine
 10
375.5970336293017
 20
247.0949741110621
 30
0.0
 11
373.9661867833635
 21
247.4714847723866
 31
0.0
  0
LINE
  5
171B
330
18
100
AcDbEntity
  8
外形線
100
AcDbLine
 10
363.3885651063472
 20
288.8716799057973
 30
0.0
 11
363.3885651063472
 21
244.3716799057974
 31
0.0
  0
LINE
  5
171E
330
18
100
AcDbEntity
  8
外形線
100
AcDbLine
 10
388.7385651063473
 20
288.7716799057972
 30
0.0
 11
388.7385651063473
 21
271.1409064172911
 31
0.0
  0
LINE
  5
1720
330
18
100
AcDbEntity
  8
外形線
100
AcDbLine
 10
387.0885651063473
 20
288.8716799057973
 30
0.0
 11
387.0885651063474
 21
265.3866725849535
 31
0.0
  0
LINE
  5
1721
330
18
100
AcDbEntity
  8
外形線
100
AcDbLine
 10
388.7233699159629
 20
271.0879144908678
 30
0.0
 11
371.5742758358246
 21
243.643627092649
 31
0.0
  0
LINE
  5
1722
330
18
100
AcDbEntity
  8
外形線
100
AcDbLine
 10
387.073369915963
 20
265.3336806585302
 30
0.0
 11
375.7043335443516
 21
247.1394191911173
 31
0.0
  0
LINE
  5
1723
330
18
100
AcDbEntity
  8
外形線
100
AcDbLine
 10
370.9405006197094
 20
242.5321815750245
 30
0.0
 11
371.5742758358248
 21
243.6436270926494
 31
0.0
  0
LINE
  5
1725
330
18
100
AcDbEntity
  8
外形線
100
AcDbLine
 10
363.3885651063472
 20
249.9135211553699
 30
0.0
 11
361.8160700009128
 21
250.2765602559153
 31
0.0
  0
ARC
  5
173A
330
18
100
AcDbEntity
  8
外形線
100
AcDbCircle
 10
388.6385651063473
 20
288.7716799057972
 30
0.0
 40
0.1
100
AcDbArc
 50
0.0
 51
89.99999999999987
  0
ARC
  5
173B
330
18
100
AcDbEntity
  8
外形線
100
AcDbCircle
 10
388.6385651063473
 20
271.1409064172911
 30
0.0
 40
0.1
100
AcDbArc
 50
328.0000000000001
 51
359.9999999999998
  0
ARC
  5
173C
330
18
100
AcDbEntity
  8
外形線
100
AcDbCircle
 10
386.9885651063473
 20
265.3866725849535
 30
0.0
 40
0.1
100
AcDbArc
 50
327.9999999999997
 51
0.0
  0
ARC
  5
173D
330
18
100
AcDbEntity
  8
外形線
100
AcDbCircle
 10
375.619528734736
 20
247.1924111175407
 30
0.0
 40
0.1
100
AcDbArc
 50
257.0000000000014
 51
327.9999999999998
  0
ARC
  5
173E
330
18
100
AcDbEntity
  8
外形線
100
AcDbCircle
 10
361.8385651063472
 20
250.3739972623938
 30
0.0
 40
0.1
100
AcDbArc
 50
179.9999999999999
 51
256.9999999999995
  0
ARC
  5
173F
330
18
100
AcDbEntity
  8
外形線
100
AcDbCircle
 10
361.8385651063473
 20
288.7716799057973
 30
0.0
 40
0.1
100
AcDbArc
 50
89.99999999999976
 51
179.9999999999998
  0
LINE
  5
1741
330
18
100
AcDbEntity
  8
外形線
100
AcDbLine
 10
374.8068671431818
 20
248.8168545800909
 30
0.0
 11
363.3885651063471
 21
251.45297731706
 31
0.0
  0
LINE
  5
1742
330
18
100
AcDbEntity
  8
中心線
 48
0.5
100
AcDbLine
 10
365.6385651063473
 20
284.5934765932418
 30
0.0
 11
365.6385651063473
 21
279.2116526242041
 31
0.0
  0
LINE
  5
1743
330
18
100
AcDbEntity
  8
中心線
 48
0.5
100
AcDbLine
 10
362.8377652178321
 20
281.8716799057975
 30
0.0
 11
368.3228990198139
 21
281.8716799057975
 31
0.0
  0
CIRCLE
  5
1744
330
18
100
AcDbEntity
  8
外形線
100
AcDbCircle
 10
365.6385651063473
 20
281.8716799057974
 30
0.0
 40
1.5
  0
LINE
  5
1745
330
18
100
AcDbEntity
  8
外形線
100
AcDbLine
 10
364.9947902213654
 20
281.331488637248
 30
0.0
 11
366.2823399913289
 21
282.4118711743469
 31
0.0
  0
LINE
  5
1746
330
18
100
AcDbEntity
  8
外形線
100
AcDbLine
 10
366.1787563748966
 20
281.2279050208156
 30
0.0
 11
365.0983738377977
 21
282.5154547907793
 31
0.0
  0
LINE
  5
1758
330
18
100
AcDbEntity
  8
中心線
 48
0.5
100
AcDbLine
 10
365.6385651063471
 20
256.5934765932417
 30
0.0
 11
365.6385651063471
 21
251.2116526242041
 31
0.0
  0
CIRCLE
  5
1759
330
18
100
AcDbEntity
  8
外形線
100
AcDbCircle
 10
365.6385651063471
 20
253.8716799057974
 30
0.0
 40
1.5
  0
LINE
  5
175A
330
18
100
AcDbEntity
  8
中心線
 48
0.5
100
AcDbLine
 10
362.8377652178321
 20
253.8716799057975
 30
0.0
 11
368.3228990198137
 21
253.8716799057975
 31
0.0
  0
LINE
  5
175B
330
18
100
AcDbEntity
  8
外形線
100
AcDbLine
 10
366.1787563748965
 20
253.2279050208156
 30
0.0
 11
365.0983738377976
 21
254.5154547907793
 31
0.0
  0
LINE
  5
175C
330
18
100
AcDbEntity
  8
外形線
100
AcDbLine
 10
364.9947902213652
 20
253.331488637248
 30
0.0
 11
366.2823399913289
 21
254.4118711743469
 31
0.0
  0
LINE
  5
175F
330
18
100
AcDbEntity
  8
中心線
 48
0.5
100
AcDbLine
 10
384.8885651063473
 20
287.5934765932417
 30
0.0
 11
384.8885651063473
 21
282.2116526242039
 31
0.0
  0
CIRCLE
  5
1760
330
18
100
AcDbEntity
  8
外形線
100
AcDbCircle
 10
384.8885651063473
 20
284.8716799057972
 30
0.0
 40
1.5
  0
LINE
  5
1761
330
18
100
AcDbEntity
  8
中心線
 48
0.5
100
AcDbLine
 10
382.0877652178321
 20
284.8716799057973
 30
0.0
 11
387.5728990198139
 21
284.8716799057973
 31
0.0
  0
LINE
  5
1762
330
18
100
AcDbEntity
  8
外形線
100
AcDbLine
 10
385.4287563748967
 20
284.2279050208155
 30
0.0
 11
384.3483738377978
 21
285.5154547907791
 31
0.0
  0
LINE
  5
1763
330
18
100
AcDbEntity
  8
外形線
100
AcDbLine
 10
384.2447902213653
 20
284.3314886372478
 30
0.0
 11
385.5323399913292
 21
285.4118711743467
 31
0.0
  0
LINE
  5
1793
330
18
100
AcDbEntity
  8
中心線
 48
0.5
100
AcDbLine
 10
381.1385651063471
 20
265.5934765932416
 30
0.0
 11
381.1385651063471
 21
260.211652624204
 31
0.0
  0
LINE
  5
1794
330
18
100
AcDbEntity
  8
中心線
 48
0.5
100
AcDbLine
 10
378.337765217832
 20
262.8716799057973
 30
0.0
 11
383.8228990198137
 21
262.8716799057973
 31
0.0
  0
CIRCLE
  5
1795
330
18
100
AcDbEntity
  8
外形線
100
AcDbCircle
 10
381.1385651063471
 20
262.8716799057973
 30
0.0
 40
1.5
  0
LINE
  5
1796
330
18
100
AcDbEntity
  8
外形線
100
AcDbLine
 10
380.4947902213653
 20
262.3314886372479
 30
0.0
 11
381.7823399913289
 21
263.4118711743468
 31
0.0
  0
LINE
  5
1797
330
18
100
AcDbEntity
  8
外形線
100
AcDbLine
 10
381.6787563748965
 20
262.2279050208155
 30
0.0
 11
380.5983738377976
 21
263.5154547907792
 31
0.0
  0
LINE
  5
17C6
330
18
100
AcDbEntity
  8
中心線
 48
0.5
100
AcDbLine
 10
375.2385651063473
 20
284.4861513709578
 30
0.0
 11
375.2385651063473
 21
300.8379758580682
 31
0.0
  0
LINE
  5
17F3
330
18
100
AcDbEntity
  8
中心線
 48
0.5
100
AcDbLine
 10
381.6420500766193
 20
278.8716799057975
 30
0.0
 11
408.3821953381622
 21
278.8716799057975
 31
0.0
  0
CIRCLE
  5
17F6
330
18
100
AcDbEntity
  8
外形線
100
AcDbCircle
 10
377.9648320126199
 20
251.8965323980797
 30
0.0
 40
0.222687898198611
  0
TEXT
  5
17F9
330
18
100
AcDbEntity
  8
寸法線
 62
     6
100
AcDbText
 10
393.4802234692209
 20
267.8952432733751
 30
0.0
 40
2.5
  1
C
  7
STYLE3
100
AcDbText
  0
HATCH
  5
17FA
330
18
100
AcDbEntity
  8
外形線
100
AcDbHatch
 10
0.0
 20
0.0
 30
0.0
210
0.0
220
0.0
230
1.0
  2
SOLID
 70
     1
 71
     1
 91
        1
 92
        7
 72
     1
 73
     1
 93
        2
 10
388.4835334543698
 20
273.8365750063834
 42
1.0
 10
388.0381576579726
 20
273.8365750063834
 42
1.0
 97
        1
330
17FB
 75
     0
 76
     1
 47
0.0200805185115556
 98
        1
 10
388.3853616595869
 20
273.7197885784052
450
        0
451
        0
460
0.0
461
0.0
452
        0
462
0.0
453
        0
470

  0
CIRCLE
  5
17FB
102
{ACAD_REACTORS
330
17FA
102
}
330
18
100
AcDbEntity
  8
外形線
100
AcDbCircle
 10
388.2608455561712
 20
273.8365750063834
 30
0.0
 40
0.222687898198611
  0
CIRCLE
  5
17FC
330
18
100
AcDbEntity
  8
外形線
100
AcDbCircle
 10
388.2608455561712
 20
273.8365750063834
 30
0.0
 40
0.222687898198611
  0
INSERT
  5
1B90
330
18
100
AcDbEntity
  8
文字
100
AcDbBlockReference
  2
ROGO1
 10
672.0508208725629
 20
502.0409291508207
 30
0.0
  0
INSERT
  5
1B91
330
18
100
AcDbEntity
  8
文字
100
AcDbBlockReference
  2
ROGO1
 10
672.0269440607547
 20
502.0677242768626
 30
0.0
  0
INSERT
  5
1BCE
330
18
100
AcDbEntity
  8
文字
100
AcDbBlockReference
  2
ROGO1
 10
949.9778714937191
 20
509.6781307223478
 30
0.0
  0
INSERT
  5
1BCF
330
18
100
AcDbEntity
  8
文字
100
AcDbBlockReference
  2
ROGO1
 10
949.9539946819114
 20
509.7049258483899
 30
0.0
  0
ARC
  5
1DEC
330
18
100
AcDbEntity
  8
外形線
100
AcDbCircle
 10
360.7385651063473
 20
289.3716799057974
 30
0.0
 40
0.5
100
AcDbArc
 50
180.0
 51
269.9999999999996
  0
ARC
  5
1DED
330
18
100
AcDbEntity
  8
外形線
100
AcDbCircle
 10
389.7385651063473
 20
289.3716799057972
 30
0.0
 40
0.5
100
AcDbArc
 50
269.9999999999996
 51
0.0
  0
LINE
  5
1DEE
330
18
100
AcDbEntity
  8
中心線
 48
0.5
100
AcDbLine
 10
294.8287716641016
 20
300.4384059923276
 30
0.0
 11
294.8287716641016
 21
224.296952490749
 31
0.0
  0
LINE
  5
1DF2
330
18
100
AcDbEntity
  8
外形線
100
AcDbLine
 10
312.3287716641017
 20
291.1579379372048
 30
0.0
 11
311.9787716641017
 21
290.8079379372048
 31
0.0
  0
LINE
  5
1DF3
330
18
100
AcDbEntity
  8
外形線
100
AcDbLine
 10
312.1287716641017
 20
294.5079379372047
 30
0.0
 11
277.5287716641019
 21
294.5079379372049
 31
0.0
  0
LINE
  5
1DF4
330
18
100
AcDbEntity
  8
外形線
100
AcDbLine
 10
280.3287716641017
 20
288.8716799057974
 30
0.0
 11
309.3287716641017
 21
288.8716799057972
 31
0.0
  0
ARC
  5
1DF5
330
18
100
AcDbEntity
  8
外形線
100
AcDbCircle
 10
294.8287716641016
 20
234.9926483212205
 30
0.0
 40
62.37903158457704
100
AcDbArc
 50
76.4545064755762
 51
103.5454935244236
  0
LINE
  5
1DF6
330
18
100
AcDbEntity
  8
外形線
100
AcDbLine
 10
311.3287716641016
 20
295.0079379372048
 30
0.0
 11
278.3287716641017
 21
295.0079379372048
 31
0.0
  0
LINE
  5
1DF7
330
18
100
AcDbEntity
  8
外形線
100
AcDbLine
 10
311.9787716641017
 20
289.8079379372047
 30
0.0
 11
277.6787716641017
 21
289.8079379372047
 31
0.0
  0
LINE
  5
1DF8
330
18
100
AcDbEntity
  8
外形線
100
AcDbLine
 10
311.9787716641017
 20
290.8079379372047
 30
0.0
 11
277.6787716641018
 21
290.8079379372048
 31
0.0
  0
LINE
  5
1DF9
330
18
100
AcDbEntity
  8
外形線
100
AcDbLine
 10
279.8287716641017
 20
289.8079379372047
 30
0.0
 11
279.8287716641017
 21
289.3716799057974
 31
0.0
  0
ARC
  5
1DFA
330
18
100
AcDbEntity
  8
外形線
100
AcDbCircle
 10
280.3287716641017
 20
289.3716799057974
 30
0.0
 40
0.5
100
AcDbArc
 50
180.0
 51
269.9999999999996
  0
LINE
  5
1DFC
330
18
100
AcDbEntity
  8
外形線
100
AcDbLine
 10
278.0287716641017
 20
294.5079379372046
 30
0.0
 11
278.0287716641017
 21
290.8079379372048
 31
0.0
  0
LINE
  5
1DFD
330
18
100
AcDbEntity
  8
外形線
100
AcDbLine
 10
278.3287716641017
 20
295.0079379372048
 30
0.0
 11
277.8287716641017
 21
294.5079379372047
 31
0.0
  0
LINE
  5
1DFE
330
18
100
AcDbEntity
  8
外形線
100
AcDbLine
 10
277.6787716641017
 20
290.8079379372048
 30
0.0
 11
277.6787716641017
 21
289.8079379372047
 31
0.0
  0
LINE
  5
1DFF
330
18
100
AcDbEntity
  8
外形線
100
AcDbLine
 10
277.3287716641017
 20
294.3079379372047
 30
0.0
 11
277.3287716641017
 21
291.1579379372048
 31
0.0
  0
LINE
  5
1E00
330
18
100
AcDbEntity
  8
外形線
 48
0.5
100
AcDbLine
 10
277.5287716641017
 20
294.5079379372048
 30
0.0
 11
277.3287716641017
 21
294.3079379372047
 31
0.0
  0
LINE
  5
1E01
330
18
100
AcDbEntity
  8
外形線
100
AcDbLine
 10
277.3287716641017
 20
291.1579379372048
 30
0.0
 11
277.6787716641017
 21
290.8079379372048
 31
0.0
  0
LINE
  5
1E02
330
18
100
AcDbEntity
  8
外形線
100
AcDbLine
 10
279.8356280386589
 20
295.150468575094
 30
0.0
 11
279.8356280386589
 21
295.0079379372048
 31
0.0
  0
ARC
  5
1E03
330
18
100
AcDbEntity
  8
外形線
100
AcDbCircle
 10
280.3356280386589
 20
295.150468575094
 30
0.0
 40
0.5
100
AcDbArc
 50
103.5454935244249
 51
180.0000000000065
  0
LINE
  5
1E04
330
18
100
AcDbEntity
  8
外形線
100
AcDbLine
 10
278.7287716641017
 20
294.5079379372046
 30
0.0
 11
278.7287716641017
 21
290.8079379372048
 31
0.0
  0
LINE
  5
1E05
330
18
100
AcDbEntity
  8
外形線
100
AcDbLine
 10
279.5287716641017
 20
294.5079379372046
 30
0.0
 11
279.5287716641017
 21
290.8079379372048
 31
0.0
  0
LINE
  5
1E06
330
18
100
AcDbEntity
  8
外形線
100
AcDbLine
 10
280.3287716641017
 20
294.5079379372046
 30
0.0
 11
280.3287716641017
 21
290.8079379372048
 31
0.0
  0
LINE
  5
1E07
330
18
100
AcDbEntity
  8
外形線
100
AcDbLine
 10
281.2287716641017
 20
294.5079379372046
 30
0.0
 11
281.2287716641017
 21
290.8079379372048
 31
0.0
  0
LINE
  5
1E08
330
18
100
AcDbEntity
  8
外形線
100
AcDbLine
 10
309.8287716641017
 20
289.8079379372047
 30
0.0
 11
309.8287716641017
 21
289.3716799057972
 31
0.0
  0
ARC
  5
1E09
330
18
100
AcDbEntity
  8
外形線
100
AcDbCircle
 10
309.3287716641017
 20
289.3716799057972
 30
0.0
 40
0.5
100
AcDbArc
 50
269.9999999999996
 51
0.0
  0
LINE
  5
1E0B
330
18
100
AcDbEntity
  8
外形線
100
AcDbLine
 10
294.8287716641017
 20
294.5079379372048
 30
0.0
 11
294.8287716641017
 21
290.8079379372048
 31
0.0
  0
LINE
  5
1E0C
330
18
100
AcDbEntity
  8
外形線
100
AcDbLine
 10
293.3287716641017
 20
294.5079379372048
 30
0.0
 11
293.3287716641017
 21
290.8079379372048
 31
0.0
  0
LINE
  5
1E0D
330
18
100
AcDbEntity
  8
外形線
100
AcDbLine
 10
296.3287716641017
 20
294.5079379372048
 30
0.0
 11
296.3287716641017
 21
290.8079379372048
 31
0.0
  0
LINE
  5
1E0E
330
18
100
AcDbEntity
  8
外形線
100
AcDbLine
 10
294.1287716641017
 20
294.5079379372048
 30
0.0
 11
294.1287716641017
 21
290.8079379372048
 31
0.0
  0
LINE
  5
1E0F
330
18
100
AcDbEntity
  8
外形線
100
AcDbLine
 10
295.5287716641016
 20
294.5079379372048
 30
0.0
 11
295.5287716641016
 21
290.8079379372048
 31
0.0
  0
ARC
  5
1E10
330
18
100
AcDbEntity
  8
外形線
100
AcDbCircle
 10
309.3219152895445
 20
295.150468575094
 30
0.0
 40
0.5
100
AcDbArc
 50
359.9999999999935
 51
76.45450647557509
  0
LINE
  5
1E11
330
18
100
AcDbEntity
  8
外形線
100
AcDbLine
 10
309.8219152895445
 20
295.150468575094
 30
0.0
 11
309.8219152895445
 21
295.0079379372048
 31
0.0
  0
LINE
  5
1E12
330
18
100
AcDbEntity
  8
外形線
100
AcDbLine
 10
308.4287716641017
 20
294.5079379372046
 30
0.0
 11
308.4287716641017
 21
290.8079379372048
 31
0.0
  0
LINE
  5
1E13
330
18
100
AcDbEntity
  8
外形線
100
AcDbLine
 10
309.3287716641017
 20
294.5079379372046
 30
0.0
 11
309.3287716641017
 21
290.8079379372048
 31
0.0
  0
LINE
  5
1E14
330
18
100
AcDbEntity
  8
外形線
100
AcDbLine
 10
310.1287716641017
 20
294.5079379372046
 30
0.0
 11
310.1287716641016
 21
290.8079379372048
 31
0.0
  0
LINE
  5
1E15
330
18
100
AcDbEntity
  8
外形線
100
AcDbLine
 10
310.9287716641017
 20
294.5079379372046
 30
0.0
 11
310.9287716641017
 21
290.8079379372048
 31
0.0
  0
LINE
  5
1E16
330
18
100
AcDbEntity
  8
外形線
100
AcDbLine
 10
311.6287716641017
 20
294.5079379372046
 30
0.0
 11
311.6287716641017
 21
290.8079379372048
 31
0.0
  0
LINE
  5
1E17
330
18
100
AcDbEntity
  8
外形線
100
AcDbLine
 10
311.3287716641017
 20
295.0079379372048
 30
0.0
 11
311.8287716641017
 21
294.5079379372047
 31
0.0
  0
LINE
  5
1E18
330
18
100
AcDbEntity
  8
外形線
100
AcDbLine
 10
311.9787716641017
 20
290.8079379372048
 30
0.0
 11
311.9787716641017
 21
289.8079379372047
 31
0.0
  0
LINE
  5
1E19
330
18
100
AcDbEntity
  8
外形線
 48
0.5
100
AcDbLine
 10
312.1287716641017
 20
294.5079379372048
 30
0.0
 11
312.3287716641017
 21
294.3079379372047
 31
0.0
  0
LINE
  5
1E1A
330
18
100
AcDbEntity
  8
外形線
100
AcDbLine
 10
312.3287716641017
 20
294.3079379372047
 30
0.0
 11
312.3287716641017
 21
291.1579379372048
 31
0.0
  0
INSERT
  5
21C9
330
18
100
AcDbEntity
  8
文字
100
AcDbBlockReference
  2
ROGO1
 10
640.803414824616
 20
480.7357935989958
 30
0.0
  0
INSERT
  5
21CA
330
18
100
AcDbEntity
  8
文字
100
AcDbBlockReference
  2
ROGO1
 10
640.7795380128082
 20
480.7625887250378
 30
0.0
  0
LINE
  5
21DB
330
18
100
AcDbEntity
  8
外形線
100
AcDbLine
 10
289.8287716641016
 20
246.3716799057975
 30
0.0
 11
289.8287716641016
 21
242.3716799057975
 31
0.0
  0
LINE
  5
21DC
330
18
100
AcDbEntity
  8
外形線
100
AcDbLine
 10
290.3287716641015
 20
247.3716799057975
 30
0.0
 11
290.3287716641015
 21
241.3716799057975
 31
0.0
  0
LINE
  5
21DD
330
18
100
AcDbEntity
  8
外形線
100
AcDbLine
 10
290.3287716641015
 20
242.3716799057975
 30
0.0
 11
289.8287716641016
 21
242.3716799057975
 31
0.0
  0
LINE
  5
21DE
330
18
100
AcDbEntity
  8
外形線
100
AcDbLine
 10
290.8287716641016
 20
241.3716799057975
 30
0.0
 11
290.3287716641015
 21
241.3716799057975
 31
0.0
  0
LINE
  5
21DF
330
18
100
AcDbEntity
  8
外形線
100
AcDbLine
 10
290.3287716641015
 20
246.3716799057975
 30
0.0
 11
289.8287716641016
 21
246.3716799057975
 31
0.0
  0
LINE
  5
21E0
330
18
100
AcDbEntity
  8
外形線
100
AcDbLine
 10
290.8287716641016
 20
247.3716799057975
 30
0.0
 11
290.3287716641015
 21
247.3716799057975
 31
0.0
  0
INSERT
  5
21E1
330
18
100
AcDbEntity
  8
文字
100
AcDbBlockReference
  2
ROGO1
 10
918.7304654457726
 20
488.3729951705229
 30
0.0
  0
INSERT
  5
21E2
330
18
100
AcDbEntity
  8
文字
100
AcDbBlockReference
  2
ROGO1
 10
918.7065886339647
 20
488.399790296565
 30
0.0
  0
LINE
  5
2230
330
18
100
AcDbEntity
  8
外形線
100
AcDbLine
 10
299.3287716641016
 20
247.3716799057975
 30
0.0
 11
299.3287716641016
 21
241.3716799057975
 31
0.0
  0
LINE
  5
2231
330
18
100
AcDbEntity
  8
外形線
100
AcDbLine
 10
299.8287716641016
 20
246.3716799057975
 30
0.0
 11
299.8287716641016
 21
242.3716799057975
 31
0.0
  0
LINE
  5
2232
330
18
100
AcDbEntity
  8
外形線
100
AcDbLine
 10
298.8287716641016
 20
241.3716799057975
 30
0.0
 11
299.3287716641016
 21
241.3716799057975
 31
0.0
  0
LINE
  5
2233
330
18
100
AcDbEntity
  8
外形線
100
AcDbLine
 10
299.3287716641016
 20
242.3716799057975
 30
0.0
 11
299.8287716641016
 21
242.3716799057975
 31
0.0
  0
LINE
  5
2234
330
18
100
AcDbEntity
  8
外形線
100
AcDbLine
 10
298.8287716641016
 20
247.3716799057975
 30
0.0
 11
299.3287716641016
 21
247.3716799057975
 31
0.0
  0
LINE
  5
2235
330
18
100
AcDbEntity
  8
外形線
100
AcDbLine
 10
299.3287716641016
 20
246.3716799057975
 30
0.0
 11
299.8287716641016
 21
246.3716799057975
 31
0.0
  0
LINE
  5
22A7
330
18
100
AcDbEntity
  8
外形線
100
AcDbLine
 10
297.1787716641015
 20
240.3716799057976
 30
0.0
 11
298.8287716641016
 21
240.3716799057975
 31
0.0
  0
LINE
  5
22A8
330
18
100
AcDbEntity
  8
外形線
100
AcDbLine
 10
290.8287716641017
 20
288.8716799057974
 30
0.0
 11
290.8287716641016
 21
240.3716799057975
 31
0.0
  0
LINE
  5
22AA
330
18
100
AcDbEntity
  8
中心線
 48
0.5
100
AcDbLine
 10
286.7007259446737
 20
244.3716799057975
 30
0.0
 11
302.9172477758916
 21
244.3716799057975
 31
0.0
  0
LINE
  5
22AB
330
18
100
AcDbEntity
  8
外形線
100
AcDbLine
 10
297.1787716641015
 20
240.3716799057976
 30
0.0
 11
297.0903979712568
 21
247.8834437975979
 31
0.0
  0
ARC
  5
22AC
330
18
100
AcDbEntity
  8
外形線
100
AcDbCircle
 10
296.0904671682262
 20
247.8716799057975
 30
0.0
 40
1.0
100
AcDbArc
 50
0.6740368979846682
 51
90.0
  0
LINE
  5
22AD
330
18
100
AcDbEntity
  8
外形線
100
AcDbLine
 10
292.4787716641015
 20
240.3716799057976
 30
0.0
 11
292.5671453569462
 21
247.8834437975979
 31
0.0
  0
LINE
  5
22AE
330
18
100
AcDbEntity
  8
外形線
100
AcDbLine
 10
292.4787716641015
 20
240.3716799057976
 30
0.0
 11
290.8287716641016
 21
240.3716799057975
 31
0.0
  0
ARC
  5
22AF
330
18
100
AcDbEntity
  8
外形線
100
AcDbCircle
 10
293.567076159977
 20
247.8716799057975
 30
0.0
 40
1.0
100
AcDbArc
 50
90.0
 51
179.3259631020153
  0
LINE
  5
22B0
330
18
100
AcDbEntity
  8
外形線
100
AcDbLine
 10
298.8287716641016
 20
288.8716799057973
 30
0.0
 11
298.8287716641016
 21
240.3716799057975
 31
0.0
  0
INSERT
  5
22B4
330
18
100
AcDbEntity
  8
ASHADE
 62
     1
100
AcDbBlockReference
  2
AVE_RENDER
 10
339.669957065396
 20
205.618925633319
 30
0.0
1001
AVE_RENDER
1002
{
1070
     7
1000
Pref
1070
    30
1070
    20
1070
     1
1070
     0
1000

1070
    10
1070
     1
1070
    10
1040
1.0
1070
     1
1040
0.3
1040
0.7
1040
0.0
1040
10.0
1010
-1.0
1020
-1.0
1030
-1.0
1040
0.3
1070
    49
1070
     0
1070
     0
1010
1.0
1020
1.0
1030
1.0
1040
45.0
1070
     1
1070
     0
1000
WCS
1040
0.0
1070
     0
1040
10.0
1002
}
  0
INSERT
  5
22B5
330
18
100
AcDbEntity
  8
ASHADE
 62
     3
100
AcDbBlockReference
  2
AVE_RENDER
 10
339.669957065396
 20
205.618925633319
 30
0.0
1001
AVE_RENDER
1002
{
1070
     0
1000
Full Opt
1070
     0
1070
     1
1070
     1
1070
     1
1070
     0
1070
     0
1070
     0
1070
     1
1070
     1
1040
0.0001
1040
0.0001
1002
}
  0
INSERT
  5
22B6
330
18
100
AcDbEntity
  8
ASHADE
 62
     4
100
AcDbBlockReference
  2
AVE_RENDER
 10
339.669957065396
 20
205.618925633319
 30
0.0
1001
AVE_RENDER
1002
{
1070
     0
1000
Quick Opt
1070
     0
1070
     1
1070
     1
1070
     1
1070
     0
1070
     0
1070
     1
1002
}
  0
INSERT
  5
22B7
330
18
100
AcDbEntity
  8
ASHADE
 62
     5
100
AcDbBlockReference
  2
AVE_RENDER
 10
339.669957065396
 20
205.618925633319
 30
0.0
1001
AVE_RENDER
1002
{
1070
     1
1000
Scanl Opt
1070
     2
1070
     0
1070
     2
1040
2.0
1040
4.0
1070
     0
1070
     1
1070
     0
1040
0.03
1002
}
  0
INSERT
  5
22B8
330
18
100
AcDbEntity
  8
ASHADE
 62
     6
100
AcDbBlockReference
  2
AVE_RENDER
 10
339.669957065396
 20
205.618925633319
 30
0.0
1001
AVE_RENDER
1002
{
1070
     2
1000
Raytr Opt
1070
     2
1070
     0
1070
     2
1040
2.0
1040
4.0
1070
     0
1070
     1
1070
     1
1040
0.03
1070
     3
1040
0.03
1002
}
  0
INSERT
  5
22B9
330
18
100
AcDbEntity
  8
ASHADE
 62
     7
100
AcDbBlockReference
  2
AVE_RENDER
 10
339.669957065396
 20
205.618925633319
 30
0.0
1001
AVE_RENDER
1002
{
1070
     0
1000
RFile Opt
1070
     1
1070
   640
1070
   480
1070
 10000
1070
     1
1070
     8
1070
     8
1070
     0
1070
     0
1070
     0
1070
     0
1070
     0
1070
     0
1070
     0
1002
}
  0
INSERT
  5
22BA
330
18
100
AcDbEntity
  8
ASHADE
 62
     8
100
AcDbBlockReference
  2
AVE_RENDER
 10
339.669957065396
 20
205.618925633319
 30
0.0
1001
AVE_RENDER
1002
{
1070
     0
1000
Fog Opt
1070
     0
1070
     0
1040
0.0
1040
1.0
1040
0.0
1040
1.0
1010
0.5
1020
0.5
1030
0.5
1002
}
  0
INSERT
  5
22BB
330
18
100
AcDbEntity
  8
ASHADE
 62
     9
100
AcDbBlockReference
  2
AVE_RENDER
 10
339.669957065396
 20
205.618925633319
 30
0.0
1001
AVE_RENDER
1002
{
1070
     0
1000
BG Opt
1070
     0
1070
     1
1010
0.0
1020
0.0
1030
0.0
1010
1.0
1020
0.0
1030
0.0
1010
0.0
1020
1.0
1030
0.0
1010
0.0
1020
0.0
1030
1.0
1040
0.5
1040
0.33
1040
0.0
1000

1070
     1
1000

1070
     1
1070
     1
1040
1.0
1040
1.0
1040
0.0
1040
0.0
1070
     0
1002
}
  0
INSERT
  5
22BC
330
18
100
AcDbEntity
  8
ASHADE
 62
     1
100
AcDbBlockReference
  2
AVE_GLOBAL
 10
339.669957065396
 20
205.618925633319
 30
0.0
1001
AVE_MATERIAL
1002
{
1000
*GLOBAL*
1000
1
1000
Global finish.
1002
{
1002
}
1002
{
1070
    63
1002
{
1002
{
1010
-1.0
1020
-1.0
1030
-1.0
1002
}
1040
0.1000000014901161
1000

1040
0.0
1002
{
1002
}
1040
0.0
1002
{
1002
}
1040
0.0
1002
}
1002
{
1002
{
1010
-1.0
1020
-1.0
1030
-1.0
1002
}
1040
0.6999999880790711
1000

1040
0.0
1002
{
1002
}
1040
0.0
1002
{
1002
}
1040
0.0
1002
}
1002
{
1002
{
1010
-1.0
1020
-1.0
1030
-1.0
1002
}
1040
0.2000000029802322
1000

1040
0.0
1002
{
1002
}
1040
0.0
1002
{
1002
}
1040
0.0
1002
}
1002
{
1070
     0
1002
{
1070
     1
1002
{
1040
1.0
1040
1.0
1000

1040
0.0
1002
{
1002
}
1040
0.0
1002
{
1002
}
1040
0.0
1002
}
1002
}
1040
1.0
1040
0.0
1040
0.0
1002
}
1002
{
1040
1.0
1040
1.0
1000

1040
0.0
1002
{
1002
}
1040
0.0
1002
{
1002
}
1040
0.0
1002
}
1002
{
1040
0.5
1040
1.0
1000

1040
0.0
1002
{
1002
}
1040
0.0
1002
{
1002
}
1040
0.0
1002
}
1002
{
1070
     0
1040
0.0
1002
{
1002
}
1040
1.0
1002
{
1002
}
1040
0.0
1002
}
1002
{
1040
0.0
1002
{
1002
{
1010
0.0
1020
0.0
1030
0.0
1002
}
1040
1.0
1000

1040
0.0
1002
{
1002
}
1040
0.0
1002
{
1002
}
1040
0.0
1002
}
1002
}
1002
{
1002
{
1070
     1
1002
{
1040
0.0
1040
1.0
1000

1040
0.0
1002
{
1002
}
1040
0.0
1002
{
1002
}
1040
0.0
1002
}
1002
}
1040
0.0
1002
{
1002
}
1010
1.0
1020
0.0
1030
0.0
1010
0.0
1020
1.0
1030
0.0
1010
0.0
1020
0.0
1030
1.0
1070
     0
1002
}
1002
{
1002
{
1040
1.0
1040
1.0
1002
{
1070
     1
1002
{
1040
1.0
1040
1.0
1000

1040
0.0
1002
{
1002
}
1040
0.0
1002
{
1002
}
1040
0.0
1002
}
1002
}
1002
}
1070
     0
1040
0.0
1002
{
1002
}
1002
}
1002
{
1002
}
1002
}
1002
{
1071
        3
1070
     3
1070
     0
1002
{
1070
     2
1070
     0
1070
     0
1040
0.0
1002
}
1070
     0
1070
     2
1002
{
1002
}
1002
}
1002
{
1040
8030.0
1040
190.3000030517578
1040
0.3050000071525574
1040
228.0
1040
545.0
1040
14.0
1040
17.39999961853027
1040
0.4560000002384186
1002
}
1002
}
  0
LINE
  5
22CD
330
18
100
AcDbEntity
  8
外形線
100
AcDbLine
 10
297.7287716641017
 20
248.8716799057975
 30
0.0
 11
291.9287716641017
 21
248.8716799057975
 31
0.0
  0
LINE
  5
22D1
330
18
100
AcDbEntity
  8
中心線
 48
0.5
100
AcDbLine
 10
294.9673072669583
 20
250.3716799057975
 30
0.0
 11
297.1931563443082
 21
250.3716799057975
 31
0.0
  0
LINE
  5
22D2
330
18
100
AcDbEntity
  8
中心線
 48
0.5
100
AcDbLine
 10
296.0287716641015
 20
251.6039833051979
 30
0.0
 11
296.0287716641017
 21
249.2559172666784
 31
0.0
  0
LINE
  5
2305
330
18
100
AcDbEntity
  8
外形線
100
AcDbLine
 10
294.8287716641016
 20
240.6116799057975
 30
0.0
 11
296.6287716641016
 21
240.6116799057975
 31
0.0
  0
LINE
  5
2306
330
18
100
AcDbEntity
  8
外形線
100
AcDbLine
 10
294.8287716641016
 20
240.6116799057975
 30
0.0
 11
293.3287716641015
 21
240.6116799057975
 31
0.0
  0
LINE
  5
2308
330
18
100
AcDbEntity
  8
外形線
100
AcDbLine
 10
295.8287716641016
 20
248.8716799057976
 30
0.0
 11
295.8287716641015
 21
240.7116799057976
 31
0.0
  0
LINE
  5
2309
330
18
100
AcDbEntity
  8
外形線
100
AcDbLine
 10
293.2287716641017
 20
248.1116799057975
 30
0.0
 11
293.2287716641015
 21
240.7116799057976
 31
0.0
  0
LINE
  5
230A
330
18
100
AcDbEntity
  8
外形線
100
AcDbLine
 10
293.3287716641016
 20
248.2116799057976
 30
0.0
 11
295.7287716641017
 21
248.2116799057976
 31
0.0
  0
LINE
  5
230B
330
18
100
AcDbEntity
  8
外形線
100
AcDbLine
 10
293.2287716641017
 20
248.1116799057975
 30
0.0
 11
293.3287716641016
 21
248.2116799057976
 31
0.0
  0
LINE
  5
230C
330
18
100
AcDbEntity
  8
外形線
100
AcDbLine
 10
295.7287716641017
 20
248.2116799057976
 30
0.0
 11
295.8287716641016
 21
248.1116799057975
 31
0.0
  0
LINE
  5
230D
330
18
100
AcDbEntity
  8
外形線
100
AcDbLine
 10
293.2287716641015
 20
240.7116799057976
 30
0.0
 11
293.3287716641015
 21
240.6116799057975
 31
0.0
  0
LINE
  5
230E
330
18
100
AcDbEntity
  8
外形線
100
AcDbLine
 10
295.8287716641015
 20
240.7116799057976
 30
0.0
 11
295.7287716641015
 21
240.6116799057975
 31
0.0
  0
LINE
  5
230F
330
18
100
AcDbEntity
  8
外形線
100
AcDbLine
 10
296.6287716641016
 20
248.7144303253882
 30
0.0
 11
296.6287716641016
 21
240.6116799057975
 31
0.0
  0
LINE
  5
2310
330
18
100
AcDbEntity
  8
外形線
100
AcDbLine
 10
292.8258512481583
 20
246.3716799057975
 30
0.0
 11
292.8258512481583
 21
242.3716799057975
 31
0.0
  0
LINE
  5
2311
330
18
100
AcDbEntity
  8
外形線
100
AcDbLine
 10
292.8258512481583
 20
246.3716799057975
 30
0.0
 11
292.5493598993957
 21
246.3716799057975
 31
0.0
  0
LINE
  5
2312
330
18
100
AcDbEntity
  8
外形線
100
AcDbLine
 10
292.8258512481583
 20
242.3716799057975
 30
0.0
 11
292.5023010758662
 21
242.3716799057975
 31
0.0
  0
LINE
  5
2313
330
18
100
AcDbEntity
  8
外形線
100
AcDbLine
 10
292.8258512481583
 20
245.0216799057975
 30
0.0
 11
293.2287716641015
 21
245.0216799057975
 31
0.0
  0
LINE
  5
2314
330
18
100
AcDbEntity
  8
外形線
100
AcDbLine
 10
292.8258512481583
 20
243.7216799057976
 30
0.0
 11
293.2287716641015
 21
243.7216799057976
 31
0.0
  0
LINE
  5
2315
330
18
100
AcDbEntity
  8
外形線
100
AcDbLine
 10
296.6287716641016
 20
245.0216799057975
 30
0.0
 11
297.1240657817487
 21
245.0216799057975
 31
0.0
  0
LINE
  5
2316
330
18
100
AcDbEntity
  8
外形線
100
AcDbLine
 10
296.6287716641016
 20
243.7216799057976
 30
0.0
 11
297.1393598993957
 21
243.7216799057976
 31
0.0
  0
LINE
  5
2461
330
18
100
AcDbEntity
  8
外形線
100
AcDbLine
 10
291.8287716641016
 20
288.8716799057974
 30
0.0
 11
291.8287716641016
 21
248.9716799057975
 31
0.0
  0
LINE
  5
2462
330
18
100
AcDbEntity
  8
外形線
100
AcDbLine
 10
297.8287716641016
 20
288.8716799057973
 30
0.0
 11
297.8287716641017
 21
248.9716799057975
 31
0.0
  0
ARC
  5
2463
330
18
100
AcDbEntity
  8
外形線
100
AcDbCircle
 10
291.9287716641017
 20
248.9716799057975
 30
0.0
 40
0.1
100
AcDbArc
 50
180.0
 51
270.0000000000005
  0
ARC
  5
2464
330
18
100
AcDbEntity
  8
外形線
100
AcDbCircle
 10
297.7287716641017
 20
248.9716799057975
 30
0.0
 40
0.1
100
AcDbArc
 50
270.0000000000011
 51
0.0
  0
CIRCLE
  5
2465
330
18
100
AcDbEntity
  8
外形線
100
AcDbCircle
 10
296.0287716641016
 20
250.3716799057975
 30
0.0
 40
0.5
  0
LINE
  5
24EA
330
18
100
AcDbEntity
  8
中心線
100
AcDbLine
 10
294.8287716641016
 20
307.740484238906
 30
0.0
 11
294.8287716641016
 21
347.9668775054059
 31
0.0
  0
LINE
  5
24EB
330
18
100
AcDbEntity
  8
中心線
100
AcDbLine
 10
273.6398625739087
 20
328.8678756478983
 30
0.0
 11
314.9975264840013
 21
328.8678756478983
 31
0.0
  0
LINE
  5
2622
330
18
100
AcDbEntity
  8
0
  6
ByBlock
 62
     2
100
AcDbLine
 10
388.7385651063473
 20
271.1409064172911
 30
0.0
 11
388.7385651063473
 21
214.5629754882327
 31
0.0
  0
LINE
  5
2623
330
18
100
AcDbEntity
  8
0
  6
ByBlock
 62
     2
100
AcDbLine
 10
384.5885651063473
 20
215.8129754882327
 30
0.0
 11
382.0885651063473
 21
215.8129754882327
 31
0.0
  0
LINE
  5
2624
330
18
100
AcDbEntity
  8
0
  6
ByBlock
 62
     2
100
AcDbLine
 10
391.2385651063473
 20
215.8129754882327
 30
0.0
 11
399.9508222582136
 21
215.8129754882327
 31
0.0
  0
MTEXT
  5
2625
330
18
100
AcDbEntity
  8
0
  6
ByBlock
 62
     6
100
AcDbMText
 10
395.8515829953794
 20
217.6622178277791
 30
0.0
 40
2.5
 41
0.0
 71
     5
 72
     1
  1
\A1;1.65
  7
STYLE3
 73
     1
 44
1.0
  0
LINE
  5
2626
330
18
100
AcDbEntity
  8
0
  6
ByBlock
 62
     2
100
AcDbLine
 10
387.0885651063474
 20
215.8129754882327
 30
0.0
 11
388.7385651063473
 21
215.8129754882327
 31
0.0
  0
LINE
  5
2627
330
18
100
AcDbEntity
  8
0
  6
ByBlock
 62
     2
100
AcDbLine
 10
387.0885651063474
 20
215.8129754882327
 30
0.0
 11
388.7385651063473
 21
215.8129754882327
 31
0.0
  0
INSERT
  5
2628
330
18
100
AcDbEntity
  8
0
  6
ByBlock
 62
     2
100
AcDbBlockReference
  2
_OPEN
 10
387.0885651063474
 20
215.8129754882327
 30
0.0
 41
2.5
 42
2.5
 43
2.5
  0
INSERT
  5
2629
330
18
100
AcDbEntity
  8
0
  6
ByBlock
 62
     2
100
AcDbBlockReference
  2
_OPEN
 10
388.7385651063473
 20
215.8129754882327
 30
0.0
 41
2.5
 42
2.5
 43
2.5
 50
180.0
  0
POINT
  5
262A
330
18
100
AcDbEntity
  8
DEFPOINTS
  6
ByBlock
 62
     0
100
AcDbPoint
 10
387.0885651063474
 20
265.3866725849535
 30
0.0
  0
POINT
  5
262B
330
18
100
AcDbEntity
  8
DEFPOINTS
  6
ByBlock
 62
     0
100
AcDbPoint
 10
388.7385651063473
 20
271.1409064172911
 30
0.0
  0
POINT
  5
262C
330
18
100
AcDbEntity
  8
DEFPOINTS
  6
ByBlock
 62
     0
100
AcDbPoint
 10
388.7385651063473
 20
215.8129754882327
 30
0.0
  0
LINE
  5
262D
330
18
100
AcDbEntity
  8
0
  6
ByBlock
 62
     2
100
AcDbLine
 10
361.7385651063472
 20
250.3739972623938
 30
0.0
 11
361.7385651063472
 21
214.5629754882327
 31
0.0
  0
LINE
  5
262E
330
18
100
AcDbEntity
  8
0
  6
ByBlock
 62
     2
100
AcDbLine
 10
363.3885651063472
 20
244.3716799057974
 30
0.0
 11
363.3885651063472
 21
214.5629754882327
 31
0.0
  0
LINE
  5
262F
330
18
100
AcDbEntity
  8
0
  6
ByBlock
 62
     2
100
AcDbLine
 10
365.8885651063472
 20
215.8129754882327
 30
0.0
 11
368.3885651063472
 21
215.8129754882327
 31
0.0
  0
LINE
  5
2630
330
18
100
AcDbEntity
  8
0
  6
ByBlock
 62
     2
100
AcDbLine
 10
359.2385651063472
 20
215.8129754882327
 30
0.0
 11
350.4630720184133
 21
215.8129754882327
 31
0.0
  0
LINE
  5
2631
330
18
100
AcDbEntity
  8
0
  6
ByBlock
 62
     2
100
AcDbLine
 10
363.3885651063472
 20
215.8129754882327
 30
0.0
 11
361.7385651063472
 21
215.8129754882327
 31
0.0
  0
INSERT
  5
2632
330
18
100
AcDbEntity
  8
0
  6
ByBlock
 62
     2
100
AcDbBlockReference
  2
_OPEN
 10
363.3885651063472
 20
215.8129754882327
 30
0.0
 41
2.5
 42
2.5
 43
2.5
 50
180.0
  0
INSERT
  5
2633
330
18
100
AcDbEntity
  8
0
  6
ByBlock
 62
     2
100
AcDbBlockReference
  2
_OPEN
 10
361.7385651063472
 20
215.8129754882327
 30
0.0
 41
2.5
 42
2.5
 43
2.5
  0
MTEXT
  5
2634
330
18
100
AcDbEntity
  8
0
  6
ByBlock
 62
     6
100
AcDbMText
 10
354.7190243993656
 20
217.6879754882327
 30
0.0
 40
2.5
 41
0.0
 71
     5
 72
     1
  1
\A1;1.65
  7
STYLE3
 73
     1
 44
1.0
  0
POINT
  5
2635
330
18
100
AcDbEntity
  8
DEFPOINTS
  6
ByBlock
 62
     0
100
AcDbPoint
 10
361.7385651063472
 20
250.3739972623938
 30
0.0
  0
POINT
  5
2636
330
18
100
AcDbEntity
  8
DEFPOINTS
  6
ByBlock
 62
     0
100
AcDbPoint
 10
363.3885651063472
 20
244.3716799057974
 30
0.0
  0
POINT
  5
2637
330
18
100
AcDbEntity
  8
DEFPOINTS
  6
ByBlock
 62
     0
100
AcDbPoint
 10
363.3885651063472
 20
215.8129754882327
 30
0.0
  0
LINE
  5
272E
330
18
100
AcDbEntity
  8
目盛
100
AcDbLine
 10
306.5562439011221
 20
338.2202226757793
 30
0.0
 11
304.601665194952
 21
336.6614981711325
 31
0.0
  0
LINE
  5
272F
330
18
100
AcDbEntity
  8
目盛
100
AcDbLine
 10
306.9640265797258
 20
337.6846544322854
 30
0.0
 11
305.7505010881634
 21
336.8029765538468
 31
0.0
  0
LINE
  5
2730
330
18
100
AcDbEntity
  8
目盛
100
AcDbLine
 10
307.3473704699212
 20
337.1313303696799
 30
0.0
 11
306.0955105893392
 21
336.3049848975017
 31
0.0
  0
LINE
  5
2731
330
18
100
AcDbEntity
  8
目盛
100
AcDbLine
 10
282.3101728582821
 20
337.1313303696799
 30
0.0
 11
283.562032738864
 21
336.3049848975018
 31
0.0
  0
LINE
  5
2732
330
18
100
AcDbEntity
  8
目盛
100
AcDbLine
 10
282.6935167484773
 20
337.6846544322853
 30
0.0
 11
283.9070422400398
 21
336.8029765538467
 31
0.0
  0
LINE
  5
2733
330
18
100
AcDbEntity
  8
目盛
100
AcDbLine
 10
283.1012994270812
 20
338.2202226757793
 30
0.0
 11
285.0558781332513
 21
336.6614981711324
 31
0.0
  0
TEXT
  5
2737
330
18
100
AcDbEntity
  8
文字
100
AcDbText
 10
284.5609220866689
 20
335.0576481111795
 30
0.0
 40
1.8
  1
40
  7
STYLE3
100
AcDbText
  0
CIRCLE
  5
2738
330
18
100
AcDbEntity
  8
外形線
100
AcDbCircle
 10
294.8287716641016
 20
328.8678756478983
 30
0.0
 40
15.0
  0
LINE
  5
2739
330
18
100
AcDbEntity
  8
目盛
100
AcDbLine
 10
309.094619408529
 20
333.5031305635224
 30
0.0
 11
307.6680346340862
 21
333.0396050719601
 31
0.0
  0
LINE
  5
273A
330
18
100
AcDbEntity
  8
目盛
100
AcDbLine
 10
309.2882145745394
 20
332.8584283313985
 30
0.0
 11
307.8422702834956
 21
332.4593730630484
 31
0.0
  0
LINE
  5
273B
330
18
100
AcDbEntity
  8
目盛
100
AcDbLine
 10
309.452690346829
 20
332.205689657243
 30
0.0
 11
307.0153705663744
 21
331.6493873223523
 31
0.0
  0
LINE
  5
273C
330
18
100
AcDbEntity
  8
目盛
100
AcDbLine
 10
309.5877154930811
 20
331.5462290698779
 30
0.0
 11
308.1118211101832
 21
331.2783937276801
 31
0.0
  0
LINE
  5
273D
330
18
100
AcDbEntity
  8
目盛
100
AcDbLine
 10
309.6930180906206
 20
330.8813746351632
 30
0.0
 11
308.2065934479688
 21
330.6800247364368
 31
0.0
  0
LINE
  5
273E
330
18
100
AcDbEntity
  8
目盛
100
AcDbLine
 10
309.7683860740303
 20
330.2124652814498
 30
0.0
 11
308.2744246330374
 21
330.0780063180947
 31
0.0
  0
LINE
  5
273F
330
18
100
AcDbEntity
  8
目盛
100
AcDbLine
 10
309.8136676622214
 20
329.5408481031561
 30
0.0
 11
308.3151780624094
 21
329.4735508576303
 31
0.0
  0
LINE
  5
2740
330
18
100
AcDbEntity
  8
目盛
100
AcDbLine
 10
309.8287716641016
 20
328.8678756478983
 30
0.0
 11
307.3287716641016
 21
328.8678756478983
 31
0.0
  0
LINE
  5
2741
330
18
100
AcDbEntity
  8
目盛
100
AcDbLine
 10
309.8136676622214
 20
328.1949031926405
 30
0.0
 11
308.3151780624094
 21
328.2622004381664
 31
0.0
  0
LINE
  5
2742
330
18
100
AcDbEntity
  8
目盛
100
AcDbLine
 10
309.7683860740302
 20
327.5232860143467
 30
0.0
 11
308.2744246330374
 21
327.6577449777019
 31
0.0
  0
LINE
  5
2743
330
18
100
AcDbEntity
  8
目盛
100
AcDbLine
 10
309.6930180906207
 20
326.8543766606334
 30
0.0
 11
308.2065934479688
 21
327.0557265593599
 31
0.0
  0
LINE
  5
2744
330
18
100
AcDbEntity
  8
目盛
100
AcDbLine
 10
309.5877154930811
 20
326.1895222259187
 30
0.0
 11
308.1118211101832
 21
326.4573575681167
 31
0.0
  0
LINE
  5
2745
330
18
100
AcDbEntity
  8
目盛
100
AcDbLine
 10
309.452690346829
 20
325.5300616385536
 30
0.0
 11
307.0153705663744
 21
326.0863639734444
 31
0.0
  0
LINE
  5
2746
330
18
100
AcDbEntity
  8
目盛
100
AcDbLine
 10
309.2882145745394
 20
324.8773229643982
 30
0.0
 11
307.8422702834957
 21
325.2763782327483
 31
0.0
  0
LINE
  5
2747
330
18
100
AcDbEntity
  8
目盛
100
AcDbLine
 10
309.094619408529
 20
324.2326207322741
 30
0.0
 11
307.6680346340862
 21
324.6961462238366
 31
0.0
  0
LINE
  5
2748
330
18
100
AcDbEntity
  8
目盛
100
AcDbLine
 10
289.5581493028814
 20
314.8243525883022
 30
0.0
 11
290.0852115390033
 21
316.2287048942618
 31
0.0
  0
TEXT
  5
2749
330
18
100
AcDbEntity
  8
文字
100
AcDbText
 10
288.3604398397377
 20
333.3678756478984
 30
0.0
 40
1.5
  1
NEW PIC-TEST
 41
0.8
  7
STYLE3
100
AcDbText
  0
TEXT
  5
274C
330
18
100
AcDbEntity
  8
文字
100
AcDbText
 10
290.5247278921073
 20
331.8815077037336
 30
0.0
 40
0.8
  1
MADE IN JAPAN
  7
STYLE3
100
AcDbText
  0
TEXT
  5
274D
330
18
100
AcDbEntity
  8
文字
100
AcDbText
 10
287.8883371793593
 20
328.4938245986489
 30
0.0
 40
0.8
  1
Jeweled
  7
STYLE3
100
AcDbText
  0
TEXT
  5
274E
330
18
100
AcDbEntity
  8
文字
100
AcDbText
 10
287.308046930887
 20
318.5753415731723
 30
0.0
 40
1.8
  1
120
 41
0.9
  7
STYLE3
100
AcDbText
  0
LINE
  5
274F
330
18
100
AcDbEntity
  8
目盛
100
AcDbLine
 10
281.3142386455654
 20
322.3596195611349
 30
0.0
 11
283.5666608153214
 21
323.4443289089288
 31
0.0
  0
TEXT
  5
2750
330
18
100
AcDbEntity
  8
文字
100
AcDbText
 10
283.8907734329136
 20
321.5755445734258
 30
0.0
 40
1.8
  1
100
 41
0.9
  7
STYLE3
100
AcDbText
  0
LINE
  5
2751
330
18
100
AcDbEntity
  8
目盛
100
AcDbLine
 10
288.9333961892928
 20
315.0749590596266
 30
0.0
 11
289.5229337367737
 21
316.4542507184537
 31
0.0
  0
LINE
  5
2752
330
18
100
AcDbEntity
  8
目盛
100
AcDbLine
 10
284.959690775006
 20
317.5718036578441
 30
0.0
 11
285.9465988639156
 21
318.7014108568495
 31
0.0
  0
LINE
  5
2753
330
18
100
AcDbEntity
  8
目盛
100
AcDbLine
 10
284.4628319292987
 20
318.0259526904874
 30
0.0
 11
285.499425902779
 21
319.1101449862285
 31
0.0
  0
LINE
  5
2754
330
18
100
AcDbEntity
  8
目盛
100
AcDbLine
 10
283.9868487066908
 20
318.5019359130953
 30
0.0
 11
285.0710410024319
 21
319.5385298865756
 31
0.0
  0
LINE
  5
2755
330
18
100
AcDbEntity
  8
目盛
100
AcDbLine
 10
283.5326996740477
 20
318.9987947588027
 30
0.0
 11
284.6623068730528
 21
319.9857028477122
 31
0.0
  0
LINE
  5
2756
330
18
100
AcDbEntity
  8
目盛
100
AcDbLine
 10
283.1012994270812
 20
319.5155286200173
 30
0.0
 11
285.0558781332513
 21
321.0742531246641
 31
0.0
  0
LINE
  5
2757
330
18
100
AcDbEntity
  8
目盛
100
AcDbLine
 10
282.6935167484775
 20
320.0510968635111
 30
0.0
 11
283.9070422400398
 21
320.9327747419499
 31
0.0
  0
LINE
  5
2758
330
18
100
AcDbEntity
  8
目盛
100
AcDbLine
 10
282.3101728582821
 20
320.6044209261167
 30
0.0
 11
283.5620327388642
 21
321.4307663982948
 31
0.0
  0
LINE
  5
2759
330
18
100
AcDbEntity
  8
目盛
100
AcDbLine
 10
281.9520397600736
 20
321.1743864868097
 30
0.0
 11
283.2397129504764
 21
321.9437354029186
 31
0.0
  0
LINE
  5
275A
330
18
100
AcDbEntity
  8
目盛
100
AcDbLine
 10
281.6198386862506
 20
321.7598457108033
 30
0.0
 11
282.9407319840357
 21
322.4706487045128
 31
0.0
  0
LINE
  5
275B
330
18
100
AcDbEntity
  8
目盛
100
AcDbLine
 10
288.3205155773382
 20
315.353342629362
 30
0.0
 11
289.4052249251321
 21
317.605764799118
 31
0.0
  0
LINE
  5
275C
330
18
100
AcDbEntity
  8
目盛
100
AcDbLine
 10
287.7207417270067
 20
315.6589426700472
 30
0.0
 11
288.4315447207161
 21
316.9798359678322
 31
0.0
  0
LINE
  5
275D
330
18
100
AcDbEntity
  8
目盛
100
AcDbLine
 10
287.1352825030131
 20
315.9911437438704
 30
0.0
 11
287.9046314191219
 21
317.2788169342731
 31
0.0
  0
LINE
  5
275E
330
18
100
AcDbEntity
  8
目盛
100
AcDbLine
 10
286.5653169423201
 20
316.3492768420788
 30
0.0
 11
287.3916624144982
 21
317.6011367226607
 31
0.0
  0
LINE
  5
275F
330
18
100
AcDbEntity
  8
目盛
100
AcDbLine
 10
286.0119928797146
 20
316.732620732274
 30
0.0
 11
286.8936707581533
 21
317.9461462238365
 31
0.0
  0
LINE
  5
2760
330
18
100
AcDbEntity
  8
目盛
100
AcDbLine
 10
285.4764246362207
 20
317.1404034108779
 30
0.0
 11
287.0351491408675
 21
319.0949821170479
 31
0.0
  0
LINE
  5
2761
330
18
100
AcDbEntity
  8
目盛
100
AcDbLine
 10
280.2048529813741
 20
325.5300616385536
 30
0.0
 11
282.6421727618287
 21
326.0863639734444
 31
0.0
  0
LINE
  5
2762
330
18
100
AcDbEntity
  8
目盛
100
AcDbLine
 10
280.0698278351221
 20
326.1895222259187
 30
0.0
 11
281.54572221802
 21
326.4573575681166
 31
0.0
  0
LINE
  5
2763
330
18
100
AcDbEntity
  8
目盛
100
AcDbLine
 10
279.9645252375825
 20
326.8543766606335
 30
0.0
 11
281.4509498802344
 21
327.0557265593599
 31
0.0
  0
LINE
  5
2764
330
18
100
AcDbEntity
  8
目盛
100
AcDbLine
 10
279.8891572541728
 20
327.5232860143469
 30
0.0
 11
281.3831186951658
 21
327.657744977702
 31
0.0
  0
LINE
  5
2765
330
18
100
AcDbEntity
  8
目盛
100
AcDbLine
 10
279.8438756659818
 20
328.1949031926405
 30
0.0
 11
281.3423652657938
 21
328.2622004381664
 31
0.0
  0
LINE
  5
2766
330
18
100
AcDbEntity
  8
目盛
100
AcDbLine
 10
279.8287716641016
 20
328.8678756478983
 30
0.0
 11
282.3287716641016
 21
328.8678756478983
 31
0.0
  0
LINE
  5
2767
330
18
100
AcDbEntity
  8
目盛
100
AcDbLine
 10
279.8438756659819
 20
329.540848103156
 30
0.0
 11
281.3423652657938
 21
329.4735508576302
 31
0.0
  0
LINE
  5
2768
330
18
100
AcDbEntity
  8
目盛
100
AcDbLine
 10
279.889157254173
 20
330.2124652814498
 30
0.0
 11
281.3831186951659
 21
330.0780063180947
 31
0.0
  0
LINE
  5
2769
330
18
100
AcDbEntity
  8
目盛
100
AcDbLine
 10
279.9645252375825
 20
330.8813746351632
 30
0.0
 11
281.4509498802345
 21
330.6800247364367
 31
0.0
  0
LINE
  5
276A
330
18
100
AcDbEntity
  8
目盛
100
AcDbLine
 10
280.0698278351222
 20
331.5462290698778
 30
0.0
 11
281.5457222180202
 21
331.2783937276799
 31
0.0
  0
LINE
  5
276B
330
18
100
AcDbEntity
  8
目盛
100
AcDbLine
 10
280.2048529813742
 20
332.205689657243
 30
0.0
 11
282.6421727618288
 21
331.6493873223523
 31
0.0
  0
TEXT
  5
276C
330
18
100
AcDbEntity
  8
文字
100
AcDbText
 10
282.8203192928188
 20
325.5720703015621
 30
0.0
 40
1.8
  1
80
  7
STYLE3
100
AcDbText
  0
LINE
  5
276D
330
18
100
AcDbEntity
  8
目盛
100
AcDbLine
 10
281.0358550758299
 20
322.9725001730894
 30
0.0
 11
282.4151467346571
 21
323.5620377205703
 31
0.0
  0
LINE
  5
276E
330
18
100
AcDbEntity
  8
目盛
100
AcDbLine
 10
280.7852486045056
 20
323.5972532866781
 30
0.0
 11
282.1896009104652
 21
324.1243155228001
 31
0.0
  0
LINE
  5
276F
330
18
100
AcDbEntity
  8
目盛
100
AcDbLine
 10
280.5629239196743
 20
324.2326207322741
 30
0.0
 11
281.9895086941171
 21
324.6961462238366
 31
0.0
  0
LINE
  5
2770
330
18
100
AcDbEntity
  8
目盛
100
AcDbLine
 10
280.3693287536639
 20
324.8773229643981
 30
0.0
 11
281.8152730447077
 21
325.2763782327482
 31
0.0
  0
TEXT
  5
2771
330
18
100
AcDbEntity
  8
文字
100
AcDbText
 10
282.7650863991808
 20
330.6766404209064
 30
0.0
 40
1.8
  1
60
  7
STYLE3
100
AcDbText
  0
LINE
  5
2772
330
18
100
AcDbEntity
  8
目盛
100
AcDbLine
 10
280.3693287536638
 20
332.8584283313984
 30
0.0
 11
281.8152730447076
 21
332.4593730630483
 31
0.0
  0
LINE
  5
2773
330
18
100
AcDbEntity
  8
目盛
100
AcDbLine
 10
280.5629239196743
 20
333.5031305635225
 30
0.0
 11
281.9895086941171
 21
333.0396050719601
 31
0.0
  0
LINE
  5
2774
330
18
100
AcDbEntity
  8
目盛
100
AcDbLine
 10
280.7852486045055
 20
334.1384980091185
 30
0.0
 11
282.1896009104652
 21
333.6114357729965
 31
0.0
  0
LINE
  5
2775
330
18
100
AcDbEntity
  8
目盛
100
AcDbLine
 10
281.0358550758298
 20
334.7632511227071
 30
0.0
 11
282.4151467346571
 21
334.1737135752262
 31
0.0
  0
LINE
  5
2776
330
18
100
AcDbEntity
  8
目盛
100
AcDbLine
 10
281.3142386455654
 20
335.3761317346617
 30
0.0
 11
283.5666608153213
 21
334.2914223868679
 31
0.0
  0
LINE
  5
2777
330
18
100
AcDbEntity
  8
目盛
100
AcDbLine
 10
281.6198386862505
 20
335.9759055849933
 30
0.0
 11
282.9407319840356
 21
335.2651025912837
 31
0.0
  0
LINE
  5
2778
330
18
100
AcDbEntity
  8
目盛
100
AcDbLine
 10
281.9520397600736
 20
336.5613648089869
 30
0.0
 11
283.2397129504764
 21
335.792015892878
 31
0.0
  0
TEXT
  5
2779
330
18
100
AcDbEntity
  8
文字
100
AcDbText
 10
300.462725536701
 20
321.5146614632889
 30
0.0
 40
1.8
  1
100
 41
0.9
  7
STYLE3
100
AcDbText
  0
LINE
  5
277A
330
18
100
AcDbEntity
  8
目盛
100
AcDbLine
 10
308.3433046826379
 20
322.3596195611349
 30
0.0
 11
306.0908825128819
 21
323.4443289089288
 31
0.0
  0
TEXT
  5
277B
330
18
100
AcDbEntity
  8
文字
100
AcDbText
 10
292.2236729188819
 20
321.8862794392906
 30
0.0
 40
1.0
  1
PCN-6
  7
STYLE3
100
AcDbText
  0
TEXT
  5
277C
330
18
100
AcDbEntity
  8
文字
100
AcDbText
 10
297.3130024022665
 20
318.2859105089473
 30
0.0
 40
1.8
  1
120
 41
0.9
  7
STYLE3
100
AcDbText
  0
LINE
  5
277D
330
18
100
AcDbEntity
  8
目盛
100
AcDbLine
 10
299.4640265797258
 20
314.6020279034709
 30
0.0
 11
299.0005010881634
 21
316.0286126779137
 31
0.0
  0
LINE
  5
277E
330
18
100
AcDbEntity
  8
目盛
100
AcDbLine
 10
298.8193243476017
 20
314.4084327374605
 30
0.0
 11
298.4202690792518
 21
315.8543770285043
 31
0.0
  0
LINE
  5
277F
330
18
100
AcDbEntity
  8
目盛
100
AcDbLine
 10
298.1665856734464
 20
314.243956965171
 30
0.0
 11
297.6102833385557
 21
316.6812767456256
 31
0.0
  0
LINE
  5
2780
330
18
100
AcDbEntity
  8
目盛
100
AcDbLine
 10
297.5071250860812
 20
314.1089318189189
 30
0.0
 11
297.2392897438833
 21
315.5848262018168
 31
0.0
  0
LINE
  5
2781
330
18
100
AcDbEntity
  8
目盛
100
AcDbLine
 10
296.8422706513665
 20
314.0036292213793
 30
0.0
 11
296.6409207526401
 21
315.4900538640311
 31
0.0
  0
LINE
  5
2782
330
18
100
AcDbEntity
  8
目盛
100
AcDbLine
 10
296.1733612976531
 20
313.9282612379697
 30
0.0
 11
296.038902334298
 21
315.4222226789626
 31
0.0
  0
LINE
  5
2783
330
18
100
AcDbEntity
  8
目盛
100
AcDbLine
 10
295.5017441193594
 20
313.8829796497786
 30
0.0
 11
295.4344468738336
 21
315.3814692495906
 31
0.0
  0
LINE
  5
2784
330
18
100
AcDbEntity
  8
目盛
100
AcDbLine
 10
294.8287716641017
 20
313.8678756478983
 30
0.0
 11
294.8287716641017
 21
316.3678756478983
 31
0.0
  0
LINE
  5
2785
330
18
100
AcDbEntity
  8
目盛
100
AcDbLine
 10
294.155799208844
 20
313.8829796497785
 30
0.0
 11
294.2230964543698
 21
315.3814692495905
 31
0.0
  0
LINE
  5
2786
330
18
100
AcDbEntity
  8
目盛
100
AcDbLine
 10
293.4841820305502
 20
313.9282612379696
 30
0.0
 11
293.6186409939054
 21
315.4222226789625
 31
0.0
  0
LINE
  5
2787
330
18
100
AcDbEntity
  8
目盛
100
AcDbLine
 10
292.8152726768368
 20
314.0036292213792
 30
0.0
 11
293.0166225755633
 21
315.4900538640311
 31
0.0
  0
LINE
  5
2788
330
18
100
AcDbEntity
  8
目盛
100
AcDbLine
 10
292.1504182421222
 20
314.1089318189188
 30
0.0
 11
292.4182535843201
 21
315.5848262018167
 31
0.0
  0
LINE
  5
2789
330
18
100
AcDbEntity
  8
目盛
100
AcDbLine
 10
291.4909576547568
 20
314.2439569651709
 30
0.0
 11
292.0472599896476
 21
316.6812767456255
 31
0.0
  0
LINE
  5
278A
330
18
100
AcDbEntity
  8
目盛
100
AcDbLine
 10
290.8382189806014
 20
314.4084327374605
 30
0.0
 11
291.2372742489515
 21
315.8543770285043
 31
0.0
  0
LINE
  5
278B
330
18
100
AcDbEntity
  8
目盛
100
AcDbLine
 10
290.1935167484774
 20
314.602027903471
 30
0.0
 11
290.6570422400398
 21
316.0286126779137
 31
0.0
  0
TEXT
  5
278C
330
18
100
AcDbEntity
  8
文字
100
AcDbText
 10
292.3717695760128
 20
316.8934731444477
 30
0.0
 40
1.8
  1
140
 41
0.9
  7
STYLE3
100
AcDbText
  0
LINE
  5
278D
330
18
100
AcDbEntity
  8
目盛
100
AcDbLine
 10
300.7241471389105
 20
315.0749590596265
 30
0.0
 11
300.1346095914296
 21
316.4542507184537
 31
0.0
  0
LINE
  5
278E
330
18
100
AcDbEntity
  8
目盛
100
AcDbLine
 10
300.0993940253218
 20
314.8243525883022
 30
0.0
 11
299.5723317891997
 21
316.2287048942618
 31
0.0
  0
LINE
  5
278F
330
18
100
AcDbEntity
  8
目盛
100
AcDbLine
 10
305.1947113989046
 20
318.0259526904873
 30
0.0
 11
304.1581174254243
 21
319.1101449862284
 31
0.0
  0
LINE
  5
2790
330
18
100
AcDbEntity
  8
目盛
100
AcDbLine
 10
304.6978525531974
 20
317.5718036578441
 30
0.0
 11
303.7109444642878
 21
318.7014108568495
 31
0.0
  0
LINE
  5
2791
330
18
100
AcDbEntity
  8
目盛
100
AcDbLine
 10
304.1811186919826
 20
317.1404034108778
 30
0.0
 11
302.6223941873358
 21
319.0949821170478
 31
0.0
  0
LINE
  5
2792
330
18
100
AcDbEntity
  8
目盛
100
AcDbLine
 10
303.6455504484887
 20
316.7326207322741
 30
0.0
 11
302.7638725700501
 21
317.9461462238365
 31
0.0
  0
LINE
  5
2793
330
18
100
AcDbEntity
  8
目盛
100
AcDbLine
 10
303.0922263858832
 20
316.3492768420787
 30
0.0
 11
302.265880913705
 21
317.6011367226607
 31
0.0
  0
LINE
  5
2794
330
18
100
AcDbEntity
  8
目盛
100
AcDbLine
 10
302.5222608251902
 20
315.9911437438702
 30
0.0
 11
301.7529119090813
 21
317.278816934273
 31
0.0
  0
LINE
  5
2795
330
18
100
AcDbEntity
  8
目盛
100
AcDbLine
 10
301.9368016011966
 20
315.6589426700472
 30
0.0
 11
301.2259986074872
 21
316.9798359678323
 31
0.0
  0
LINE
  5
2796
330
18
100
AcDbEntity
  8
目盛
100
AcDbLine
 10
301.337027750865
 20
315.353342629362
 30
0.0
 11
300.2523184030711
 21
317.605764799118
 31
0.0
  0
LINE
  5
2797
330
18
100
AcDbEntity
  8
目盛
100
AcDbLine
 10
308.0377046419526
 20
321.7598457108033
 30
0.0
 11
306.7168113441677
 21
322.4706487045128
 31
0.0
  0
LINE
  5
2798
330
18
100
AcDbEntity
  8
目盛
100
AcDbLine
 10
307.7055035681297
 20
321.1743864868097
 30
0.0
 11
306.4178303777268
 21
321.9437354029186
 31
0.0
  0
LINE
  5
2799
330
18
100
AcDbEntity
  8
目盛
100
AcDbLine
 10
307.3473704699211
 20
320.6044209261167
 30
0.0
 11
306.0955105893392
 21
321.4307663982948
 31
0.0
  0
LINE
  5
279A
330
18
100
AcDbEntity
  8
目盛
100
AcDbLine
 10
306.9640265797259
 20
320.0510968635112
 30
0.0
 11
305.7505010881634
 21
320.93277474195
 31
0.0
  0
LINE
  5
279B
330
18
100
AcDbEntity
  8
目盛
100
AcDbLine
 10
306.5562439011221
 20
319.5155286200173
 30
0.0
 11
304.601665194952
 21
321.0742531246641
 31
0.0
  0
LINE
  5
279C
330
18
100
AcDbEntity
  8
目盛
100
AcDbLine
 10
306.1248436541558
 20
318.9987947588027
 30
0.0
 11
304.9952364551505
 21
319.9857028477122
 31
0.0
  0
LINE
  5
279D
330
18
100
AcDbEntity
  8
目盛
100
AcDbLine
 10
305.6706946215125
 20
318.5019359130953
 30
0.0
 11
304.5865023257714
 21
319.5385298865756
 31
0.0
  0
TEXT
  5
279E
330
18
100
AcDbEntity
  8
文字
100
AcDbText
 10
298.1549898615092
 20
328.4585358633232
 30
0.0
 40
0.8
  1
0.002mm
  7
STYLE3
100
AcDbText
  0
CIRCLE
  5
27A0
330
18
100
AcDbEntity
  8
外形線
 62
     4
100
AcDbCircle
 10
294.8287716641016
 20
328.8678756478983
 30
0.0
 40
0.25
  0
POINT
  5
27A1
330
18
100
AcDbEntity
  8
DEFPOINTS
  6
ByBlock
 62
     0
100
AcDbPoint
 10
294.8287716641016
 20
328.8678756478983
 30
0.0
  0
POINT
  5
27A2
330
18
100
AcDbEntity
  8
DEFPOINTS
  6
ByBlock
 62
     0
100
AcDbPoint
 10
294.8287716641016
 20
328.8678756478983
 30
0.0
  0
POINT
  5
27A3
330
18
100
AcDbEntity
  8
DEFPOINTS
  6
ByBlock
 62
     0
100
AcDbPoint
 10
294.8287716641016
 20
328.8678756478983
 30
0.0
  0
POINT
  5
27A4
330
18
100
AcDbEntity
  8
DEFPOINTS
  6
ByBlock
 62
     0
100
AcDbPoint
 10
294.8287716641016
 20
328.8678756478983
 30
0.0
  0
TEXT
  5
27A7
330
18
100
AcDbEntity
  8
文字
100
AcDbText
 10
303.4461244353197
 20
325.2731495350037
 30
0.0
 40
1.8
  1
80
  7
STYLE3
100
AcDbText
  0
LINE
  5
27A8
330
18
100
AcDbEntity
  8
目盛
100
AcDbLine
 10
308.8722947236977
 20
323.5972532866781
 30
0.0
 11
307.4679424177381
 21
324.1243155228001
 31
0.0
  0
LINE
  5
27A9
330
18
100
AcDbEntity
  8
目盛
100
AcDbLine
 10
308.6216882523734
 20
322.9725001730895
 30
0.0
 11
307.2423965935462
 21
323.5620377205703
 31
0.0
  0
TEXT
  5
27AA
330
18
100
AcDbEntity
  8
文字
100
AcDbText
 10
303.5004562865899
 20
330.3022502612904
 30
0.0
 40
1.8
  1
60
  7
STYLE3
100
AcDbText
  0
TEXT
  5
27AB
330
18
100
AcDbEntity
  8
文字
100
AcDbText
 10
301.5595324271615
 20
334.5830079722805
 30
0.0
 40
1.8
  1
40
  7
STYLE3
100
AcDbText
  0
LINE
  5
27AC
330
18
100
AcDbEntity
  8
目盛
100
AcDbLine
 10
307.7055035681297
 20
336.5613648089869
 30
0.0
 11
306.4178303777269
 21
335.792015892878
 31
0.0
  0
LINE
  5
27AD
330
18
100
AcDbEntity
  8
目盛
100
AcDbLine
 10
308.0377046419527
 20
335.9759055849933
 30
0.0
 11
306.7168113441677
 21
335.2651025912838
 31
0.0
  0
LINE
  5
27AE
330
18
100
AcDbEntity
  8
目盛
100
AcDbLine
 10
308.3433046826379
 20
335.3761317346616
 30
0.0
 11
306.0908825128819
 21
334.2914223868677
 31
0.0
  0
LINE
  5
27AF
330
18
100
AcDbEntity
  8
目盛
100
AcDbLine
 10
308.6216882523733
 20
334.7632511227072
 30
0.0
 11
307.2423965935462
 21
334.1737135752263
 31
0.0
  0
LINE
  5
27B0
330
18
100
AcDbEntity
  8
目盛
100
AcDbLine
 10
308.8722947236977
 20
334.1384980091184
 30
0.0
 11
307.4679424177381
 21
333.6114357729964
 31
0.0
  0
TEXT
  5
27B1
330
18
100
AcDbEntity
  8
文字
100
AcDbText
 10
288.681128721241
 20
337.7747083493964
 30
0.0
 40
1.8
  1
20
  7
STYLE3
100
AcDbText
  0
LINE
  5
27B2
330
18
100
AcDbEntity
  8
目盛
100
AcDbLine
 10
289.5581493028815
 20
342.9113987074944
 30
0.0
 11
290.0852115390035
 21
341.5070464015348
 31
0.0
  0
LINE
  5
27B3
330
18
100
AcDbEntity
  8
目盛
100
AcDbLine
 10
283.9868487066908
 20
339.2338153827012
 30
0.0
 11
285.0710410024319
 21
338.1972214092209
 31
0.0
  0
LINE
  5
27B4
330
18
100
AcDbEntity
  8
目盛
100
AcDbLine
 10
284.4628319292986
 20
339.7097986053092
 30
0.0
 11
285.499425902779
 21
338.6256063095681
 31
0.0
  0
LINE
  5
27B5
330
18
100
AcDbEntity
  8
目盛
100
AcDbLine
 10
284.9596907750059
 20
340.1639476379524
 30
0.0
 11
285.9465988639156
 21
339.034340438947
 31
0.0
  0
LINE
  5
27B6
330
18
100
AcDbEntity
  8
目盛
100
AcDbLine
 10
283.5326996740475
 20
338.7369565369939
 30
0.0
 11
284.6623068730528
 21
337.7500484480843
 31
0.0
  0
LINE
  5
27B7
330
18
100
AcDbEntity
  8
目盛
100
AcDbLine
 10
285.4764246362206
 20
340.5953478849188
 30
0.0
 11
287.0351491408674
 21
338.6407691787487
 31
0.0
  0
LINE
  5
27B8
330
18
100
AcDbEntity
  8
目盛
100
AcDbLine
 10
286.0119928797145
 20
341.0031305635225
 30
0.0
 11
286.8936707581531
 21
339.7896050719601
 31
0.0
  0
LINE
  5
27B9
330
18
100
AcDbEntity
  8
目盛
100
AcDbLine
 10
286.5653169423201
 20
341.3864744537178
 30
0.0
 11
287.3916624144982
 21
340.134614573136
 31
0.0
  0
LINE
  5
27BA
330
18
100
AcDbEntity
  8
目盛
100
AcDbLine
 10
287.135282503013
 20
341.7446075519263
 30
0.0
 11
287.9046314191219
 21
340.4569343615236
 31
0.0
  0
LINE
  5
27BB
330
18
100
AcDbEntity
  8
目盛
100
AcDbLine
 10
287.7207417270066
 20
342.0768086257494
 30
0.0
 11
288.4315447207161
 21
340.7559153279643
 31
0.0
  0
LINE
  5
27BC
330
18
100
AcDbEntity
  8
目盛
100
AcDbLine
 10
288.3205155773382
 20
342.3824086664347
 30
0.0
 11
289.4052249251321
 21
340.1299864966786
 31
0.0
  0
LINE
  5
27BD
330
18
100
AcDbEntity
  8
目盛
100
AcDbLine
 10
288.9333961892928
 20
342.66079223617
 30
0.0
 11
289.5229337367737
 21
341.2815005773429
 31
0.0
  0
TEXT
  5
27BE
330
18
100
AcDbEntity
  8
文字
100
AcDbText
 10
297.8965162502253
 20
337.6819231760785
 30
0.0
 40
1.8
  1
20
  7
STYLE3
100
AcDbText
  0
TEXT
  5
27BF
330
18
100
AcDbEntity
  8
文字
100
AcDbText
 10
294.0283626508304
 20
339.1399468830185
 30
0.0
 40
1.8
  1
0
  7
STYLE3
100
AcDbText
  0
LINE
  5
27C0
330
18
100
AcDbEntity
  8
目盛
100
AcDbLine
 10
290.1935167484775
 20
343.1337233923256
 30
0.0
 11
290.6570422400399
 21
341.7071386178829
 31
0.0
  0
LINE
  5
27C1
330
18
100
AcDbEntity
  8
目盛
100
AcDbLine
 10
290.8382189806015
 20
343.3273185583361
 30
0.0
 11
291.2372742489515
 21
341.8813742672923
 31
0.0
  0
LINE
  5
27C2
330
18
100
AcDbEntity
  8
目盛
100
AcDbLine
 10
291.4909576547568
 20
343.4917943306257
 30
0.0
 11
292.0472599896477
 21
341.0544745501711
 31
0.0
  0
LINE
  5
27C3
330
18
100
AcDbEntity
  8
目盛
100
AcDbLine
 10
292.150418242122
 20
343.6268194768778
 30
0.0
 11
292.4182535843199
 21
342.1509250939798
 31
0.0
  0
LINE
  5
27C4
330
18
100
AcDbEntity
  8
目盛
100
AcDbLine
 10
292.8152726768368
 20
343.7321220744174
 30
0.0
 11
293.0166225755632
 21
342.2456974317654
 31
0.0
  0
LINE
  5
27C5
330
18
100
AcDbEntity
  8
目盛
100
AcDbLine
 10
293.4841820305501
 20
343.807490057827
 30
0.0
 11
293.6186409939053
 21
342.313528616834
 31
0.0
  0
LINE
  5
27C6
330
18
100
AcDbEntity
  8
目盛
100
AcDbLine
 10
294.1557992088439
 20
343.852771646018
 30
0.0
 11
294.2230964543696
 21
342.354282046206
 31
0.0
  0
LINE
  5
27C8
330
18
100
AcDbEntity
  8
目盛
100
AcDbLine
 10
298.1665856734464
 20
343.4917943306256
 30
0.0
 11
297.6102833385557
 21
341.054474550171
 31
0.0
  0
LINE
  5
27C9
330
18
100
AcDbEntity
  8
目盛
100
AcDbLine
 10
298.8193243476018
 20
343.327318558336
 30
0.0
 11
298.4202690792518
 21
341.8813742672924
 31
0.0
  0
LINE
  5
27CA
330
18
100
AcDbEntity
  8
目盛
100
AcDbLine
 10
299.4640265797258
 20
343.1337233923256
 30
0.0
 11
299.0005010881635
 21
341.7071386178828
 31
0.0
  0
LINE
  5
27CB
330
18
100
AcDbEntity
  8
目盛
100
AcDbLine
 10
297.5071250860811
 20
343.6268194768778
 30
0.0
 11
297.2392897438831
 21
342.1509250939798
 31
0.0
  0
LINE
  5
27CC
330
18
100
AcDbEntity
  8
目盛
100
AcDbLine
 10
296.8422706513665
 20
343.7321220744174
 30
0.0
 11
296.64092075264
 21
342.2456974317654
 31
0.0
  0
LINE
  5
27CD
330
18
100
AcDbEntity
  8
目盛
100
AcDbLine
 10
296.1733612976531
 20
343.8074900578268
 30
0.0
 11
296.038902334298
 21
342.313528616834
 31
0.0
  0
LINE
  5
27CE
330
18
100
AcDbEntity
  8
目盛
100
AcDbLine
 10
295.5017441193593
 20
343.852771646018
 30
0.0
 11
295.4344468738335
 21
342.3542820462062
 31
0.0
  0
LINE
  5
27CF
330
18
100
AcDbEntity
  8
目盛
100
AcDbLine
 10
294.8287716641016
 20
343.8678756478984
 30
0.0
 11
294.8287716641016
 21
341.3678756478983
 31
0.0
  0
LINE
  5
27D0
330
18
100
AcDbEntity
  8
目盛
100
AcDbLine
 10
304.6978525531973
 20
340.1639476379525
 30
0.0
 11
303.7109444642877
 21
339.0343404389471
 31
0.0
  0
LINE
  5
27D1
330
18
100
AcDbEntity
  8
目盛
100
AcDbLine
 10
305.1947113989046
 20
339.7097986053092
 30
0.0
 11
304.1581174254243
 21
338.6256063095681
 31
0.0
  0
LINE
  5
27D2
330
18
100
AcDbEntity
  8
目盛
100
AcDbLine
 10
300.0993940253218
 20
342.9113987074944
 30
0.0
 11
299.5723317891998
 21
341.5070464015347
 31
0.0
  0
LINE
  5
27D3
330
18
100
AcDbEntity
  8
目盛
100
AcDbLine
 10
300.7241471389104
 20
342.66079223617
 30
0.0
 11
300.1346095914296
 21
341.2815005773429
 31
0.0
  0
LINE
  5
27D4
330
18
100
AcDbEntity
  8
目盛
100
AcDbLine
 10
301.337027750865
 20
342.3824086664347
 30
0.0
 11
300.2523184030711
 21
340.1299864966786
 31
0.0
  0
LINE
  5
27D5
330
18
100
AcDbEntity
  8
目盛
100
AcDbLine
 10
301.9368016011965
 20
342.0768086257494
 30
0.0
 11
301.225998607487
 21
340.7559153279644
 31
0.0
  0
LINE
  5
27D6
330
18
100
AcDbEntity
  8
目盛
100
AcDbLine
 10
302.5222608251902
 20
341.7446075519263
 30
0.0
 11
301.7529119090814
 21
340.4569343615235
 31
0.0
  0
LINE
  5
27D7
330
18
100
AcDbEntity
  8
目盛
100
AcDbLine
 10
303.0922263858831
 20
341.3864744537178
 30
0.0
 11
302.265880913705
 21
340.1346145731359
 31
0.0
  0
LINE
  5
27D8
330
18
100
AcDbEntity
  8
目盛
100
AcDbLine
 10
303.6455504484886
 20
341.0031305635226
 30
0.0
 11
302.7638725700498
 21
339.7896050719601
 31
0.0
  0
LINE
  5
27D9
330
18
100
AcDbEntity
  8
目盛
100
AcDbLine
 10
304.1811186919826
 20
340.5953478849188
 30
0.0
 11
302.6223941873358
 21
338.6407691787487
 31
0.0
  0
LINE
  5
27DA
330
18
100
AcDbEntity
  8
目盛
100
AcDbLine
 10
305.6706946215127
 20
339.2338153827012
 30
0.0
 11
304.5865023257715
 21
338.1972214092209
 31
0.0
  0
LINE
  5
27DB
330
18
100
AcDbEntity
  8
目盛
100
AcDbLine
 10
306.1248436541557
 20
338.736956536994
 30
0.0
 11
304.9952364551503
 21
337.7500484480844
 31
0.0
  0
ARC
  5
2822
330
18
100
AcDbEntity
  8
外形線
100
AcDbCircle
 10
367.3885651063472
 20
226.5716799057974
 30
0.0
 40
1.0
100
AcDbArc
 50
126.869897645842
 51
53.13010235415791
  0
LINE
  5
2823
330
18
100
AcDbEntity
  8
外形線
100
AcDbLine
 10
366.7885651063472
 20
227.3716799057974
 30
0.0
 11
367.9885651063472
 21
227.3716799057974
 31
0.0
  0
LINE
  5
2824
330
18
100
AcDbEntity
  8
隠れ線
 62
     4
 48
0.3
100
AcDbLine
 10
367.3885651063472
 20
227.5713017355752
 30
0.0
 11
366.7885651063472
 21
227.3716799057974
 31
0.0
  0
LINE
  5
2825
330
18
100
AcDbEntity
  8
中心線
 48
0.5
100
AcDbLine
 10
365.0051628613625
 20
226.5716799057974
 30
0.0
 11
370.3493130715945
 21
226.5716799057974
 31
0.0
  0
LINE
  5
2826
330
18
100
AcDbEntity
  8
隠れ線
 62
     4
 48
0.3
100
AcDbLine
 10
367.3885651063472
 20
227.5713017355752
 30
0.0
 11
367.9885651063472
 21
227.3716799057974
 31
0.0
  0
LINE
  5
2827
330
18
100
AcDbEntity
  8
外形線
100
AcDbLine
 10
368.4885651063472
 20
236.3116799057974
 30
0.0
 11
367.9885651063472
 21
227.3716799057974
 31
0.0
  0
LINE
  5
2828
330
18
100
AcDbEntity
  8
外形線
100
AcDbLine
 10
366.2885651063472
 20
236.3116799057974
 30
0.0
 11
366.7885651063472
 21
227.3716799057974
 31
0.0
  0
LINE
  5
2829
330
18
100
AcDbEntity
  8
外形線
100
AcDbLine
 10
366.2885651063472
 20
236.3116799057974
 30
0.0
 11
368.4885651063472
 21
236.3116799057974
 31
0.0
  0
LINE
  5
282A
330
18
100
AcDbEntity
  8
外形線
100
AcDbLine
 10
368.4885651063472
 20
238.7616799057974
 30
0.0
 11
366.2885651063472
 21
238.7616799057974
 31
0.0
  0
LINE
  5
282B
330
18
100
AcDbEntity
  8
外形線
100
AcDbLine
 10
368.4885651063472
 20
239.2616799057974
 30
0.0
 11
366.2885651063472
 21
239.2616799057975
 31
0.0
  0
LINE
  5
282C
330
18
100
AcDbEntity
  8
外形線
 62
     4
100
AcDbLine
 10
368.0555524044548
 20
239.0116799057974
 30
0.0
 11
366.7215778082395
 21
239.0116799057974
 31
0.0
  0
LINE
  5
282D
330
18
100
AcDbEntity
  8
外形線
100
AcDbLine
 10
366.2885651063472
 20
238.7616799057977
 30
0.0
 11
366.2885651063472
 21
236.3116799057974
 31
0.0
  0
LINE
  5
282E
330
18
100
AcDbEntity
  8
外形線
100
AcDbLine
 10
366.2885651063472
 20
238.7616799057977
 30
0.0
 11
366.7215778082394
 21
239.0116799057975
 31
0.0
  0
LINE
  5
282F
330
18
100
AcDbEntity
  8
外形線
100
AcDbLine
 10
366.2885651063472
 20
239.2616799057974
 30
0.0
 11
366.7215778082395
 21
239.0116799057974
 31
0.0
  0
LINE
  5
2830
330
18
100
AcDbEntity
  8
外形線
100
AcDbLine
 10
368.4885651063472
 20
238.7616799057977
 30
0.0
 11
368.4885651063472
 21
236.3116799057974
 31
0.0
  0
LINE
  5
2831
330
18
100
AcDbEntity
  8
外形線
100
AcDbLine
 10
368.4885651063472
 20
238.7616799057977
 30
0.0
 11
368.055552404455
 21
239.0116799057975
 31
0.0
  0
LINE
  5
2832
330
18
100
AcDbEntity
  8
外形線
100
AcDbLine
 10
368.4885651063472
 20
239.2616799057974
 30
0.0
 11
368.0555524044548
 21
239.0116799057974
 31
0.0
  0
LINE
  5
2833
330
18
100
AcDbEntity
  8
外形線
100
AcDbLine
 10
366.2885651063472
 20
240.5116799057974
 30
0.0
 11
366.2885651063472
 21
239.2616799057975
 31
0.0
  0
LINE
  5
2834
330
18
100
AcDbEntity
  8
外形線
100
AcDbLine
 10
366.2885651063472
 20
240.5116799057974
 30
0.0
 11
366.3395655829917
 21
240.5116799057974
 31
0.0
  0
LINE
  5
2835
330
18
100
AcDbEntity
  8
外形線
100
AcDbLine
 10
366.2885651063472
 20
240.5116799057974
 30
0.0
 11
366.2996382139504
 21
240.5227530134006
 31
0.0
  0
LINE
  5
2836
330
18
100
AcDbEntity
  8
外形線
100
AcDbLine
 10
368.4885651063472
 20
240.5116799057974
 30
0.0
 11
368.4885651063472
 21
239.2616799057974
 31
0.0
  0
LINE
  5
2837
330
18
100
AcDbEntity
  8
外形線
100
AcDbLine
 10
368.477491998744
 20
240.5227530134006
 30
0.0
 11
368.4885651063472
 21
240.5116799057974
 31
0.0
  0
LINE
  5
2839
330
18
100
AcDbEntity
  8
外形線
100
AcDbLine
 10
368.4375646297027
 20
240.5116799057974
 30
0.0
 11
368.4885651063472
 21
240.5116799057974
 31
0.0
  0
LINE
  5
285F
330
18
100
AcDbEntity
  8
0
  6
ByBlock
 62
     2
100
AcDbLine
 10
403.9347175290536
 20
281.8716799057975
 30
0.0
 11
417.926132052561
 21
281.8716799057975
 31
0.0
  0
LINE
  5
2860
330
18
100
AcDbEntity
  8
0
  6
ByBlock
 62
     2
100
AcDbLine
 10
403.9347175290536
 20
275.8716799057975
 30
0.0
 11
417.926132052561
 21
275.8716799057975
 31
0.0
  0
LINE
  5
2861
330
18
100
AcDbEntity
  8
0
  6
ByBlock
 62
     2
100
AcDbLine
 10
416.6761320525611
 20
284.3716799057975
 30
0.0
 11
416.6761320525611
 21
286.8716799057975
 31
0.0
  0
LINE
  5
2862
330
18
100
AcDbEntity
  8
0
  6
ByBlock
 62
     2
100
AcDbLine
 10
416.6761320525611
 20
273.3716799057975
 30
0.0
 11
416.6761320525611
 21
270.8716799057975
 31
0.0
  0
LINE
  5
2863
330
18
100
AcDbEntity
  8
0
  6
ByBlock
 62
     2
100
AcDbLine
 10
416.6761320525611
 20
281.8716799057975
 30
0.0
 11
416.6761320525611
 21
275.8716799057975
 31
0.0
  0
INSERT
  5
2864
330
18
100
AcDbEntity
  8
0
  6
ByBlock
 62
     2
100
AcDbBlockReference
  2
_OPEN
 10
416.6761320525611
 20
281.8716799057975
 30
0.0
 41
2.5
 42
2.5
 43
2.5
 50
270.0
  0
INSERT
  5
2865
330
18
100
AcDbEntity
  8
0
  6
ByBlock
 62
     2
100
AcDbBlockReference
  2
_OPEN
 10
416.6761320525611
 20
275.8716799057975
 30
0.0
 41
2.5
 42
2.5
 43
2.5
 50
90.0
  0
MTEXT
  5
2866
330
18
100
AcDbEntity
  8
0
  6
ByBlock
 62
     6
100
AcDbMText
 10
420.7478328186986
 20
278.2217665982126
 30
0.0
 40
2.5
 41
0.0
 71
     5
 72
     1
  1
\A1;φ6.0
  7
STYLE3
 11
0.0000000000000001
 21
1.0
 31
0.0
 73
     1
 44
1.0
  0
POINT
  5
2867
330
18
100
AcDbEntity
  8
DEFPOINTS
  6
ByBlock
 62
     0
100
AcDbPoint
 10
403.9347175290536
 20
281.8716799057975
 30
0.0
  0
POINT
  5
2868
330
18
100
AcDbEntity
  8
DEFPOINTS
  6
ByBlock
 62
     0
100
AcDbPoint
 10
403.9347175290536
 20
275.8716799057975
 30
0.0
  0
POINT
  5
2869
330
18
100
AcDbEntity
  8
DEFPOINTS
  6
ByBlock
 62
     0
100
AcDbPoint
 10
416.6761320525611
 20
275.8716799057975
 30
0.0
  0
TEXT
  5
286A
330
18
100
AcDbEntity
  8
文字
100
AcDbText
 10
419.2085814380972
 20
284.6619429473143
 30
0.0
 40
1.5
  1
0
 50
90.0
  7
STYLE3
100
AcDbText
  0
TEXT
  5
286B
330
18
100
AcDbEntity
  8
文字
100
AcDbText
 10
420.9791147362271
 20
282.8984507276434
 30
0.0
 40
1.5
  1
-0.03
 50
90.0
  7
STYLE3
100
AcDbText
  0
LINE
  5
2877
330
18
100
AcDbEntity
  8
0
  6
ByBlock
 62
     2
100
AcDbLine
 10
361.7385651063472
 20
214.5629754882327
 30
0.0
 11
361.7385651063472
 21
208.715025412868
 31
0.0
  0
LINE
  5
2878
330
18
100
AcDbEntity
  8
0
  6
ByBlock
 62
     2
100
AcDbLine
 10
388.7385651063473
 20
214.5629754882327
 30
0.0
 11
388.7385651063473
 21
208.715025412868
 31
0.0
  0
LINE
  5
2879
330
18
100
AcDbEntity
  8
0
  6
ByBlock
 62
     2
100
AcDbLine
 10
364.2385651063472
 20
209.965025412868
 30
0.0
 11
386.2385651063473
 21
209.965025412868
 31
0.0
  0
INSERT
  5
287A
330
18
100
AcDbEntity
  8
0
  6
ByBlock
 62
     2
100
AcDbBlockReference
  2
_OPEN
 10
361.7385651063472
 20
209.965025412868
 30
0.0
 41
2.5
 42
2.5
 43
2.5
 50
180.0
  0
INSERT
  5
287B
330
18
100
AcDbEntity
  8
0
  6
ByBlock
 62
     2
100
AcDbBlockReference
  2
_OPEN
 10
388.7385651063473
 20
209.965025412868
 30
0.0
 41
2.5
 42
2.5
 43
2.5
  0
MTEXT
  5
287C
330
18
100
AcDbEntity
  8
0
  6
ByBlock
 62
     6
100
AcDbMText
 10
375.2385651063472
 20
211.840025412868
 30
0.0
 40
2.5
 41
0.0
 71
     5
 72
     1
  1
\A1;27
  7
STYLE3
 73
     1
 44
1.0
  0
POINT
  5
287D
330
18
100
AcDbEntity
  8
DEFPOINTS
  6
ByBlock
 62
     0
100
AcDbPoint
 10
361.7385651063472
 20
214.5629754882327
 30
0.0
  0
POINT
  5
287E
330
18
100
AcDbEntity
  8
DEFPOINTS
  6
ByBlock
 62
     0
100
AcDbPoint
 10
388.7385651063473
 20
214.5629754882327
 30
0.0
  0
POINT
  5
287F
330
18
100
AcDbEntity
  8
DEFPOINTS
  6
ByBlock
 62
     0
100
AcDbPoint
 10
388.7385651063473
 20
209.965025412868
 30
0.0
  0
LINE
  5
2880
330
18
100
AcDbEntity
  8
0
  6
ByBlock
 62
     2
100
AcDbLine
 10
387.0885651063474
 20
265.3866725849535
 30
0.0
 11
387.0885651063474
 21
214.5629754882327
 31
0.0
  0
LINE
  5
2881
330
18
100
AcDbEntity
  8
0
  6
ByBlock
 62
     2
100
AcDbLine
 10
365.8885651063472
 20
215.8129754882327
 30
0.0
 11
384.5885651063473
 21
215.8129754882327
 31
0.0
  0
INSERT
  5
2882
330
18
100
AcDbEntity
  8
0
  6
ByBlock
 62
     2
100
AcDbBlockReference
  2
_OPEN
 10
363.3885651063472
 20
215.8129754882327
 30
0.0
 41
2.5
 42
2.5
 43
2.5
 50
180.0
  0
INSERT
  5
2883
330
18
100
AcDbEntity
  8
0
  6
ByBlock
 62
     2
100
AcDbBlockReference
  2
_OPEN
 10
387.0885651063474
 20
215.8129754882327
 30
0.0
 41
2.5
 42
2.5
 43
2.5
  0
MTEXT
  5
2884
330
18
100
AcDbEntity
  8
0
  6
ByBlock
 62
     6
100
AcDbMText
 10
375.2385651063473
 20
217.6879754882327
 30
0.0
 40
2.5
 41
0.0
 71
     5
 72
     1
  1
\A1;23.7
  7
STYLE3
 73
     1
 44
1.0
  0
POINT
  5
2885
330
18
100
AcDbEntity
  8
DEFPOINTS
  6
ByBlock
 62
     0
100
AcDbPoint
 10
363.3885651063472
 20
244.3716799057974
 30
0.0
  0
POINT
  5
2886
330
18
100
AcDbEntity
  8
DEFPOINTS
  6
ByBlock
 62
     0
100
AcDbPoint
 10
387.0885651063474
 20
265.3866725849535
 30
0.0
  0
POINT
  5
2887
330
18
100
AcDbEntity
  8
DEFPOINTS
  6
ByBlock
 62
     0
100
AcDbPoint
 10
387.0885651063474
 20
215.8129754882327
 30
0.0
  0
POINT
  5
288F
330
18
100
AcDbEntity
  8
DEFPOINTS
  6
ByBlock
 62
     0
100
AcDbPoint
 10
370.3493130715945
 20
226.5716799057974
 30
0.0
  0
LINE
  5
2891
330
18
100
AcDbEntity
  8
0
  6
ByBlock
 62
     2
100
AcDbLine
 10
357.7385651063473
 20
294.3079379372047
 30
0.0
 11
357.7385651063473
 21
308.8588336076237
 31
0.0
  0
LINE
  5
2892
330
18
100
AcDbEntity
  8
0
  6
ByBlock
 62
     2
100
AcDbLine
 10
392.7385651063474
 20
294.3079379372047
 30
0.0
 11
392.7385651063474
 21
308.8588336076237
 31
0.0
  0
LINE
  5
2893
330
18
100
AcDbEntity
  8
0
  6
ByBlock
 62
     2
100
AcDbLine
 10
360.2385651063473
 20
307.6088336076237
 30
0.0
 11
390.2385651063473
 21
307.6088336076237
 31
0.0
  0
INSERT
  5
2894
330
18
100
AcDbEntity
  8
0
  6
ByBlock
 62
     2
100
AcDbBlockReference
  2
_OPEN
 10
357.7385651063473
 20
307.6088336076237
 30
0.0
 41
2.5
 42
2.5
 43
2.5
 50
180.0
  0
INSERT
  5
2895
330
18
100
AcDbEntity
  8
0
  6
ByBlock
 62
     2
100
AcDbBlockReference
  2
_OPEN
 10
392.7385651063474
 20
307.6088336076237
 30
0.0
 41
2.5
 42
2.5
 43
2.5
  0
MTEXT
  5
2896
330
18
100
AcDbEntity
  8
0
  6
ByBlock
 62
     6
100
AcDbMText
 10
375.2385651063473
 20
309.4838336076237
 30
0.0
 40
2.5
 41
0.0
 71
     5
 72
     1
  1
\A1;φ35
  7
STYLE3
 73
     1
 44
1.0
  0
POINT
  5
2897
330
18
100
AcDbEntity
  8
DEFPOINTS
  6
ByBlock
 62
     0
100
AcDbPoint
 10
357.7385651063473
 20
294.3079379372047
 30
0.0
  0
POINT
  5
2898
330
18
100
AcDbEntity
  8
DEFPOINTS
  6
ByBlock
 62
     0
100
AcDbPoint
 10
392.7385651063474
 20
294.3079379372047
 30
0.0
  0
POINT
  5
2899
330
18
100
AcDbEntity
  8
DEFPOINTS
  6
ByBlock
 62
     0
100
AcDbPoint
 10
392.7385651063474
 20
307.6088336076237
 30
0.0
  0
LINE
  5
289A
330
18
100
AcDbEntity
  8
寸法線
 62
     2
100
AcDbLine
 10
377.9648320126199
 20
251.8965323980797
 30
0.0
 11
381.7513557359685
 21
245.3462141829187
 31
0.0
1001
ACAD
1000
DSTYLE
1002
{
1070
   271
1070
     2
1002
}
  0
LINE
  5
289B
330
18
100
AcDbEntity
  8
寸法線
 62
     2
100
AcDbLine
 10
381.7513557359685
 20
245.3462141829187
 30
0.0
 11
386.7811176407304
 21
245.3462141829187
 31
0.0
1001
ACAD
1000
DSTYLE
1002
{
1070
   271
1070
     2
1002
}
  0
LINE
  5
289C
330
18
100
AcDbEntity
  8
0
  6
ByBlock
 62
     2
100
AcDbLine
 10
289.8287716641016
 20
242.3716799057975
 30
0.0
 11
289.8287716641016
 21
233.4076902789568
 31
0.0
  0
LINE
  5
289D
330
18
100
AcDbEntity
  8
0
  6
ByBlock
 62
     2
100
AcDbLine
 10
299.8287716641016
 20
242.3716799057975
 30
0.0
 11
299.8287716641016
 21
233.4076902789568
 31
0.0
  0
LINE
  5
289E
330
18
100
AcDbEntity
  8
0
  6
ByBlock
 62
     2
100
AcDbLine
 10
292.3287716641016
 20
234.6576902789569
 30
0.0
 11
297.3287716641016
 21
234.6576902789569
 31
0.0
  0
LINE
  5
289F
330
18
100
AcDbEntity
  8
0
  6
ByBlock
 62
     2
100
AcDbLine
 10
299.8287716641016
 20
234.6576902789569
 30
0.0
 11
307.2692478545778
 21
234.6576902789569
 31
0.0
  0
INSERT
  5
28A0
330
18
100
AcDbEntity
  8
0
  6
ByBlock
 62
     2
100
AcDbBlockReference
  2
_OPEN
 10
289.8287716641016
 20
234.6576902789569
 30
0.0
 41
2.5
 42
2.5
 43
2.5
 50
180.0
  0
INSERT
  5
28A1
330
18
100
AcDbEntity
  8
0
  6
ByBlock
 62
     2
100
AcDbBlockReference
  2
_OPEN
 10
299.8287716641016
 20
234.6576902789569
 30
0.0
 41
2.5
 42
2.5
 43
2.5
  0
MTEXT
  5
28A2
330
18
100
AcDbEntity
  8
0
  6
ByBlock
 62
     6
100
AcDbMText
 10
304.7990097593397
 20
236.5326902789568
 30
0.0
 40
2.5
 41
0.0
 71
     5
 72
     1
  1
\A1;10
  7
STYLE3
 73
     1
 44
1.0
  0
POINT
  5
28A3
330
18
100
AcDbEntity
  8
DEFPOINTS
  6
ByBlock
 62
     0
100
AcDbPoint
 10
289.8287716641016
 20
242.3716799057975
 30
0.0
  0
POINT
  5
28A4
330
18
100
AcDbEntity
  8
DEFPOINTS
  6
ByBlock
 62
     0
100
AcDbPoint
 10
299.8287716641016
 20
242.3716799057975
 30
0.0
  0
POINT
  5
28A5
330
18
100
AcDbEntity
  8
DEFPOINTS
  6
ByBlock
 62
     0
100
AcDbPoint
 10
299.8287716641016
 20
234.6576902789569
 30
0.0
  0
POINT
  5
28AB
330
18
100
AcDbEntity
  8
DEFPOINTS
  6
ByBlock
 62
     0
100
AcDbPoint
 10
321.4256920151026
 20
244.3716799057975
 30
0.0
  0
POINT
  5
28AC
330
18
100
AcDbEntity
  8
DEFPOINTS
  6
ByBlock
 62
     0
100
AcDbPoint
 10
297.789519629349
 20
226.5716799057975
 30
0.0
  0
LINE
  5
28AE
330
18
100
AcDbEntity
  8
0
  6
ByBlock
 62
     2
100
AcDbLine
 10
302.9172477758916
 20
244.3716799057975
 30
0.0
 11
321.4256920151026
 21
244.3716799057975
 31
0.0
  0
LINE
  5
28AF
330
18
100
AcDbEntity
  8
0
  6
ByBlock
 62
     2
100
AcDbLine
 10
320.1756920151026
 20
286.3716799057972
 30
0.0
 11
320.1756920151026
 21
246.8716799057975
 31
0.0
  0
INSERT
  5
28B0
330
18
100
AcDbEntity
  8
0
  6
ByBlock
 62
     2
100
AcDbBlockReference
  2
_OPEN
 10
320.1756920151026
 20
288.8716799057972
 30
0.0
 41
2.5
 42
2.5
 43
2.5
 50
90.0
  0
INSERT
  5
28B1
330
18
100
AcDbEntity
  8
0
  6
ByBlock
 62
     2
100
AcDbBlockReference
  2
_OPEN
 10
320.1756920151026
 20
244.3716799057975
 30
0.0
 41
2.5
 42
2.5
 43
2.5
 50
270.0
  0
MTEXT
  5
28B2
330
18
100
AcDbEntity
  8
0
  6
ByBlock
 62
     6
100
AcDbMText
 10
318.3006920151026
 20
266.6216799057973
 30
0.0
 40
2.5
 41
0.0
 71
     5
 72
     1
  1
\A1;44.5
  7
STYLE3
 11
0.0000000000000001
 21
1.0
 31
0.0
 73
     1
 44
1.0
  0
POINT
  5
28B3
330
18
100
AcDbEntity
  8
DEFPOINTS
  6
ByBlock
 62
     0
100
AcDbPoint
 10
309.3287716641017
 20
288.8716799057972
 30
0.0
  0
POINT
  5
28B4
330
18
100
AcDbEntity
  8
DEFPOINTS
  6
ByBlock
 62
     0
100
AcDbPoint
 10
302.9172477758916
 20
244.3716799057975
 30
0.0
  0
POINT
  5
28B5
330
18
100
AcDbEntity
  8
DEFPOINTS
  6
ByBlock
 62
     0
100
AcDbPoint
 10
320.1756920151026
 20
244.3716799057975
 30
0.0
  0
LINE
  5
28B6
330
18
100
AcDbEntity
  8
0
  6
ByBlock
 62
     2
100
AcDbLine
 10
294.8287716641016
 20
297.3716799057975
 30
0.0
 11
321.4256920151026
 21
297.3716799057975
 31
0.0
  0
LINE
  5
28B7
330
18
100
AcDbEntity
  8
0
  6
ByBlock
 62
     2
100
AcDbLine
 10
309.3287716641017
 20
288.8716799057972
 30
0.0
 11
321.4256920151026
 21
288.8716799057972
 31
0.0
  0
LINE
  5
28B8
330
18
100
AcDbEntity
  8
0
  6
ByBlock
 62
     2
100
AcDbLine
 10
320.1756920151026
 20
294.8716799057975
 30
0.0
 11
320.1756920151026
 21
291.3716799057972
 31
0.0
  0
INSERT
  5
28B9
330
18
100
AcDbEntity
  8
0
  6
ByBlock
 62
     2
100
AcDbBlockReference
  2
_OPEN
 10
320.1756920151026
 20
297.3716799057975
 30
0.0
 41
2.5
 42
2.5
 43
2.5
 50
90.0
  0
INSERT
  5
28BA
330
18
100
AcDbEntity
  8
0
  6
ByBlock
 62
     2
100
AcDbBlockReference
  2
_OPEN
 10
320.1756920151026
 20
288.8716799057972
 30
0.0
 41
2.5
 42
2.5
 43
2.5
 50
270.0
  0
MTEXT
  5
28BB
330
18
100
AcDbEntity
  8
0
  6
ByBlock
 62
     6
100
AcDbMText
 10
318.3006920151026
 20
293.1216799057974
 30
0.0
 40
2.5
 41
0.0
 71
     5
 72
     1
  1
\A1;8.5
  7
STYLE3
 11
0.0000000000000001
 21
1.0
 31
0.0
 73
     1
 44
1.0
  0
POINT
  5
28BC
330
18
100
AcDbEntity
  8
DEFPOINTS
  6
ByBlock
 62
     0
100
AcDbPoint
 10
294.8287716641016
 20
297.3716799057975
 30
0.0
  0
POINT
  5
28BD
330
18
100
AcDbEntity
  8
DEFPOINTS
  6
ByBlock
 62
     0
100
AcDbPoint
 10
309.3287716641017
 20
288.8716799057972
 30
0.0
  0
POINT
  5
28BE
330
18
100
AcDbEntity
  8
DEFPOINTS
  6
ByBlock
 62
     0
100
AcDbPoint
 10
320.1756920151026
 20
288.8716799057972
 30
0.0
  0
LINE
  5
28BF
330
18
100
AcDbEntity
  8
0
  6
ByBlock
 62
     2
100
AcDbLine
 10
451.9057566442389
 20
256.9161077760327
 30
0.0
 11
451.9057566442389
 21
267.9418720047776
 31
0.0
  0
LINE
  5
28C0
330
18
100
AcDbEntity
  8
0
  6
ByBlock
 62
     2
100
AcDbLine
 10
464.3598875890328
 20
256.9161077760329
 30
0.0
 11
464.3598875890328
 21
267.9418720047776
 31
0.0
  0
LINE
  5
28C1
330
18
100
AcDbEntity
  8
0
  6
ByBlock
 62
     2
100
AcDbLine
 10
454.4057566442388
 20
266.6918720047775
 30
0.0
 11
461.8598875890328
 21
266.6918720047775
 31
0.0
  0
INSERT
  5
28C2
330
18
100
AcDbEntity
  8
0
  6
ByBlock
 62
     2
100
AcDbBlockReference
  2
_OPEN
 10
451.9057566442389
 20
266.6918720047775
 30
0.0
 41
2.5
 42
2.5
 43
2.5
 50
180.0
  0
INSERT
  5
28C3
330
18
100
AcDbEntity
  8
0
  6
ByBlock
 62
     2
100
AcDbBlockReference
  2
_OPEN
 10
464.3598875890328
 20
266.6918720047775
 30
0.0
 41
2.5
 42
2.5
 43
2.5
  0
MTEXT
  5
28C4
330
18
100
AcDbEntity
  8
0
  6
ByBlock
 62
     6
100
AcDbMText
 10
458.1328221166359
 20
269.2216339095395
 30
0.0
 40
2.5
 41
0.0
 71
     5
 72
     1
  1
\A1;(6.35)
  7
STYLE3
 73
     1
 44
1.0
  0
POINT
  5
28C5
330
18
100
AcDbEntity
  8
DEFPOINTS
  6
ByBlock
 62
     0
100
AcDbPoint
 10
451.9057566442389
 20
256.9161077760327
 30
0.0
  0
POINT
  5
28C6
330
18
100
AcDbEntity
  8
DEFPOINTS
  6
ByBlock
 62
     0
100
AcDbPoint
 10
464.3598875890328
 20
256.9161077760329
 30
0.0
  0
POINT
  5
28C7
330
18
100
AcDbEntity
  8
DEFPOINTS
  6
ByBlock
 62
     0
100
AcDbPoint
 10
464.3598875890328
 20
266.6918720047775
 30
0.0
  0
LINE
  5
28C8
330
18
100
AcDbEntity
  8
0
  6
ByBlock
 62
     2
100
AcDbLine
 10
449.7157566442388
 20
255.1161077760327
 30
0.0
 11
449.7157566442388
 21
274.54185340718
 31
0.0
  0
LINE
  5
28C9
330
18
100
AcDbEntity
  8
0
  6
ByBlock
 62
     2
100
AcDbLine
 10
466.7957566442391
 20
255.1161077760327
 30
0.0
 11
466.7957566442391
 21
274.54185340718
 31
0.0
  0
LINE
  5
28CA
330
18
100
AcDbEntity
  8
0
  6
ByBlock
 62
     2
100
AcDbLine
 10
452.2157566442388
 20
273.29185340718
 30
0.0
 11
464.2957566442388
 21
273.29185340718
 31
0.0
  0
INSERT
  5
28CB
330
18
100
AcDbEntity
  8
0
  6
ByBlock
 62
     2
100
AcDbBlockReference
  2
_OPEN
 10
449.7157566442388
 20
273.29185340718
 30
0.0
 41
2.5
 42
2.5
 43
2.5
 50
180.0
  0
INSERT
  5
28CC
330
18
100
AcDbEntity
  8
0
  6
ByBlock
 62
     2
100
AcDbBlockReference
  2
_OPEN
 10
466.7957566442391
 20
273.29185340718
 30
0.0
 41
2.5
 42
2.5
 43
2.5
  0
MTEXT
  5
28CD
330
18
100
AcDbEntity
  8
0
  6
ByBlock
 62
     6
100
AcDbMText
 10
458.2557566442388
 20
275.16685340718
 30
0.0
 40
2.5
 41
0.0
 71
     5
 72
     1
  1
\A1;8.54
  7
STYLE3
 73
     1
 44
1.0
  0
POINT
  5
28CE
330
18
100
AcDbEntity
  8
DEFPOINTS
  6
ByBlock
 62
     0
100
AcDbPoint
 10
449.7157566442388
 20
255.1161077760327
 30
0.0
  0
POINT
  5
28CF
330
18
100
AcDbEntity
  8
DEFPOINTS
  6
ByBlock
 62
     0
100
AcDbPoint
 10
466.7957566442391
 20
255.1161077760327
 30
0.0
  0
POINT
  5
28D0
330
18
100
AcDbEntity
  8
DEFPOINTS
  6
ByBlock
 62
     0
100
AcDbPoint
 10
466.7957566442391
 20
273.29185340718
 30
0.0
  0
POINT
  5
28D7
330
18
100
AcDbEntity
  8
DEFPOINTS
  6
ByBlock
 62
     0
100
AcDbPoint
 10
290.8287716641016
 20
240.3716799057975
 30
0.0
  0
POINT
  5
28D8
330
18
100
AcDbEntity
  8
DEFPOINTS
  6
ByBlock
 62
     0
100
AcDbPoint
 10
292.4453694191168
 20
226.5716799057975
 30
0.0
  0
ARC
  5
28DA
330
18
100
AcDbEntity
  8
外形線
100
AcDbCircle
 10
294.8287716641016
 20
226.5716799057975
 30
0.0
 40
1.0
100
AcDbArc
 50
126.869897645842
 51
53.13010235415791
  0
LINE
  5
28DB
330
18
100
AcDbEntity
  8
外形線
100
AcDbLine
 10
294.2287716641017
 20
227.3716799057975
 30
0.0
 11
295.4287716641017
 21
227.3716799057975
 31
0.0
  0
LINE
  5
28DC
330
18
100
AcDbEntity
  8
隠れ線
 62
     4
 48
0.3
100
AcDbLine
 10
294.8287716641016
 20
227.5713017355753
 30
0.0
 11
294.2287716641017
 21
227.3716799057975
 31
0.0
  0
LINE
  5
28DD
330
18
100
AcDbEntity
  8
中心線
 48
0.5
100
AcDbLine
 10
292.4453694191168
 20
226.5716799057975
 30
0.0
 11
297.789519629349
 21
226.5716799057975
 31
0.0
  0
LINE
  5
28DE
330
18
100
AcDbEntity
  8
隠れ線
 62
     4
 48
0.3
100
AcDbLine
 10
294.8287716641016
 20
227.5713017355753
 30
0.0
 11
295.4287716641017
 21
227.3716799057975
 31
0.0
  0
LINE
  5
28DF
330
18
100
AcDbEntity
  8
外形線
100
AcDbLine
 10
295.9287716641016
 20
236.3116799057975
 30
0.0
 11
295.4287716641017
 21
227.3716799057975
 31
0.0
  0
LINE
  5
28E0
330
18
100
AcDbEntity
  8
外形線
100
AcDbLine
 10
293.7287716641017
 20
236.3116799057975
 30
0.0
 11
294.2287716641017
 21
227.3716799057975
 31
0.0
  0
LINE
  5
28E1
330
18
100
AcDbEntity
  8
外形線
100
AcDbLine
 10
293.7287716641017
 20
236.3116799057975
 30
0.0
 11
295.9287716641016
 21
236.3116799057975
 31
0.0
  0
LINE
  5
28E2
330
18
100
AcDbEntity
  8
外形線
100
AcDbLine
 10
295.9287716641016
 20
238.7616799057975
 30
0.0
 11
293.7287716641017
 21
238.7616799057975
 31
0.0
  0
LINE
  5
28E3
330
18
100
AcDbEntity
  8
外形線
100
AcDbLine
 10
295.9287716641016
 20
239.2616799057975
 30
0.0
 11
293.7287716641017
 21
239.2616799057976
 31
0.0
  0
LINE
  5
28E4
330
18
100
AcDbEntity
  8
外形線
 62
     4
100
AcDbLine
 10
295.4957589622093
 20
239.0116799057975
 30
0.0
 11
294.161784365994
 21
239.0116799057975
 31
0.0
  0
LINE
  5
28E5
330
18
100
AcDbEntity
  8
外形線
100
AcDbLine
 10
293.7287716641017
 20
238.7616799057978
 30
0.0
 11
293.7287716641017
 21
236.3116799057975
 31
0.0
  0
LINE
  5
28E6
330
18
100
AcDbEntity
  8
外形線
100
AcDbLine
 10
293.7287716641017
 20
238.7616799057977
 30
0.0
 11
294.1617843659938
 21
239.0116799057977
 31
0.0
  0
LINE
  5
28E7
330
18
100
AcDbEntity
  8
外形線
100
AcDbLine
 10
293.7287716641017
 20
239.2616799057975
 30
0.0
 11
294.161784365994
 21
239.0116799057975
 31
0.0
  0
LINE
  5
28E8
330
18
100
AcDbEntity
  8
外形線
100
AcDbLine
 10
295.9287716641016
 20
238.7616799057977
 30
0.0
 11
295.9287716641016
 21
236.3116799057975
 31
0.0
  0
LINE
  5
28E9
330
18
100
AcDbEntity
  8
外形線
100
AcDbLine
 10
295.9287716641016
 20
238.7616799057977
 30
0.0
 11
295.4957589622095
 21
239.0116799057977
 31
0.0
  0
LINE
  5
28EA
330
18
100
AcDbEntity
  8
外形線
100
AcDbLine
 10
295.9287716641016
 20
239.2616799057975
 30
0.0
 11
295.4957589622093
 21
239.0116799057975
 31
0.0
  0
LINE
  5
28EB
330
18
100
AcDbEntity
  8
外形線
100
AcDbLine
 10
293.7287716641017
 20
240.5116799057975
 30
0.0
 11
293.7287716641017
 21
239.2616799057976
 31
0.0
  0
LINE
  5
28EC
330
18
100
AcDbEntity
  8
外形線
100
AcDbLine
 10
293.7287716641017
 20
240.5116799057975
 30
0.0
 11
294.8287716641016
 21
240.5116799057975
 31
0.0
  0
LINE
  5
28ED
330
18
100
AcDbEntity
  8
外形線
100
AcDbLine
 10
293.7287716641017
 20
240.5116799057975
 30
0.0
 11
293.8287716641016
 21
240.6116799057975
 31
0.0
  0
LINE
  5
28EE
330
18
100
AcDbEntity
  8
外形線
100
AcDbLine
 10
295.9287716641016
 20
240.5116799057975
 30
0.0
 11
295.9287716641016
 21
239.2616799057975
 31
0.0
  0
LINE
  5
28EF
330
18
100
AcDbEntity
  8
外形線
100
AcDbLine
 10
295.8287716641016
 20
240.6116799057976
 30
0.0
 11
295.9287716641016
 21
240.5116799057976
 31
0.0
  0
LINE
  5
28F0
330
18
100
AcDbEntity
  8
外形線
100
AcDbLine
 10
295.8287716641016
 20
240.7116799057976
 30
0.0
 11
295.7287716641015
 21
240.6116799057975
 31
0.0
  0
LINE
  5
28F1
330
18
100
AcDbEntity
  8
外形線
100
AcDbLine
 10
294.8287716641016
 20
240.5116799057975
 30
0.0
 11
295.9287716641016
 21
240.5116799057975
 31
0.0
  0
LINE
  5
28F2
330
18
100
AcDbEntity
  8
0
  6
ByBlock
 62
     2
100
AcDbLine
 10
290.8287716641016
 20
268.0430545297675
 30
0.0
 11
290.8287716641016
 21
270.4990160887376
 31
0.0
  0
LINE
  5
28F3
330
18
100
AcDbEntity
  8
0
  6
ByBlock
 62
     2
100
AcDbLine
 10
298.8287716641016
 20
266.7049776477077
 30
0.0
 11
298.8287716641016
 21
270.4990160887376
 31
0.0
  0
LINE
  5
28F4
330
18
100
AcDbEntity
  8
0
  6
ByBlock
 62
     2
100
AcDbLine
 10
293.3287716641016
 20
269.2490160887376
 30
0.0
 11
296.3287716641016
 21
269.2490160887376
 31
0.0
  0
LINE
  5
28F5
330
18
100
AcDbEntity
  8
0
  6
ByBlock
 62
     2
100
AcDbLine
 10
298.8287716641016
 20
269.2490160887376
 30
0.0
 11
304.2454383307683
 21
269.2490160887376
 31
0.0
  0
INSERT
  5
28F6
330
18
100
AcDbEntity
  8
0
  6
ByBlock
 62
     2
100
AcDbBlockReference
  2
_OPEN
 10
290.8287716641016
 20
269.2490160887376
 30
0.0
 41
2.5
 42
2.5
 43
2.5
 50
180.0
  0
INSERT
  5
28F7
330
18
100
AcDbEntity
  8
0
  6
ByBlock
 62
     2
100
AcDbBlockReference
  2
_OPEN
 10
298.8287716641016
 20
269.2490160887376
 30
0.0
 41
2.5
 42
2.5
 43
2.5
  0
MTEXT
  5
28F8
330
18
100
AcDbEntity
  8
0
  6
ByBlock
 62
     6
100
AcDbMText
 10
302.7871049974349
 20
271.1240160887376
 30
0.0
 40
2.5
 41
0.0
 71
     5
 72
     1
  1
\A1;8
  7
STYLE3
 73
     1
 44
1.0
  0
POINT
  5
28F9
330
18
100
AcDbEntity
  8
DEFPOINTS
  6
ByBlock
 62
     0
100
AcDbPoint
 10
290.8287716641016
 20
268.0430545297675
 30
0.0
  0
POINT
  5
28FA
330
18
100
AcDbEntity
  8
DEFPOINTS
  6
ByBlock
 62
     0
100
AcDbPoint
 10
298.8287716641016
 20
266.7049776477077
 30
0.0
  0
POINT
  5
28FB
330
18
100
AcDbEntity
  8
DEFPOINTS
  6
ByBlock
 62
     0
100
AcDbPoint
 10
298.8287716641016
 20
269.2490160887376
 30
0.0
  0
POINT
  5
2902
330
18
100
AcDbEntity
  8
DEFPOINTS
  6
ByBlock
 62
     0
100
AcDbPoint
 10
327.7386909673197
 20
297.3716799057975
 30
0.0
  0
LINE
  5
2905
330
18
100
AcDbEntity
  8
0
  6
ByBlock
 62
     2
100
AcDbLine
 10
321.4256920151026
 20
297.3716799057975
 30
0.0
 11
327.7386909673197
 21
297.3716799057975
 31
0.0
  0
LINE
  5
2906
330
18
100
AcDbEntity
  8
0
  6
ByBlock
 62
     2
100
AcDbLine
 10
321.4256920151026
 20
244.3716799057975
 30
0.0
 11
327.7386909673197
 21
244.3716799057975
 31
0.0
  0
LINE
  5
2907
330
18
100
AcDbEntity
  8
0
  6
ByBlock
 62
     2
100
AcDbLine
 10
326.4886909673196
 20
294.8716799057975
 30
0.0
 11
326.4886909673196
 21
246.8716799057975
 31
0.0
  0
INSERT
  5
2908
330
18
100
AcDbEntity
  8
0
  6
ByBlock
 62
     2
100
AcDbBlockReference
  2
_OPEN
 10
326.4886909673196
 20
297.3716799057975
 30
0.0
 41
2.5
 42
2.5
 43
2.5
 50
90.0
  0
INSERT
  5
2909
330
18
100
AcDbEntity
  8
0
  6
ByBlock
 62
     2
100
AcDbBlockReference
  2
_OPEN
 10
326.4886909673196
 20
244.3716799057975
 30
0.0
 41
2.5
 42
2.5
 43
2.5
 50
270.0
  0
MTEXT
  5
290A
330
18
100
AcDbEntity
  8
0
  6
ByBlock
 62
     6
100
AcDbMText
 10
324.6136909673197
 20
270.8716799057975
 30
0.0
 40
2.5
 41
0.0
 71
     5
 72
     1
  1
\A1;53
  7
STYLE3
 11
0.0000000000000001
 21
1.0
 31
0.0
 73
     1
 44
1.0
  0
POINT
  5
290B
330
18
100
AcDbEntity
  8
DEFPOINTS
  6
ByBlock
 62
     0
100
AcDbPoint
 10
321.4256920151026
 20
297.3716799057975
 30
0.0
  0
POINT
  5
290C
330
18
100
AcDbEntity
  8
DEFPOINTS
  6
ByBlock
 62
     0
100
AcDbPoint
 10
321.4256920151026
 20
244.3716799057975
 30
0.0
  0
POINT
  5
290D
330
18
100
AcDbEntity
  8
DEFPOINTS
  6
ByBlock
 62
     0
100
AcDbPoint
 10
326.4886909673196
 20
244.3716799057975
 30
0.0
  0
LINE
  5
290E
330
18
100
AcDbEntity
  8
文字
 62
     2
100
AcDbLine
 10
362.4536705445708
 20
262.4042544699245
 30
0.0
 11
355.6976262162063
 21
250.477301657941
 31
0.0
1001
ACAD
1000
DSTYLE
1002
{
1070
   271
1070
     2
1002
}
  0
LINE
  5
290F
330
18
100
AcDbEntity
  8
文字
 62
     2
100
AcDbLine
 10
355.6976262162063
 20
250.477301657941
 30
0.0
 11
350.7869119304921
 21
250.477301657941
 31
0.0
1001
ACAD
1000
DSTYLE
1002
{
1070
   271
1070
     2
1002
}
  0
TEXT
  5
2910
330
18
100
AcDbEntity
  8
文字
 62
     6
100
AcDbText
 10
351.9753562127915
 20
251.1778044983835
 30
0.0
 40
2.5
  1
A
  7
STYLE3
100
AcDbText
  0
HATCH
  5
2911
330
18
100
AcDbEntity
  8
ROGO
 62
     4
100
AcDbHatch
 10
0.0
 20
0.0
 30
0.0
210
0.0
220
0.0
230
1.0
  2
SOLID
 70
     1
 71
     1
 91
        1
 92
        7
 72
     0
 73
     1
 93
       11
 10
298.7284892632778
 20
323.8021933168774
 10
299.2756638897378
 20
323.8021933168776
 10
299.4689263378386
 20
324.1897784156892
 10
299.6621887859395
 20
323.8021933168774
 10
300.2093514406589
 20
323.8021933168775
 10
299.8391329033784
 20
324.5446613429412
 10
300.7386207381492
 20
325.2871293690052
 10
300.1914580834298
 20
325.2871293690051
 10
299.9352603032024
 20
325.1250045696618
 10
300.0161009642986
 20
325.2871293690052
 10
299.4689263378386
 20
325.2871293690052
 97
       11
330
295F
330
2962
330
2961
330
2960
330
2916
330
2913
330
295C
330
295B
330
295D
330
295A
330
295E
 75
     0
 76
     1
 47
0.0514683685270805
 98
        1
 10
299.4218345503254
 20
324.6500628658708
450
        0
451
        0
460
0.0
461
0.0
452
        0
462
0.0
453
        0
470

  0
HATCH
  5
2912
330
18
100
AcDbEntity
  8
ROGO
 62
     4
100
AcDbHatch
 10
0.0
 20
0.0
 30
0.0
210
0.0
220
0.0
230
1.0
  2
SOLID
 70
     1
 71
     1
 91
        1
 92
        5
 93
        8
 72
     4
 94
        3
 73
     0
 74
     0
 95
       26
 96
       22
 40
0.0
 40
0.0
 40
0.0
 40
0.0
 40
0.1723984759424608
 40
0.2878059064036966
 40
0.3710240621887089
 40
0.4331603664333254
 40
0.5137544142124919
 40
0.5725802121924054
 40
0.6788058922658106
 40
0.7652720686804378
 40
0.8240829233522745
 40
0.8817499774613301
 40
0.9849051260984159
 40
1.0578481282609
 40
1.097133570529045
 40
1.152937380796406
 40
1.193234564309729
 40
1.251611879021427
 40
1.28464838962433
 40
1.356539542405971
 40
1.389365667278775
 40
1.389365667278775
 40
1.389365667278775
 40
1.389365667278775
 10
298.3182040871056
 20
325.2871293690052
 10
298.259689380667
 20
325.2836382812769
 10
298.1620036091865
 20
325.2778101806368
 10
298.054745226351
 20
325.212651864934
 10
297.9761614558359
 20
325.1747716835598
 10
297.9201156060073
 20
325.1232768041607
 10
297.87903377089
 20
325.0700863553712
 10
297.8272424054246
 20
325.0067103256408
 10
297.7850080268274
 20
324.9329115036004
 10
297.7635006254011
 20
324.8515723361308
 10
297.744449573345
 20
324.7867445477128
 10
297.7303209942077
 20
324.7145024377197
 10
297.7339157047151
 20
324.6364555454818
 10
297.7390634946784
 20
324.563969587557
 10
297.7620471250875
 20
324.5122254662347
 10
297.788221409021
 20
324.4753872174986
 10
297.8202714612424
 20
324.4348139705798
 10
297.8553412271438
 20
324.4079424405269
 10
297.8843467861373
 20
324.3592628581127
 10
297.9351200386723
 20
324.3530509923171
 10
297.9673935379206
 20
324.3406875253902
 10
297.9775104349611
 20
324.3368119022047
 72
     1
 10
297.9775104349611
 20
324.3368119022047
 11
298.7960313791502
 21
324.3368119022047
 72
     1
 10
298.7960313791502
 20
324.3368119022047
 11
298.9723357759294
 21
324.6903878695905
 72
     1
 10
298.9723357759294
 20
324.6903878695905
 11
298.3646621504927
 21
324.6903878695906
 72
     4
 94
        3
 73
     0
 74
     0
 95
       16
 96
       12
 40
0.0
 40
0.0
 40
0.0
 40
0.0
 40
0.0520638816757735
 40
0.1046647644702252
 40
0.1360388269655266
 40
0.1661200957203178
 40
0.1991564750639878
 40
0.2222266184462555
 40
0.2441181822786244
 40
0.2885111307736901
 40
0.379400594332445
 40
0.379400594332445
 40
0.379400594332445
 40
0.379400594332445
 10
298.3646621504929
 20
324.6903878695905
 10
298.3463325724743
 20
324.6957807002035
 10
298.3094843601551
 20
324.7066219845596
 10
298.30640046234
 20
324.7591765483513
 10
298.3106018269505
 20
324.7966259755782
 10
298.328197151323
 20
324.8238913455053
 10
298.3495433316551
 20
324.8437304895339
 10
298.3574914613222
 20
324.8695678726601
 10
298.3808542643282
 20
324.8890783294586
 10
298.4222827739931
 20
324.9218726819077
 10
298.4680955339822
 20
324.9288571462368
 10
298.4988748283218
 20
324.9335496573068
 72
     1
 10
298.4988748283219
 20
324.9335496573069
 11
299.0935840966795
 21
324.9335496573069
 72
     1
 10
299.0935840966795
 20
324.9335496573069
 11
299.269890360494
 21
325.2871293690053
 72
     1
 10
299.269890360494
 20
325.2871293690053
 11
298.3182040871056
 21
325.2871293690052
 97
        8
330
2914
330
2938
330
2944
330
293D
330
2958
330
2957
330
2959
330
2915
 75
     0
 76
     1
 47
0.0514683685270805
 98
        1
 10
298.4824232771834
 20
325.1131230085233
450
        0
451
        0
460
0.0
461
0.0
452
        0
462
0.0
453
        0
470

  0
LINE
  5
2913
102
{ACAD_REACTORS
330
2911
330
291C
102
}
330
18
100
AcDbEntity
  8
ROGO
 62
     4
100
AcDbLine
 10
289.2241246809336
 20
323.8021933168775
 30
0.0
 11
299.2756638897378
 21
323.8021933168775
 31
0.0
  0
LINE
  5
2914
102
{ACAD_REACTORS
330
2912
102
}
330
18
100
AcDbEntity
  8
ROGO
 62
     4
100
AcDbLine
 10
298.3182040871059
 20
325.2871293690052
 30
0.0
 11
299.269890360494
 21
325.2871293690052
 31
0.0
  0
LINE
  5
2915
102
{ACAD_REACTORS
330
2912
102
}
330
18
100
AcDbEntity
  8
ROGO
 62
     4
100
AcDbLine
 10
299.269890360494
 20
325.2871293690052
 30
0.0
 11
299.0935840966795
 21
324.9335496573069
 31
0.0
  0
LINE
  5
2916
102
{ACAD_REACTORS
330
2911
102
}
330
18
100
AcDbEntity
  8
ROGO
 62
     4
100
AcDbLine
 10
299.4689263378386
 20
325.2871293690052
 30
0.0
 11
298.7284892632778
 21
323.8021933168775
 31
0.0
  0
HATCH
  5
2917
330
18
100
AcDbEntity
  8
ROGO
 62
     4
100
AcDbHatch
 10
0.0
 20
0.0
 30
0.0
210
0.0
220
0.0
230
1.0
  2
SOLID
 70
     1
 71
     0
 91
        1
 92
        7
 72
     0
 73
     1
 93
        4
 10
298.8027070226264
 20
323.9510359806922
 10
289.981727066925
 20
323.9510359806922
 10
289.9143864237046
 20
323.8021933168774
 10
298.7284892632778
 20
323.8021933168774
 97
        0
 75
     0
 76
     1
 47
0.0514683685270805
 98
        1
 10
295.5514601762193
 20
323.9116694881877
450
        0
451
        0
460
0.0
461
0.0
452
        0
462
0.0
453
        0
470

  0
HATCH
  5
2918
330
18
100
AcDbEntity
  8
ROGO
 62
     4
100
AcDbHatch
 10
0.0
 20
0.0
 30
0.0
210
0.0
220
0.0
230
1.0
  2
SOLID
 70
     1
 71
     1
 91
        2
 92
        7
 72
     0
 73
     1
 93
        8
 10
294.0221530344829
 20
325.2871293690052
 10
293.4729067071438
 20
325.2871293690052
 10
292.7876143126293
 20
324.3368119022047
 10
293.3139200918945
 20
324.3368119022047
 10
293.4443955237705
 20
324.5177464680815
 10
294.0506642178562
 20
324.5177464680814
 10
294.1811396497322
 20
324.3368119022048
 10
294.7074454289974
 20
324.3368119022047
 97
        8
330
291A
330
2922
330
2927
330
2923
330
2919
330
293B
330
2941
330
293A
 92
       22
 72
     0
 73
     1
 93
        3
 10
293.9130478453914
 20
324.7085836107637
 10
293.5820118962354
 20
324.7085836107637
 10
293.7475298708133
 20
324.9381128213169
 97
        3
330
2946
330
2945
330
2947
 75
     0
 76
     1
 47
0.0514683685270805
 98
        2
 10
294.0859786257372
 20
324.8002444928573
 10
294.0859786257372
 20
324.8002444928573
450
        0
451
        0
460
0.0
461
0.0
452
        0
462
0.0
453
        0
470

  0
LINE
  5
2919
102
{ACAD_REACTORS
330
2918
102
}
330
18
100
AcDbEntity
  8
ROGO
 62
     4
100
AcDbLine
 10
293.4443955237705
 20
324.5177464680815
 30
0.0
 11
294.0506642178562
 21
324.5177464680815
 31
0.0
  0
LINE
  5
291A
102
{ACAD_REACTORS
330
2918
102
}
330
18
100
AcDbEntity
  8
ROGO
 62
     4
100
AcDbLine
 10
293.4729067071438
 20
325.2871293690052
 30
0.0
 11
294.022153034483
 21
325.2871293690052
 31
0.0
  0
LINE
  5
291B
330
18
100
AcDbEntity
  8
ROGO
 62
     4
100
AcDbLine
 10
289.9714046703439
 20
323.9510359806923
 30
0.0
 11
298.8027070226264
 21
323.9510359806923
 31
0.0
  0
HATCH
  5
291C
330
18
100
AcDbEntity
  8
ROGO
 62
     4
100
AcDbHatch
 10
0.0
 20
0.0
 30
0.0
210
0.0
220
0.0
230
1.0
  2
SOLID
 70
     1
 71
     1
 91
        2
 92
        5
 93
        6
 72
     1
 10
289.2241246809336
 20
323.8021933168775
 11
289.9143864237047
 21
323.8021933168775
 72
     1
 10
289.9143864237047
 20
323.8021933168775
 11
290.1562630368397
 21
324.3368119022047
 72
     1
 10
290.1562630368397
 20
324.3368119022047
 11
290.8015161928856
 21
324.3368119022048
 72
     4
 94
        3
 73
     0
 74
     0
 95
       18
 96
       14
 40
0.108740278791501
 40
0.108740278791501
 40
0.108740278791501
 40
0.108740278791501
 40
0.6623149649549278
 40
1.384304701649787
 40
2.097394834876493
 40
2.774073369849618
 40
3.428974823686336
 40
4.005208313035923
 40
4.455173659284313
 40
4.720999734343523
 40
5.086034088486724
 40
5.569973738255373
 40
6.060470601257717
 40
6.060470601257717
 40
6.060470601257717
 40
6.060470601257717
 10
290.8015161928855
 20
324.3368119022047
 10
290.8469280439902
 20
324.3371500705097
 10
290.951567477644
 20
324.3379292886884
 10
291.0979572265286
 20
324.4161339092477
 10
291.2367765347934
 20
324.5157608979273
 10
291.348586043917
 20
324.6402344261765
 10
291.4182467367807
 20
324.7825485804396
 10
291.4290369579197
 20
324.9189436253703
 10
291.4224497930117
 20
325.026830410233
 10
291.3753811911633
 20
325.1020301776772
 10
291.3264476358262
 20
325.1783502514501
 10
291.2367200419986
 20
325.2444615340718
 10
291.1632012711362
 20
325.2734281033789
 10
291.1258154808857
 20
325.2871293690053
 72
     1
 10
291.1258154808858
 20
325.2871293690053
 11
289.958857229472
 21
325.2871293690052
 72
     1
 10
289.958857229472
 20
325.2871293690052
 11
289.2241246809336
 21
323.8021933168775
 97
        6
330
291E
330
2928
330
291F
330
2913
330
2925
330
2924
 92
       20
 93
        4
 72
     1
 10
290.3056081525281
 20
324.6669086132507
 11
290.4199504936516
 21
324.9196388787449
 72
     1
 10
290.4199504936516
 20
324.9196388787449
 11
290.7137615784437
 21
324.9196388787448
 72
     4
 94
        3
 73
     0
 74
     0
 95
       15
 96
       11
 40
0.0
 40
0.0
 40
0.0
 40
0.0
 40
0.1114278057886432
 40
0.1622327562563865
 40
0.2198997572250677
 40
0.2591851994932127
 40
0.3213155338880335
 40
0.3585299069783974
 40
0.4223775764185096
 40
0.4436601464819216
 40
0.4436601464819216
 40
0.4436601464819216
 40
0.4436601464819216
 10
290.7137615784437
 20
324.9196388787449
 10
290.7556117014605
 20
324.9198305746471
 10
290.81654317865
 20
324.920109673337
 10
290.8498626805116
 20
324.8447372598463
 10
290.8349272910978
 20
324.7962091835113
 10
290.816152289351
 20
324.7463859742234
 10
290.7829726090074
 20
324.7125303520714
 10
290.7384406180611
 20
324.6799216806695
 10
290.6963557585258
 20
324.6759742549814
 10
290.6689842815826
 20
324.6687217422912
 10
290.6621414090714
 20
324.6669086132508
 72
     1
 10
290.6621414090714
 20
324.6669086132508
 11
290.3056081525281
 21
324.6669086132507
 97
        4
330
292B
330
2929
330
292D
330
292A
 75
     0
 76
     1
 47
0.0514683685270805
 98
        2
 10
289.9650944402745
 20
324.8252748480957
 10
289.9650944402745
 20
324.8252748480957
450
        0
451
        0
460
0.0
461
0.0
452
        0
462
0.0
453
        0
470

  0
HATCH
  5
291D
330
18
100
AcDbEntity
  8
ROGO
 62
     4
100
AcDbHatch
 10
0.0
 20
0.0
 30
0.0
210
0.0
220
0.0
230
1.0
  2
SOLID
 70
     1
 71
     1
 91
        1
 92
        1
 93
       12
 72
     1
 10
291.8152254606753
 20
325.2871293690052
 11
293.1005693699555
 21
325.2871293690053
 72
     1
 10
293.1005693699555
 20
325.2871293690052
 11
292.9928586880862
 21
325.0694399866233
 72
     1
 10
292.9928586880862
 20
325.0694399866233
 11
292.3173144092882
 21
325.0694399866233
 72
     1
 10
292.3173144092882
 20
325.0694399866233
 11
292.2330980408113
 21
324.8992339409276
 72
     1
 10
292.2330980408113
 20
324.8992339409276
 11
292.9086423196092
 21
324.8992339409276
 72
     1
 10
292.9086423196092
 20
324.8992339409276
 11
292.8222863231259
 21
324.7247035859697
 72
     1
 10
292.8222863231259
 20
324.7247035859698
 11
292.146742044328
 21
324.7247035859697
 72
     1
 10
292.146742044328
 20
324.7247035859697
 11
292.0625221105349
 21
324.5544903345684
 72
     1
 10
292.0625221105349
 20
324.5544903345684
 11
292.7380663893328
 21
324.5544903345684
 72
     1
 10
292.7380663893328
 20
324.5544903345684
 11
292.6303611254306
 21
324.3368119022047
 72
     1
 10
292.6303611254306
 20
324.3368119022047
 11
291.3450172161503
 21
324.3368119022047
 72
     1
 10
291.3450172161503
 20
324.3368119022047
 11
291.8152254606753
 21
325.2871293690052
 97
       12
330
292C
330
292E
330
2930
330
292F
330
2931
330
2934
330
2933
330
2935
330
2932
330
2921
330
2926
330
2920
 75
     0
 76
     1
 98
        1
 10
239.2386324836422
 20
259.5769289038394
450
        0
451
        0
460
0.0
461
0.0
452
        0
462
0.0
453
        0
470

  0
SPLINE
  5
291E
102
{ACAD_REACTORS
330
291C
102
}
330
18
100
AcDbEntity
  8
ROGO
 62
     4
100
AcDbSpline
210
0.0
220
0.0
230
1.0
 70
     8
 71
     3
 72
    18
 73
    14
 74
     0
 42
0.0000000001
 43
0.0000000001
 40
0.1087402787915014
 40
0.1087402787915014
 40
0.1087402787915014
 40
0.1087402787915014
 40
0.5992371417938475
 40
1.083176791562495
 40
1.448211145705696
 40
1.714037220764907
 40
2.164002567013295
 40
2.740236056362883
 40
3.395137510199602
 40
4.071816045172726
 40
4.784906178399433
 40
5.506895915094291
 40
6.060470601257717
 40
6.060470601257717
 40
6.060470601257717
 40
6.060470601257717
 10
291.1258154808857
 20
325.2871293690053
 30
0.0
 10
291.1632012711362
 20
325.2734281033789
 30
0.0
 10
291.2367200419986
 20
325.2444615340718
 30
0.0
 10
291.3264476358262
 20
325.1783502514501
 30
0.0
 10
291.3753811911633
 20
325.1020301776772
 30
0.0
 10
291.4224497930117
 20
325.026830410233
 30
0.0
 10
291.4290369579197
 20
324.9189436253703
 30
0.0
 10
291.4182467367807
 20
324.7825485804396
 30
0.0
 10
291.348586043917
 20
324.6402344261765
 30
0.0
 10
291.2367765347934
 20
324.5157608979273
 30
0.0
 10
291.0979572265286
 20
324.4161339092477
 30
0.0
 10
290.951567477644
 20
324.3379292886884
 30
0.0
 10
290.8469280439902
 20
324.3371500705097
 30
0.0
 10
290.8015161928855
 20
324.3368119022047
 30
0.0
  0
LINE
  5
291F
102
{ACAD_REACTORS
330
291C
102
}
330
18
100
AcDbEntity
  8
ROGO
 62
     4
100
AcDbLine
 10
289.958857229472
 20
325.2871293690052
 30
0.0
 11
289.2241246809336
 21
323.8021933168775
 31
0.0
  0
LINE
  5
2920
102
{ACAD_REACTORS
330
291D
102
}
330
18
100
AcDbEntity
  8
ROGO
 62
     4
100
AcDbLine
 10
291.8152254606753
 20
325.2871293690052
 30
0.0
 11
291.3450172161503
 21
324.3368119022047
 31
0.0
  0
LINE
  5
2921
102
{ACAD_REACTORS
330
291D
102
}
330
18
100
AcDbEntity
  8
ROGO
 62
     4
100
AcDbLine
 10
292.7380663893328
 20
324.5544903345684
 30
0.0
 11
292.6303611254306
 21
324.3368119022047
 31
0.0
  0
LINE
  5
2922
102
{ACAD_REACTORS
330
2918
102
}
330
18
100
AcDbEntity
  8
ROGO
 62
     4
100
AcDbLine
 10
293.4729067071438
 20
325.2871293690052
 30
0.0
 11
292.7876143126293
 21
324.3368119022047
 31
0.0
  0
LINE
  5
2923
102
{ACAD_REACTORS
330
2918
102
}
330
18
100
AcDbEntity
  8
ROGO
 62
     4
100
AcDbLine
 10
293.4443955237705
 20
324.5177464680815
 30
0.0
 11
293.3139200918946
 21
324.3368119022047
 31
0.0
  0
LINE
  5
2924
102
{ACAD_REACTORS
330
291C
102
}
330
18
100
AcDbEntity
  8
ROGO
 62
     4
100
AcDbLine
 10
290.8015161931092
 20
324.3368119022047
 30
0.0
 11
290.1562630368397
 21
324.3368119022047
 31
0.0
  0
LINE
  5
2925
102
{ACAD_REACTORS
330
291C
102
}
330
18
100
AcDbEntity
  8
ROGO
 62
     4
100
AcDbLine
 10
290.1562630368399
 20
324.3368119022047
 30
0.0
 11
289.9143864237046
 21
323.8021933168775
 31
0.0
  0
LINE
  5
2926
102
{ACAD_REACTORS
330
291D
102
}
330
18
100
AcDbEntity
  8
ROGO
 62
     4
100
AcDbLine
 10
291.3450172161503
 20
324.3368119022047
 30
0.0
 11
292.6303611254306
 21
324.3368119022047
 31
0.0
  0
LINE
  5
2927
102
{ACAD_REACTORS
330
2918
102
}
330
18
100
AcDbEntity
  8
ROGO
 62
     4
100
AcDbLine
 10
292.7876143126293
 20
324.3368119022047
 30
0.0
 11
293.3139200918946
 21
324.3368119022047
 31
0.0
  0
LINE
  5
2928
102
{ACAD_REACTORS
330
291C
102
}
330
18
100
AcDbEntity
  8
ROGO
 62
     4
100
AcDbLine
 10
289.958857229472
 20
325.2871293690052
 30
0.0
 11
291.1258154808857
 21
325.2871293690052
 31
0.0
  0
LINE
  5
2929
102
{ACAD_REACTORS
330
291C
102
}
330
18
100
AcDbEntity
  8
ROGO
 62
     4
100
AcDbLine
 10
290.7137615784437
 20
324.9196388787449
 30
0.0
 11
290.4199504936517
 21
324.9196388787449
 31
0.0
  0
LINE
  5
292A
102
{ACAD_REACTORS
330
291C
102
}
330
18
100
AcDbEntity
  8
ROGO
 62
     4
100
AcDbLine
 10
290.6621414090714
 20
324.6669086132508
 30
0.0
 11
290.3056081525282
 21
324.6669086132508
 31
0.0
  0
LINE
  5
292B
102
{ACAD_REACTORS
330
291C
102
}
330
18
100
AcDbEntity
  8
ROGO
 62
     4
100
AcDbLine
 10
290.4199504936517
 20
324.9196388787449
 30
0.0
 11
290.3056081525282
 21
324.6669086132508
 31
0.0
  0
LINE
  5
292C
102
{ACAD_REACTORS
330
291D
102
}
330
18
100
AcDbEntity
  8
ROGO
 62
     4
100
AcDbLine
 10
291.8152254606753
 20
325.2871293690052
 30
0.0
 11
293.1005693699555
 21
325.2871293690053
 31
0.0
  0
SPLINE
  5
292D
102
{ACAD_REACTORS
330
291C
102
}
330
18
100
AcDbEntity
  8
ROGO
 62
     4
100
AcDbSpline
210
0.0
220
0.0
230
1.0
 70
     8
 71
     3
 72
    15
 73
    11
 74
     9
 42
0.0000000001
 43
0.0000000001
 44
0.0000000001
 40
0.0
 40
0.0
 40
0.0
 40
0.0
 40
0.1114278057885195
 40
0.1622327562564359
 40
0.2198997572250053
 40
0.2591851994932025
 40
0.3213155338881035
 40
0.3585299069784359
 40
0.4223775764184517
 40
0.4436601464818913
 40
0.4436601464818913
 40
0.4436601464818913
 40
0.4436601464818913
 10
290.7137615784437
 20
324.9196388787449
 30
0.0
 10
290.7556117014603
 20
324.9198305746472
 30
0.0
 10
290.8165431786498
 20
324.920109673337
 30
0.0
 10
290.8498626805116
 20
324.8447372598464
 30
0.0
 10
290.8349272910978
 20
324.7962091835112
 30
0.0
 10
290.816152289351
 20
324.7463859742234
 30
0.0
 10
290.7829726090074
 20
324.7125303520713
 30
0.0
 10
290.738440618061
 20
324.6799216806695
 30
0.0
 10
290.6963557585258
 20
324.6759742549812
 30
0.0
 10
290.6689842815826
 20
324.6687217422912
 30
0.0
 10
290.6621414090714
 20
324.6669086132508
 30
0.0
 11
290.7137615784437
 21
324.9196388787449
 31
0.0
 11
290.8221640231733
 21
324.8938500075116
 31
0.0
 11
290.8428121502876
 21
324.8474302074397
 31
0.0
 11
290.8324882351437
 21
324.7906948588745
 31
0.0
 11
290.8170022140146
 21
324.7545904391479
 31
0.0
 11
290.7757059597862
 21
324.7081706390759
 31
0.0
 11
290.7447339175281
 21
324.6875395420893
 31
0.0
 11
290.6827895361857
 21
324.6720663874973
 31
0.0
 11
290.6621414090714
 21
324.6669086132508
 31
0.0
  0
LINE
  5
292E
102
{ACAD_REACTORS
330
291D
102
}
330
18
100
AcDbEntity
  8
ROGO
 62
     4
100
AcDbLine
 10
293.1005693699555
 20
325.2871293690052
 30
0.0
 11
292.9928586880862
 21
325.0694399866233
 31
0.0
  0
LINE
  5
292F
102
{ACAD_REACTORS
330
291D
102
}
330
18
100
AcDbEntity
  8
ROGO
 62
     4
100
AcDbLine
 10
292.3173144092882
 20
325.0694399866233
 30
0.0
 11
292.2330980408113
 21
324.8992339409276
 31
0.0
  0
LINE
  5
2930
102
{ACAD_REACTORS
330
291D
102
}
330
18
100
AcDbEntity
  8
ROGO
 62
     4
100
AcDbLine
 10
292.3173144092882
 20
325.0694399866233
 30
0.0
 11
292.9928586880862
 21
325.0694399866233
 31
0.0
  0
LINE
  5
2931
102
{ACAD_REACTORS
330
291D
102
}
330
18
100
AcDbEntity
  8
ROGO
 62
     4
100
AcDbLine
 10
292.2330980408113
 20
324.8992339409276
 30
0.0
 11
292.9086423196092
 21
324.8992339409276
 31
0.0
  0
LINE
  5
2932
102
{ACAD_REACTORS
330
291D
102
}
330
18
100
AcDbEntity
  8
ROGO
 62
     4
100
AcDbLine
 10
292.0625221105349
 20
324.5544903345684
 30
0.0
 11
292.7380663893328
 21
324.5544903345684
 31
0.0
  0
LINE
  5
2933
102
{ACAD_REACTORS
330
291D
102
}
330
18
100
AcDbEntity
  8
ROGO
 62
     4
100
AcDbLine
 10
292.146742044328
 20
324.7247035859697
 30
0.0
 11
292.8222863231259
 21
324.7247035859698
 31
0.0
  0
LINE
  5
2934
102
{ACAD_REACTORS
330
291D
102
}
330
18
100
AcDbEntity
  8
ROGO
 62
     4
100
AcDbLine
 10
292.9086423196092
 20
324.8992339409276
 30
0.0
 11
292.8222863231259
 21
324.7247035859697
 31
0.0
  0
LINE
  5
2935
102
{ACAD_REACTORS
330
291D
102
}
330
18
100
AcDbEntity
  8
ROGO
 62
     4
100
AcDbLine
 10
292.146742044328
 20
324.7247035859697
 30
0.0
 11
292.0625221105349
 21
324.5544903345684
 31
0.0
  0
HATCH
  5
2936
330
18
100
AcDbEntity
  8
ROGO
 62
     4
100
AcDbHatch
 10
0.0
 20
0.0
 30
0.0
210
0.0
220
0.0
230
1.0
  2
SOLID
 70
     1
 71
     1
 91
        2
 92
        7
 72
     1
 73
     1
 93
        4
 10
297.0738311714632
 20
325.2871293690052
 42
0.0
 10
296.6895571716853
 20
325.2871293690052
 42
0.9597396185048655
 10
296.6895571716851
 20
324.3368119022047
 42
0.0
 10
297.10144679719
 20
324.3368119022047
 42
0.9713627655752647
 97
        4
330
2956
330
293E
330
2943
330
293F
 92
       22
 72
     1
 73
     1
 93
        2
 10
297.0097453249555
 20
324.7659788184552
 42
0.1034173650201783
 10
297.015404361106
 20
324.8064661505382
 42
0.0
 97
        8
330
294E
330
2954
330
2950
330
2953
330
294F
330
2952
330
294D
330
2951
 75
     0
 76
     1
 47
0.0514683685270805
 98
        2
 10
297.1672474354197
 20
324.9003655775149
 10
297.1672474354197
 20
324.9003655775149
450
        0
451
        0
460
0.0
461
0.0
452
        0
462
0.0
453
        0
470

  0
HATCH
  5
2937
330
18
100
AcDbEntity
  8
ROGO
 62
     4
100
AcDbHatch
 10
0.0
 20
0.0
 30
0.0
210
0.0
220
0.0
230
1.0
  2
SOLID
 70
     1
 71
     1
 91
        1
 92
        5
 93
        8
 72
     1
 10
296.0315766875984
 20
324.9335496573069
 11
296.2078829514128
 21
325.2871293690053
 72
     1
 10
296.2078829514128
 20
325.2871293690053
 11
295.2561966780247
 21
325.2871293690052
 72
     4
 94
        3
 73
     0
 74
     0
 95
       26
 96
       22
 40
0.0
 40
0.0
 40
0.0
 40
0.0
 40
0.1723984759424608
 40
0.2878059064036966
 40
0.3710240621887089
 40
0.4331603664333679
 40
0.5137544142125342
 40
0.5725802121924481
 40
0.6788058922658033
 40
0.7652720686804675
 40
0.8240829233522497
 40
0.8817499774613612
 40
0.984905126098447
 40
1.05784812826093
 40
1.097133570529075
 40
1.152937380796436
 40
1.193234564309721
 40
1.251611879021461
 40
1.28464838962433
 40
1.356539542406004
 40
1.389365667278771
 40
1.389365667278771
 40
1.389365667278771
 40
1.389365667278771
 10
295.2561966780245
 20
325.2871293690052
 10
295.1976819715859
 20
325.2836382812769
 10
295.0999962001055
 20
325.2778101806368
 10
294.9927378172699
 20
325.212651864934
 10
294.9141540467549
 20
325.1747716835598
 10
294.8581081969262
 20
325.1232768041607
 10
294.817026361809
 20
325.0700863553712
 10
294.7652349963435
 20
325.0067103256407
 10
294.7230006177464
 20
324.9329115036007
 10
294.7014932163201
 20
324.8515723361306
 10
294.6824421642639
 20
324.7867445477129
 10
294.6683135851267
 20
324.7145024377196
 10
294.6719082956341
 20
324.6364555454818
 10
294.6770560855973
 20
324.563969587557
 10
294.7000397160064
 20
324.5122254662347
 10
294.7262139999399
 20
324.4753872174986
 10
294.7582640521614
 20
324.4348139705798
 10
294.7933338180628
 20
324.407942440527
 10
294.8223393770563
 20
324.3592628581127
 10
294.8731126295911
 20
324.3530509923172
 10
294.9053861288394
 20
324.3406875253902
 10
294.91550302588
 20
324.3368119022047
 72
     1
 10
294.9155030258798
 20
324.3368119022047
 11
295.7340239700691
 21
324.3368119022047
 72
     1
 10
295.7340239700691
 20
324.3368119022047
 11
295.9103283668484
 21
324.6903878695905
 72
     1
 10
295.9103283668484
 20
324.6903878695905
 11
295.3026547414116
 21
324.6903878695905
 72
     4
 94
        3
 73
     0
 74
     0
 95
       16
 96
       12
 40
0.0
 40
0.0
 40
0.0
 40
0.0
 40
0.0520638816757735
 40
0.1046647644702809
 40
0.1360388269655169
 40
0.1661200957203374
 40
0.1991564750640073
 40
0.2222266184462751
 40
0.244118182278644
 40
0.2885111307736634
 40
0.3794005943324332
 40
0.3794005943324332
 40
0.3794005943324332
 40
0.3794005943324332
 10
295.3026547414117
 20
324.6903878695905
 10
295.2843251633932
 20
324.6957807002035
 10
295.247476951074
 20
324.7066219845597
 10
295.2443930532589
 20
324.7591765483513
 10
295.2485944178695
 20
324.7966259755783
 10
295.2661897422419
 20
324.8238913455052
 10
295.2875359225741
 20
324.8437304895339
 10
295.2954840522411
 20
324.8695678726601
 10
295.3188468552471
 20
324.8890783294586
 10
295.3602753649121
 20
324.9218726819077
 10
295.4060881249012
 20
324.9288571462368
 10
295.4368674192407
 20
324.9335496573069
 72
     1
 10
295.4368674192406
 20
324.9335496573069
 11
296.0315766875984
 21
324.9335496573069
 97
        8
330
294C
330
2939
330
2940
330
293C
330
294B
330
2948
330
294A
330
2949
 75
     0
 76
     1
 47
0.0514683685270805
 98
        1
 10
295.5890366033989
 20
325.0755775597397
450
        0
451
        0
460
0.0
461
0.0
452
        0
462
0.0
453
        0
470

  0
SPLINE
  5
2938
102
{ACAD_REACTORS
330
2912
102
}
330
18
100
AcDbEntity
  8
ROGO
 62
     4
100
AcDbSpline
210
0.0
220
0.0
230
1.0
 70
     8
 71
     3
 72
    26
 73
    22
 74
    20
 42
0.0000000001
 43
0.0000000001
 44
0.0000000001
 40
0.0
 40
0.0
 40
0.0
 40
0.0
 40
0.1723984759425082
 40
0.2878059064038458
 40
0.3710240621888157
 40
0.4331603664334747
 40
0.5137544142126047
 40
0.5725802121925084
 40
0.6788058922658582
 40
0.7652720686804852
 40
0.8240829233523619
 40
0.8817499774613718
 40
0.9849051260984577
 40
1.057848128260895
 40
1.097133570529017
 40
1.152937380796393
 40
1.193234564309752
 40
1.251611879021371
 40
1.284648389624309
 40
1.356539542405825
 40
1.389365667278754
 40
1.389365667278754
 40
1.389365667278754
 40
1.389365667278754
 10
298.3182040871056
 20
325.2871293690052
 30
0.0
 10
298.259689380667
 20
325.2836382812769
 30
0.0
 10
298.1620036091866
 20
325.2778101806368
 30
0.0
 10
298.0547452263508
 20
325.2126518649341
 30
0.0
 10
297.9761614558359
 20
325.1747716835597
 30
0.0
 10
297.9201156060073
 20
325.1232768041608
 30
0.0
 10
297.8790337708901
 20
325.070086355371
 30
0.0
 10
297.8272424054244
 20
325.0067103256408
 30
0.0
 10
297.7850080268275
 20
324.9329115036004
 30
0.0
 10
297.7635006254011
 20
324.8515723361308
 30
0.0
 10
297.7444495733451
 20
324.7867445477127
 30
0.0
 10
297.7303209942078
 20
324.7145024377197
 30
0.0
 10
297.7339157047152
 20
324.636455545482
 30
0.0
 10
297.7390634946785
 20
324.5639695875569
 30
0.0
 10
297.7620471250877
 20
324.5122254662349
 30
0.0
 10
297.7882214090209
 20
324.4753872174985
 30
0.0
 10
297.8202714612426
 20
324.4348139705801
 30
0.0
 10
297.8553412271438
 20
324.4079424405269
 30
0.0
 10
297.8843467861373
 20
324.3592628581128
 30
0.0
 10
297.9351200386723
 20
324.3530509923173
 30
0.0
 10
297.9673935379204
 20
324.3406875253902
 30
0.0
 10
297.9775104349611
 20
324.3368119022047
 30
0.0
 11
298.3182040871056
 21
325.2871293690052
 31
0.0
 11
298.1478572610333
 21
325.2606115758393
 31
0.0
 11
298.0446166254623
 21
325.2090340015208
 31
0.0
 11
297.972348328976
 21
325.1677719756955
 31
0.0
 11
297.9258902655887
 21
325.1265097817222
 31
0.0
 11
297.8742700962165
 21
325.0646166589103
 31
0.0
 11
297.8381359479732
 21
325.0181968588385
 31
0.0
 11
297.7865154817747
 21
324.9253570905466
 31
0.0
 11
297.7607055455017
 21
324.8428328707481
 31
0.0
 11
297.7452195243726
 21
324.7860975221828
 31
0.0
 11
297.7348953124023
 21
324.7293621736177
 31
0.0
 11
297.7348953124023
 21
324.6262070249806
 31
0.0
 11
297.7452195243726
 21
324.5539983536754
 31
0.0
 11
297.7607055455017
 21
324.5178939339488
 31
0.0
 11
297.7916775877597
 21
324.4714741338768
 31
0.0
 11
297.8174878208591
 21
324.4405274883969
 31
0.0
 11
297.858783778261
 21
324.3992654625716
 31
0.0
 11
297.8794319053753
 21
324.3734765913383
 31
0.0
 11
297.9465383927029
 21
324.3476878882531
 31
0.0
 11
297.9775104349611
 21
324.3368119022047
 31
0.0
  0
SPLINE
  5
2939
102
{ACAD_REACTORS
330
2937
102
}
330
18
100
AcDbEntity
  8
ROGO
 62
     4
100
AcDbSpline
210
0.0
220
0.0
230
1.0
 70
     8
 71
     3
 72
    26
 73
    22
 74
    20
 42
0.0000000001
 43
0.0000000001
 44
0.0000000001
 40
0.0
 40
0.0
 40
0.0
 40
0.0
 40
0.1723984759423397
 40
0.2878059064036264
 40
0.3710240621887444
 40
0.4331603664334034
 40
0.5137544142125333
 40
0.5725802121924021
 40
0.678805892265835
 40
0.7652720686804449
 40
0.824082923352212
 40
0.8817499774613338
 40
0.9849051260984197
 40
1.057848128260857
 40
1.097133570528979
 40
1.152937380796418
 40
1.193234564309704
 40
1.251611879021444
 40
1.284648389624275
 40
1.35653954240595
 40
1.389365667278718
 40
1.389365667278718
 40
1.389365667278718
 40
1.389365667278718
 10
295.2561966780245
 20
325.2871293690052
 30
0.0
 10
295.1976819715859
 20
325.2836382812769
 30
0.0
 10
295.0999962001054
 20
325.2778101806367
 30
0.0
 10
294.9927378172699
 20
325.2126518649342
 30
0.0
 10
294.9141540467548
 20
325.1747716835597
 30
0.0
 10
294.8581081969262
 20
325.1232768041607
 30
0.0
 10
294.8170263618089
 20
325.070086355371
 30
0.0
 10
294.7652349963436
 20
325.0067103256408
 30
0.0
 10
294.7230006177463
 20
324.9329115036004
 30
0.0
 10
294.7014932163201
 20
324.8515723361308
 30
0.0
 10
294.6824421642639
 20
324.7867445477126
 30
0.0
 10
294.6683135851267
 20
324.7145024377198
 30
0.0
 10
294.6719082956341
 20
324.636455545482
 30
0.0
 10
294.6770560855974
 20
324.5639695875569
 30
0.0
 10
294.7000397160064
 20
324.5122254662348
 30
0.0
 10
294.7262139999399
 20
324.4753872174986
 30
0.0
 10
294.7582640521613
 20
324.4348139705798
 30
0.0
 10
294.7933338180627
 20
324.407942440527
 30
0.0
 10
294.8223393770564
 20
324.3592628581128
 30
0.0
 10
294.8731126295911
 20
324.3530509923173
 30
0.0
 10
294.9053861288393
 20
324.3406875253902
 30
0.0
 10
294.91550302588
 20
324.3368119022047
 30
0.0
 11
295.2561966780245
 21
325.2871293690052
 31
0.0
 11
295.0858498519523
 21
325.2606115758393
 31
0.0
 11
294.9826092163814
 21
325.2090340015208
 31
0.0
 11
294.9103409198949
 21
325.1677719756955
 31
0.0
 11
294.8638828565076
 21
325.1265097817222
 31
0.0
 11
294.8122626871354
 21
325.0646166589103
 31
0.0
 11
294.7761285388921
 21
325.0181968588385
 31
0.0
 11
294.7245080726935
 21
324.9253570905466
 31
0.0
 11
294.6986981364205
 21
324.8428328707481
 31
0.0
 11
294.6832121152915
 21
324.7860975221829
 31
0.0
 11
294.6728879033212
 21
324.7293621736177
 31
0.0
 11
294.6728879033212
 21
324.6262070249806
 31
0.0
 11
294.6832121152915
 21
324.5539983536754
 31
0.0
 11
294.6986981364205
 21
324.5178939339488
 31
0.0
 11
294.7296701786786
 21
324.4714741338768
 31
0.0
 11
294.755480411778
 21
324.4405274883969
 31
0.0
 11
294.79677636918
 21
324.3992654625716
 31
0.0
 11
294.8174244962942
 21
324.3734765913383
 31
0.0
 11
294.8845309836219
 21
324.3476878882531
 31
0.0
 11
294.91550302588
 21
324.3368119022047
 31
0.0
  0
LINE
  5
293A
102
{ACAD_REACTORS
330
2918
102
}
330
18
100
AcDbEntity
  8
ROGO
 62
     4
100
AcDbLine
 10
294.022153034483
 20
325.2871293690052
 30
0.0
 11
294.7074454289974
 21
324.3368119022047
 31
0.0
  0
LINE
  5
293B
102
{ACAD_REACTORS
330
2918
102
}
330
18
100
AcDbEntity
  8
ROGO
 62
     4
100
AcDbLine
 10
294.0506642178562
 20
324.5177464680815
 30
0.0
 11
294.1811396497323
 21
324.3368119022047
 31
0.0
  0
LINE
  5
293C
102
{ACAD_REACTORS
330
2937
102
}
330
18
100
AcDbEntity
  8
ROGO
 62
     4
100
AcDbLine
 10
295.9103283668484
 20
324.6903878695905
 30
0.0
 11
295.7340239700691
 21
324.3368119022047
 31
0.0
  0
LINE
  5
293D
102
{ACAD_REACTORS
330
2912
102
}
330
18
100
AcDbEntity
  8
ROGO
 62
     4
100
AcDbLine
 10
298.9723357759294
 20
324.6903878695905
 30
0.0
 11
298.7960313791502
 21
324.3368119022047
 31
0.0
  0
ARC
  5
293E
102
{ACAD_REACTORS
330
2936
102
}
330
18
100
AcDbEntity
  8
ROGO
 62
     4
100
AcDbCircle
 10
296.7090884898886
 20
324.811970635605
 30
0.0
 40
0.4755599797263065
100
AcDbArc
 50
92.3538081120337
 51
270.0
  0
ARC
  5
293F
102
{ACAD_REACTORS
330
2936
102
}
330
18
100
AcDbEntity
  8
ROGO
 62
     4
100
AcDbCircle
 10
297.0738311714632
 20
324.8115693892789
 30
0.0
 40
0.4755599797263065
100
AcDbArc
 50
273.3290215232082
 51
90.0000000000006
  0
LINE
  5
2940
102
{ACAD_REACTORS
330
2937
102
}
330
18
100
AcDbEntity
  8
ROGO
 62
     4
100
AcDbLine
 10
294.91550302588
 20
324.3368119022047
 30
0.0
 11
295.7340239700691
 21
324.3368119022047
 31
0.0
  0
LINE
  5
2941
102
{ACAD_REACTORS
330
2918
102
}
330
18
100
AcDbEntity
  8
ROGO
 62
     4
100
AcDbLine
 10
294.7074454289974
 20
324.3368119022047
 30
0.0
 11
294.1811396497323
 21
324.3368119022047
 31
0.0
  0
LINE
  5
2942
330
18
100
AcDbEntity
  8
ROGO
 62
     4
100
AcDbLine
 10
296.6895571716857
 20
324.3368119022047
 30
0.0
 11
297.1014467971897
 21
324.3368119022047
 31
0.0
  0
LINE
  5
2943
102
{ACAD_REACTORS
330
2936
102
}
330
18
100
AcDbEntity
  8
ROGO
 62
     4
100
AcDbLine
 10
296.6895571716853
 20
324.3368119022047
 30
0.0
 11
297.10144679719
 21
324.3368119022047
 31
0.0
  0
LINE
  5
2944
102
{ACAD_REACTORS
330
2912
102
}
330
18
100
AcDbEntity
  8
ROGO
 62
     4
100
AcDbLine
 10
297.977510434961
 20
324.3368119022047
 30
0.0
 11
298.7960313791502
 21
324.3368119022047
 31
0.0
  0
LINE
  5
2945
102
{ACAD_REACTORS
330
2918
102
}
330
18
100
AcDbEntity
  8
ROGO
 62
     4
100
AcDbLine
 10
293.7475298708134
 20
324.9381128213169
 30
0.0
 11
293.5820118962353
 21
324.7085836107637
 31
0.0
  0
LINE
  5
2946
102
{ACAD_REACTORS
330
2918
102
}
330
18
100
AcDbEntity
  8
ROGO
 62
     4
100
AcDbLine
 10
293.5820118962353
 20
324.7085836107637
 30
0.0
 11
293.9130478453914
 21
324.7085836107637
 31
0.0
  0
LINE
  5
2947
102
{ACAD_REACTORS
330
2918
102
}
330
18
100
AcDbEntity
  8
ROGO
 62
     4
100
AcDbLine
 10
293.7475298708134
 20
324.9381128213169
 30
0.0
 11
293.9130478453914
 21
324.7085836107637
 31
0.0
  0
SPLINE
  5
2948
102
{ACAD_REACTORS
330
2937
102
}
330
18
100
AcDbEntity
  8
ROGO
 62
     4
100
AcDbSpline
210
0.0
220
0.0
230
1.0
 70
     8
 71
     3
 72
    16
 73
    12
 74
    10
 42
0.0000000001
 43
0.0000000001
 44
0.0000000001
 40
0.0
 40
0.0
 40
0.0
 40
0.0
 40
0.0908894635587846
 40
0.1352824120537578
 40
0.1571739758861266
 40
0.1802441192683435
 40
0.2132804986120135
 40
0.2433617673669314
 40
0.274735829862158
 40
0.3273367126565874
 40
0.3794005943323866
 40
0.3794005943323866
 40
0.3794005943323866
 40
0.3794005943323866
 10
295.4368674192407
 20
324.9335496573069
 30
0.0
 10
295.4060881249012
 20
324.9288571462368
 30
0.0
 10
295.360275364912
 20
324.9218726819074
 30
0.0
 10
295.3188468552473
 20
324.8890783294587
 30
0.0
 10
295.2954840522411
 20
324.8695678726601
 30
0.0
 10
295.2875359225741
 20
324.843730489534
 30
0.0
 10
295.2661897422419
 20
324.8238913455053
 30
0.0
 10
295.2485944178695
 20
324.7966259755783
 30
0.0
 10
295.2443930532591
 20
324.7591765483513
 30
0.0
 10
295.247476951074
 20
324.7066219845597
 30
0.0
 10
295.2843251633932
 20
324.6957807002035
 30
0.0
 10
295.3026547414117
 20
324.6903878695905
 30
0.0
 11
295.4368674192407
 21
324.9335496573069
 31
0.0
 11
295.3491131016252
 21
324.9098837678066
 31
0.0
 11
295.312978953382
 21
324.8840950647214
 31
0.0
 11
295.2974929322529
 21
324.8686217419814
 31
0.0
 11
295.2871687202826
 21
324.8479906449948
 31
0.0
 11
295.2665205931685
 21
324.8222019419096
 31
0.0
 11
295.2510345720394
 21
324.7964130706762
 31
0.0
 11
295.2458724660543
 21
324.7654665933443
 31
0.0
 11
295.2561966780245
 21
324.7138888508777
 31
0.0
 11
295.3026547414117
 21
324.6903878695905
 31
0.0
  0
LINE
  5
2949
102
{ACAD_REACTORS
330
2937
102
}
330
18
100
AcDbEntity
  8
ROGO
 62
     4
100
AcDbLine
 10
296.2078829514128
 20
325.2871293690052
 30
0.0
 11
296.0315766875984
 21
324.9335496573069
 31
0.0
  0
LINE
  5
294A
102
{ACAD_REACTORS
330
2937
102
}
330
18
100
AcDbEntity
  8
ROGO
 62
     4
100
AcDbLine
 10
295.4368674192407
 20
324.9335496573069
 30
0.0
 11
296.0315766875984
 21
324.9335496573069
 31
0.0
  0
LINE
  5
294B
102
{ACAD_REACTORS
330
2937
102
}
330
18
100
AcDbEntity
  8
ROGO
 62
     4
100
AcDbLine
 10
295.3026547414117
 20
324.6903878695905
 30
0.0
 11
295.9103283668484
 21
324.6903878695905
 31
0.0
  0
LINE
  5
294C
102
{ACAD_REACTORS
330
2937
102
}
330
18
100
AcDbEntity
  8
ROGO
 62
     4
100
AcDbLine
 10
295.2561966780248
 20
325.2871293690053
 30
0.0
 11
296.2078829514128
 21
325.2871293690053
 31
0.0
  0
LINE
  5
294D
102
{ACAD_REACTORS
330
2936
102
}
330
18
100
AcDbEntity
  8
ROGO
 62
     4
100
AcDbLine
 10
296.8982938045432
 20
324.9029972032539
 30
0.0
 11
296.9327326927714
 21
324.8981835762887
 31
0.0
  0
LINE
  5
294E
102
{ACAD_REACTORS
330
2936
102
}
330
18
100
AcDbEntity
  8
ROGO
 62
     4
100
AcDbLine
 10
297.0154043611061
 20
324.8064661505385
 30
0.0
 11
297.0027576326573
 21
324.715985672795
 31
0.0
  0
LINE
  5
294F
102
{ACAD_REACTORS
330
2936
102
}
330
18
100
AcDbEntity
  8
ROGO
 62
     4
100
AcDbLine
 10
296.776407114115
 20
324.7494293505015
 30
0.0
 11
296.7890538425637
 21
324.839909828245
 31
0.0
  0
LINE
  5
2950
102
{ACAD_REACTORS
330
2936
102
}
330
18
100
AcDbEntity
  8
ROGO
 62
     4
100
AcDbLine
 10
296.8654509302315
 20
324.6680242637893
 30
0.0
 11
296.8998898184597
 21
324.663210636824
 31
0.0
  0
ARC
  5
2951
102
{ACAD_REACTORS
330
2936
102
}
330
18
100
AcDbEntity
  8
ROGO
 62
     4
100
AcDbCircle
 10
296.9157479853527
 20
324.7997562655525
 30
0.0
 40
0.0998820093152177
100
AcDbArc
 50
3.851923331663601
 51
80.20940670206341
  0
ARC
  5
2952
102
{ACAD_REACTORS
330
2936
102
}
330
18
100
AcDbEntity
  8
ROGO
 62
     4
100
AcDbCircle
 10
296.8848906227268
 20
324.800083902194
 30
0.0
 40
0.1037824301982561
100
AcDbArc
 50
82.57970078354313
 51
157.4341870372611
  0
ARC
  5
2953
102
{ACAD_REACTORS
330
2936
102
}
330
18
100
AcDbEntity
  8
ROGO
 62
     4
100
AcDbCircle
 10
296.8711787336998
 20
324.7636917516445
 30
0.0
 40
0.0958388019806556
100
AcDbArc
 50
188.5583509056651
 51
266.5736774635929
  0
ARC
  5
2954
102
{ACAD_REACTORS
330
2936
102
}
330
18
100
AcDbEntity
  8
ROGO
 62
     4
100
AcDbCircle
 10
296.9205034017999
 20
324.7496723789117
 30
0.0
 40
0.0888850530907803
100
AcDbArc
 50
256.5902863289752
 51
337.7287536965499
  0
LINE
  5
2955
330
18
100
AcDbEntity
  8
ROGO
 62
     4
100
AcDbLine
 10
296.6895571716854
 20
325.2871293690052
 30
0.0
 11
296.9588705808318
 21
325.2871293690052
 31
0.0
  0
LINE
  5
2956
102
{ACAD_REACTORS
330
2936
102
}
330
18
100
AcDbEntity
  8
ROGO
 62
     4
100
AcDbLine
 10
296.6895571716853
 20
325.2871293690052
 30
0.0
 11
297.0738311714632
 21
325.2871293690052
 31
0.0
  0
SPLINE
  5
2957
102
{ACAD_REACTORS
330
2912
102
}
330
18
100
AcDbEntity
  8
ROGO
 62
     4
100
AcDbSpline
210
0.0
220
0.0
230
1.0
 70
     8
 71
     3
 72
    16
 73
    12
 74
    10
 42
0.0000000001
 43
0.0000000001
 44
0.0000000001
 40
0.0
 40
0.0
 40
0.0
 40
0.0
 40
0.0908894635587149
 40
0.1352824120538269
 40
0.1571739758861153
 40
0.1802441192683577
 40
0.2132804986120631
 40
0.2433617673669226
 40
0.2747358298621679
 40
0.3273367126566307
 40
0.3794005943324299
 40
0.3794005943324299
 40
0.3794005943324299
 40
0.3794005943324299
 10
298.4988748283218
 20
324.9335496573068
 30
0.0
 10
298.4680955339823
 20
324.9288571462368
 30
0.0
 10
298.4222827739932
 20
324.9218726819074
 30
0.0
 10
298.3808542643282
 20
324.8890783294588
 30
0.0
 10
298.3574914613223
 20
324.86956787266
 30
0.0
 10
298.3495433316551
 20
324.843730489534
 30
0.0
 10
298.3281971513229
 20
324.8238913455053
 30
0.0
 10
298.3106018269506
 20
324.7966259755782
 30
0.0
 10
298.30640046234
 20
324.7591765483513
 30
0.0
 10
298.3094843601551
 20
324.7066219845597
 30
0.0
 10
298.3463325724743
 20
324.6957807002035
 30
0.0
 10
298.3646621504929
 20
324.6903878695905
 30
0.0
 11
298.4988748283218
 21
324.9335496573068
 31
0.0
 11
298.4111205107063
 21
324.9098837678066
 31
0.0
 11
298.374986362463
 21
324.8840950647214
 31
0.0
 11
298.359500341334
 21
324.8686217419814
 31
0.0
 11
298.3491761293637
 21
324.8479906449948
 31
0.0
 11
298.3285280022495
 21
324.8222019419096
 31
0.0
 11
298.3130419811205
 21
324.7964130706762
 31
0.0
 11
298.3078798751353
 21
324.7654665933443
 31
0.0
 11
298.3182040871056
 21
324.7138888508777
 31
0.0
 11
298.3646621504929
 21
324.6903878695905
 31
0.0
  0
LINE
  5
2958
102
{ACAD_REACTORS
330
2912
102
}
330
18
100
AcDbEntity
  8
ROGO
 62
     4
100
AcDbLine
 10
298.3646621504929
 20
324.6903878695905
 30
0.0
 11
298.9723357759295
 21
324.6903878695905
 31
0.0
  0
LINE
  5
2959
102
{ACAD_REACTORS
330
2912
102
}
330
18
100
AcDbEntity
  8
ROGO
 62
     4
100
AcDbLine
 10
298.4988748283218
 20
324.9335496573069
 30
0.0
 11
299.0935840966795
 21
324.9335496573069
 31
0.0
  0
LINE
  5
295A
102
{ACAD_REACTORS
330
2911
102
}
330
18
100
AcDbEntity
  8
ROGO
 62
     4
100
AcDbLine
 10
299.8391329033784
 20
324.5446613429413
 30
0.0
 11
300.2093514406588
 21
323.8021933168775
 31
0.0
  0
LINE
  5
295B
102
{ACAD_REACTORS
330
2911
102
}
330
18
100
AcDbEntity
  8
ROGO
 62
     4
100
AcDbLine
 10
299.4689263378386
 20
324.1897784156892
 30
0.0
 11
299.6621887859395
 21
323.8021933168775
 31
0.0
  0
LINE
  5
295C
102
{ACAD_REACTORS
330
2911
102
}
330
18
100
AcDbEntity
  8
ROGO
 62
     4
100
AcDbLine
 10
299.4689263378386
 20
324.1897784156892
 30
0.0
 11
299.2756638897378
 21
323.8021933168775
 31
0.0
  0
LINE
  5
295D
102
{ACAD_REACTORS
330
2911
102
}
330
18
100
AcDbEntity
  8
ROGO
 62
     4
100
AcDbLine
 10
299.6621887859395
 20
323.8021933168775
 30
0.0
 11
300.2093514406588
 21
323.8021933168775
 31
0.0
  0
LINE
  5
295E
102
{ACAD_REACTORS
330
2911
102
}
330
18
100
AcDbEntity
  8
ROGO
 62
     4
100
AcDbLine
 10
299.8391329033784
 20
324.5446613429413
 30
0.0
 11
300.7386207381491
 21
325.2871293690052
 31
0.0
  0
LINE
  5
295F
102
{ACAD_REACTORS
330
2911
102
}
330
18
100
AcDbEntity
  8
ROGO
 62
     4
100
AcDbLine
 10
300.1914580834299
 20
325.2871293690052
 30
0.0
 11
300.7386207381491
 21
325.2871293690052
 31
0.0
  0
LINE
  5
2960
102
{ACAD_REACTORS
330
2911
102
}
330
18
100
AcDbEntity
  8
ROGO
 62
     4
100
AcDbLine
 10
299.4689263378386
 20
325.2871293690052
 30
0.0
 11
300.0161009642986
 21
325.2871293690052
 31
0.0
  0
LINE
  5
2961
102
{ACAD_REACTORS
330
2911
102
}
330
18
100
AcDbEntity
  8
ROGO
 62
     4
100
AcDbLine
 10
300.0161009642986
 20
325.2871293690052
 30
0.0
 11
299.9352603032024
 21
325.1250045696618
 31
0.0
  0
LINE
  5
2962
102
{ACAD_REACTORS
330
2911
102
}
330
18
100
AcDbEntity
  8
ROGO
 62
     4
100
AcDbLine
 10
299.9352603032024
 20
325.1250045696618
 30
0.0
 11
300.1914580834299
 21
325.2871293690052
 31
0.0
  0
HATCH
  5
2963
330
18
100
AcDbEntity
  8
ROGO
 62
     4
100
AcDbHatch
 10
0.0
 20
0.0
 30
0.0
210
0.0
220
0.0
230
1.0
  2
SOLID
 70
     1
 71
     1
 91
        1
 92
        7
 72
     0
 73
     1
 93
       11
 10
298.7284892632778
 20
323.8817639518302
 10
299.2756638897377
 20
323.8817639518301
 10
299.4689263378387
 20
324.2693490506419
 10
299.6621887859395
 20
323.8817639518301
 10
300.2093514406588
 20
323.8817639518304
 10
299.8391329033784
 20
324.624231977894
 10
300.738620738149
 20
325.3667000039579
 10
300.1914580834299
 20
325.3667000039579
 10
299.9352603032024
 20
325.2045752046145
 10
300.0161009642986
 20
325.3667000039579
 10
299.4689263378386
 20
325.3667000039579
 97
       11
330
29B1
330
29B4
330
29B3
330
29B2
330
2968
330
2965
330
29AE
330
29AD
330
29AF
330
29AC
330
29B0
 75
     0
 76
     1
 47
0.0514683685270805
 98
        1
 10
299.4218345503254
 20
324.7296335008235
450
        0
451
        0
460
0.0
461
0.0
452
        0
462
0.0
453
        0
470

  0
HATCH
  5
2964
330
18
100
AcDbEntity
  8
ROGO
 62
     4
100
AcDbHatch
 10
0.0
 20
0.0
 30
0.0
210
0.0
220
0.0
230
1.0
  2
SOLID
 70
     1
 71
     1
 91
        1
 92
        5
 93
        8
 72
     4
 94
        3
 73
     0
 74
     0
 95
       26
 96
       22
 40
0.0
 40
0.0
 40
0.0
 40
0.0
 40
0.1723984759424608
 40
0.2878059064036966
 40
0.3710240621887089
 40
0.4331603664333254
 40
0.5137544142124919
 40
0.5725802121924054
 40
0.6788058922658106
 40
0.7652720686804378
 40
0.8240829233522745
 40
0.8817499774613301
 40
0.9849051260984159
 40
1.0578481282609
 40
1.097133570529045
 40
1.152937380796406
 40
1.193234564309729
 40
1.251611879021427
 40
1.28464838962433
 40
1.356539542405971
 40
1.389365667278775
 40
1.389365667278775
 40
1.389365667278775
 40
1.389365667278775
 10
298.3182040871056
 20
325.3667000039579
 10
298.259689380667
 20
325.3632089162295
 10
298.1620036091865
 20
325.3573808155895
 10
298.054745226351
 20
325.2922224998867
 10
297.9761614558359
 20
325.2543423185125
 10
297.9201156060073
 20
325.2028474391134
 10
297.87903377089
 20
325.1496569903239
 10
297.8272424054246
 20
325.0862809605934
 10
297.7850080268274
 20
325.012482138553
 10
297.7635006254011
 20
324.9311429710835
 10
297.744449573345
 20
324.8663151826655
 10
297.7303209942077
 20
324.7940730726723
 10
297.7339157047151
 20
324.7160261804345
 10
297.7390634946784
 20
324.6435402225096
 10
297.7620471250875
 20
324.5917961011875
 10
297.788221409021
 20
324.5549578524512
 10
297.8202714612424
 20
324.5143846055326
 10
297.8553412271438
 20
324.4875130754796
 10
297.8843467861373
 20
324.4388334930655
 10
297.9351200386723
 20
324.4326216272698
 10
297.9673935379206
 20
324.4202581603429
 10
297.9775104349611
 20
324.4163825371574
 72
     1
 10
297.9775104349611
 20
324.4163825371574
 11
298.7960313791502
 21
324.4163825371574
 72
     1
 10
298.7960313791502
 20
324.4163825371574
 11
298.9723357759294
 21
324.7699585045432
 72
     1
 10
298.9723357759294
 20
324.7699585045432
 11
298.3646621504929
 21
324.7699585045433
 72
     4
 94
        3
 73
     0
 74
     0
 95
       16
 96
       12
 40
0.0
 40
0.0
 40
0.0
 40
0.0
 40
0.0520638816757735
 40
0.1046647644702252
 40
0.1360388269655266
 40
0.1661200957203178
 40
0.1991564750639878
 40
0.2222266184462555
 40
0.2441181822786244
 40
0.2885111307736901
 40
0.379400594332445
 40
0.379400594332445
 40
0.379400594332445
 40
0.379400594332445
 10
298.3646621504929
 20
324.7699585045432
 10
298.3463325724743
 20
324.7753513351562
 10
298.3094843601551
 20
324.7861926195124
 10
298.30640046234
 20
324.8387471833041
 10
298.3106018269505
 20
324.8761966105308
 10
298.328197151323
 20
324.903461980458
 10
298.3495433316551
 20
324.9233011244866
 10
298.3574914613222
 20
324.9491385076128
 10
298.3808542643282
 20
324.9686489644115
 10
298.4222827739931
 20
325.0014433168602
 10
298.4680955339822
 20
325.0084277811895
 10
298.4988748283218
 20
325.0131202922595
 72
     1
 10
298.498874828322
 20
325.0131202922597
 11
299.0935840966795
 21
325.0131202922597
 72
     1
 10
299.0935840966795
 20
325.0131202922597
 11
299.269890360494
 21
325.3667000039579
 72
     1
 10
299.269890360494
 20
325.3667000039579
 11
298.3182040871055
 21
325.3667000039578
 97
        8
330
2966
330
298A
330
2996
330
298F
330
29AA
330
29A9
330
29AB
330
2967
 75
     0
 76
     1
 47
0.0514683685270805
 98
        1
 10
298.4824232771834
 20
325.192693643476
450
        0
451
        0
460
0.0
461
0.0
452
        0
462
0.0
453
        0
470

  0
LINE
  5
2965
102
{ACAD_REACTORS
330
2963
330
296E
102
}
330
18
100
AcDbEntity
  8
ROGO
 62
     4
100
AcDbLine
 10
289.2241246809336
 20
323.8817639518302
 30
0.0
 11
299.2756638897378
 21
323.8817639518302
 31
0.0
  0
LINE
  5
2966
102
{ACAD_REACTORS
330
2964
102
}
330
18
100
AcDbEntity
  8
ROGO
 62
     4
100
AcDbLine
 10
298.3182040871059
 20
325.3667000039579
 30
0.0
 11
299.269890360494
 21
325.3667000039579
 31
0.0
  0
LINE
  5
2967
102
{ACAD_REACTORS
330
2964
102
}
330
18
100
AcDbEntity
  8
ROGO
 62
     4
100
AcDbLine
 10
299.269890360494
 20
325.3667000039579
 30
0.0
 11
299.0935840966795
 21
325.0131202922597
 31
0.0
  0
LINE
  5
2968
102
{ACAD_REACTORS
330
2963
102
}
330
18
100
AcDbEntity
  8
ROGO
 62
     4
100
AcDbLine
 10
299.4689263378386
 20
325.3667000039579
 30
0.0
 11
298.7284892632778
 21
323.8817639518302
 31
0.0
  0
HATCH
  5
2969
330
18
100
AcDbEntity
  8
ROGO
 62
     4
100
AcDbHatch
 10
0.0
 20
0.0
 30
0.0
210
0.0
220
0.0
230
1.0
  2
SOLID
 70
     1
 71
     0
 91
        1
 92
        7
 72
     0
 73
     1
 93
        4
 10
298.8027070226264
 20
324.0306066156449
 10
289.981727066925
 20
324.0306066156449
 10
289.9143864237046
 20
323.8817639518301
 10
298.7284892632778
 20
323.8817639518301
 97
        0
 75
     0
 76
     1
 47
0.0514683685270805
 98
        1
 10
295.5514601762193
 20
323.9912401231404
450
        0
451
        0
460
0.0
461
0.0
452
        0
462
0.0
453
        0
470

  0
HATCH
  5
296A
330
18
100
AcDbEntity
  8
ROGO
 62
     4
100
AcDbHatch
 10
0.0
 20
0.0
 30
0.0
210
0.0
220
0.0
230
1.0
  2
SOLID
 70
     1
 71
     1
 91
        2
 92
        7
 72
     0
 73
     1
 93
        8
 10
294.022153034483
 20
325.3667000039579
 10
293.4729067071438
 20
325.3667000039578
 10
292.7876143126293
 20
324.4163825371574
 10
293.3139200918946
 20
324.4163825371574
 10
293.4443955237705
 20
324.5973171030341
 10
294.0506642178562
 20
324.5973171030341
 10
294.1811396497323
 20
324.4163825371574
 10
294.7074454289974
 20
324.4163825371574
 97
        8
330
296C
330
2974
330
2979
330
2975
330
296B
330
298D
330
2993
330
298C
 92
       22
 72
     0
 73
     1
 93
        3
 10
293.9130478453914
 20
324.7881542457163
 10
293.5820118962352
 20
324.7881542457163
 10
293.7475298708134
 20
325.0176834562696
 97
        3
330
2998
330
2997
330
2999
 75
     0
 76
     1
 47
0.0514683685270805
 98
        2
 10
294.0859786257372
 20
324.8798151278099
 10
294.0859786257372
 20
324.8798151278099
450
        0
451
        0
460
0.0
461
0.0
452
        0
462
0.0
453
        0
470

  0
LINE
  5
296B
102
{ACAD_REACTORS
330
296A
102
}
330
18
100
AcDbEntity
  8
ROGO
 62
     4
100
AcDbLine
 10
293.4443955237705
 20
324.5973171030341
 30
0.0
 11
294.0506642178562
 21
324.5973171030341
 31
0.0
  0
LINE
  5
296C
102
{ACAD_REACTORS
330
296A
102
}
330
18
100
AcDbEntity
  8
ROGO
 62
     4
100
AcDbLine
 10
293.4729067071438
 20
325.3667000039579
 30
0.0
 11
294.022153034483
 21
325.3667000039579
 31
0.0
  0
LINE
  5
296D
330
18
100
AcDbEntity
  8
ROGO
 62
     4
100
AcDbLine
 10
289.9714046703439
 20
324.030606615645
 30
0.0
 11
298.8027070226264
 21
324.030606615645
 31
0.0
  0
HATCH
  5
296E
330
18
100
AcDbEntity
  8
ROGO
 62
     4
100
AcDbHatch
 10
0.0
 20
0.0
 30
0.0
210
0.0
220
0.0
230
1.0
  2
SOLID
 70
     1
 71
     1
 91
        2
 92
        5
 93
        6
 72
     1
 10
289.2241246809336
 20
323.8817639518302
 11
289.9143864237047
 21
323.8817639518302
 72
     1
 10
289.9143864237047
 20
323.8817639518302
 11
290.1562630368397
 21
324.4163825371574
 72
     1
 10
290.1562630368397
 20
324.4163825371574
 11
290.8015161928856
 21
324.4163825371574
 72
     4
 94
        3
 73
     0
 74
     0
 95
       18
 96
       14
 40
0.108740278791501
 40
0.108740278791501
 40
0.108740278791501
 40
0.108740278791501
 40
0.6623149649549278
 40
1.384304701649787
 40
2.097394834876493
 40
2.774073369849618
 40
3.428974823686336
 40
4.005208313035923
 40
4.455173659284313
 40
4.720999734343523
 40
5.086034088486724
 40
5.569973738255373
 40
6.060470601257717
 40
6.060470601257717
 40
6.060470601257717
 40
6.060470601257717
 10
290.8015161928855
 20
324.4163825371574
 10
290.8469280439902
 20
324.4167207054624
 10
290.951567477644
 20
324.4174999236411
 10
291.0979572265286
 20
324.4957045442003
 10
291.2367765347934
 20
324.5953315328801
 10
291.348586043917
 20
324.7198050611292
 10
291.4182467367807
 20
324.8621192153922
 10
291.4290369579197
 20
324.998514260323
 10
291.4224497930117
 20
325.1064010451856
 10
291.3753811911633
 20
325.1816008126299
 10
291.3264476358262
 20
325.2579208864028
 10
291.2367200419986
 20
325.3240321690245
 10
291.1632012711362
 20
325.3529987383316
 10
291.1258154808857
 20
325.3667000039579
 72
     1
 10
291.1258154808857
 20
325.3667000039579
 11
289.958857229472
 21
325.3667000039579
 72
     1
 10
289.958857229472
 20
325.3667000039579
 11
289.2241246809336
 21
323.8817639518302
 97
        6
330
2970
330
297A
330
2971
330
2965
330
2977
330
2976
 92
       20
 93
        4
 72
     1
 10
290.3056081525282
 20
324.7464792482035
 11
290.4199504936517
 21
324.9992095136976
 72
     1
 10
290.4199504936517
 20
324.9992095136976
 11
290.7137615784438
 21
324.9992095136976
 72
     4
 94
        3
 73
     0
 74
     0
 95
       15
 96
       11
 40
0.0
 40
0.0
 40
0.0
 40
0.0
 40
0.1114278057886432
 40
0.1622327562563865
 40
0.2198997572250677
 40
0.2591851994932127
 40
0.3213155338880335
 40
0.3585299069783974
 40
0.4223775764185096
 40
0.4436601464819216
 40
0.4436601464819216
 40
0.4436601464819216
 40
0.4436601464819216
 10
290.7137615784437
 20
324.9992095136976
 10
290.7556117014605
 20
324.9994012096
 10
290.81654317865
 20
324.9996803082898
 10
290.8498626805116
 20
324.924307894799
 10
290.8349272910978
 20
324.875779818464
 10
290.816152289351
 20
324.8259566091761
 10
290.7829726090074
 20
324.792100987024
 10
290.7384406180611
 20
324.7594923156222
 10
290.6963557585258
 20
324.7555448899341
 10
290.6689842815826
 20
324.748292377244
 10
290.6621414090714
 20
324.7464792482035
 72
     1
 10
290.6621414090715
 20
324.7464792482035
 11
290.3056081525282
 21
324.7464792482035
 97
        4
330
297D
330
297B
330
297F
330
297C
 75
     0
 76
     1
 47
0.0514683685270805
 98
        2
 10
289.9650944402745
 20
324.9048454830484
 10
289.9650944402745
 20
324.9048454830484
450
        0
451
        0
460
0.0
461
0.0
452
        0
462
0.0
453
        0
470

  0
HATCH
  5
296F
330
18
100
AcDbEntity
  8
ROGO
 62
     4
100
AcDbHatch
 10
0.0
 20
0.0
 30
0.0
210
0.0
220
0.0
230
1.0
  2
SOLID
 70
     1
 71
     1
 91
        1
 92
        1
 93
       12
 72
     1
 10
291.8152254606753
 20
325.3667000039579
 11
293.1005693699555
 21
325.3667000039579
 72
     1
 10
293.1005693699555
 20
325.3667000039579
 11
292.9928586880862
 21
325.1490106215759
 72
     1
 10
292.9928586880862
 20
325.1490106215759
 11
292.3173144092882
 21
325.1490106215759
 72
     1
 10
292.3173144092882
 20
325.1490106215759
 11
292.2330980408113
 21
324.9788045758803
 72
     1
 10
292.2330980408113
 20
324.9788045758803
 11
292.9086423196092
 21
324.9788045758803
 72
     1
 10
292.9086423196092
 20
324.9788045758803
 11
292.8222863231259
 21
324.8042742209224
 72
     1
 10
292.8222863231259
 20
324.8042742209225
 11
292.146742044328
 21
324.8042742209224
 72
     1
 10
292.146742044328
 20
324.8042742209224
 11
292.0625221105349
 21
324.634060969521
 72
     1
 10
292.0625221105349
 20
324.634060969521
 11
292.7380663893328
 21
324.634060969521
 72
     1
 10
292.7380663893328
 20
324.634060969521
 11
292.6303611254306
 21
324.4163825371574
 72
     1
 10
292.6303611254306
 20
324.4163825371574
 11
291.3450172161503
 21
324.4163825371574
 72
     1
 10
291.3450172161503
 20
324.4163825371574
 11
291.8152254606753
 21
325.3667000039579
 97
       12
330
297E
330
2980
330
2982
330
2981
330
2983
330
2986
330
2985
330
2987
330
2984
330
2973
330
2978
330
2972
 75
     0
 76
     1
 98
        1
 10
239.2386324836422
 20
259.6564995387921
450
        0
451
        0
460
0.0
461
0.0
452
        0
462
0.0
453
        0
470

  0
SPLINE
  5
2970
102
{ACAD_REACTORS
330
296E
102
}
330
18
100
AcDbEntity
  8
ROGO
 62
     4
100
AcDbSpline
210
0.0
220
0.0
230
1.0
 70
     8
 71
     3
 72
    18
 73
    14
 74
     0
 42
0.0000000001
 43
0.0000000001
 40
0.1087402787915014
 40
0.1087402787915014
 40
0.1087402787915014
 40
0.1087402787915014
 40
0.5992371417938475
 40
1.083176791562495
 40
1.448211145705696
 40
1.714037220764907
 40
2.164002567013295
 40
2.740236056362883
 40
3.395137510199602
 40
4.071816045172726
 40
4.784906178399433
 40
5.506895915094291
 40
6.060470601257717
 40
6.060470601257717
 40
6.060470601257717
 40
6.060470601257717
 10
291.1258154808857
 20
325.3667000039579
 30
0.0
 10
291.1632012711362
 20
325.3529987383316
 30
0.0
 10
291.2367200419986
 20
325.3240321690245
 30
0.0
 10
291.3264476358262
 20
325.2579208864028
 30
0.0
 10
291.3753811911633
 20
325.1816008126299
 30
0.0
 10
291.4224497930117
 20
325.1064010451856
 30
0.0
 10
291.4290369579197
 20
324.998514260323
 30
0.0
 10
291.4182467367807
 20
324.8621192153922
 30
0.0
 10
291.348586043917
 20
324.7198050611292
 30
0.0
 10
291.2367765347934
 20
324.5953315328801
 30
0.0
 10
291.0979572265286
 20
324.4957045442003
 30
0.0
 10
290.951567477644
 20
324.4174999236411
 30
0.0
 10
290.8469280439902
 20
324.4167207054624
 30
0.0
 10
290.8015161928855
 20
324.4163825371574
 30
0.0
  0
LINE
  5
2971
102
{ACAD_REACTORS
330
296E
102
}
330
18
100
AcDbEntity
  8
ROGO
 62
     4
100
AcDbLine
 10
289.958857229472
 20
325.3667000039579
 30
0.0
 11
289.2241246809336
 21
323.8817639518302
 31
0.0
  0
LINE
  5
2972
102
{ACAD_REACTORS
330
296F
102
}
330
18
100
AcDbEntity
  8
ROGO
 62
     4
100
AcDbLine
 10
291.8152254606753
 20
325.3667000039579
 30
0.0
 11
291.3450172161503
 21
324.4163825371574
 31
0.0
  0
LINE
  5
2973
102
{ACAD_REACTORS
330
296F
102
}
330
18
100
AcDbEntity
  8
ROGO
 62
     4
100
AcDbLine
 10
292.7380663893328
 20
324.634060969521
 30
0.0
 11
292.6303611254306
 21
324.4163825371574
 31
0.0
  0
LINE
  5
2974
102
{ACAD_REACTORS
330
296A
102
}
330
18
100
AcDbEntity
  8
ROGO
 62
     4
100
AcDbLine
 10
293.4729067071438
 20
325.3667000039579
 30
0.0
 11
292.7876143126293
 21
324.4163825371574
 31
0.0
  0
LINE
  5
2975
102
{ACAD_REACTORS
330
296A
102
}
330
18
100
AcDbEntity
  8
ROGO
 62
     4
100
AcDbLine
 10
293.4443955237705
 20
324.5973171030341
 30
0.0
 11
293.3139200918946
 21
324.4163825371574
 31
0.0
  0
LINE
  5
2976
102
{ACAD_REACTORS
330
296E
102
}
330
18
100
AcDbEntity
  8
ROGO
 62
     4
100
AcDbLine
 10
290.8015161931092
 20
324.4163825371574
 30
0.0
 11
290.1562630368397
 21
324.4163825371574
 31
0.0
  0
LINE
  5
2977
102
{ACAD_REACTORS
330
296E
102
}
330
18
100
AcDbEntity
  8
ROGO
 62
     4
100
AcDbLine
 10
290.1562630368399
 20
324.4163825371574
 30
0.0
 11
289.9143864237046
 21
323.8817639518302
 31
0.0
  0
LINE
  5
2978
102
{ACAD_REACTORS
330
296F
102
}
330
18
100
AcDbEntity
  8
ROGO
 62
     4
100
AcDbLine
 10
291.3450172161503
 20
324.4163825371574
 30
0.0
 11
292.6303611254306
 21
324.4163825371574
 31
0.0
  0
LINE
  5
2979
102
{ACAD_REACTORS
330
296A
102
}
330
18
100
AcDbEntity
  8
ROGO
 62
     4
100
AcDbLine
 10
292.7876143126293
 20
324.4163825371574
 30
0.0
 11
293.3139200918946
 21
324.4163825371574
 31
0.0
  0
LINE
  5
297A
102
{ACAD_REACTORS
330
296E
102
}
330
18
100
AcDbEntity
  8
ROGO
 62
     4
100
AcDbLine
 10
289.958857229472
 20
325.3667000039579
 30
0.0
 11
291.1258154808857
 21
325.3667000039579
 31
0.0
  0
LINE
  5
297B
102
{ACAD_REACTORS
330
296E
102
}
330
18
100
AcDbEntity
  8
ROGO
 62
     4
100
AcDbLine
 10
290.7137615784437
 20
324.9992095136976
 30
0.0
 11
290.4199504936517
 21
324.9992095136976
 31
0.0
  0
LINE
  5
297C
102
{ACAD_REACTORS
330
296E
102
}
330
18
100
AcDbEntity
  8
ROGO
 62
     4
100
AcDbLine
 10
290.6621414090714
 20
324.7464792482035
 30
0.0
 11
290.3056081525282
 21
324.7464792482035
 31
0.0
  0
LINE
  5
297D
102
{ACAD_REACTORS
330
296E
102
}
330
18
100
AcDbEntity
  8
ROGO
 62
     4
100
AcDbLine
 10
290.4199504936517
 20
324.9992095136976
 30
0.0
 11
290.3056081525282
 21
324.7464792482035
 31
0.0
  0
LINE
  5
297E
102
{ACAD_REACTORS
330
296F
102
}
330
18
100
AcDbEntity
  8
ROGO
 62
     4
100
AcDbLine
 10
291.8152254606753
 20
325.3667000039579
 30
0.0
 11
293.1005693699555
 21
325.3667000039579
 31
0.0
  0
SPLINE
  5
297F
102
{ACAD_REACTORS
330
296E
102
}
330
18
100
AcDbEntity
  8
ROGO
 62
     4
100
AcDbSpline
210
0.0
220
0.0
230
1.0
 70
     8
 71
     3
 72
    15
 73
    11
 74
     9
 42
0.0000000001
 43
0.0000000001
 44
0.0000000001
 40
0.0
 40
0.0
 40
0.0
 40
0.0
 40
0.1114278057885589
 40
0.1622327562563715
 40
0.2198997572249968
 40
0.2591851994930896
 40
0.3213155338879906
 40
0.3585299069783545
 40
0.4223775764183426
 40
0.4436601464818099
 40
0.4436601464818099
 40
0.4436601464818099
 40
0.4436601464818099
 10
290.7137615784437
 20
324.9992095136976
 30
0.0
 10
290.7556117014604
 20
324.9994012095999
 30
0.0
 10
290.8165431786498
 20
324.9996803082897
 30
0.0
 10
290.8498626805114
 20
324.9243078947989
 30
0.0
 10
290.8349272910978
 20
324.875779818464
 30
0.0
 10
290.8161522893509
 20
324.8259566091761
 30
0.0
 10
290.7829726090074
 20
324.7921009870241
 30
0.0
 10
290.7384406180612
 20
324.7594923156222
 30
0.0
 10
290.6963557585258
 20
324.7555448899341
 30
0.0
 10
290.6689842815826
 20
324.748292377244
 30
0.0
 10
290.6621414090714
 20
324.7464792482035
 30
0.0
 11
290.7137615784437
 21
324.9992095136976
 31
0.0
 11
290.8221640231733
 21
324.9734206424642
 31
0.0
 11
290.8428121502876
 21
324.9270008423924
 31
0.0
 11
290.8324882351437
 21
324.8702654938272
 31
0.0
 11
290.8170022140146
 21
324.8341610741006
 31
0.0
 11
290.7757059597862
 21
324.7877412740286
 31
0.0
 11
290.7447339175281
 21
324.767110177042
 31
0.0
 11
290.6827895361857
 21
324.7516370224502
 31
0.0
 11
290.6621414090714
 21
324.7464792482035
 31
0.0
  0
LINE
  5
2980
102
{ACAD_REACTORS
330
296F
102
}
330
18
100
AcDbEntity
  8
ROGO
 62
     4
100
AcDbLine
 10
293.1005693699555
 20
325.3667000039579
 30
0.0
 11
292.9928586880862
 21
325.1490106215759
 31
0.0
  0
LINE
  5
2981
102
{ACAD_REACTORS
330
296F
102
}
330
18
100
AcDbEntity
  8
ROGO
 62
     4
100
AcDbLine
 10
292.3173144092882
 20
325.1490106215759
 30
0.0
 11
292.2330980408113
 21
324.9788045758803
 31
0.0
  0
LINE
  5
2982
102
{ACAD_REACTORS
330
296F
102
}
330
18
100
AcDbEntity
  8
ROGO
 62
     4
100
AcDbLine
 10
292.3173144092882
 20
325.1490106215759
 30
0.0
 11
292.9928586880862
 21
325.1490106215759
 31
0.0
  0
LINE
  5
2983
102
{ACAD_REACTORS
330
296F
102
}
330
18
100
AcDbEntity
  8
ROGO
 62
     4
100
AcDbLine
 10
292.2330980408113
 20
324.9788045758803
 30
0.0
 11
292.9086423196092
 21
324.9788045758803
 31
0.0
  0
LINE
  5
2984
102
{ACAD_REACTORS
330
296F
102
}
330
18
100
AcDbEntity
  8
ROGO
 62
     4
100
AcDbLine
 10
292.0625221105349
 20
324.634060969521
 30
0.0
 11
292.7380663893328
 21
324.634060969521
 31
0.0
  0
LINE
  5
2985
102
{ACAD_REACTORS
330
296F
102
}
330
18
100
AcDbEntity
  8
ROGO
 62
     4
100
AcDbLine
 10
292.146742044328
 20
324.8042742209224
 30
0.0
 11
292.8222863231259
 21
324.8042742209225
 31
0.0
  0
LINE
  5
2986
102
{ACAD_REACTORS
330
296F
102
}
330
18
100
AcDbEntity
  8
ROGO
 62
     4
100
AcDbLine
 10
292.9086423196092
 20
324.9788045758803
 30
0.0
 11
292.8222863231259
 21
324.8042742209224
 31
0.0
  0
LINE
  5
2987
102
{ACAD_REACTORS
330
296F
102
}
330
18
100
AcDbEntity
  8
ROGO
 62
     4
100
AcDbLine
 10
292.146742044328
 20
324.8042742209224
 30
0.0
 11
292.0625221105349
 21
324.634060969521
 31
0.0
  0
HATCH
  5
2988
330
18
100
AcDbEntity
  8
ROGO
 62
     4
100
AcDbHatch
 10
0.0
 20
0.0
 30
0.0
210
0.0
220
0.0
230
1.0
  2
SOLID
 70
     1
 71
     1
 91
        2
 92
        7
 72
     1
 73
     1
 93
        4
 10
297.0738311714632
 20
325.3667000039579
 42
0.0
 10
296.6895571716853
 20
325.3667000039579
 42
0.9597396185048655
 10
296.6895571716851
 20
324.4163825371574
 42
0.0
 10
297.10144679719
 20
324.4163825371574
 42
0.9713627655752647
 97
        4
330
29A8
330
2990
330
2995
330
2991
 92
       22
 72
     1
 73
     1
 93
        2
 10
297.0097453249556
 20
324.8455494534078
 42
0.1034173650209057
 10
297.0154043611061
 20
324.8860367854912
 42
0.0
 97
        8
330
29A0
330
29A6
330
29A2
330
29A5
330
29A1
330
29A4
330
299F
330
29A3
 75
     0
 76
     1
 47
0.0514683685270805
 98
        2
 10
297.1672474354197
 20
324.9799362124676
 10
297.1672474354197
 20
324.9799362124676
450
        0
451
        0
460
0.0
461
0.0
452
        0
462
0.0
453
        0
470

  0
HATCH
  5
2989
330
18
100
AcDbEntity
  8
ROGO
 62
     4
100
AcDbHatch
 10
0.0
 20
0.0
 30
0.0
210
0.0
220
0.0
230
1.0
  2
SOLID
 70
     1
 71
     1
 91
        1
 92
        5
 93
        8
 72
     1
 10
296.0315766875984
 20
325.0131202922595
 11
296.2078829514129
 21
325.3667000039579
 72
     1
 10
296.2078829514129
 20
325.3667000039579
 11
295.2561966780248
 21
325.3667000039579
 72
     4
 94
        3
 73
     0
 74
     0
 95
       26
 96
       22
 40
0.0
 40
0.0
 40
0.0
 40
0.0
 40
0.1723984759424608
 40
0.2878059064036966
 40
0.3710240621887089
 40
0.4331603664333679
 40
0.5137544142125342
 40
0.5725802121924481
 40
0.6788058922658033
 40
0.7652720686804675
 40
0.8240829233522497
 40
0.8817499774613612
 40
0.984905126098447
 40
1.05784812826093
 40
1.097133570529075
 40
1.152937380796436
 40
1.193234564309721
 40
1.251611879021461
 40
1.28464838962433
 40
1.356539542406004
 40
1.389365667278771
 40
1.389365667278771
 40
1.389365667278771
 40
1.389365667278771
 10
295.2561966780245
 20
325.3667000039579
 10
295.1976819715859
 20
325.3632089162295
 10
295.0999962001055
 20
325.3573808155895
 10
294.9927378172699
 20
325.2922224998867
 10
294.9141540467549
 20
325.2543423185124
 10
294.8581081969262
 20
325.2028474391133
 10
294.817026361809
 20
325.1496569903238
 10
294.7652349963435
 20
325.0862809605934
 10
294.7230006177464
 20
325.0124821385532
 10
294.7014932163201
 20
324.9311429710834
 10
294.6824421642639
 20
324.8663151826655
 10
294.6683135851267
 20
324.7940730726723
 10
294.6719082956341
 20
324.7160261804345
 10
294.6770560855973
 20
324.6435402225096
 10
294.7000397160064
 20
324.5917961011874
 10
294.7262139999399
 20
324.5549578524512
 10
294.7582640521614
 20
324.5143846055327
 10
294.7933338180628
 20
324.4875130754798
 10
294.8223393770563
 20
324.4388334930654
 10
294.8731126295911
 20
324.43262162727
 10
294.9053861288394
 20
324.4202581603429
 10
294.91550302588
 20
324.4163825371574
 72
     1
 10
294.9155030258798
 20
324.4163825371574
 11
295.7340239700691
 21
324.4163825371574
 72
     1
 10
295.7340239700691
 20
324.4163825371574
 11
295.9103283668484
 21
324.7699585045432
 72
     1
 10
295.9103283668484
 20
324.7699585045432
 11
295.3026547414117
 21
324.7699585045432
 72
     4
 94
        3
 73
     0
 74
     0
 95
       16
 96
       12
 40
0.0
 40
0.0
 40
0.0
 40
0.0
 40
0.0520638816757735
 40
0.1046647644702809
 40
0.1360388269655169
 40
0.1661200957203374
 40
0.1991564750640073
 40
0.2222266184462751
 40
0.244118182278644
 40
0.2885111307736634
 40
0.3794005943324332
 40
0.3794005943324332
 40
0.3794005943324332
 40
0.3794005943324332
 10
295.3026547414117
 20
324.7699585045432
 10
295.2843251633932
 20
324.7753513351562
 10
295.247476951074
 20
324.7861926195124
 10
295.2443930532589
 20
324.838747183304
 10
295.2485944178695
 20
324.8761966105309
 10
295.2661897422419
 20
324.9034619804579
 10
295.2875359225741
 20
324.9233011244866
 10
295.2954840522411
 20
324.9491385076128
 10
295.3188468552471
 20
324.9686489644113
 10
295.3602753649121
 20
325.0014433168604
 10
295.4060881249012
 20
325.0084277811896
 10
295.4368674192407
 20
325.0131202922597
 72
     1
 10
295.4368674192405
 20
325.0131202922597
 11
296.0315766875984
 21
325.0131202922595
 97
        8
330
299E
330
298B
330
2992
330
298E
330
299D
330
299A
330
299C
330
299B
 75
     0
 76
     1
 47
0.0514683685270805
 98
        1
 10
295.5890366033989
 20
325.1551481946924
450
        0
451
        0
460
0.0
461
0.0
452
        0
462
0.0
453
        0
470

  0
SPLINE
  5
298A
102
{ACAD_REACTORS
330
2964
102
}
330
18
100
AcDbEntity
  8
ROGO
 62
     4
100
AcDbSpline
210
0.0
220
0.0
230
1.0
 70
     8
 71
     3
 72
    26
 73
    22
 74
    20
 42
0.0000000001
 43
0.0000000001
 44
0.0000000001
 40
0.0
 40
0.0
 40
0.0
 40
0.0
 40
0.1723984759425082
 40
0.2878059064038965
 40
0.3710240621887819
 40
0.4331603664334786
 40
0.513754414212565
 40
0.5725802121925136
 40
0.6788058922658138
 40
0.7652720686804951
 40
0.824082923352317
 40
0.8817499774613828
 40
0.9849051260984118
 40
1.057848128261018
 40
1.097133570529036
 40
1.152937380796412
 40
1.193234564309814
 40
1.251611879021393
 40
1.284648389624331
 40
1.356539542405888
 40
1.389365667278798
 40
1.389365667278798
 40
1.389365667278798
 40
1.389365667278798
 10
298.3182040871056
 20
325.3667000039579
 30
0.0
 10
298.259689380667
 20
325.3632089162295
 30
0.0
 10
298.1620036091864
 20
325.3573808155895
 30
0.0
 10
298.054745226351
 20
325.2922224998867
 30
0.0
 10
297.9761614558359
 20
325.2543423185124
 30
0.0
 10
297.9201156060073
 20
325.2028474391134
 30
0.0
 10
297.87903377089
 20
325.1496569903238
 30
0.0
 10
297.8272424054246
 20
325.0862809605935
 30
0.0
 10
297.7850080268275
 20
325.0124821385532
 30
0.0
 10
297.7635006254013
 20
324.9311429710835
 30
0.0
 10
297.744449573345
 20
324.8663151826653
 30
0.0
 10
297.7303209942079
 20
324.7940730726725
 30
0.0
 10
297.7339157047152
 20
324.7160261804346
 30
0.0
 10
297.7390634946786
 20
324.6435402225096
 30
0.0
 10
297.7620471250877
 20
324.5917961011876
 30
0.0
 10
297.7882214090209
 20
324.5549578524513
 30
0.0
 10
297.8202714612426
 20
324.5143846055327
 30
0.0
 10
297.8553412271438
 20
324.4875130754795
 30
0.0
 10
297.8843467861375
 20
324.4388334930655
 30
0.0
 10
297.9351200386722
 20
324.4326216272698
 30
0.0
 10
297.9673935379204
 20
324.4202581603429
 30
0.0
 10
297.9775104349611
 20
324.4163825371574
 30
0.0
 11
298.3182040871056
 21
325.3667000039579
 31
0.0
 11
298.1478572610333
 21
325.340182210792
 31
0.0
 11
298.0446166254623
 21
325.2886046364734
 31
0.0
 11
297.972348328976
 21
325.2473426106482
 31
0.0
 11
297.9258902655887
 21
325.2060804166749
 31
0.0
 11
297.8742700962165
 21
325.144187293863
 31
0.0
 11
297.8381359479732
 21
325.0977674937912
 31
0.0
 11
297.7865154817747
 21
325.0049277254993
 31
0.0
 11
297.7607055455017
 21
324.9224035057008
 31
0.0
 11
297.7452195243726
 21
324.8656681571355
 31
0.0
 11
297.7348953124023
 21
324.8089328085704
 31
0.0
 11
297.7348953124023
 21
324.7057776599334
 31
0.0
 11
297.7452195243726
 21
324.633568988628
 31
0.0
 11
297.7607055455017
 21
324.5974645689015
 31
0.0
 11
297.7916775877597
 21
324.5510447688295
 31
0.0
 11
297.8174878208591
 21
324.5200981233495
 31
0.0
 11
297.858783778261
 21
324.4788360975243
 31
0.0
 11
297.8794319053753
 21
324.453047226291
 31
0.0
 11
297.9465383927029
 21
324.4272585232057
 31
0.0
 11
297.9775104349611
 21
324.4163825371574
 31
0.0
  0
SPLINE
  5
298B
102
{ACAD_REACTORS
330
2989
102
}
330
18
100
AcDbEntity
  8
ROGO
 62
     4
100
AcDbSpline
210
0.0
220
0.0
230
1.0
 70
     8
 71
     3
 72
    26
 73
    22
 74
    20
 42
0.0000000001
 43
0.0000000001
 44
0.0000000001
 40
0.0
 40
0.0
 40
0.0
 40
0.0
 40
0.1723984759423397
 40
0.2878059064036771
 40
0.3710240621887106
 40
0.4331603664334074
 40
0.5137544142124937
 40
0.5725802121924073
 40
0.6788058922657904
 40
0.7652720686804546
 40
0.824082923352112
 40
0.8817499774613455
 40
0.9849051260983745
 40
1.05784812826098
 40
1.097133570528999
 40
1.152937380796438
 40
1.193234564309767
 40
1.251611879021467
 40
1.284648389624298
 40
1.356539542405973
 40
1.38936566727876
 40
1.38936566727876
 40
1.38936566727876
 40
1.38936566727876
 10
295.2561966780245
 20
325.3667000039579
 30
0.0
 10
295.1976819715859
 20
325.3632089162295
 30
0.0
 10
295.0999962001055
 20
325.3573808155895
 30
0.0
 10
294.99273781727
 20
325.2922224998866
 30
0.0
 10
294.9141540467548
 20
325.2543423185125
 30
0.0
 10
294.8581081969262
 20
325.2028474391134
 30
0.0
 10
294.8170263618089
 20
325.1496569903238
 30
0.0
 10
294.7652349963436
 20
325.0862809605935
 30
0.0
 10
294.7230006177462
 20
325.0124821385532
 30
0.0
 10
294.7014932163201
 20
324.9311429710835
 30
0.0
 10
294.6824421642639
 20
324.8663151826655
 30
0.0
 10
294.6683135851266
 20
324.7940730726723
 30
0.0
 10
294.6719082956341
 20
324.7160261804346
 30
0.0
 10
294.6770560855974
 20
324.6435402225097
 30
0.0
 10
294.7000397160064
 20
324.5917961011874
 30
0.0
 10
294.7262139999399
 20
324.5549578524512
 30
0.0
 10
294.7582640521613
 20
324.5143846055325
 30
0.0
 10
294.7933338180628
 20
324.4875130754797
 30
0.0
 10
294.8223393770563
 20
324.4388334930655
 30
0.0
 10
294.8731126295913
 20
324.43262162727
 30
0.0
 10
294.9053861288393
 20
324.4202581603429
 30
0.0
 10
294.91550302588
 20
324.4163825371574
 30
0.0
 11
295.2561966780245
 21
325.3667000039579
 31
0.0
 11
295.0858498519523
 21
325.340182210792
 31
0.0
 11
294.9826092163814
 21
325.2886046364734
 31
0.0
 11
294.9103409198949
 21
325.2473426106482
 31
0.0
 11
294.8638828565076
 21
325.2060804166749
 31
0.0
 11
294.8122626871354
 21
325.144187293863
 31
0.0
 11
294.7761285388921
 21
325.0977674937912
 31
0.0
 11
294.7245080726935
 21
325.0049277254993
 31
0.0
 11
294.6986981364205
 21
324.9224035057008
 31
0.0
 11
294.6832121152915
 21
324.8656681571357
 31
0.0
 11
294.6728879033212
 21
324.8089328085704
 31
0.0
 11
294.6728879033212
 21
324.7057776599334
 31
0.0
 11
294.6832121152915
 21
324.633568988628
 31
0.0
 11
294.6986981364205
 21
324.5974645689015
 31
0.0
 11
294.7296701786786
 21
324.5510447688295
 31
0.0
 11
294.755480411778
 21
324.5200981233495
 31
0.0
 11
294.79677636918
 21
324.4788360975243
 31
0.0
 11
294.8174244962942
 21
324.453047226291
 31
0.0
 11
294.8845309836219
 21
324.4272585232058
 31
0.0
 11
294.91550302588
 21
324.4163825371574
 31
0.0
  0
LINE
  5
298C
102
{ACAD_REACTORS
330
296A
102
}
330
18
100
AcDbEntity
  8
ROGO
 62
     4
100
AcDbLine
 10
294.022153034483
 20
325.3667000039579
 30
0.0
 11
294.7074454289974
 21
324.4163825371574
 31
0.0
  0
LINE
  5
298D
102
{ACAD_REACTORS
330
296A
102
}
330
18
100
AcDbEntity
  8
ROGO
 62
     4
100
AcDbLine
 10
294.0506642178562
 20
324.5973171030341
 30
0.0
 11
294.1811396497323
 21
324.4163825371574
 31
0.0
  0
LINE
  5
298E
102
{ACAD_REACTORS
330
2989
102
}
330
18
100
AcDbEntity
  8
ROGO
 62
     4
100
AcDbLine
 10
295.9103283668484
 20
324.7699585045432
 30
0.0
 11
295.7340239700691
 21
324.4163825371574
 31
0.0
  0
LINE
  5
298F
102
{ACAD_REACTORS
330
2964
102
}
330
18
100
AcDbEntity
  8
ROGO
 62
     4
100
AcDbLine
 10
298.9723357759294
 20
324.7699585045432
 30
0.0
 11
298.7960313791502
 21
324.4163825371574
 31
0.0
  0
ARC
  5
2990
102
{ACAD_REACTORS
330
2988
102
}
330
18
100
AcDbEntity
  8
ROGO
 62
     4
100
AcDbCircle
 10
296.7090884898886
 20
324.8915412705577
 30
0.0
 40
0.4755599797263065
100
AcDbArc
 50
92.3538081120337
 51
270.0
  0
ARC
  5
2991
102
{ACAD_REACTORS
330
2988
102
}
330
18
100
AcDbEntity
  8
ROGO
 62
     4
100
AcDbCircle
 10
297.0738311714632
 20
324.8911400242316
 30
0.0
 40
0.4755599797263065
100
AcDbArc
 50
273.3290215232082
 51
90.0000000000006
  0
LINE
  5
2992
102
{ACAD_REACTORS
330
2989
102
}
330
18
100
AcDbEntity
  8
ROGO
 62
     4
100
AcDbLine
 10
294.91550302588
 20
324.4163825371574
 30
0.0
 11
295.7340239700691
 21
324.4163825371574
 31
0.0
  0
LINE
  5
2993
102
{ACAD_REACTORS
330
296A
102
}
330
18
100
AcDbEntity
  8
ROGO
 62
     4
100
AcDbLine
 10
294.7074454289974
 20
324.4163825371574
 30
0.0
 11
294.1811396497323
 21
324.4163825371574
 31
0.0
  0
LINE
  5
2994
330
18
100
AcDbEntity
  8
ROGO
 62
     4
100
AcDbLine
 10
296.6895571716857
 20
324.4163825371574
 30
0.0
 11
297.1014467971897
 21
324.4163825371574
 31
0.0
  0
LINE
  5
2995
102
{ACAD_REACTORS
330
2988
102
}
330
18
100
AcDbEntity
  8
ROGO
 62
     4
100
AcDbLine
 10
296.6895571716853
 20
324.4163825371574
 30
0.0
 11
297.10144679719
 21
324.4163825371574
 31
0.0
  0
LINE
  5
2996
102
{ACAD_REACTORS
330
2964
102
}
330
18
100
AcDbEntity
  8
ROGO
 62
     4
100
AcDbLine
 10
297.977510434961
 20
324.4163825371574
 30
0.0
 11
298.7960313791502
 21
324.4163825371574
 31
0.0
  0
LINE
  5
2997
102
{ACAD_REACTORS
330
296A
102
}
330
18
100
AcDbEntity
  8
ROGO
 62
     4
100
AcDbLine
 10
293.7475298708134
 20
325.0176834562696
 30
0.0
 11
293.5820118962353
 21
324.7881542457164
 31
0.0
  0
LINE
  5
2998
102
{ACAD_REACTORS
330
296A
102
}
330
18
100
AcDbEntity
  8
ROGO
 62
     4
100
AcDbLine
 10
293.5820118962353
 20
324.7881542457164
 30
0.0
 11
293.9130478453914
 21
324.7881542457164
 31
0.0
  0
LINE
  5
2999
102
{ACAD_REACTORS
330
296A
102
}
330
18
100
AcDbEntity
  8
ROGO
 62
     4
100
AcDbLine
 10
293.7475298708134
 20
325.0176834562696
 30
0.0
 11
293.9130478453914
 21
324.7881542457164
 31
0.0
  0
SPLINE
  5
299A
102
{ACAD_REACTORS
330
2989
102
}
330
18
100
AcDbEntity
  8
ROGO
 62
     4
100
AcDbSpline
210
0.0
220
0.0
230
1.0
 70
     8
 71
     3
 72
    16
 73
    12
 74
    10
 42
0.0000000001
 43
0.0000000001
 44
0.0000000001
 40
0.0
 40
0.0
 40
0.0
 40
0.0
 40
0.0908894635587994
 40
0.1352824120537726
 40
0.1571739758861414
 40
0.1802441192684092
 40
0.2132804986121679
 40
0.2433617673669883
 40
0.2747358298621589
 40
0.327336712656644
 40
0.3794005943324432
 40
0.3794005943324432
 40
0.3794005943324432
 40
0.3794005943324432
 10
295.4368674192407
 20
325.0131202922597
 30
0.0
 10
295.4060881249012
 20
325.0084277811895
 30
0.0
 10
295.360275364912
 20
325.0014433168602
 30
0.0
 10
295.3188468552473
 20
324.9686489644114
 30
0.0
 10
295.2954840522411
 20
324.9491385076128
 30
0.0
 10
295.2875359225741
 20
324.9233011244867
 30
0.0
 10
295.266189742242
 20
324.9034619804579
 30
0.0
 10
295.2485944178694
 20
324.8761966105309
 30
0.0
 10
295.2443930532589
 20
324.838747183304
 30
0.0
 10
295.247476951074
 20
324.7861926195123
 30
0.0
 10
295.2843251633932
 20
324.7753513351562
 30
0.0
 10
295.3026547414117
 20
324.7699585045432
 30
0.0
 11
295.4368674192407
 21
325.0131202922597
 31
0.0
 11
295.3491131016252
 21
324.9894544027593
 31
0.0
 11
295.312978953382
 21
324.9636656996741
 31
0.0
 11
295.2974929322529
 21
324.9481923769341
 31
0.0
 11
295.2871687202826
 21
324.9275612799475
 31
0.0
 11
295.2665205931685
 21
324.9017725768622
 31
0.0
 11
295.2510345720394
 21
324.8759837056289
 31
0.0
 11
295.2458724660543
 21
324.845037228297
 31
0.0
 11
295.2561966780245
 21
324.7934594858304
 31
0.0
 11
295.3026547414117
 21
324.7699585045432
 31
0.0
  0
LINE
  5
299B
102
{ACAD_REACTORS
330
2989
102
}
330
18
100
AcDbEntity
  8
ROGO
 62
     4
100
AcDbLine
 10
296.2078829514128
 20
325.3667000039579
 30
0.0
 11
296.0315766875984
 21
325.0131202922597
 31
0.0
  0
LINE
  5
299C
102
{ACAD_REACTORS
330
2989
102
}
330
18
100
AcDbEntity
  8
ROGO
 62
     4
100
AcDbLine
 10
295.4368674192407
 20
325.0131202922597
 30
0.0
 11
296.0315766875984
 21
325.0131202922597
 31
0.0
  0
LINE
  5
299D
102
{ACAD_REACTORS
330
2989
102
}
330
18
100
AcDbEntity
  8
ROGO
 62
     4
100
AcDbLine
 10
295.3026547414117
 20
324.7699585045432
 30
0.0
 11
295.9103283668484
 21
324.7699585045432
 31
0.0
  0
LINE
  5
299E
102
{ACAD_REACTORS
330
2989
102
}
330
18
100
AcDbEntity
  8
ROGO
 62
     4
100
AcDbLine
 10
295.2561966780248
 20
325.3667000039579
 30
0.0
 11
296.2078829514128
 21
325.3667000039579
 31
0.0
  0
LINE
  5
299F
102
{ACAD_REACTORS
330
2988
102
}
330
18
100
AcDbEntity
  8
ROGO
 62
     4
100
AcDbLine
 10
296.8982938045432
 20
324.9825678382066
 30
0.0
 11
296.9327326927714
 21
324.9777542112413
 31
0.0
  0
LINE
  5
29A0
102
{ACAD_REACTORS
330
2988
102
}
330
18
100
AcDbEntity
  8
ROGO
 62
     4
100
AcDbLine
 10
297.0154043611061
 20
324.8860367854912
 30
0.0
 11
297.0027576326573
 21
324.7955563077477
 31
0.0
  0
LINE
  5
29A1
102
{ACAD_REACTORS
330
2988
102
}
330
18
100
AcDbEntity
  8
ROGO
 62
     4
100
AcDbLine
 10
296.776407114115
 20
324.8289999854542
 30
0.0
 11
296.7890538425637
 21
324.9194804631977
 31
0.0
  0
LINE
  5
29A2
102
{ACAD_REACTORS
330
2988
102
}
330
18
100
AcDbEntity
  8
ROGO
 62
     4
100
AcDbLine
 10
296.8654509302315
 20
324.747594898742
 30
0.0
 11
296.8998898184597
 21
324.7427812717767
 31
0.0
  0
ARC
  5
29A3
102
{ACAD_REACTORS
330
2988
102
}
330
18
100
AcDbEntity
  8
ROGO
 62
     4
100
AcDbCircle
 10
296.9157479853527
 20
324.8793269005052
 30
0.0
 40
0.0998820093152177
100
AcDbArc
 50
3.851923331663601
 51
80.20940670206341
  0
ARC
  5
29A4
102
{ACAD_REACTORS
330
2988
102
}
330
18
100
AcDbEntity
  8
ROGO
 62
     4
100
AcDbCircle
 10
296.8848906227268
 20
324.8796545371467
 30
0.0
 40
0.1037824301982561
100
AcDbArc
 50
82.57970078354313
 51
157.4341870372611
  0
ARC
  5
29A5
102
{ACAD_REACTORS
330
2988
102
}
330
18
100
AcDbEntity
  8
ROGO
 62
     4
100
AcDbCircle
 10
296.8711787336998
 20
324.8432623865971
 30
0.0
 40
0.0958388019806556
100
AcDbArc
 50
188.5583509056651
 51
266.5736774635929
  0
ARC
  5
29A6
102
{ACAD_REACTORS
330
2988
102
}
330
18
100
AcDbEntity
  8
ROGO
 62
     4
100
AcDbCircle
 10
296.9205034017999
 20
324.8292430138643
 30
0.0
 40
0.0888850530907803
100
AcDbArc
 50
256.5902863289752
 51
337.7287536965499
  0
LINE
  5
29A7
330
18
100
AcDbEntity
  8
ROGO
 62
     4
100
AcDbLine
 10
296.6895571716854
 20
325.3667000039579
 30
0.0
 11
296.9588705808318
 21
325.3667000039579
 31
0.0
  0
LINE
  5
29A8
102
{ACAD_REACTORS
330
2988
102
}
330
18
100
AcDbEntity
  8
ROGO
 62
     4
100
AcDbLine
 10
296.6895571716853
 20
325.3667000039579
 30
0.0
 11
297.0738311714632
 21
325.3667000039579
 31
0.0
  0
SPLINE
  5
29A9
102
{ACAD_REACTORS
330
2964
102
}
330
18
100
AcDbEntity
  8
ROGO
 62
     4
100
AcDbSpline
210
0.0
220
0.0
230
1.0
 70
     8
 71
     3
 72
    16
 73
    12
 74
    10
 42
0.0000000001
 43
0.0000000001
 44
0.0000000001
 40
0.0
 40
0.0
 40
0.0
 40
0.0
 40
0.0908894635587001
 40
0.1352824120538121
 40
0.1571739758861005
 40
0.1802441192683937
 40
0.2132804986121879
 40
0.2433617673669499
 40
0.2747358298621391
 40
0.3273367126566577
 40
0.3794005943324569
 40
0.3794005943324569
 40
0.3794005943324569
 40
0.3794005943324569
 10
298.4988748283218
 20
325.0131202922595
 30
0.0
 10
298.4680955339824
 20
325.0084277811895
 30
0.0
 10
298.4222827739932
 20
325.0014433168602
 30
0.0
 10
298.3808542643282
 20
324.9686489644115
 30
0.0
 10
298.3574914613223
 20
324.9491385076128
 30
0.0
 10
298.3495433316551
 20
324.9233011244868
 30
0.0
 10
298.328197151323
 20
324.9034619804579
 30
0.0
 10
298.3106018269505
 20
324.8761966105308
 30
0.0
 10
298.3064004623399
 20
324.838747183304
 30
0.0
 10
298.3094843601552
 20
324.7861926195124
 30
0.0
 10
298.3463325724743
 20
324.7753513351562
 30
0.0
 10
298.3646621504929
 20
324.7699585045432
 30
0.0
 11
298.4988748283218
 21
325.0131202922595
 31
0.0
 11
298.4111205107063
 21
324.9894544027593
 31
0.0
 11
298.374986362463
 21
324.9636656996741
 31
0.0
 11
298.359500341334
 21
324.9481923769341
 31
0.0
 11
298.3491761293637
 21
324.9275612799475
 31
0.0
 11
298.3285280022495
 21
324.9017725768622
 31
0.0
 11
298.3130419811205
 21
324.8759837056289
 31
0.0
 11
298.3078798751353
 21
324.845037228297
 31
0.0
 11
298.3182040871056
 21
324.7934594858304
 31
0.0
 11
298.3646621504929
 21
324.7699585045432
 31
0.0
  0
LINE
  5
29AA
102
{ACAD_REACTORS
330
2964
102
}
330
18
100
AcDbEntity
  8
ROGO
 62
     4
100
AcDbLine
 10
298.3646621504929
 20
324.7699585045432
 30
0.0
 11
298.9723357759295
 21
324.7699585045432
 31
0.0
  0
LINE
  5
29AB
102
{ACAD_REACTORS
330
2964
102
}
330
18
100
AcDbEntity
  8
ROGO
 62
     4
100
AcDbLine
 10
298.4988748283218
 20
325.0131202922597
 30
0.0
 11
299.0935840966795
 21
325.0131202922597
 31
0.0
  0
LINE
  5
29AC
102
{ACAD_REACTORS
330
2963
102
}
330
18
100
AcDbEntity
  8
ROGO
 62
     4
100
AcDbLine
 10
299.8391329033784
 20
324.624231977894
 30
0.0
 11
300.2093514406588
 21
323.8817639518302
 31
0.0
  0
LINE
  5
29AD
102
{ACAD_REACTORS
330
2963
102
}
330
18
100
AcDbEntity
  8
ROGO
 62
     4
100
AcDbLine
 10
299.4689263378386
 20
324.2693490506419
 30
0.0
 11
299.6621887859395
 21
323.8817639518302
 31
0.0
  0
LINE
  5
29AE
102
{ACAD_REACTORS
330
2963
102
}
330
18
100
AcDbEntity
  8
ROGO
 62
     4
100
AcDbLine
 10
299.4689263378386
 20
324.2693490506419
 30
0.0
 11
299.2756638897378
 21
323.8817639518302
 31
0.0
  0
LINE
  5
29AF
102
{ACAD_REACTORS
330
2963
102
}
330
18
100
AcDbEntity
  8
ROGO
 62
     4
100
AcDbLine
 10
299.6621887859395
 20
323.8817639518302
 30
0.0
 11
300.2093514406588
 21
323.8817639518302
 31
0.0
  0
LINE
  5
29B0
102
{ACAD_REACTORS
330
2963
102
}
330
18
100
AcDbEntity
  8
ROGO
 62
     4
100
AcDbLine
 10
299.8391329033784
 20
324.624231977894
 30
0.0
 11
300.7386207381491
 21
325.3667000039579
 31
0.0
  0
LINE
  5
29B1
102
{ACAD_REACTORS
330
2963
102
}
330
18
100
AcDbEntity
  8
ROGO
 62
     4
100
AcDbLine
 10
300.1914580834299
 20
325.3667000039579
 30
0.0
 11
300.7386207381491
 21
325.3667000039579
 31
0.0
  0
LINE
  5
29B2
102
{ACAD_REACTORS
330
2963
102
}
330
18
100
AcDbEntity
  8
ROGO
 62
     4
100
AcDbLine
 10
299.4689263378386
 20
325.3667000039579
 30
0.0
 11
300.0161009642986
 21
325.3667000039579
 31
0.0
  0
LINE
  5
29B3
102
{ACAD_REACTORS
330
2963
102
}
330
18
100
AcDbEntity
  8
ROGO
 62
     4
100
AcDbLine
 10
300.0161009642986
 20
325.3667000039579
 30
0.0
 11
299.9352603032024
 21
325.2045752046145
 31
0.0
  0
LINE
  5
29B4
102
{ACAD_REACTORS
330
2963
102
}
330
18
100
AcDbEntity
  8
ROGO
 62
     4
100
AcDbLine
 10
299.9352603032024
 20
325.2045752046145
 30
0.0
 11
300.1914580834299
 21
325.3667000039579
 31
0.0
  0
LINE
  5
29B5
330
18
100
AcDbEntity
  8
寸法線
 62
     2
100
AcDbLine
 10
388.2608455561712
 20
273.8365750063834
 30
0.0
 11
392.0473692795198
 21
267.2862567912225
 31
0.0
1001
ACAD
1000
DSTYLE
1002
{
1070
   271
1070
     2
1002
}
  0
LINE
  5
29B6
330
18
100
AcDbEntity
  8
寸法線
 62
     2
100
AcDbLine
 10
392.0473692795198
 20
267.2862567912225
 30
0.0
 11
397.0771311842818
 21
267.2862567912225
 31
0.0
1001
ACAD
1000
DSTYLE
1002
{
1070
   271
1070
     2
1002
}
  0
LINE
  5
29B7
330
18
100
AcDbEntity
  8
0
  6
ByBlock
 62
     2
100
AcDbLine
 10
388.7385651063473
 20
283.6979953008606
 30
0.0
 11
388.7385651063473
 21
287.6050849298451
 31
0.0
  0
LINE
  5
29B8
330
18
100
AcDbEntity
  8
0
  6
ByBlock
 62
     2
100
AcDbLine
 10
404.738565106347
 20
278.8716799057975
 30
0.0
 11
404.738565106347
 21
287.6050849298451
 31
0.0
  0
LINE
  5
29B9
330
18
100
AcDbEntity
  8
0
  6
ByBlock
 62
     2
100
AcDbLine
 10
391.2385651063473
 20
286.3550849298452
 30
0.0
 11
402.2385651063472
 21
286.3550849298452
 31
0.0
  0
INSERT
  5
29BA
330
18
100
AcDbEntity
  8
0
  6
ByBlock
 62
     2
100
AcDbBlockReference
  2
_OPEN
 10
388.7385651063473
 20
286.3550849298452
 30
0.0
 41
2.5
 42
2.5
 43
2.5
 50
180.0
  0
INSERT
  5
29BB
330
18
100
AcDbEntity
  8
0
  6
ByBlock
 62
     2
100
AcDbBlockReference
  2
_OPEN
 10
404.738565106347
 20
286.3550849298452
 30
0.0
 41
2.5
 42
2.5
 43
2.5
  0
MTEXT
  5
29BC
330
18
100
AcDbEntity
  8
0
  6
ByBlock
 62
     6
100
AcDbMText
 10
396.7385651063473
 20
288.2300849298451
 30
0.0
 40
2.5
 41
0.0
 71
     5
 72
     1
  1
\A1;16
  7
STYLE3
 73
     1
 44
1.0
  0
POINT
  5
29BD
330
18
100
AcDbEntity
  8
DEFPOINTS
  6
ByBlock
 62
     0
100
AcDbPoint
 10
388.7385651063473
 20
283.6979953008606
 30
0.0
  0
POINT
  5
29BE
330
18
100
AcDbEntity
  8
DEFPOINTS
  6
ByBlock
 62
     0
100
AcDbPoint
 10
404.738565106347
 20
278.8716799057975
 30
0.0
  0
POINT
  5
29BF
330
18
100
AcDbEntity
  8
DEFPOINTS
  6
ByBlock
 62
     0
100
AcDbPoint
 10
404.738565106347
 20
286.3550849298452
 30
0.0
  0
INSERT
  5
2F2B
330
18
100
AcDbEntity
  8
目盛
100
AcDbBlockReference
  2
PC_PCN針
 10
294.8287716641016
 20
328.8678756478983
 30
0.0
 50
282.857142857143
  0
TEXT
  5
2F8C
330
18
100
AcDbEntity
  8
文字
100
AcDbText
 10
324.8505423604576
 20
358.1270285551087
 30
0.0
 40
4.0
  1
Model No.PCN-6 New Pic Test Indicator
  7
STYLE3
100
AcDbText
  0
LINE
  5
2F8D
330
18
100
AcDbEntity
  8
外形線
100
AcDbLine
 10
323.7467543604576
 20
355.7086035551086
 30
0.0
 11
443.7467543604576
 21
355.7086035551086
 31
0.0
  0
LINE
  5
2F8E
330
18
100
AcDbEntity
  8
外形線
100
AcDbLine
 10
323.7467543604576
 20
356.7086035551087
 30
0.0
 11
443.7467543604576
 21
356.7086035551087
 31
0.0
  0
LINE
  5
2F97
330
18
100
AcDbEntity
  8
外形線
100
AcDbLine
 10
351.0598483604576
 20
192.6481155551086
 30
0.0
 11
491.8512663604575
 21
192.6481155551086
 31
0.0
  0
LINE
  5
2F98
330
18
100
AcDbEntity
  8
外形線
100
AcDbLine
 10
351.0598483604576
 20
181.8679095551086
 30
0.0
 11
491.8512663604575
 21
181.8679095551086
 31
0.0
  0
TEXT
  5
2F99
330
18
100
AcDbEntity
  8
0
  6
Continuous
100
AcDbText
 10
352.5173153604576
 20
183.7658995551086
 30
0.0
 40
2.1
  1
Design and specifications are subject to change without notice for future improvement.
  7
STYLE3
100
AcDbText
  0
TEXT
  5
2F9A
330
18
100
AcDbEntity
  8
0
  6
Continuous
100
AcDbText
 10
352.8088093604576
 20
187.6950475551086
 30
0.0
 40
3.5
  1
仕様及び外観は予告なく変更される場合がございますのでご了承下さい。
  7
STYLE3
100
AcDbText
  0
TEXT
  5
2F9B
330
18
100
AcDbEntity
  8
0
  6
Continuous
100
AcDbText
 10
352.2258243604576
 20
174.0012715551086
 30
0.0
 40
2.1
  1
3RD Angle Projection
  7
STYLE3
100
AcDbText
  0
TEXT
  5
2F9C
330
18
100
AcDbEntity
  8
0
  6
Continuous
100
AcDbText
 10
354.8492673604576
 20
177.4975545551086
 30
0.0
 40
3.0
  1
三　　角　　法
  7
STYLE3
100
AcDbText
  0
LINE
  5
2F9D
330
18
100
AcDbEntity
  8
外形線
100
AcDbLine
 10
351.0598483604576
 20
172.2531315551086
 30
0.0
 11
351.0598483604576
 21
192.6481155551086
 31
0.0
  0
LINE
  5
2F9E
330
18
100
AcDbEntity
  8
外形線
100
AcDbLine
 10
453.0826153604575
 20
181.8679095551086
 30
0.0
 11
453.0826153604575
 21
172.2531315551086
 31
0.0
  0
LINE
  5
2F9F
330
18
100
AcDbEntity
  8
外形線
100
AcDbLine
 10
423.3502653604575
 20
181.8679095551086
 30
0.0
 11
423.3502653604575
 21
172.2531315551086
 31
0.0
  0
LINE
  5
2FA0
330
18
100
AcDbEntity
  8
外形線
100
AcDbLine
 10
403.8201933604575
 20
181.8679095551086
 30
0.0
 11
403.8201933604575
 21
172.2531315551086
 31
0.0
  0
LINE
  5
2FA1
330
18
100
AcDbEntity
  8
外形線
100
AcDbLine
 10
386.3305763604576
 20
181.8679095551086
 30
0.0
 11
386.3305763604576
 21
172.2531315551086
 31
0.0
  0
TEXT
  5
2FA2
330
18
100
AcDbEntity
  8
0
  6
Continuous
100
AcDbText
 10
387.7880453604575
 20
177.5035095551086
 30
0.0
 40
3.0
  1
単位
  7
STYLE3
100
AcDbText
  0
TEXT
  5
2FA3
330
18
100
AcDbEntity
  8
0
  6
Continuous
100
AcDbText
 10
387.9597663604576
 20
174.0012725551086
 30
0.0
 40
2.1
  1
Unit
  7
STYLE3
100
AcDbText
  0
TEXT
  5
2FA4
330
18
100
AcDbEntity
  8
0
  6
Continuous
100
AcDbText
 10
405.1059413604574
 20
177.2121515551086
 30
0.0
 40
3.0
  1
尺 度
  7
STYLE3
100
AcDbText
  0
TEXT
  5
2FA5
330
18
100
AcDbEntity
  8
0
  6
Continuous
100
AcDbText
 10
395.8300933604576
 20
175.7494155551086
 30
0.0
 40
2.399999999999999
  1
mm
  7
STYLE3
100
AcDbText
  0
TEXT
  5
2FA6
330
18
100
AcDbEntity
  8
0
  6
Continuous
100
AcDbText
 10
405.5691563604575
 20
174.2926295551086
 30
0.0
 40
2.1
  1
Scale
  7
STYLE3
100
AcDbText
  0
TEXT
  5
2FA7
330
18
100
AcDbEntity
  8
0
  6
Continuous
100
AcDbText
 10
415.1884453604576
 20
176.0407725551086
 30
0.0
 40
2.399999999999999
  1
1/1
  7
STYLE3
100
AcDbText
  0
TEXT
  5
2FA8
330
18
100
AcDbEntity
  8
0
  6
Continuous
100
AcDbText
 10
425.2822163604576
 20
174.0012735551086
 30
0.0
 40
2.1
  1
Date
  7
STYLE3
100
AcDbText
  0
TEXT
  5
2FA9
330
18
100
AcDbEntity
  8
0
  6
Continuous
100
AcDbText
 10
424.8988553604575
 20
177.3343565551086
 30
0.0
 40
3.0
  1
日 付
  7
STYLE3
100
AcDbText
  0
TEXT
  5
2FAA
330
18
100
AcDbEntity
  8
0
  6
Continuous
100
AcDbText
 10
434.0270243604575
 20
175.7494145551086
 30
0.0
 40
2.1
  1
2014.09.17
  7
STYLE3
100
AcDbText
  0
TEXT
  5
2FAB
330
18
100
AcDbEntity
  8
0
  6
Continuous
100
AcDbText
 10
454.4315783604575
 20
177.7889115551086
 30
0.0
 40
3.0
  1
株式会社　尾崎製作所
  7
STYLE3
100
AcDbText
  0
TEXT
  5
2FAC
330
18
100
AcDbEntity
  8
0
  6
Continuous
100
AcDbText
 10
455.3060573604575
 20
174.0012725551086
 30
0.0
 40
2.1
  1
OZAKI MFG. CO., LTD.
  7
STYLE3
100
AcDbText
  0
DIMENSION
  5
2FCC
330
18
100
AcDbEntity
  8
文字
100
AcDbDimension
  2
*D5
 10
282.4205216179564
 20
226.5716799057975
 30
0.0
 11
280.5455216179563
 21
233.4716799057975
 31
0.0
 70
    32
 71
     5
 42
13.80000000000001
  3
STYLE3
100
AcDbAlignedDimension
 13
290.8287716641016
 23
240.3716799057975
 33
0.0
 14
292.4453694191168
 24
226.5716799057975
 34
0.0
 50
90.0
100
AcDbRotatedDimension
1001
ACAD
1000
DSTYLE
1002
{
1070
   271
1070
     2
1070
   341
1005
0
1002
}
  0
DIMENSION
  5
2FD9
330
18
100
AcDbEntity
  8
文字
100
AcDbDimension
  2
*D6
 10
326.4886909673196
 20
226.5716799057975
 30
0.0
 11
324.6136909673196
 21
235.4716799057975
 31
0.0
 70
    32
 71
     5
 42
17.80000000000001
  3
STYLE3
100
AcDbAlignedDimension
 13
302.9172477758916
 23
244.3716799057975
 33
0.0
 14
297.789519629349
 24
226.5716799057975
 34
0.0
 50
90.0
100
AcDbRotatedDimension
1001
ACAD
1000
DSTYLE
1002
{
1070
   271
1070
     2
1070
   341
1005
0
1002
}
  0
DIMENSION
  5
2FE6
330
18
100
AcDbEntity
  8
文字
100
AcDbDimension
  2
*D7
 10
334.5234839672441
 20
225.5716799057974
 30
0.0
 11
332.648483967244
 21
261.4716799057975
 31
0.0
 70
    32
 71
     5
 42
71.80000000000004
  3
STYLE3
100
AcDbAlignedDimension
 13
327.7386909673197
 23
297.3716799057975
 33
0.0
 14
294.8287716641016
 24
225.5716799057975
 34
0.0
 50
90.0
100
AcDbRotatedDimension
1001
ACAD
1000
DSTYLE
1002
{
1070
   271
1070
     2
1070
   341
1005
0
1002
}
  0
DIMENSION
  5
2FF3
330
18
100
AcDbEntity
  8
文字
100
AcDbDimension
  2
*D8
 10
410.9078268813409
 20
226.5716799057974
 30
0.0
 11
409.0328268813409
 21
252.7216799057975
 31
0.0
 70
    32
 71
     5
 42
52.30000000000012
  3
STYLE3
100
AcDbAlignedDimension
 13
408.3821953381622
 23
278.8716799057975
 33
0.0
 14
370.3493130715945
 24
226.5716799057974
 34
0.0
 50
90.0
100
AcDbRotatedDimension
1001
ACAD
1000
DSTYLE
1002
{
1070
   271
1070
     2
1070
   341
1005
0
1002
}
  0
ENDSEC
  0
SECTION
  2
OBJECTS
  0
DICTIONARY
  5
C
330
0
100
AcDbDictionary
281
     1
  3
ACAD_COLOR
350
29D2
  3
ACAD_GROUP
350
D
  3
ACAD_IMAGE_DICT
350
B2C
  3
ACAD_IMAGE_VARS
350
17FD
  3
ACAD_LAYOUT
350
29D5
  3
ACAD_MATERIAL
350
29D1
  3
ACAD_MLINESTYLE
350
1B
  3
ACAD_PLOTSETTINGS
350
29D6
  3
ACAD_PLOTSTYLENAME
350
29CF
  3
ACAD_TABLESTYLE
350
29D3
  3
ACDBVARIABLEDICTIONARY
350
1297
  0
DICTIONARY
  5
29DE
330
29DD
100
AcDbDictionary
280
     1
281
     1
  3
ACAD_SORTENTS
360
29DF
  0
DICTIONARY
  5
29D2
102
{ACAD_REACTORS
330
C
102
}
330
C
100
AcDbDictionary
281
     1
  0
DICTIONARY
  5
D
102
{ACAD_REACTORS
330
C
102
}
330
C
100
AcDbDictionary
281
     1
  0
DICTIONARY
  5
B2C
102
{ACAD_REACTORS
330
C
102
}
330
C
100
AcDbDictionary
281
     1
  3
ROGO01
350
B2D
  0
RASTERVARIABLES
  5
17FD
102
{ACAD_REACTORS
330
C
102
}
330
C
100
AcDbRasterVariables
 90
        0
 70
     1
 71
     1
 72
     0
  0
DICTIONARY
  5
29D5
102
{ACAD_REACTORS
330
C
102
}
330
C
100
AcDbDictionary
281
     1
  3
Model
350
29D7
  3
レイアウト1
350
29D8
  0
DICTIONARY
  5
29D1
102
{ACAD_REACTORS
330
C
102
}
330
C
100
AcDbDictionary
281
     1
  0
DICTIONARY
  5
1B
102
{ACAD_REACTORS
330
C
102
}
330
C
100
AcDbDictionary
281
     1
  3
STANDARD
350
1C
  0
DICTIONARY
  5
29D6
102
{ACAD_REACTORS
330
C
102
}
330
C
100
AcDbDictionary
281
     1
  0
ACDBDICTIONARYWDFLT
  5
29CF
102
{ACAD_REACTORS
330
C
102
}
330
C
100
AcDbDictionary
281
     1
  3
Normal
350
29D0
100
AcDbDictionaryWithDefault
340
29D0
  0
DICTIONARY
  5
29D3
102
{ACAD_REACTORS
330
C
102
}
330
C
100
AcDbDictionary
281
     1
  3
Standard
350
29D4
  0
DICTIONARY
  5
1297
102
{ACAD_REACTORS
330
C
102
}
330
C
100
AcDbDictionary
281
     1
  3
CTABLESTYLE
350
2F34
  3
SORTENTS
350
1298
  0
SORTENTSTABLE
  5
29DF
102
{ACAD_REACTORS
330
29DE
102
}
330
29DE
100
AcDbSortentsTable
330
29DD
  0
IMAGEDEF
  5
B2D
102
{ACAD_REACTORS
330
B2C
102
}
330
B2C
100
AcDbRasterImageDef
 90
        0
  1
D:\ﾃｽﾄ\rogo01.TIF
 10
3388.0
 20
4668.0
 11
0.0635
 21
0.0635
280
     1
281
     5
  0
LAYOUT
  5
29D7
102
{ACAD_REACTORS
330
29D5
102
}
330
29D5
100
AcDbPlotSettings
  1

  2
A4 EPSON LP-6100.pc3
  4
A4
  6

 40
5.873749732971191
 41
5.873747825622557
 42
5.873748779296875
 43
5.873748779296875
 44
209.9733276367186
 45
297.0106506347656
 46
0.9
 47
25.0
 48
0.0
 49
0.0
140
0.0
141
0.0
142
1.0
143
1.0
 70
 28336
 72
     1
 73
     1
 74
     1
  7
AutoCAD LT 98.ctb
 75
    16
147
1.0
 76
     1
 77
     2
 78
   300
148
-236.4655466519944
149
-171.6339924573988
100
AcDbLayout
  1
Model
 70
     1
 71
     0
 10
0.0
 20
0.0
 11
12.0
 21
9.0
 12
0.0
 22
0.0
 32
0.0
 14
0.0
 24
0.0
 34
0.0
 15
0.0
 25
0.0
 35
0.0
146
0.0
 13
0.0
 23
0.0
 33
0.0
 16
1.0
 26
0.0
 36
0.0
 17
0.0
 27
1.0
 37
0.0
 76
     0
330
18
1001
ACAD_PSEXT
1000
A4 EPSON LP-6100.pc3
1000
EPSON LP-6100
1000
\\SATO-MATE2
1000

1070
     0
  0
LAYOUT
  5
29D8
102
{ACAD_REACTORS
330
29D5
102
}
330
29D5
100
AcDbPlotSettings
  1

  2
WIDR Printer
  4

  6

 40
0.0
 41
0.0
 42
0.0
 43
0.0
 44
0.0
 45
0.0
 46
0.0
 47
0.0
 48
0.0
 49
0.0
140
0.0
141
0.0
142
1.0
143
1.0
 70
   688
 72
     0
 73
     0
 74
     5
  7
AutoCad LT 98.ctb
 75
    16
147
1.0
 76
     0
 77
     2
 78
   300
148
0.0
149
0.0
100
AcDbLayout
  1
レイアウト1
 70
     1
 71
     1
 10
0.0
 20
0.0
 11
420.0
 21
297.0
 12
0.0
 22
0.0
 32
0.0
 14
1.000000000000000E+20
 24
1.000000000000000E+20
 34
1.000000000000000E+20
 15
-1.000000000000000E+20
 25
-1.000000000000000E+20
 35
-1.000000000000000E+20
146
0.0
 13
0.0
 23
0.0
 33
0.0
 16
1.0
 26
0.0
 36
0.0
 17
0.0
 27
1.0
 37
0.0
 76
     0
330
15
  0
MLINESTYLE
  5
1C
102
{ACAD_REACTORS
330
1B
102
}
330
1B
100
AcDbMlineStyle
  2
STANDARD
 70
     0
  3

 62
   256
 51
90.0
 52
90.0
 71
     2
 49
0.5
 62
   256
  6
BYLAYER
 49
-0.5
 62
   256
  6
BYLAYER
  0
ACDBPLACEHOLDER
  5
29D0
102
{ACAD_REACTORS
330
29CF
102
}
330
29CF
  0
ACAD_PROXY_OBJECT
  5
29D4
102
{ACAD_REACTORS
330
29D3
102
}
330
29D3
100
AcDbProxyObject
 90
      499
 91
      506
 95
  2555929
 70
     0
 93
     1849
310
4214DD185B99185C992420000000000000F83F0000000000003E0FC00000000000004901028000000C1008070000C3001FDFF8000000C1003FBFF000000182007F7FE00000030400FEFFC00000060801FDFF8000000C1003FBFF000000182000000000000000C2020B0000001820100E000186003FBFF000000182007F7FE0
310
0000030400FEFFC00000060801FDFF8000000C1003FBFF000000182007F7FE0000003040000000000000012404160000003040201C00030C007F7FE00000030400FEFFC00000060801FDFF8000000C1003FBFF000000182007F7FE00000030400FEFFC000000608000
340
F
340
F
340
F
 94
        0
  0
DICTIONARYVAR
  5
2F34
102
{ACAD_REACTORS
330
1297
102
}
330
1297
100
DictionaryVariables
280
     0
  1
STANDARD
  0
DICTIONARYVAR
  5
1298
102
{ACAD_REACTORS
330
1297
102
}
330
1297
100
DictionaryVariables
280
     0
  1
96
  0
ENDSEC
  0
EOF
