  0
SECTION
  2
HEADER
  9
$ACADVER
  1
AC1018
  9
$ACADMAINTVER
 70
     0
  9
$DWGCODEPAGE
  3
ANSI_932
  9
$INSBASE
 10
0.0
 20
0.0
 30
0.0
  9
$EXTMIN
 10
-0.2192180096895981
 20
-0.2135925570677273
 30
-0.0000000058203468
  9
$EXTMAX
 10
255.2285172265582
 20
194.9493202215806
 30
0.0000000000005969
  9
$LIMMIN
 10
0.0
 20
0.0
  9
$LIMMAX
 10
420.0
 20
297.0
  9
$ORTHOMODE
 70
     0
  9
$REGENMODE
 70
     1
  9
$FILLMODE
 70
     1
  9
$QTEXTMODE
 70
     0
  9
$MIRRTEXT
 70
     1
  9
$LTSCALE
 40
1.0
  9
$ATTMODE
 70
     1
  9
$TEXTSIZE
 40
3.0
  9
$TRACEWID
 40
1.0
  9
$TEXTSTYLE
  7
4
  9
$CLAYER
  8
文字
  9
$CELTYPE
  6
BYLAYER
  9
$CECOLOR
 62
   256
  9
$CELTSCALE
 40
1.0
  9
$DISPSILH
 70
     0
  9
$DIMSCALE
 40
1.0
  9
$DIMASZ
 40
2.5
  9
$DIMEXO
 40
0.0
  9
$DIMDLI
 40
3.75
  9
$DIMRND
 40
0.0
  9
$DIMDLE
 40
0.0
  9
$DIMEXE
 40
1.25
  9
$DIMTP
 40
0.0
  9
$DIMTM
 40
0.0
  9
$DIMTXT
 40
2.5
  9
$DIMCEN
 40
2.5
  9
$DIMTSZ
 40
0.0
  9
$DIMTOL
 70
     0
  9
$DIMLIM
 70
     0
  9
$DIMTIH
 70
     0
  9
$DIMTOH
 70
     0
  9
$DIMSE1
 70
     0
  9
$DIMSE2
 70
     0
  9
$DIMTAD
 70
     1
  9
$DIMZIN
 70
     8
  9
$DIMBLK
  1

  9
$DIMASO
 70
     1
  9
$DIMSHO
 70
     1
  9
$DIMPOST
  1

  9
$DIMAPOST
  1

  9
$DIMALT
 70
     0
  9
$DIMALTD
 70
     4
  9
$DIMALTF
 40
0.0394
  9
$DIMLFAC
 40
1.0
  9
$DIMTOFL
 70
     1
  9
$DIMTVP
 40
0.0
  9
$DIMTIX
 70
     0
  9
$DIMSOXD
 70
     0
  9
$DIMSAH
 70
     1
  9
$DIMBLK1
  1
OPEN
  9
$DIMBLK2
  1
OPEN
  9
$DIMSTYLE
  2
STYLE3
  9
$DIMCLRD
 70
     2
  9
$DIMCLRE
 70
     2
  9
$DIMCLRT
 70
     6
  9
$DIMTFAC
 40
1.0
  9
$DIMGAP
 40
0.625
  9
$DIMJUST
 70
     0
  9
$DIMSD1
 70
     0
  9
$DIMSD2
 70
     0
  9
$DIMTOLJ
 70
     1
  9
$DIMTZIN
 70
     0
  9
$DIMALTZ
 70
     0
  9
$DIMALTTZ
 70
     0
  9
$DIMUPT
 70
     0
  9
$DIMDEC
 70
     2
  9
$DIMTDEC
 70
     4
  9
$DIMALTU
 70
     8
  9
$DIMALTTD
 70
     4
  9
$DIMTXSTY
  7
STYLE3
  9
$DIMAUNIT
 70
     0
  9
$DIMADEC
 70
     0
  9
$DIMALTRND
 40
0.0
  9
$DIMAZIN
 70
     0
  9
$DIMDSEP
 70
    46
  9
$DIMATFIT
 70
     3
  9
$DIMFRAC
 70
     0
  9
$DIMLDRBLK
  1

  9
$DIMLUNIT
 70
     2
  9
$DIMLWD
 70
    -2
  9
$DIMLWE
 70
    -2
  9
$DIMTMOVE
 70
     0
  9
$LUNITS
 70
     2
  9
$LUPREC
 70
     4
  9
$SKETCHINC
 40
1.0
  9
$FILLETRAD
 40
0.0
  9
$AUNITS
 70
     0
  9
$AUPREC
 70
     0
  9
$MENU
  1
.
  9
$ELEVATION
 40
0.0
  9
$PELEVATION
 40
0.0
  9
$THICKNESS
 40
0.0
  9
$LIMCHECK
 70
     0
  9
$CHAMFERA
 40
0.5
  9
$CHAMFERB
 40
0.5
  9
$CHAMFERC
 40
20.0
  9
$CHAMFERD
 40
0.0
  9
$SKPOLY
 70
     0
  9
$TDCREATE
 40
2451464.356372338
  9
$TDUCREATE
 40
2451463.981372338
  9
$TDUPDATE
 40
2455379.376326852
  9
$TDUUPDATE
 40
2455379.001326852
  9
$TDINDWG
 40
0.4521734954
  9
$TDUSRTIMER
 40
0.4521734954
  9
$USRTIMER
 70
     1
  9
$ANGBASE
 50
0.0
  9
$ANGDIR
 70
     0
  9
$PDMODE
 70
     0
  9
$PDSIZE
 40
0.0
  9
$PLINEWID
 40
0.0
  9
$SPLFRAME
 70
     0
  9
$SPLINETYPE
 70
     6
  9
$SPLINESEGS
 70
     8
  9
$HANDSEED
  5
F26
  9
$SURFTAB1
 70
     6
  9
$SURFTAB2
 70
     6
  9
$SURFTYPE
 70
     6
  9
$SURFU
 70
     6
  9
$SURFV
 70
     6
  9
$UCSBASE
  2

  9
$UCSNAME
  2

  9
$UCSORG
 10
0.0
 20
0.0
 30
0.0
  9
$UCSXDIR
 10
1.0
 20
0.0
 30
0.0
  9
$UCSYDIR
 10
0.0
 20
1.0
 30
0.0
  9
$UCSORTHOREF
  2

  9
$UCSORTHOVIEW
 70
     0
  9
$UCSORGTOP
 10
0.0
 20
0.0
 30
0.0
  9
$UCSORGBOTTOM
 10
0.0
 20
0.0
 30
0.0
  9
$UCSORGLEFT
 10
0.0
 20
0.0
 30
0.0
  9
$UCSORGRIGHT
 10
0.0
 20
0.0
 30
0.0
  9
$UCSORGFRONT
 10
0.0
 20
0.0
 30
0.0
  9
$UCSORGBACK
 10
0.0
 20
0.0
 30
0.0
  9
$PUCSBASE
  2

  9
$PUCSNAME
  2

  9
$PUCSORG
 10
0.0
 20
0.0
 30
0.0
  9
$PUCSXDIR
 10
1.0
 20
0.0
 30
0.0
  9
$PUCSYDIR
 10
0.0
 20
1.0
 30
0.0
  9
$PUCSORTHOREF
  2

  9
$PUCSORTHOVIEW
 70
     0
  9
$PUCSORGTOP
 10
0.0
 20
0.0
 30
0.0
  9
$PUCSORGBOTTOM
 10
0.0
 20
0.0
 30
0.0
  9
$PUCSORGLEFT
 10
0.0
 20
0.0
 30
0.0
  9
$PUCSORGRIGHT
 10
0.0
 20
0.0
 30
0.0
  9
$PUCSORGFRONT
 10
0.0
 20
0.0
 30
0.0
  9
$PUCSORGBACK
 10
0.0
 20
0.0
 30
0.0
  9
$USERI1
 70
     0
  9
$USERI2
 70
     0
  9
$USERI3
 70
     0
  9
$USERI4
 70
     0
  9
$USERI5
 70
     0
  9
$USERR1
 40
0.0
  9
$USERR2
 40
0.0
  9
$USERR3
 40
0.0
  9
$USERR4
 40
0.0
  9
$USERR5
 40
0.0
  9
$WORLDVIEW
 70
     1
  9
$SHADEDGE
 70
     3
  9
$SHADEDIF
 70
    70
  9
$TILEMODE
 70
     1
  9
$MAXACTVP
 70
    48
  9
$PINSBASE
 10
0.0
 20
0.0
 30
0.0
  9
$PLIMCHECK
 70
     0
  9
$PEXTMIN
 10
-0.2
 20
-0.2
 30
0.0
  9
$PEXTMAX
 10
255.2
 20
195.2
 30
0.0
  9
$PLIMMIN
 10
0.0
 20
0.0
  9
$PLIMMAX
 10
420.0
 20
297.0
  9
$UNITMODE
 70
     0
  9
$VISRETAIN
 70
     1
  9
$PLINEGEN
 70
     0
  9
$PSLTSCALE
 70
     1
  9
$TREEDEPTH
 70
  3020
  9
$CMLSTYLE
  2
STANDARD
  9
$CMLJUST
 70
     0
  9
$CMLSCALE
 40
20.0
  9
$PROXYGRAPHICS
 70
     1
  9
$MEASUREMENT
 70
     1
  9
$CELWEIGHT
370
    -1
  9
$ENDCAPS
280
     0
  9
$JOINSTYLE
280
     0
  9
$LWDISPLAY
290
     0
  9
$INSUNITS
 70
     0
  9
$HYPERLINKBASE
  1

  9
$STYLESHEET
  1
AutoCAD LT 98.ctb
  9
$XEDIT
290
     1
  9
$CEPSNTYPE
380
     0
  9
$PSTYLEMODE
290
     1
  9
$FINGERPRINTGUID
  2
{F902E772-CAC2-478B-8306-1E863E1E0ADD}
  9
$VERSIONGUID
  2
{9CF31BB7-E7A0-4286-9EB9-38A806F30ACE}
  9
$EXTNAMES
290
     1
  9
$PSVPSCALE
 40
0.0
  9
$OLESTARTUP
290
     0
  9
$SORTENTS
280
   127
  9
$INDEXCTL
280
     0
  9
$HIDETEXT
280
     0
  9
$XCLIPFRAME
290
     0
  9
$HALOGAP
280
     0
  9
$OBSCOLOR
 70
   257
  9
$OBSLTYPE
280
     0
  9
$INTERSECTIONDISPLAY
280
     0
  9
$INTERSECTIONCOLOR
 70
   257
  9
$DIMASSOC
280
     1
  9
$PROJECTNAME
  1

  0
ENDSEC
  0
SECTION
  2
CLASSES
  0
CLASS
  1
HATCH
  2
AcDbHatch
  3
ObjectDBX Classes
 90
        0
 91
       31
280
     0
281
     1
  0
CLASS
  1
DICTIONARYVAR
  2
AcDbDictionaryVar
  3
ObjectDBX Classes
 90
        0
 91
        2
280
     0
281
     0
  0
CLASS
  1
ACDBDICTIONARYWDFLT
  2
AcDbDictionaryWithDefault
  3
ObjectDBX Classes
 90
        0
 91
        1
280
     0
281
     0
  0
CLASS
  1
TABLESTYLE
  2
AcDbTableStyle
  3
ObjectDBX Classes
 90
     2047
 91
        1
280
     0
281
     0
  0
CLASS
  1
SORTENTSTABLE
  2
AcDbSortentsTable
  3
ObjectDBX Classes
 90
        0
 91
        1
280
     0
281
     0
  0
ENDSEC
  0
SECTION
  2
TABLES
  0
TABLE
  2
VPORT
  5
8
330
0
100
AcDbSymbolTable
 70
     2
  0
VPORT
  5
F25
330
8
100
AcDbSymbolTableRecord
100
AcDbViewportTableRecord
  2
*Active
 70
     0
 10
0.0
 20
0.0
 11
1.0
 21
1.0
 12
127.5046496084343
 22
97.36786383225643
 13
0.0
 23
0.0
 14
10.0
 24
10.0
 15
10.0
 25
10.0
 16
0.0
 26
0.0
 36
1.0
 17
0.0
 27
0.0
 37
0.0
 40
196.6470413929346
 41
1.530456852791878
 42
50.0
 43
0.0
 44
0.0
 50
0.0
 51
0.0
 71
     0
 72
   100
 73
     1
 74
     1
 75
     0
 76
     0
 77
     0
 78
     0
281
     0
 65
     1
110
0.0
120
0.0
130
0.0
111
1.0
121
0.0
131
0.0
112
0.0
122
1.0
132
0.0
 79
     0
146
0.0
  0
ENDTAB
  0
TABLE
  2
LTYPE
  5
5
330
0
100
AcDbSymbolTable
 70
    12
  0
LTYPE
  5
12
330
5
100
AcDbSymbolTableRecord
100
AcDbLinetypeTableRecord
  2
BYBLOCK
 70
     0
  3

 72
    65
 73
     0
 40
0.0
  0
LTYPE
  5
13
330
5
100
AcDbSymbolTableRecord
100
AcDbLinetypeTableRecord
  2
BYLAYER
 70
     0
  3

 72
    65
 73
     0
 40
0.0
  0
LTYPE
  5
14
330
5
100
AcDbSymbolTableRecord
100
AcDbLinetypeTableRecord
  2
CONTINUOUS
 70
     0
  3
Solid line
 72
    65
 73
     0
 40
0.0
  0
LTYPE
  5
22
330
5
100
AcDbSymbolTableRecord
100
AcDbLinetypeTableRecord
  2
CENTER2
 70
     0
  3
Center (.5x) ___ _ ___ _ ___ _ ___ _ ___ _ ___
 72
    65
 73
     4
 40
28.575
 49
19.05
 74
     0
 49
-3.174999999999999
 74
     0
 49
3.174999999999999
 74
     0
 49
-3.174999999999999
 74
     0
  0
LTYPE
  5
24
330
5
100
AcDbSymbolTableRecord
100
AcDbLinetypeTableRecord
  2
PHANTOM2
 70
     0
  3
Phantom (.5x) ___ _ _ ___ _ _ ___ _ _ ___ _ _
 72
    65
 73
     6
 40
31.75
 49
15.875
 74
     0
 49
-3.174999999999999
 74
     0
 49
3.174999999999999
 74
     0
 49
-3.174999999999999
 74
     0
 49
3.174999999999999
 74
     0
 49
-3.174999999999999
 74
     0
  0
ENDTAB
  0
TABLE
  2
LAYER
  5
2
330
0
100
AcDbSymbolTable
 70
    16
  0
LAYER
  5
E
330
2
100
AcDbSymbolTableRecord
100
AcDbLayerTableRecord
  2
0
 70
     0
 62
     7
  6
CONTINUOUS
370
    -3
390
E41
  0
LAYER
  5
25
330
2
100
AcDbSymbolTableRecord
100
AcDbLayerTableRecord
  2
外形線
 70
     0
 62
     7
  6
CONTINUOUS
370
    -3
390
E41
  0
LAYER
  5
27
330
2
100
AcDbSymbolTableRecord
100
AcDbLayerTableRecord
  2
中心線
 70
     0
 62
     4
  6
CENTER2
370
    -3
390
E41
  0
LAYER
  5
29
330
2
100
AcDbSymbolTableRecord
100
AcDbLayerTableRecord
  2
想像線
 70
     0
 62
     1
  6
PHANTOM2
370
    -3
390
E41
  0
LAYER
  5
2B
330
2
100
AcDbSymbolTableRecord
100
AcDbLayerTableRecord
  2
文字
 70
     0
 62
     6
  6
CONTINUOUS
370
    -3
390
E41
  0
LAYER
  5
2D
330
2
100
AcDbSymbolTableRecord
100
AcDbLayerTableRecord
  2
針
 70
     0
 62
     5
  6
CONTINUOUS
370
    -3
390
E41
  0
LAYER
  5
53
330
2
100
AcDbSymbolTableRecord
100
AcDbLayerTableRecord
  2
DEFPOINTS
 70
     0
 62
     7
  6
CONTINUOUS
290
     0
370
    -3
390
E41
  0
LAYER
  5
A5
330
2
100
AcDbSymbolTableRecord
100
AcDbLayerTableRecord
  2
C
 70
     0
 62
     7
  6
CONTINUOUS
370
    -3
390
E41
  0
LAYER
  5
37A
330
2
100
AcDbSymbolTableRecord
100
AcDbLayerTableRecord
  2
ROGO
 70
     0
 62
     6
  6
CONTINUOUS
370
    -3
390
E41
  0
ENDTAB
  0
TABLE
  2
STYLE
  5
3
330
0
100
AcDbSymbolTable
 70
     8
  0
STYLE
  5
F
330
3
100
AcDbSymbolTableRecord
100
AcDbTextStyleTableRecord
  2
STANDARD
 70
     0
 40
0.0
 41
1.0
 50
0.0
 71
     0
 42
2.5
  3
txt
  4

  0
STYLE
  5
3F
330
3
100
AcDbSymbolTableRecord
100
AcDbTextStyleTableRecord
  2
STYLE3
 70
     0
 40
0.0
 41
1.0
 50
0.0
 71
     0
 42
3.0
  3
romans.shx
  4
bigfont.shx
  0
STYLE
  5
BAF
330
3
100
AcDbSymbolTableRecord
100
AcDbTextStyleTableRecord
  2
4
 70
     0
 40
0.0
 41
1.0
 50
0.0
 71
     0
 42
3.0
  3
MS PGothic.ttf
  4

1001
ACAD
1000
MS PGothic
1071
    32818
  0
ENDTAB
  0
TABLE
  2
VIEW
  5
6
330
0
100
AcDbSymbolTable
 70
     0
  0
ENDTAB
  0
TABLE
  2
UCS
  5
7
330
0
100
AcDbSymbolTable
 70
     0
  0
ENDTAB
  0
TABLE
  2
APPID
  5
9
330
0
100
AcDbSymbolTable
 70
     2
  0
APPID
  5
10
330
9
100
AcDbSymbolTableRecord
100
AcDbRegAppTableRecord
  2
ACAD
 70
     0
  0
APPID
  5
E55
330
9
100
AcDbSymbolTableRecord
100
AcDbRegAppTableRecord
  2
ACAD_PSEXT
 70
     0
  0
ENDTAB
  0
TABLE
  2
DIMSTYLE
  5
A
330
0
100
AcDbSymbolTable
 70
     6
100
AcDbDimStyleTable
 71
     1
340
8F
  0
DIMSTYLE
105
1D
330
A
100
AcDbSymbolTableRecord
100
AcDbDimStyleTableRecord
  2
STANDARD
 70
     0
 41
2.5
 42
0.625
 43
3.75
 44
1.25
 73
     0
 74
     0
 77
     1
 78
     8
140
2.5
141
2.5
143
0.0394
147
0.625
171
     4
172
     1
273
     8
274
     4
277
     6
340
F
  0
DIMSTYLE
105
8F
102
{ACAD_REACTORS
330
8FC
330
909
330
920
330
92C
330
938
330
982
330
98E
330
99B
330
9A8
330
9B5
330
9FA
330
A06
330
A28
102
}
330
A
100
AcDbSymbolTableRecord
100
AcDbDimStyleTableRecord
  2
STYLE3
 70
     0
 41
2.5
 42
0.0
 43
3.75
 44
1.25
 73
     0
 74
     0
 77
     1
 78
     8
140
2.5
141
2.5
143
0.0394
147
0.625
171
     4
172
     1
173
     1
176
     2
177
     2
178
     6
271
     1
273
     8
274
     4
340
3F
341
45
343
45
344
45
  0
ENDTAB
  0
TABLE
  2
BLOCK_RECORD
  5
1
330
0
100
AcDbSymbolTable
 70
    24
  0
BLOCK_RECORD
  5
18
102
{ACAD_XDICTIONARY
360
E50
102
}
330
1
100
AcDbSymbolTableRecord
100
AcDbBlockTableRecord
  2
*MODEL_SPACE
340
E48
  0
BLOCK_RECORD
  5
15
330
1
100
AcDbSymbolTableRecord
100
AcDbBlockTableRecord
  2
*PAPER_SPACE
340
E49
  0
BLOCK_RECORD
  5
45
330
1
100
AcDbSymbolTableRecord
100
AcDbBlockTableRecord
  2
_OPEN
340
0
102
{BLKREFS
331
390
331
391
331
3B9
331
3CD
331
3CF
331
3D0
331
3D1
331
3D3
331
3E1
331
3E2
331
3F6
331
402
331
42A
331
43E
331
452
331
49B
331
4B3
331
4C3
331
EAE
331
EAF
331
EB6
331
EB7
331
EBF
331
EC0
331
EC8
331
EC9
331
ED1
331
ED2
331
EDA
331
EDB
331
EE2
331
EE3
331
EEA
331
EEB
331
EF2
331
EF3
331
EFA
331
EFB
331
F02
331
F03
331
F0B
331
F0C
331
F14
331
F15
102
}
  0
BLOCK_RECORD
  5
8F0
330
1
100
AcDbSymbolTableRecord
100
AcDbBlockTableRecord
  2
*D4
340
0
  0
BLOCK_RECORD
  5
8FD
330
1
100
AcDbSymbolTableRecord
100
AcDbBlockTableRecord
  2
*D5
340
0
  0
BLOCK_RECORD
  5
915
330
1
100
AcDbSymbolTableRecord
100
AcDbBlockTableRecord
  2
*D6
340
0
  0
BLOCK_RECORD
  5
921
330
1
100
AcDbSymbolTableRecord
100
AcDbBlockTableRecord
  2
*D7
340
0
  0
BLOCK_RECORD
  5
92D
330
1
100
AcDbSymbolTableRecord
100
AcDbBlockTableRecord
  2
*D8
340
0
  0
BLOCK_RECORD
  5
977
330
1
100
AcDbSymbolTableRecord
100
AcDbBlockTableRecord
  2
*D9
340
0
  0
BLOCK_RECORD
  5
983
330
1
100
AcDbSymbolTableRecord
100
AcDbBlockTableRecord
  2
*D10
340
0
  0
BLOCK_RECORD
  5
98F
330
1
100
AcDbSymbolTableRecord
100
AcDbBlockTableRecord
  2
*D11
340
0
  0
BLOCK_RECORD
  5
99C
330
1
100
AcDbSymbolTableRecord
100
AcDbBlockTableRecord
  2
*D12
340
0
  0
BLOCK_RECORD
  5
9A9
330
1
100
AcDbSymbolTableRecord
100
AcDbBlockTableRecord
  2
*D13
340
0
  0
BLOCK_RECORD
  5
9EE
330
1
100
AcDbSymbolTableRecord
100
AcDbBlockTableRecord
  2
*D14
340
0
  0
BLOCK_RECORD
  5
9FB
330
1
100
AcDbSymbolTableRecord
100
AcDbBlockTableRecord
  2
*D15
340
0
  0
BLOCK_RECORD
  5
A1C
330
1
100
AcDbSymbolTableRecord
100
AcDbBlockTableRecord
  2
*D16
340
0
  0
ENDTAB
  0
ENDSEC
  0
SECTION
  2
BLOCKS
  0
BLOCK
  5
19
330
18
100
AcDbEntity
  8
0
100
AcDbBlockBegin
  2
*MODEL_SPACE
 70
     0
 10
0.0
 20
0.0
 30
0.0
  3
*MODEL_SPACE
  1

  0
ENDBLK
  5
1A
330
18
100
AcDbEntity
  8
0
100
AcDbBlockEnd
  0
BLOCK
  5
16
330
15
100
AcDbEntity
 67
     1
  8
0
100
AcDbBlockBegin
  2
*PAPER_SPACE
 70
     0
 10
0.0
 20
0.0
 30
0.0
  3
*PAPER_SPACE
  1

  0
ENDBLK
  5
17
330
15
100
AcDbEntity
 67
     1
  8
0
100
AcDbBlockEnd
  0
BLOCK
  5
46
330
45
100
AcDbEntity
  8
0
100
AcDbBlockBegin
  2
_OPEN
 70
     0
 10
0.0
 20
0.0
 30
0.0
  3
_OPEN
  1

  0
LINE
  5
47
330
45
100
AcDbEntity
  8
0
  6
ByBlock
 62
     0
100
AcDbLine
 10
-1.0
 20
0.1666666666666666
 30
0.0
 11
0.0
 21
0.0
 31
0.0
  0
LINE
  5
48
330
45
100
AcDbEntity
  8
0
  6
ByBlock
 62
     0
100
AcDbLine
 10
0.0
 20
0.0
 30
0.0
 11
-1.0
 21
-0.1666666666666666
 31
0.0
  0
LINE
  5
49
330
45
100
AcDbEntity
  8
0
  6
ByBlock
 62
     0
100
AcDbLine
 10
0.0
 20
0.0
 30
0.0
 11
-1.0
 21
0.0
 31
0.0
  0
ENDBLK
  5
4A
330
45
100
AcDbEntity
  8
0
100
AcDbBlockEnd
  0
BLOCK
  5
8F1
330
8F0
100
AcDbEntity
  8
0
100
AcDbBlockBegin
  2
*D4
 70
     1
 10
0.0
 20
0.0
 30
0.0
  3
*D4
  1

  0
LINE
  5
F11
330
8F0
100
AcDbEntity
  8
文字
 62
     2
370
    -2
100
AcDbLine
 10
56.87270871817734
 20
107.4092124044758
 30
0.0
 11
56.87270871817733
 21
25.4742691072874
 31
0.0
  0
LINE
  5
F12
330
8F0
100
AcDbEntity
  8
文字
 62
     2
370
    -2
100
AcDbLine
 10
106.8727087181773
 20
107.4092124044758
 30
0.0
 11
106.8727087181773
 21
25.4742691072874
 31
0.0
  0
LINE
  5
F13
330
8F0
100
AcDbEntity
  8
文字
 62
     2
370
    -2
100
AcDbLine
 10
59.37270871817733
 20
26.7242691072874
 30
0.0
 11
104.3727087181773
 21
26.7242691072874
 31
0.0
  0
INSERT
  5
F14
330
8F0
100
AcDbEntity
  8
文字
 62
     2
370
    -2
100
AcDbBlockReference
  2
_OPEN
 10
56.87270871817733
 20
26.7242691072874
 30
0.0
 41
2.5
 42
2.5
 43
2.5
 50
180.0
  0
INSERT
  5
F15
330
8F0
100
AcDbEntity
  8
文字
 62
     2
370
    -2
100
AcDbBlockReference
  2
_OPEN
 10
106.8727087181773
 20
26.7242691072874
 30
0.0
 41
2.5
 42
2.5
 43
2.5
  0
MTEXT
  5
F16
330
8F0
100
AcDbEntity
  8
文字
 62
     6
100
AcDbMText
 10
81.87270871817736
 20
28.5992691072874
 30
0.0
 40
2.5
 41
0.0
 71
     5
 72
     1
  1
\A1;50
  7
STYLE3
 73
     1
 44
1.0
  0
POINT
  5
F17
330
8F0
100
AcDbEntity
  8
DEFPOINTS
 62
     0
100
AcDbPoint
 10
56.87270871817734
 20
107.4092124044758
 30
0.0
  0
POINT
  5
F18
330
8F0
100
AcDbEntity
  8
DEFPOINTS
 62
     0
100
AcDbPoint
 10
106.8727087181773
 20
107.4092124044758
 30
0.0
  0
POINT
  5
F19
330
8F0
100
AcDbEntity
  8
DEFPOINTS
 62
     0
100
AcDbPoint
 10
106.8727087181773
 20
26.7242691072874
 30
0.0
  0
ENDBLK
  5
8FB
330
8F0
100
AcDbEntity
  8
0
100
AcDbBlockEnd
  0
BLOCK
  5
90A
330
8FD
100
AcDbEntity
  8
0
100
AcDbBlockBegin
  2
*D5
 70
     1
 10
0.0
 20
0.0
 30
0.0
  3
*D5
  1

  0
LINE
  5
F08
330
8FD
100
AcDbEntity
  8
文字
 62
     2
370
    -2
100
AcDbLine
 10
92.12270871817738
 20
151.9092124044758
 30
0.0
 11
121.2949248047719
 21
151.9092124044758
 31
0.0
  0
LINE
  5
F09
330
8FD
100
AcDbEntity
  8
文字
 62
     2
370
    -2
100
AcDbLine
 10
91.62270871817737
 20
141.4092124044758
 30
0.0
 11
121.2949248047719
 21
141.4092124044758
 31
0.0
  0
LINE
  5
F0A
330
8FD
100
AcDbEntity
  8
文字
 62
     2
370
    -2
100
AcDbLine
 10
120.0449248047719
 20
149.4092124044758
 30
0.0
 11
120.0449248047719
 21
143.9092124044758
 31
0.0
  0
INSERT
  5
F0B
330
8FD
100
AcDbEntity
  8
文字
 62
     2
370
    -2
100
AcDbBlockReference
  2
_OPEN
 10
120.0449248047719
 20
151.9092124044758
 30
0.0
 41
2.5
 42
2.5
 43
2.5
 50
90.0
  0
INSERT
  5
F0C
330
8FD
100
AcDbEntity
  8
文字
 62
     2
370
    -2
100
AcDbBlockReference
  2
_OPEN
 10
120.0449248047719
 20
141.4092124044758
 30
0.0
 41
2.5
 42
2.5
 43
2.5
 50
270.0
  0
MTEXT
  5
F0D
330
8FD
100
AcDbEntity
  8
文字
 62
     6
100
AcDbMText
 10
118.1699248047718
 20
146.6592124044758
 30
0.0
 40
2.5
 41
0.0
 71
     5
 72
     1
  1
\A1;10.5
  7
STYLE3
 11
0.0000000000000001
 21
1.0
 31
0.0
 73
     1
 44
1.0
  0
POINT
  5
F0E
330
8FD
100
AcDbEntity
  8
DEFPOINTS
 62
     0
100
AcDbPoint
 10
92.12270871817738
 20
151.9092124044758
 30
0.0
  0
POINT
  5
F0F
330
8FD
100
AcDbEntity
  8
DEFPOINTS
 62
     0
100
AcDbPoint
 10
91.62270871817737
 20
141.4092124044758
 30
0.0
  0
POINT
  5
F10
330
8FD
100
AcDbEntity
  8
DEFPOINTS
 62
     0
100
AcDbPoint
 10
120.0449248047719
 20
141.4092124044758
 30
0.0
  0
ENDBLK
  5
914
330
8FD
100
AcDbEntity
  8
0
100
AcDbBlockEnd
  0
BLOCK
  5
916
330
915
100
AcDbEntity
  8
0
100
AcDbBlockBegin
  2
*D6
 70
     1
 10
0.0
 20
0.0
 30
0.0
  3
*D6
  1

  0
LINE
  5
F00
330
915
100
AcDbEntity
  8
文字
 62
     2
370
    -2
100
AcDbLine
 10
111.2174863408583
 20
107.4092124044758
 30
0.0
 11
121.2949248047718
 21
107.4092124044758
 31
0.0
  0
LINE
  5
F01
330
915
100
AcDbEntity
  8
文字
 62
     2
370
    -2
100
AcDbLine
 10
120.0449248047718
 20
138.9092124044758
 30
0.0
 11
120.0449248047718
 21
109.9092124044758
 31
0.0
  0
INSERT
  5
F02
330
915
100
AcDbEntity
  8
文字
 62
     2
370
    -2
100
AcDbBlockReference
  2
_OPEN
 10
120.0449248047718
 20
141.4092124044758
 30
0.0
 41
2.5
 42
2.5
 43
2.5
 50
90.0
  0
INSERT
  5
F03
330
915
100
AcDbEntity
  8
文字
 62
     2
370
    -2
100
AcDbBlockReference
  2
_OPEN
 10
120.0449248047718
 20
107.4092124044758
 30
0.0
 41
2.5
 42
2.5
 43
2.5
 50
270.0
  0
MTEXT
  5
F04
330
915
100
AcDbEntity
  8
文字
 62
     6
100
AcDbMText
 10
118.1699248047718
 20
124.4092124044758
 30
0.0
 40
2.5
 41
0.0
 71
     5
 72
     1
  1
\A1;34
  7
STYLE3
 11
0.0000000000000001
 21
1.0
 31
0.0
 73
     1
 44
1.0
  0
POINT
  5
F05
330
915
100
AcDbEntity
  8
DEFPOINTS
 62
     0
100
AcDbPoint
 10
91.62270871817737
 20
141.4092124044758
 30
0.0
  0
POINT
  5
F06
330
915
100
AcDbEntity
  8
DEFPOINTS
 62
     0
100
AcDbPoint
 10
111.2174863408583
 20
107.4092124044758
 30
0.0
  0
POINT
  5
F07
330
915
100
AcDbEntity
  8
DEFPOINTS
 62
     0
100
AcDbPoint
 10
120.0449248047718
 20
107.4092124044758
 30
0.0
  0
ENDBLK
  5
91F
330
915
100
AcDbEntity
  8
0
100
AcDbBlockEnd
  0
BLOCK
  5
961
330
921
100
AcDbEntity
  8
0
100
AcDbBlockBegin
  2
*D7
 70
     1
 10
0.0
 20
0.0
 30
0.0
  3
*D7
  1

  0
LINE
  5
EF8
330
921
100
AcDbEntity
  8
文字
 62
     2
370
    -2
100
AcDbLine
 10
90.90658604294604
 20
73.40730658672963
 30
0.0
 11
121.2949248047718
 21
73.40730658672962
 31
0.0
  0
LINE
  5
EF9
330
921
100
AcDbEntity
  8
文字
 62
     2
370
    -2
100
AcDbLine
 10
120.0449248047719
 20
104.9092124044758
 30
0.0
 11
120.0449248047718
 21
75.90730658672962
 31
0.0
  0
INSERT
  5
EFA
330
921
100
AcDbEntity
  8
文字
 62
     2
370
    -2
100
AcDbBlockReference
  2
_OPEN
 10
120.0449248047719
 20
107.4092124044758
 30
0.0
 41
2.5
 42
2.5
 43
2.5
 50
90.0
  0
INSERT
  5
EFB
330
921
100
AcDbEntity
  8
文字
 62
     2
370
    -2
100
AcDbBlockReference
  2
_OPEN
 10
120.0449248047718
 20
73.40730658672962
 30
0.0
 41
2.5
 42
2.5
 43
2.5
 50
270.0
  0
MTEXT
  5
EFC
330
921
100
AcDbEntity
  8
文字
 62
     6
100
AcDbMText
 10
118.1699248047718
 20
90.40825949560272
 30
0.0
 40
2.5
 41
0.0
 71
     5
 72
     1
  1
\A1;34
  7
STYLE3
 11
0.0000000000000001
 21
1.0
 31
0.0
 73
     1
 44
1.0
  0
POINT
  5
EFD
330
921
100
AcDbEntity
  8
DEFPOINTS
 62
     0
100
AcDbPoint
 10
111.2174863408583
 20
107.4092124044758
 30
0.0
  0
POINT
  5
EFE
330
921
100
AcDbEntity
  8
DEFPOINTS
 62
     0
100
AcDbPoint
 10
90.90658604294604
 20
73.40730658672963
 30
0.0
  0
POINT
  5
EFF
330
921
100
AcDbEntity
  8
DEFPOINTS
 62
     0
100
AcDbPoint
 10
120.0449248047718
 20
73.40730658672962
 30
0.0
  0
ENDBLK
  5
96A
330
921
100
AcDbEntity
  8
0
100
AcDbBlockEnd
  0
BLOCK
  5
957
330
92D
100
AcDbEntity
  8
0
100
AcDbBlockBegin
  2
*D8
 70
     1
 10
0.0
 20
0.0
 30
0.0
  3
*D8
  1

  0
LINE
  5
EF0
330
92D
100
AcDbEntity
  8
文字
 62
     2
370
    -2
100
AcDbLine
 10
84.92270871817737
 20
52.2092124044758
 30
0.0
 11
121.2949248047718
 21
52.2092124044758
 31
0.0
  0
LINE
  5
EF1
330
92D
100
AcDbEntity
  8
文字
 62
     2
370
    -2
100
AcDbLine
 10
120.0449248047718
 20
70.90730658672962
 30
0.0
 11
120.0449248047718
 21
54.7092124044758
 31
0.0
  0
INSERT
  5
EF2
330
92D
100
AcDbEntity
  8
文字
 62
     2
370
    -2
100
AcDbBlockReference
  2
_OPEN
 10
120.0449248047718
 20
73.40730658672962
 30
0.0
 41
2.5
 42
2.5
 43
2.5
 50
90.0
  0
INSERT
  5
EF3
330
92D
100
AcDbEntity
  8
文字
 62
     2
370
    -2
100
AcDbBlockReference
  2
_OPEN
 10
120.0449248047718
 20
52.2092124044758
 30
0.0
 41
2.5
 42
2.5
 43
2.5
 50
270.0
  0
MTEXT
  5
EF4
330
92D
100
AcDbEntity
  8
文字
 62
     6
100
AcDbMText
 10
118.1699248047718
 20
62.80825949560274
 30
0.0
 40
2.5
 41
0.0
 71
     5
 72
     1
  1
\A1;21.2
  7
STYLE3
 11
0.0000000000000001
 21
1.0
 31
0.0
 73
     1
 44
1.0
  0
POINT
  5
EF5
330
92D
100
AcDbEntity
  8
DEFPOINTS
 62
     0
100
AcDbPoint
 10
90.90658604294604
 20
73.40730658672963
 30
0.0
  0
POINT
  5
EF6
330
92D
100
AcDbEntity
  8
DEFPOINTS
 62
     0
100
AcDbPoint
 10
84.92270871817737
 20
52.2092124044758
 30
0.0
  0
POINT
  5
EF7
330
92D
100
AcDbEntity
  8
DEFPOINTS
 62
     0
100
AcDbPoint
 10
120.0449248047718
 20
52.2092124044758
 30
0.0
  0
ENDBLK
  5
960
330
92D
100
AcDbEntity
  8
0
100
AcDbBlockEnd
  0
BLOCK
  5
978
330
977
100
AcDbEntity
  8
0
100
AcDbBlockBegin
  2
*D9
 70
     1
 10
0.0
 20
0.0
 30
0.0
  3
*D9
  1

  0
LINE
  5
EE8
330
977
100
AcDbEntity
  8
文字
 62
     2
370
    -2
100
AcDbLine
 10
83.87270871817738
 20
42.40921240447579
 30
0.0
 11
121.2949248047718
 21
42.40921240447579
 31
0.0
  0
LINE
  5
EE9
330
977
100
AcDbEntity
  8
文字
 62
     2
370
    -2
100
AcDbLine
 10
120.0449248047718
 20
49.7092124044758
 30
0.0
 11
120.0449248047718
 21
44.90921240447579
 31
0.0
  0
INSERT
  5
EEA
330
977
100
AcDbEntity
  8
文字
 62
     2
370
    -2
100
AcDbBlockReference
  2
_OPEN
 10
120.0449248047718
 20
52.2092124044758
 30
0.0
 41
2.5
 42
2.5
 43
2.5
 50
90.0
  0
INSERT
  5
EEB
330
977
100
AcDbEntity
  8
文字
 62
     2
370
    -2
100
AcDbBlockReference
  2
_OPEN
 10
120.0449248047718
 20
42.40921240447579
 30
0.0
 41
2.5
 42
2.5
 43
2.5
 50
270.0
  0
MTEXT
  5
EEC
330
977
100
AcDbEntity
  8
文字
 62
     6
100
AcDbMText
 10
118.1699248047718
 20
47.30921240447581
 30
0.0
 40
2.5
 41
0.0
 71
     5
 72
     1
  1
\A1;9.8
  7
STYLE3
 11
0.0000000000000001
 21
1.0
 31
0.0
 73
     1
 44
1.0
  0
POINT
  5
EED
330
977
100
AcDbEntity
  8
DEFPOINTS
 62
     0
100
AcDbPoint
 10
84.92270871817737
 20
52.2092124044758
 30
0.0
  0
POINT
  5
EEE
330
977
100
AcDbEntity
  8
DEFPOINTS
 62
     0
100
AcDbPoint
 10
83.87270871817738
 20
42.40921240447579
 30
0.0
  0
POINT
  5
EEF
330
977
100
AcDbEntity
  8
DEFPOINTS
 62
     0
100
AcDbPoint
 10
120.0449248047718
 20
42.40921240447579
 30
0.0
  0
ENDBLK
  5
981
330
977
100
AcDbEntity
  8
0
100
AcDbBlockEnd
  0
BLOCK
  5
984
330
983
100
AcDbEntity
  8
0
100
AcDbBlockBegin
  2
*D10
 70
     1
 10
0.0
 20
0.0
 30
0.0
  3
*D10
  1

  0
LINE
  5
EE0
330
983
100
AcDbEntity
  8
文字
 62
     2
370
    -2
100
AcDbLine
 10
81.87270871817736
 20
33.4092124044758
 30
0.0
 11
121.2949248047718
 21
33.40921240447579
 31
0.0
  0
LINE
  5
EE1
330
983
100
AcDbEntity
  8
文字
 62
     2
370
    -2
100
AcDbLine
 10
120.0449248047718
 20
39.90921240447579
 30
0.0
 11
120.0449248047718
 21
35.90921240447579
 31
0.0
  0
INSERT
  5
EE2
330
983
100
AcDbEntity
  8
文字
 62
     2
370
    -2
100
AcDbBlockReference
  2
_OPEN
 10
120.0449248047718
 20
42.40921240447579
 30
0.0
 41
2.5
 42
2.5
 43
2.5
 50
90.0
  0
INSERT
  5
EE3
330
983
100
AcDbEntity
  8
文字
 62
     2
370
    -2
100
AcDbBlockReference
  2
_OPEN
 10
120.0449248047718
 20
33.40921240447579
 30
0.0
 41
2.5
 42
2.5
 43
2.5
 50
270.0
  0
MTEXT
  5
EE4
330
983
100
AcDbEntity
  8
文字
 62
     6
100
AcDbMText
 10
118.1699248047718
 20
37.90921240447581
 30
0.0
 40
2.5
 41
0.0
 71
     5
 72
     1
  1
\A1;9
  7
STYLE3
 11
0.0000000000000001
 21
1.0
 31
0.0
 73
     1
 44
1.0
  0
POINT
  5
EE5
330
983
100
AcDbEntity
  8
DEFPOINTS
 62
     0
100
AcDbPoint
 10
83.87270871817738
 20
42.40921240447579
 30
0.0
  0
POINT
  5
EE6
330
983
100
AcDbEntity
  8
DEFPOINTS
 62
     0
100
AcDbPoint
 10
81.87270871817736
 20
33.4092124044758
 30
0.0
  0
POINT
  5
EE7
330
983
100
AcDbEntity
  8
DEFPOINTS
 62
     0
100
AcDbPoint
 10
120.0449248047718
 20
33.40921240447579
 30
0.0
  0
ENDBLK
  5
98D
330
983
100
AcDbEntity
  8
0
100
AcDbBlockEnd
  0
BLOCK
  5
990
330
98F
100
AcDbEntity
  8
0
100
AcDbBlockBegin
  2
*D11
 70
     1
 10
0.0
 20
0.0
 30
0.0
  3
*D11
  1

  0
LINE
  5
ED7
330
98F
100
AcDbEntity
  8
文字
 62
     2
370
    -2
100
AcDbLine
 10
121.2949248047718
 20
107.4092124044758
 30
0.0
 11
128.974557387658
 21
107.4092124044758
 31
0.0
  0
LINE
  5
ED8
330
98F
100
AcDbEntity
  8
文字
 62
     2
370
    -2
100
AcDbLine
 10
121.2949248047718
 20
33.4092124044758
 30
0.0
 11
128.974557387658
 21
33.4092124044758
 31
0.0
  0
LINE
  5
ED9
330
98F
100
AcDbEntity
  8
文字
 62
     2
370
    -2
100
AcDbLine
 10
127.724557387658
 20
104.9092124044758
 30
0.0
 11
127.724557387658
 21
35.9092124044758
 31
0.0
  0
INSERT
  5
EDA
330
98F
100
AcDbEntity
  8
文字
 62
     2
370
    -2
100
AcDbBlockReference
  2
_OPEN
 10
127.724557387658
 20
107.4092124044758
 30
0.0
 41
2.5
 42
2.5
 43
2.5
 50
90.0
  0
INSERT
  5
EDB
330
98F
100
AcDbEntity
  8
文字
 62
     2
370
    -2
100
AcDbBlockReference
  2
_OPEN
 10
127.724557387658
 20
33.4092124044758
 30
0.0
 41
2.5
 42
2.5
 43
2.5
 50
270.0
  0
MTEXT
  5
EDC
330
98F
100
AcDbEntity
  8
文字
 62
     6
100
AcDbMText
 10
125.849557387658
 20
70.4092124044758
 30
0.0
 40
2.5
 41
0.0
 71
     5
 72
     1
  1
\A1;74
  7
STYLE3
 11
0.0000000000000001
 21
1.0
 31
0.0
 73
     1
 44
1.0
  0
POINT
  5
EDD
330
98F
100
AcDbEntity
  8
DEFPOINTS
 62
     0
100
AcDbPoint
 10
121.2949248047718
 20
107.4092124044758
 30
0.0
  0
POINT
  5
EDE
330
98F
100
AcDbEntity
  8
DEFPOINTS
 62
     0
100
AcDbPoint
 10
121.2949248047718
 20
33.4092124044758
 30
0.0
  0
POINT
  5
EDF
330
98F
100
AcDbEntity
  8
DEFPOINTS
 62
     0
100
AcDbPoint
 10
127.724557387658
 20
33.4092124044758
 30
0.0
  0
ENDBLK
  5
99A
330
98F
100
AcDbEntity
  8
0
100
AcDbBlockEnd
  0
BLOCK
  5
99D
330
99C
100
AcDbEntity
  8
0
100
AcDbBlockBegin
  2
*D12
 70
     1
 10
0.0
 20
0.0
 30
0.0
  3
*D12
  1

  0
LINE
  5
ECE
330
99C
100
AcDbEntity
  8
文字
 62
     2
370
    -2
100
AcDbLine
 10
83.97244697214881
 20
186.9092124044757
 30
0.0
 11
137.0714139580948
 21
186.9092124044757
 31
0.0
  0
LINE
  5
ECF
330
99C
100
AcDbEntity
  8
文字
 62
     2
370
    -2
100
AcDbLine
 10
128.974557387658
 20
33.4092124044758
 30
0.0
 11
137.0714139580948
 21
33.4092124044758
 31
0.0
  0
LINE
  5
ED0
330
99C
100
AcDbEntity
  8
文字
 62
     2
370
    -2
100
AcDbLine
 10
135.8214139580948
 20
184.4092124044757
 30
0.0
 11
135.8214139580948
 21
35.9092124044758
 31
0.0
  0
INSERT
  5
ED1
330
99C
100
AcDbEntity
  8
文字
 62
     2
370
    -2
100
AcDbBlockReference
  2
_OPEN
 10
135.8214139580948
 20
186.9092124044757
 30
0.0
 41
2.5
 42
2.5
 43
2.5
 50
90.0
  0
INSERT
  5
ED2
330
99C
100
AcDbEntity
  8
文字
 62
     2
370
    -2
100
AcDbBlockReference
  2
_OPEN
 10
135.8214139580948
 20
33.4092124044758
 30
0.0
 41
2.5
 42
2.5
 43
2.5
 50
270.0
  0
MTEXT
  5
ED3
330
99C
100
AcDbEntity
  8
文字
 62
     6
100
AcDbMText
 10
133.9464139580948
 20
110.1592124044758
 30
0.0
 40
2.5
 41
0.0
 71
     5
 72
     1
  1
\A1;153.5
  7
STYLE3
 11
0.0000000000000001
 21
1.0
 31
0.0
 73
     1
 44
1.0
  0
POINT
  5
ED4
330
99C
100
AcDbEntity
  8
DEFPOINTS
 62
     0
100
AcDbPoint
 10
83.97244697214881
 20
186.9092124044757
 30
0.0
  0
POINT
  5
ED5
330
99C
100
AcDbEntity
  8
DEFPOINTS
 62
     0
100
AcDbPoint
 10
128.974557387658
 20
33.4092124044758
 30
0.0
  0
POINT
  5
ED6
330
99C
100
AcDbEntity
  8
DEFPOINTS
 62
     0
100
AcDbPoint
 10
135.8214139580948
 20
33.4092124044758
 30
0.0
  0
ENDBLK
  5
9A7
330
99C
100
AcDbEntity
  8
0
100
AcDbBlockEnd
  0
BLOCK
  5
E29
330
9A9
100
AcDbEntity
  8
0
100
AcDbBlockBegin
  2
*D13
 70
     1
 10
0.0
 20
0.0
 30
0.0
  3
*D13
  1

  0
LINE
  5
EC5
330
9A9
100
AcDbEntity
  8
文字
 62
     2
370
    -2
100
AcDbLine
 10
180.0679896515612
 20
130.4092124044758
 30
0.0
 11
194.6659022186337
 21
130.4092124044757
 31
0.0
  0
LINE
  5
EC6
330
9A9
100
AcDbEntity
  8
文字
 62
     2
370
    -2
100
AcDbLine
 10
180.0679896515612
 20
84.40921240447579
 30
0.0
 11
194.6659022186337
 21
84.40921240447579
 31
0.0
  0
LINE
  5
EC7
330
9A9
100
AcDbEntity
  8
文字
 62
     2
370
    -2
100
AcDbLine
 10
193.4159022186337
 20
127.9092124044758
 30
0.0
 11
193.4159022186337
 21
86.90921240447579
 31
0.0
  0
INSERT
  5
EC8
330
9A9
100
AcDbEntity
  8
文字
 62
     2
370
    -2
100
AcDbBlockReference
  2
_OPEN
 10
193.4159022186337
 20
130.4092124044757
 30
0.0
 41
2.5
 42
2.5
 43
2.5
 50
90.0
  0
INSERT
  5
EC9
330
9A9
100
AcDbEntity
  8
文字
 62
     2
370
    -2
100
AcDbBlockReference
  2
_OPEN
 10
193.4159022186337
 20
84.40921240447579
 30
0.0
 41
2.5
 42
2.5
 43
2.5
 50
270.0
  0
MTEXT
  5
ECA
330
9A9
100
AcDbEntity
  8
文字
 62
     6
100
AcDbMText
 10
191.5409022186337
 20
107.4092124044758
 30
0.0
 40
2.5
 41
0.0
 71
     5
 72
     1
  1
\A1;φ46
  7
STYLE3
 11
0.0000000000000001
 21
1.0
 31
0.0
 73
     1
 44
1.0
  0
POINT
  5
ECB
330
9A9
100
AcDbEntity
  8
DEFPOINTS
 62
     0
100
AcDbPoint
 10
180.0679896515612
 20
130.4092124044758
 30
0.0
  0
POINT
  5
ECC
330
9A9
100
AcDbEntity
  8
DEFPOINTS
 62
     0
100
AcDbPoint
 10
180.0679896515612
 20
84.40921240447579
 30
0.0
  0
POINT
  5
ECD
330
9A9
100
AcDbEntity
  8
DEFPOINTS
 62
     0
100
AcDbPoint
 10
193.4159022186337
 20
84.40921240447579
 30
0.0
  0
ENDBLK
  5
E33
330
9A9
100
AcDbEntity
  8
0
100
AcDbBlockEnd
  0
BLOCK
  5
B24
330
9EE
100
AcDbEntity
  8
0
100
AcDbBlockBegin
  2
*D14
 70
     1
 10
0.0
 20
0.0
 30
0.0
  3
*D14
  1

  0
LINE
  5
EBC
330
9EE
100
AcDbEntity
  8
外形線
 62
     2
370
    -2
100
AcDbLine
 10
158.5679896515612
 20
107.3292124044758
 30
0.0
 11
158.5679896515612
 21
29.44101878351694
 31
0.0
  0
LINE
  5
EBD
330
9EE
100
AcDbEntity
  8
外形線
 62
     2
370
    -2
100
AcDbLine
 10
170.0679896515612
 20
32.07727565770222
 30
0.0
 11
170.0679896515612
 21
29.44101878351694
 31
0.0
  0
LINE
  5
EBE
330
9EE
100
AcDbEntity
  8
外形線
 62
     2
370
    -2
100
AcDbLine
 10
161.0679896515612
 20
30.69101878351694
 30
0.0
 11
167.5679896515612
 21
30.69101878351694
 31
0.0
  0
INSERT
  5
EBF
330
9EE
100
AcDbEntity
  8
外形線
 62
     2
370
    -2
100
AcDbBlockReference
  2
_OPEN
 10
158.5679896515612
 20
30.69101878351694
 30
0.0
 41
2.5
 42
2.5
 43
2.5
 50
180.0
  0
INSERT
  5
EC0
330
9EE
100
AcDbEntity
  8
外形線
 62
     2
370
    -2
100
AcDbBlockReference
  2
_OPEN
 10
170.0679896515612
 20
30.69101878351694
 30
0.0
 41
2.5
 42
2.5
 43
2.5
  0
MTEXT
  5
EC1
330
9EE
100
AcDbEntity
  8
外形線
 62
     6
100
AcDbMText
 10
164.3179896515612
 20
32.56601878351694
 30
0.0
 40
2.5
 41
0.0
 71
     5
 72
     1
  1
\A1;11.5
  7
STYLE3
 73
     1
 44
1.0
  0
POINT
  5
EC2
330
9EE
100
AcDbEntity
  8
DEFPOINTS
 62
     0
100
AcDbPoint
 10
158.5679896515612
 20
107.3292124044758
 30
0.0
  0
POINT
  5
EC3
330
9EE
100
AcDbEntity
  8
DEFPOINTS
 62
     0
100
AcDbPoint
 10
170.0679896515612
 20
32.07727565770222
 30
0.0
  0
POINT
  5
EC4
330
9EE
100
AcDbEntity
  8
DEFPOINTS
 62
     0
100
AcDbPoint
 10
170.0679896515612
 20
30.69101878351694
 30
0.0
  0
ENDBLK
  5
B2E
330
9EE
100
AcDbEntity
  8
0
100
AcDbBlockEnd
  0
BLOCK
  5
B2F
330
9FB
100
AcDbEntity
  8
0
100
AcDbBlockBegin
  2
*D15
 70
     1
 10
0.0
 20
0.0
 30
0.0
  3
*D15
  1

  0
LINE
  5
EB4
330
9FB
100
AcDbEntity
  8
外形線
 62
     2
370
    -2
100
AcDbLine
 10
180.0679896515612
 20
84.40921240447579
 30
0.0
 11
180.0679896515612
 21
29.44101878351694
 31
0.0
  0
LINE
  5
EB5
330
9FB
100
AcDbEntity
  8
外形線
 62
     2
370
    -2
100
AcDbLine
 10
172.5679896515612
 20
30.69101878351694
 30
0.0
 11
177.5679896515612
 21
30.69101878351694
 31
0.0
  0
INSERT
  5
EB6
330
9FB
100
AcDbEntity
  8
外形線
 62
     2
370
    -2
100
AcDbBlockReference
  2
_OPEN
 10
170.0679896515612
 20
30.69101878351694
 30
0.0
 41
2.5
 42
2.5
 43
2.5
 50
180.0
  0
INSERT
  5
EB7
330
9FB
100
AcDbEntity
  8
外形線
 62
     2
370
    -2
100
AcDbBlockReference
  2
_OPEN
 10
180.0679896515612
 20
30.69101878351694
 30
0.0
 41
2.5
 42
2.5
 43
2.5
  0
MTEXT
  5
EB8
330
9FB
100
AcDbEntity
  8
外形線
 62
     6
100
AcDbMText
 10
175.0679896515612
 20
32.56601878351694
 30
0.0
 40
2.5
 41
0.0
 71
     5
 72
     1
  1
\A1;10
  7
STYLE3
 73
     1
 44
1.0
  0
POINT
  5
EB9
330
9FB
100
AcDbEntity
  8
DEFPOINTS
 62
     0
100
AcDbPoint
 10
170.0679896515612
 20
32.07727565770222
 30
0.0
  0
POINT
  5
EBA
330
9FB
100
AcDbEntity
  8
DEFPOINTS
 62
     0
100
AcDbPoint
 10
180.0679896515612
 20
84.40921240447579
 30
0.0
  0
POINT
  5
EBB
330
9FB
100
AcDbEntity
  8
DEFPOINTS
 62
     0
100
AcDbPoint
 10
180.0679896515612
 20
30.69101878351694
 30
0.0
  0
ENDBLK
  5
B38
330
9FB
100
AcDbEntity
  8
0
100
AcDbBlockEnd
  0
BLOCK
  5
B39
330
A1C
100
AcDbEntity
  8
0
100
AcDbBlockBegin
  2
*D16
 70
     1
 10
0.0
 20
0.0
 30
0.0
  3
*D16
  1

  0
LINE
  5
EAB
330
A1C
100
AcDbEntity
  8
外形線
 62
     2
370
    -2
100
AcDbLine
 10
155.0679896515612
 20
87.04739541365569
 30
0.0
 11
155.0679896515612
 21
24.9630226721556
 31
0.0
  0
LINE
  5
EAC
330
A1C
100
AcDbEntity
  8
外形線
 62
     2
370
    -2
100
AcDbLine
 10
180.0679896515612
 20
29.44101878351694
 30
0.0
 11
180.0679896515612
 21
24.9630226721556
 31
0.0
  0
LINE
  5
EAD
330
A1C
100
AcDbEntity
  8
外形線
 62
     2
370
    -2
100
AcDbLine
 10
157.5679896515612
 20
26.2130226721556
 30
0.0
 11
177.5679896515612
 21
26.2130226721556
 31
0.0
  0
INSERT
  5
EAE
330
A1C
100
AcDbEntity
  8
外形線
 62
     2
370
    -2
100
AcDbBlockReference
  2
_OPEN
 10
155.0679896515612
 20
26.2130226721556
 30
0.0
 41
2.5
 42
2.5
 43
2.5
 50
180.0
  0
INSERT
  5
EAF
330
A1C
100
AcDbEntity
  8
外形線
 62
     2
370
    -2
100
AcDbBlockReference
  2
_OPEN
 10
180.0679896515612
 20
26.2130226721556
 30
0.0
 41
2.5
 42
2.5
 43
2.5
  0
MTEXT
  5
EB0
330
A1C
100
AcDbEntity
  8
外形線
 62
     6
100
AcDbMText
 10
167.5679896515612
 20
28.0880226721556
 30
0.0
 40
2.5
 41
0.0
 71
     5
 72
     1
  1
\A1;25
  7
STYLE3
 73
     1
 44
1.0
  0
POINT
  5
EB1
330
A1C
100
AcDbEntity
  8
DEFPOINTS
 62
     0
100
AcDbPoint
 10
155.0679896515612
 20
87.04739541365569
 30
0.0
  0
POINT
  5
EB2
330
A1C
100
AcDbEntity
  8
DEFPOINTS
 62
     0
100
AcDbPoint
 10
180.0679896515612
 20
29.44101878351694
 30
0.0
  0
POINT
  5
EB3
330
A1C
100
AcDbEntity
  8
DEFPOINTS
 62
     0
100
AcDbPoint
 10
180.0679896515612
 20
26.2130226721556
 30
0.0
  0
ENDBLK
  5
B43
330
A1C
100
AcDbEntity
  8
0
100
AcDbBlockEnd
  0
ENDSEC
  0
SECTION
  2
ENTITIES
  0
LWPOLYLINE
  5
26C
330
18
100
AcDbEntity
  8
C
100
AcDbPolyline
 90
        5
 70
     0
 43
0.4
 10
0.0
 20
194.7274940416472
 10
255.0
 20
194.7274940416472
 10
255.0
 20
0.0
 10
0.0
 20
0.0
 10
0.0
 20
194.7274940416472
  0
LINE
  5
310
330
18
100
AcDbEntity
  8
中心線
100
AcDbLine
 10
52.52793030305088
 20
107.4092124044758
 30
0.0
 11
111.2174863408583
 21
107.4092124044758
 31
0.0
  0
LINE
  5
311
330
18
100
AcDbEntity
  8
中心線
100
AcDbLine
 10
81.87270871817736
 20
190.9744422431552
 30
0.0
 11
81.87270871817736
 21
31.97621352908959
 31
0.0
  0
LINE
  5
312
330
18
100
AcDbEntity
  8
外形線
100
AcDbLine
 10
81.87270871817736
 20
73.24921240447579
 30
0.0
 11
90.71102556013057
 21
73.24921240447579
 31
0.0
  0
CIRCLE
  5
319
330
18
100
AcDbEntity
  8
外形線
100
AcDbCircle
 10
81.87270871817736
 20
107.4092124044758
 30
0.0
 40
21.5
  0
ARC
  5
31B
330
18
100
AcDbEntity
  8
外形線
100
AcDbCircle
 10
-41.12729128182263
 20
107.4092124044758
 30
0.0
 40
148.0
100
AcDbArc
 50
351.2395006156553
 51
9.343863756487888
  0
LINE
  5
32D
330
18
100
AcDbEntity
  8
外形線
100
AcDbLine
 10
104.0643885110273
 20
83.65114289417732
 30
0.0
 11
95.87482193180452
 21
81.38029678300862
 31
0.0
  0
ARC
  5
32E
330
18
100
AcDbEntity
  8
外形線
100
AcDbCircle
 10
103.6635836733274
 20
85.09660319528435
 30
0.0
 40
1.5
100
AcDbArc
 50
285.4979099969276
 51
351.2395006156553
  0
LINE
  5
330
330
18
100
AcDbEntity
  8
外形線
100
AcDbLine
 10
91.61122679813951
 20
76.69563011096579
 30
0.0
 11
90.90658604294606
 21
73.40730658672963
 31
0.0
  0
ARC
  5
331
330
18
100
AcDbEntity
  8
外形線
100
AcDbCircle
 10
97.69537798012251
 20
75.44085893138873
 30
0.0
 40
6.212193358091993
100
AcDbArc
 50
107.04134573567
 51
168.346927233681
  0
ARC
  5
332
330
18
100
AcDbEntity
  8
外形線
100
AcDbCircle
 10
90.71102556013057
 20
73.4492124044758
 30
0.0
 40
0.2
100
AcDbArc
 50
270.0
 51
347.9052429229879
  0
LINE
  5
342
330
18
100
AcDbEntity
  8
外形線
100
AcDbLine
 10
81.87270871817736
 20
141.4092124044757
 30
0.0
 11
91.70328330050077
 21
141.4092124044758
 31
0.0
  0
LINE
  5
344
330
18
100
AcDbEntity
  8
外形線
100
AcDbLine
 10
103.7963597729575
 20
132.6491424078753
 30
0.0
 11
96.67629251358581
 21
134.4481639912103
 31
0.0
  0
ARC
  5
345
330
18
100
AcDbEntity
  8
外形線
100
AcDbCircle
 10
103.4289040392477
 20
131.1948466044833
 30
0.0
 40
1.5
100
AcDbArc
 50
9.343863756487762
 51
75.81991026419892
  0
LINE
  5
347
330
18
100
AcDbEntity
  8
外形線
100
AcDbLine
 10
92.22775190543226
 20
139.2789532809464
 30
0.0
 11
91.90056208526721
 21
141.2420922019369
 31
0.0
  0
ARC
  5
348
330
18
100
AcDbEntity
  8
外形線
100
AcDbCircle
 10
98.14611544842513
 20
140.2653472047785
 30
0.0
 40
6.0
100
AcDbArc
 50
189.4623222080256
 51
255.8199102641987
  0
ARC
  5
34A
330
18
100
AcDbEntity
  8
外形線
100
AcDbCircle
 10
91.70328330050077
 20
141.2092124044758
 30
0.0
 40
0.2
100
AcDbArc
 50
9.462322208025469
 51
90.0
  0
LINE
  5
34B
330
18
100
AcDbEntity
  8
中心線
100
AcDbLine
 10
94.37270871817736
 20
135.6861340513515
 30
0.0
 11
94.37270871817736
 21
129.1322907576
 31
0.0
  0
LINE
  5
34D
330
18
100
AcDbEntity
  8
中心線
100
AcDbLine
 10
91.09578707130163
 20
132.4092124044758
 30
0.0
 11
97.6496303650531
 21
132.4092124044758
 31
0.0
  0
CIRCLE
  5
34E
330
18
100
AcDbEntity
  8
外形線
100
AcDbCircle
 10
94.37270871817736
 20
83.9092124044758
 30
0.0
 40
2.0
  0
CIRCLE
  5
34F
330
18
100
AcDbEntity
  8
外形線
100
AcDbCircle
 10
94.37270871817736
 20
132.4092124044758
 30
0.0
 40
2.0
  0
LINE
  5
353
330
18
100
AcDbEntity
  8
中心線
100
AcDbLine
 10
94.37270871817736
 20
87.18613405135153
 30
0.0
 11
94.37270871817736
 21
80.63229075760006
 31
0.0
  0
LINE
  5
354
330
18
100
AcDbEntity
  8
中心線
100
AcDbLine
 10
91.09578707130163
 20
83.9092124044758
 30
0.0
 11
97.6496303650531
 21
83.9092124044758
 31
0.0
  0
LINE
  5
355
330
18
100
AcDbEntity
  8
外形線
100
AcDbLine
 10
90.87270871817736
 20
139.4092124044758
 30
0.0
 11
90.87270871817736
 21
132.4092124044758
 31
0.0
  0
LINE
  5
356
330
18
100
AcDbEntity
  8
外形線
100
AcDbLine
 10
81.87270871817736
 20
140.4092124044757
 30
0.0
 11
89.87270871817736
 21
140.4092124044758
 31
0.0
  0
LINE
  5
357
330
18
100
AcDbEntity
  8
外形線
100
AcDbLine
 10
81.87270871817736
 20
131.4092124044757
 30
0.0
 11
89.87270871817736
 21
131.4092124044758
 31
0.0
  0
ARC
  5
358
330
18
100
AcDbEntity
  8
外形線
100
AcDbCircle
 10
89.87270871817736
 20
132.4092124044758
 30
0.0
 40
1.0
100
AcDbArc
 50
270.0000000000002
 51
0.0
  0
ARC
  5
359
330
18
100
AcDbEntity
  8
外形線
100
AcDbCircle
 10
89.87270871817736
 20
139.4092124044758
 30
0.0
 40
1.0
100
AcDbArc
 50
0.0
 51
90.00000000000019
  0
LINE
  5
35A
330
18
100
AcDbEntity
  8
外形線
100
AcDbLine
 10
72.87270871817733
 20
139.4092124044758
 30
0.0
 11
72.87270871817733
 21
132.4092124044758
 31
0.0
  0
LINE
  5
35B
330
18
100
AcDbEntity
  8
中心線
100
AcDbLine
 10
69.37270871817734
 20
135.6861340513515
 30
0.0
 11
69.37270871817734
 21
129.1322907576
 31
0.0
  0
CIRCLE
  5
35C
330
18
100
AcDbEntity
  8
外形線
100
AcDbCircle
 10
69.37270871817734
 20
132.4092124044758
 30
0.0
 40
2.0
  0
ARC
  5
35D
330
18
100
AcDbEntity
  8
外形線
100
AcDbCircle
 10
65.59930198792958
 20
140.2653472047785
 30
0.0
 40
6.0
100
AcDbArc
 50
284.1800897358013
 51
350.5376777919744
  0
LINE
  5
35E
330
18
100
AcDbEntity
  8
外形線
100
AcDbLine
 10
59.94905766339718
 20
132.6491424078753
 30
0.0
 11
67.06912492276888
 21
134.4481639912103
 31
0.0
  0
ARC
  5
35F
330
18
100
AcDbEntity
  8
外形線
100
AcDbCircle
 10
204.8727087181773
 20
107.4092124044758
 30
0.0
 40
148.0
100
AcDbArc
 50
170.6561362435121
 51
188.7604993843447
  0
LINE
  5
360
330
18
100
AcDbEntity
  8
外形線
100
AcDbLine
 10
59.68102892532735
 20
83.65114289417732
 30
0.0
 11
67.87059550455018
 21
81.38029678300862
 31
0.0
  0
LINE
  5
361
330
18
100
AcDbEntity
  8
外形線
100
AcDbLine
 10
81.87270871817734
 20
73.24921240447579
 30
0.0
 11
73.03439187622413
 21
73.24921240447579
 31
0.0
  0
LINE
  5
362
330
18
100
AcDbEntity
  8
外形線
100
AcDbLine
 10
72.13419063821518
 20
76.69563011096579
 30
0.0
 11
72.83883139340867
 21
73.40730658672963
 31
0.0
  0
ARC
  5
363
330
18
100
AcDbEntity
  8
外形線
100
AcDbCircle
 10
73.03439187622413
 20
73.4492124044758
 30
0.0
 40
0.2
100
AcDbArc
 50
192.0947570770122
 51
270.0
  0
LINE
  5
364
330
18
100
AcDbEntity
  8
中心線
100
AcDbLine
 10
72.64963036505307
 20
83.9092124044758
 30
0.0
 11
66.0957870713016
 21
83.9092124044758
 31
0.0
  0
CIRCLE
  5
365
330
18
100
AcDbEntity
  8
外形線
100
AcDbCircle
 10
69.37270871817734
 20
83.9092124044758
 30
0.0
 40
2.0
  0
ARC
  5
366
330
18
100
AcDbEntity
  8
外形線
100
AcDbCircle
 10
66.05003945623218
 20
75.44085893138873
 30
0.0
 40
6.212193358092002
100
AcDbArc
 50
11.65307276631892
 51
72.95865426432995
  0
LINE
  5
367
330
18
100
AcDbEntity
  8
中心線
100
AcDbLine
 10
69.37270871817734
 20
87.18613405135153
 30
0.0
 11
69.37270871817734
 21
80.63229075760006
 31
0.0
  0
ARC
  5
368
330
18
100
AcDbEntity
  8
外形線
100
AcDbCircle
 10
60.08183376302724
 20
85.09660319528435
 30
0.0
 40
1.5
100
AcDbArc
 50
188.7604993843447
 51
254.5020900030724
  0
LINE
  5
369
330
18
100
AcDbEntity
  8
外形線
100
AcDbLine
 10
81.8727087181773
 20
131.4092124044757
 30
0.0
 11
73.87270871817733
 21
131.4092124044758
 31
0.0
  0
LINE
  5
36A
330
18
100
AcDbEntity
  8
中心線
100
AcDbLine
 10
72.64963036505307
 20
132.4092124044758
 30
0.0
 11
66.0957870713016
 21
132.4092124044758
 31
0.0
  0
ARC
  5
36B
330
18
100
AcDbEntity
  8
外形線
100
AcDbCircle
 10
73.87270871817733
 20
132.4092124044758
 30
0.0
 40
1.0
100
AcDbArc
 50
180.0
 51
269.9999999999998
  0
ARC
  5
36C
330
18
100
AcDbEntity
  8
外形線
100
AcDbCircle
 10
60.316513397107
 20
131.1948466044833
 30
0.0
 40
1.5
100
AcDbArc
 50
104.1800897358011
 51
170.6561362435122
  0
LINE
  5
36D
330
18
100
AcDbEntity
  8
外形線
100
AcDbLine
 10
81.87270871817736
 20
140.4092124044757
 30
0.0
 11
73.87270871817733
 21
140.4092124044758
 31
0.0
  0
LINE
  5
36E
330
18
100
AcDbEntity
  8
外形線
100
AcDbLine
 10
81.87270871817736
 20
141.4092124044757
 30
0.0
 11
72.04213413585392
 21
141.4092124044758
 31
0.0
  0
ARC
  5
36F
330
18
100
AcDbEntity
  8
外形線
100
AcDbCircle
 10
73.87270871817733
 20
139.4092124044758
 30
0.0
 40
1.0
100
AcDbArc
 50
89.99999999999982
 51
180.0
  0
LINE
  5
370
330
18
100
AcDbEntity
  8
外形線
100
AcDbLine
 10
71.51766553092244
 20
139.2789532809464
 30
0.0
 11
71.84485535108752
 21
141.2420922019369
 31
0.0
  0
ARC
  5
371
330
18
100
AcDbEntity
  8
外形線
100
AcDbCircle
 10
72.04213413585392
 20
141.2092124044758
 30
0.0
 40
0.2
100
AcDbArc
 50
90.0
 51
170.5376777919745
  0
LINE
  5
4CF
102
{ACAD_REACTORS
330
4D5
102
}
330
18
100
AcDbEntity
  8
ROGO
 62
     4
100
AcDbLine
 10
78.07219684038489
 20
98.22762830070878
 30
0.0
 11
79.42563757772518
 21
98.22762830070878
 31
0.0
  0
LINE
  5
4D0
102
{ACAD_REACTORS
330
4D5
102
}
330
18
100
AcDbEntity
  8
ROGO
 62
     4
100
AcDbLine
 10
79.09600581516071
 20
98.99907062646503
 30
0.0
 11
79.8073400660183
 21
98.99907062646503
 31
0.0
  0
LINE
  5
4D1
102
{ACAD_REACTORS
330
4D5
102
}
330
18
100
AcDbEntity
  8
ROGO
 62
     4
100
AcDbLine
 10
79.00732770883871
 20
98.81984715613709
 30
0.0
 11
79.71866195969636
 21
98.81984715613709
 31
0.0
  0
LINE
  5
4D2
102
{ACAD_REACTORS
330
4D5
102
}
330
18
100
AcDbEntity
  8
ROGO
 62
     4
100
AcDbLine
 10
78.82771475764418
 20
98.45683921918306
 30
0.0
 11
79.5390490085017
 21
98.45683921918306
 31
0.0
  0
LINE
  5
4D3
102
{ACAD_REACTORS
330
4D5
102
}
330
18
100
AcDbEntity
  8
ROGO
 62
     4
100
AcDbLine
 10
78.91639661817084
 20
98.63607027697112
 30
0.0
 11
79.62773086902837
 21
98.63607027697112
 31
0.0
  0
LINE
  5
4D4
102
{ACAD_REACTORS
330
4D5
102
}
330
18
100
AcDbEntity
  8
ROGO
 62
     4
100
AcDbLine
 10
78.56731646446258
 20
99.22829307508358
 30
0.0
 11
79.92075720180299
 21
99.22829307508358
 31
0.0
  0
HATCH
  5
4D5
330
18
100
AcDbEntity
  8
ROGO
 62
     4
100
AcDbHatch
 10
0.0
 20
0.0
 30
0.0
210
0.0
220
0.0
230
1.0
  2
SOLID
 70
     1
 71
     1
 91
        1
 92
        1
 93
       12
 72
     1
 10
78.56731646446258
 20
99.22829307508358
 11
79.92075720180299
 21
99.22829307508358
 72
     1
 10
79.92075720180299
 20
99.22829307508358
 11
79.8073400660183
 21
98.99907062646503
 72
     1
 10
79.8073400660183
 20
98.99907062646503
 11
79.09600581516071
 21
98.99907062646503
 72
     1
 10
79.09600581516071
 20
98.99907062646503
 11
79.00732770883871
 21
98.81984715613709
 72
     1
 10
79.00732770883871
 20
98.81984715613709
 11
79.71866195969636
 21
98.81984715613709
 72
     1
 10
79.71866195969636
 20
98.81984715613709
 11
79.62773086902837
 21
98.63607027697112
 72
     1
 10
79.62773086902837
 20
98.63607027697112
 11
78.91639661817084
 21
98.63607027697112
 72
     1
 10
78.91639661817084
 20
98.63607027697112
 11
78.82771475764406
 21
98.45683921918306
 72
     1
 10
78.82771475764418
 20
98.45683921918306
 11
79.5390490085017
 21
98.45683921918306
 72
     1
 10
79.5390490085017
 20
98.45683921918306
 11
79.42563757772518
 21
98.22762830070878
 72
     1
 10
79.42563757772518
 20
98.22762830070878
 11
78.07219684038489
 21
98.22762830070878
 72
     1
 10
78.07219684038489
 20
98.22762830070878
 11
78.56731646446258
 21
99.22829307508358
 97
       12
330
4D4
330
556
330
4D0
330
50E
330
4D1
330
557
330
4D3
330
50F
330
4D2
330
558
330
4CF
330
50D
 75
     0
 76
     1
 98
        1
 10
23.20524390792252
 20
30.03680157911656
450
        0
451
        0
460
0.0
461
0.0
452
        0
462
0.0
453
        0
470

  0
LINE
  5
4D6
102
{ACAD_REACTORS
330
503
330
572
102
}
330
18
100
AcDbEntity
  8
ROGO
 62
     4
100
AcDbLine
 10
75.83894056091128
 20
97.66468591066297
 30
0.0
 11
86.42300490349441
 21
97.66468591066297
 31
0.0
  0
LINE
  5
4D7
330
18
100
AcDbEntity
  8
ROGO
 62
     4
100
AcDbLine
 10
76.62581104169447
 20
97.8214141786438
 30
0.0
 11
85.92499103628597
 21
97.8214141786438
 31
0.0
  0
HATCH
  5
4D8
330
18
100
AcDbEntity
  8
ROGO
 62
     4
100
AcDbHatch
 10
0.0
 20
0.0
 30
0.0
210
0.0
220
0.0
230
1.0
  2
SOLID
 70
     1
 71
     0
 91
        1
 92
        7
 72
     0
 73
     1
 93
        4
 10
76.6366803132871
 20
97.8214141786438
 10
76.56577199905678
 20
97.66468591066296
 10
85.84684126001889
 20
97.66468591066297
 10
85.92499103628599
 20
97.8214141786438
 97
        0
 75
     0
 76
     1
 47
0.0514683685270805
 98
        1
 10
82.50149488299507
 20
97.77996207056823
450
        0
451
        0
460
0.0
461
0.0
452
        0
462
0.0
453
        0
470

  0
LINE
  5
4DE
330
18
100
AcDbEntity
  8
外形線
100
AcDbLine
 10
60.40217372095401
 20
108.534435463699
 30
0.0
 11
62.89874755784047
 21
108.4035955730917
 31
0.0
  0
LINE
  5
4DF
330
18
100
AcDbEntity
  8
外形線
100
AcDbLine
 10
60.40217372095401
 20
106.2839893452525
 30
0.0
 11
62.89874755784047
 21
106.4148292358598
 31
0.0
  0
LINE
  5
4E0
330
18
100
AcDbEntity
  8
外形線
100
AcDbLine
 10
60.37270871817736
 20
107.4092124044758
 30
0.0
 11
63.87270871817737
 21
107.4092124044758
 31
0.0
  0
LINE
  5
4E1
330
18
100
AcDbEntity
  8
外形線
100
AcDbLine
 10
60.84253530240051
 20
102.939111051894
 30
0.0
 11
63.28790430423504
 21
103.4588902789385
 31
0.0
  0
LINE
  5
4E2
330
18
100
AcDbEntity
  8
外形線
100
AcDbLine
 10
60.63740939538189
 20
104.0458714061109
 30
0.0
 11
63.10663024686977
 21
104.4369575687115
 31
0.0
  0
LINE
  5
4E3
330
18
100
AcDbEntity
  8
外形線
100
AcDbLine
 10
60.49048796775946
 20
105.1618504442213
 30
0.0
 11
62.97679270618016
 21
105.4231716023904
 31
0.0
  0
LINE
  5
4E4
330
18
100
AcDbEntity
  8
外形線
100
AcDbLine
 10
61.1053034529624
 20
101.8446029347715
 30
0.0
 11
64.48604384497412
 21
102.7504695926303
 31
0.0
  0
TEXT
  5
4E5
330
18
100
AcDbEntity
  8
文字
100
AcDbText
 10
71.95988490050291
 20
93.00009075201405
 30
0.0
 40
2.0
  1
50
  7
STYLE3
100
AcDbText
  0
LINE
  5
4E6
330
18
100
AcDbEntity
  8
外形線
100
AcDbLine
 10
65.89509497041337
 20
93.02290436776036
 30
0.0
 11
67.75295703410677
 21
94.69573088365757
 31
0.0
  0
LINE
  5
4E7
330
18
100
AcDbEntity
  8
外形線
100
AcDbLine
 10
66.66991292266664
 20
92.20641660896498
 30
0.0
 11
69.14478665681952
 21
94.6812903431179
 31
0.0
  0
LINE
  5
4E8
330
18
100
AcDbEntity
  8
外形線
100
AcDbLine
 10
65.16407054685249
 20
93.87882399690431
 30
0.0
 11
67.10693545049491
 21
95.45212497452899
 31
0.0
  0
LINE
  5
4E9
330
18
100
AcDbEntity
  8
外形線
100
AcDbLine
 10
64.47884333911594
 20
94.77182948018768
 30
0.0
 11
66.50138582505332
 21
96.24129261091889
 31
0.0
  0
LINE
  5
4EA
330
18
100
AcDbEntity
  8
外形線
100
AcDbLine
 10
70.16296946535425
 20
89.37779519364918
 30
0.0
 11
71.52456705289182
 21
91.47447161351271
 31
0.0
  0
LINE
  5
4EB
330
18
100
AcDbEntity
  8
外形線
100
AcDbLine
 10
69.23532579388922
 20
90.01534702541443
 30
0.0
 11
70.70478892462034
 21
92.0378895113518
 31
0.0
  0
LINE
  5
4EC
330
18
100
AcDbEntity
  8
外形線
100
AcDbLine
 10
68.34232031060588
 20
90.70057423315091
 30
0.0
 11
69.91562128823045
 21
92.64343913679329
 31
0.0
  0
LINE
  5
4ED
330
18
100
AcDbEntity
  8
外形線
100
AcDbLine
 10
67.48640068146198
 20
91.43159865671174
 30
0.0
 11
69.15922719735909
 21
93.28946072040526
 31
0.0
  0
LINE
  5
4EE
330
18
100
AcDbEntity
  8
外形線
100
AcDbLine
 10
73.12787089204755
 20
87.76798506515991
 30
0.0
 11
74.14471249973712
 21
90.05184870926632
 31
0.0
  0
LINE
  5
4EF
330
18
100
AcDbEntity
  8
外形線
100
AcDbLine
 10
75.22884333911594
 20
86.96149730413001
 30
0.0
 11
76.00138582505326
 21
89.33913859486789
 31
0.0
  0
LINE
  5
4F0
330
18
100
AcDbEntity
  8
外形線
100
AcDbLine
 10
76.30809924847318
 20
86.64180713926084
 30
0.0
 11
77.21396590633196
 21
90.0225475312726
 31
0.0
  0
LINE
  5
4F1
330
18
100
AcDbEntity
  8
外形線
100
AcDbLine
 10
74.16779780295337
 20
87.33723323478598
 30
0.0
 11
75.06371767681662
 21
89.67118430102903
 31
0.0
  0
LINE
  5
4F3
330
18
100
AcDbEntity
  8
外形線
100
AcDbLine
 10
71.12270871817742
 20
88.78966622311033
 30
0.0
 11
72.87270871817736
 21
91.8207551363559
 31
0.0
  0
LINE
  5
4F4
330
18
100
AcDbEntity
  8
外形線
100
AcDbLine
 10
72.11191297377718
 20
88.25257213442586
 30
0.0
 11
73.246889223126
 21
90.48008844489675
 31
0.0
  0
POINT
  5
4F5
330
18
100
AcDbEntity
  8
DEFPOINTS
  6
ByBlock
 62
     0
100
AcDbPoint
 10
76.00138582505326
 20
89.33913859486789
 30
0.0
  0
POINT
  5
4F6
330
18
100
AcDbEntity
  8
DEFPOINTS
  6
ByBlock
 62
     0
100
AcDbPoint
 10
77.21396590633196
 20
90.0225475312726
 30
0.0
  0
POINT
  5
4F7
330
18
100
AcDbEntity
  8
DEFPOINTS
  6
ByBlock
 62
     0
100
AcDbPoint
 10
77.21396590633196
 20
90.02254753127255
 30
0.0
  0
TEXT
  5
4F8
330
18
100
AcDbEntity
  8
文字
100
AcDbText
 10
78.31593246135509
 20
87.69044744148878
 30
0.0
 40
1.0
  1
J
 50
356.2879572464873
  7
STYLE3
100
AcDbText
  0
TEXT
  5
4F9
330
18
100
AcDbEntity
  8
文字
100
AcDbText
 10
66.67766652093575
 20
98.37226414407599
 30
0.0
 40
2.0
  1
40
  7
STYLE3
100
AcDbText
  0
LINE
  5
4FA
330
18
100
AcDbEntity
  8
外形線
100
AcDbLine
 10
63.84129150735077
 20
95.69947315165268
 30
0.0
 11
65.93796792721434
 21
97.06107073919032
 31
0.0
  0
LINE
  5
4FB
330
18
100
AcDbEntity
  8
外形線
100
AcDbLine
 10
63.25316253681194
 20
96.65921240447582
 30
0.0
 11
66.28425145005746
 21
98.40921240447585
 31
0.0
  0
LINE
  5
4FC
330
18
100
AcDbEntity
  8
外形線
100
AcDbLine
 10
62.71606844812748
 20
97.6484166600755
 30
0.0
 11
64.94358475859837
 21
98.78339290942438
 31
0.0
  0
LINE
  5
4FD
330
18
100
AcDbEntity
  8
外形線
100
AcDbLine
 10
61.80072954848753
 20
99.70430148925183
 30
0.0
 11
64.13468061473054
 21
100.6002213631151
 31
0.0
  0
LINE
  5
4FE
330
18
100
AcDbEntity
  8
外形線
100
AcDbLine
 10
61.4249936178316
 20
100.7653470254143
 30
0.0
 11
63.80263490856947
 21
101.5378895113516
 31
0.0
  0
LINE
  5
4FF
330
18
100
AcDbEntity
  8
外形線
100
AcDbLine
 10
62.23148137886147
 20
98.66437457834601
 30
0.0
 11
64.51534502296794
 21
99.68121618603561
 31
0.0
  0
TEXT
  5
500
330
18
100
AcDbEntity
  8
文字
100
AcDbText
 10
64.67140558387041
 20
106.4772025874582
 30
0.0
 40
2.0
  1
30
  7
STYLE3
100
AcDbText
  0
LINE
  5
501
102
{ACAD_REACTORS
330
503
102
}
330
18
100
AcDbEntity
  8
ROGO
 62
     4
100
AcDbLine
 10
76.61259884416285
 20
99.22829307508358
 30
0.0
 11
75.83894056091128
 21
97.66468591066292
 31
0.0
  0
LINE
  5
502
102
{ACAD_REACTORS
330
503
102
}
330
18
100
AcDbEntity
  8
ROGO
 62
     4
100
AcDbLine
 10
76.82046310488726
 20
98.22762830070878
 30
0.0
 11
76.56577199905678
 21
97.66468591066297
 31
0.0
  0
HATCH
  5
503
330
18
100
AcDbEntity
  8
ROGO
 62
     4
100
AcDbHatch
 10
0.0
 20
0.0
 30
0.0
210
0.0
220
0.0
230
1.0
  2
SOLID
 70
     1
 71
     1
 91
        2
 92
        5
 93
        6
 72
     1
 10
75.83894056091131
 20
97.66468591066299
 11
76.56577199905678
 21
97.66468591066299
 72
     1
 10
76.56577199905678
 20
97.66468591066299
 11
76.82046310488726
 21
98.22762830070878
 72
     1
 10
76.82046310488726
 20
98.22762830070878
 11
77.49990142562314
 21
98.22762830070876
 72
     4
 94
        3
 73
     0
 74
     0
 95
       18
 96
       14
 40
0.108740278791501
 40
0.108740278791501
 40
0.108740278791501
 40
0.108740278791501
 40
0.6623149649549278
 40
1.384304701649787
 40
2.097394834876493
 40
2.774073369849618
 40
3.428974823686337
 40
4.005208313035923
 40
4.455173659284313
 40
4.720999734343524
 40
5.086034088486724
 40
5.569973738255373
 40
6.060470601257719
 40
6.060470601257719
 40
6.060470601257719
 40
6.060470601257719
 10
77.49990142562336
 20
98.22762830070884
 10
77.54771917214185
 20
98.22798438498843
 10
77.65790234663461
 20
98.22880488572662
 10
77.8120477455733
 20
98.3111527449641
 10
77.95822162602542
 20
98.41605791784758
 10
78.0759547427246
 20
98.54712598658489
 10
78.14930602157881
 20
98.69697986809416
 10
78.1606679028223
 20
98.84060104904643
 10
78.15373175346502
 20
98.95420361766595
 10
78.10416948244096
 20
99.03338742828873
 10
78.05264345369636
 20
99.11375089846615
 10
77.95816214027269
 20
99.18336472123531
 10
77.88074838452542
 20
99.21386592378361
 10
77.84138191524249
 20
99.22829307508358
 72
     1
 10
77.84138191524246
 20
99.22829307508358
 11
76.61259884416285
 21
99.22829307508358
 72
     1
 10
76.61259884416285
 20
99.22829307508358
 11
75.83894056091131
 21
97.66468591066299
 97
        6
330
50B
330
508
330
501
330
4D6
330
502
330
509
 92
       20
 93
        4
 72
     1
 10
76.97772044437136
 20
98.57521335772448
 11
77.09812058114575
 21
98.84133313657031
 72
     1
 10
77.09812058114575
 20
98.84133313657031
 11
77.40749761897085
 21
98.84133313657031
 72
     4
 94
        3
 73
     0
 74
     0
 95
       15
 96
       11
 40
0.0
 40
0.0
 40
0.0
 40
0.0
 40
0.1173311909271291
 40
0.1708277603084772
 40
0.2315499279304583
 40
0.2729166917718413
 40
0.3383386578210342
 40
0.3775246283551124
 40
0.4447549129354287
 40
0.4671650220984683
 40
0.4671650220984683
 40
0.4671650220984683
 40
0.4671650220984683
 10
77.40749761897086
 20
98.84133313657031
 10
77.45156493896569
 20
98.84153498841834
 10
77.51572453300056
 20
98.84182887360644
 10
77.55080928412548
 20
98.76246327024256
 10
77.53508262582453
 20
98.71136420255929
 10
77.51531293459702
 20
98.65890138647678
 10
77.48037541265849
 20
98.623252111697
 10
77.43348414081568
 20
98.58891585044643
 10
77.3891696480878
 20
98.58475929227143
 10
77.36034804503799
 20
98.57712254536499
 10
77.35314264082649
 20
98.57521335772446
 72
     1
 10
77.3531426408265
 20
98.57521335772446
 11
76.97772044437136
 21
98.57521335772448
 97
        4
330
507
330
510
330
50C
330
50A
 75
     0
 76
     1
 47
0.0514683685270805
 98
        2
 10
76.61916649903457
 20
98.74196975039939
 10
76.61916649903457
 20
98.74196975039939
450
        0
451
        0
460
0.0
461
0.0
452
        0
462
0.0
453
        0
470

  0
POINT
  5
505
330
18
100
AcDbEntity
  8
DEFPOINTS
  6
ByBlock
 62
     0
100
AcDbPoint
 10
75.83894056091128
 20
97.66468591066292
 30
0.0
  0
LINE
  5
507
102
{ACAD_REACTORS
330
503
102
}
330
18
100
AcDbEntity
  8
ROGO
 62
     4
100
AcDbLine
 10
77.09812058114573
 20
98.84133313657031
 30
0.0
 11
76.97772044437136
 21
98.57521335772446
 31
0.0
  0
LINE
  5
508
102
{ACAD_REACTORS
330
503
102
}
330
18
100
AcDbEntity
  8
ROGO
 62
     4
100
AcDbLine
 10
76.61259884416285
 20
99.22829307508358
 30
0.0
 11
77.84138191524244
 21
99.22829307508358
 31
0.0
  0
LINE
  5
509
102
{ACAD_REACTORS
330
503
102
}
330
18
100
AcDbEntity
  8
ROGO
 62
     4
100
AcDbLine
 10
77.49990142585898
 20
98.22762830070878
 30
0.0
 11
76.82046310488726
 21
98.22762830070878
 31
0.0
  0
LINE
  5
50A
102
{ACAD_REACTORS
330
503
102
}
330
18
100
AcDbEntity
  8
ROGO
 62
     4
100
AcDbLine
 10
77.35314264082655
 20
98.57521335772446
 30
0.0
 11
76.97772044437136
 21
98.57521335772446
 31
0.0
  0
SPLINE
  5
50B
102
{ACAD_REACTORS
330
503
102
}
330
18
100
AcDbEntity
  8
ROGO
 62
     4
100
AcDbSpline
210
0.0
220
0.0
230
1.0
 70
     8
 71
     3
 72
    18
 73
    14
 74
     0
 42
0.0000000001
 43
0.0000000001
 40
0.1087402787915014
 40
0.1087402787915014
 40
0.1087402787915014
 40
0.1087402787915014
 40
0.5992371417938475
 40
1.083176791562496
 40
1.448211145705696
 40
1.714037220764907
 40
2.164002567013297
 40
2.740236056362883
 40
3.395137510199602
 40
4.071816045172726
 40
4.784906178399433
 40
5.506895915094292
 40
6.060470601257719
 40
6.060470601257719
 40
6.060470601257719
 40
6.060470601257719
 10
77.84138191524249
 20
99.22829307508358
 30
0.0
 10
77.88074838452542
 20
99.21386592378361
 30
0.0
 10
77.95816214027269
 20
99.18336472123531
 30
0.0
 10
78.05264345369636
 20
99.11375089846615
 30
0.0
 10
78.10416948244096
 20
99.03338742828873
 30
0.0
 10
78.15373175346502
 20
98.95420361766595
 30
0.0
 10
78.1606679028223
 20
98.84060104904643
 30
0.0
 10
78.14930602157881
 20
98.69697986809416
 30
0.0
 10
78.0759547427246
 20
98.54712598658489
 30
0.0
 10
77.95822162602542
 20
98.41605791784758
 30
0.0
 10
77.8120477455733
 20
98.3111527449641
 30
0.0
 10
77.65790234663461
 20
98.22880488572662
 30
0.0
 10
77.54771917214185
 20
98.22798438498843
 30
0.0
 10
77.49990142562336
 20
98.22762830070884
 30
0.0
  0
SPLINE
  5
50C
102
{ACAD_REACTORS
330
503
102
}
330
18
100
AcDbEntity
  8
ROGO
 62
     4
100
AcDbSpline
210
0.0
220
0.0
230
1.0
 70
     8
 71
     3
 72
    15
 73
    11
 74
     9
 42
0.0000000001
 43
0.0000000001
 44
0.0000000001
 40
0.0
 40
0.0
 40
0.0
 40
0.0
 40
0.1173311909271291
 40
0.1708277603084772
 40
0.2315499279304583
 40
0.2729166917718413
 40
0.3383386578210342
 40
0.3775246283551124
 40
0.4447549129354287
 40
0.4671650220984683
 40
0.4671650220984683
 40
0.4671650220984683
 40
0.4671650220984683
 10
77.40749761897086
 20
98.84133313657031
 30
0.0
 10
77.45156493896569
 20
98.84153498841834
 30
0.0
 10
77.51572453300056
 20
98.84182887360644
 30
0.0
 10
77.55080928412548
 20
98.76246327024256
 30
0.0
 10
77.53508262582453
 20
98.71136420255929
 30
0.0
 10
77.51531293459702
 20
98.65890138647678
 30
0.0
 10
77.48037541265849
 20
98.623252111697
 30
0.0
 10
77.43348414081568
 20
98.58891585044643
 30
0.0
 10
77.3891696480878
 20
98.58475929227143
 30
0.0
 10
77.36034804503799
 20
98.57712254536499
 30
0.0
 10
77.35314264082649
 20
98.57521335772446
 30
0.0
 11
77.40749761897086
 21
98.84133313657031
 31
0.0
 11
77.52164316683956
 21
98.81417798482829
 31
0.0
 11
77.54338522060766
 21
98.76529888874911
 31
0.0
 11
77.53251434999959
 21
98.7055577319731
 31
0.0
 11
77.51620788781156
 21
98.66754051953428
 31
0.0
 11
77.47272378027526
 21
98.61866142345514
 31
0.0
 11
77.44011085589898
 21
98.59693730206153
 31
0.0
 11
77.37488469459458
 21
98.58064438807282
 31
0.0
 11
77.35314264082649
 21
98.57521335772446
 31
0.0
  0
LINE
  5
50D
102
{ACAD_REACTORS
330
4D5
102
}
330
18
100
AcDbEntity
  8
ROGO
 62
     4
100
AcDbLine
 10
78.56731646446258
 20
99.22829307508358
 30
0.0
 11
78.07219684038489
 21
98.22762830070878
 31
0.0
  0
LINE
  5
50E
102
{ACAD_REACTORS
330
4D5
102
}
330
18
100
AcDbEntity
  8
ROGO
 62
     4
100
AcDbLine
 10
79.09600581516071
 20
98.99907062646503
 30
0.0
 11
79.00732770883871
 21
98.81984715613709
 31
0.0
  0
LINE
  5
50F
102
{ACAD_REACTORS
330
4D5
102
}
330
18
100
AcDbEntity
  8
ROGO
 62
     4
100
AcDbLine
 10
78.91639661817084
 20
98.63607027697112
 30
0.0
 11
78.82771475764406
 21
98.45683921918306
 31
0.0
  0
LINE
  5
510
102
{ACAD_REACTORS
330
503
102
}
330
18
100
AcDbEntity
  8
ROGO
 62
     4
100
AcDbLine
 10
77.40749761897092
 20
98.84133313657031
 30
0.0
 11
77.09812058114573
 21
98.84133313657031
 31
0.0
  0
TEXT
  5
521
330
18
100
AcDbEntity
  8
文字
100
AcDbText
 10
95.37052140537287
 20
106.3625530959668
 30
0.0
 40
2.0
  1
30
  7
STYLE3
100
AcDbText
  0
LINE
  5
522
330
18
100
AcDbEntity
  8
外形線
100
AcDbLine
 10
100.4922548995428
 20
96.65921240447582
 30
0.0
 11
97.46116598629726
 21
98.40921240447585
 31
0.0
  0
LINE
  5
523
330
18
100
AcDbEntity
  8
外形線
100
AcDbLine
 10
99.90412592900396
 20
95.69947315165268
 30
0.0
 11
97.80744950914039
 21
97.06107073919032
 31
0.0
  0
LINE
  5
524
330
18
100
AcDbEntity
  8
外形線
100
AcDbLine
 10
99.2665740972388
 20
94.77182948018768
 30
0.0
 11
97.2440316113014
 21
96.24129261091889
 31
0.0
  0
LINE
  5
525
330
18
100
AcDbEntity
  8
外形線
100
AcDbLine
 10
98.58134688950229
 20
93.87882399690434
 30
0.0
 11
96.63848198585981
 21
95.45212497452899
 31
0.0
  0
TEXT
  5
527
330
18
100
AcDbEntity
  8
文字
100
AcDbText
 10
88.0913493834123
 20
93.29442686493701
 30
0.0
 40
2.0
  1
50
  7
STYLE3
100
AcDbText
  0
LINE
  5
528
330
18
100
AcDbEntity
  8
外形線
100
AcDbLine
 10
97.0755045136881
 20
92.20641660896498
 30
0.0
 11
94.6006307795352
 21
94.6812903431179
 31
0.0
  0
LINE
  5
529
330
18
100
AcDbEntity
  8
外形線
100
AcDbLine
 10
97.85032246594141
 20
93.02290436776042
 30
0.0
 11
95.99246040224796
 21
94.69573088365757
 31
0.0
  0
LINE
  5
52B
330
18
100
AcDbEntity
  8
外形線
100
AcDbLine
 10
89.5776196334013
 20
87.33723323478596
 30
0.0
 11
88.6816997595381
 21
89.67118430102903
 31
0.0
  0
LINE
  5
52F
330
18
100
AcDbEntity
  8
外形線
100
AcDbLine
 10
88.51657409723873
 20
86.96149730412999
 30
0.0
 11
87.74403161130146
 21
89.33913859486789
 31
0.0
  0
LINE
  5
530
330
18
100
AcDbEntity
  8
外形線
100
AcDbLine
 10
87.43731818788154
 20
86.64180713926084
 30
0.0
 11
86.53145153002276
 21
90.0225475312726
 31
0.0
  0
TEXT
  5
539
330
18
100
AcDbEntity
  8
文字
100
AcDbText
 10
83.3927745722063
 20
87.49586050640493
 30
0.0
 40
1.0
  1
E
 50
5.567348364325177
  7
STYLE3
100
AcDbText
  0
TEXT
  5
53A
330
18
100
AcDbEntity
  8
文字
100
AcDbText
 10
81.45439887536316
 20
87.42587584528211
 30
0.0
 40
1.0
  1
E
  7
STYLE3
100
AcDbText
  0
TEXT
  5
53B
330
18
100
AcDbEntity
  8
文字
100
AcDbText
 10
80.22669401556999
 20
87.48639667915693
 30
0.0
 40
1.0
  1
W
 50
357.0959730001581
  7
STYLE3
100
AcDbText
  0
TEXT
  5
53C
330
18
100
AcDbEntity
  8
文字
100
AcDbText
 10
79.20548986302555
 20
87.59897593144847
 30
0.0
 40
1.0
  1
E
 50
355.2277330305983
  7
STYLE3
100
AcDbText
  0
TEXT
  5
53D
330
18
100
AcDbEntity
  8
文字
100
AcDbText
 10
82.49428556492558
 20
87.43445388032442
 30
0.0
 40
1.0
  1
L
 50
2.872940209688468
  7
STYLE3
100
AcDbText
  0
POINT
  5
53F
330
18
100
AcDbEntity
  8
DEFPOINTS
  6
ByBlock
 62
     0
100
AcDbPoint
 10
86.53145153002276
 20
90.0225475312726
 30
0.0
  0
TEXT
  5
544
330
18
100
AcDbEntity
  8
文字
100
AcDbText
 10
84.37026078919911
 20
87.60938018361775
 30
0.0
 40
1.0
  1
D
 50
5.522724978934679
  7
STYLE3
100
AcDbText
  0
LINE
  5
545
330
18
100
AcDbEntity
  8
外形線
100
AcDbLine
 10
90.61754654430718
 20
87.76798506515991
 30
0.0
 11
89.6007049366176
 21
90.05184870926632
 31
0.0
  0
LINE
  5
547
330
18
100
AcDbEntity
  8
外形線
100
AcDbLine
 10
94.51009164246546
 20
90.01534702541437
 30
0.0
 11
93.04062851173439
 21
92.0378895113518
 31
0.0
  0
LINE
  5
548
330
18
100
AcDbEntity
  8
外形線
100
AcDbLine
 10
93.58244797100041
 20
89.37779519364914
 30
0.0
 11
92.22085038346291
 21
91.47447161351271
 31
0.0
  0
LINE
  5
549
330
18
100
AcDbEntity
  8
外形線
100
AcDbLine
 10
92.62270871817737
 20
88.78966622311034
 30
0.0
 11
90.87270871817736
 21
91.8207551363559
 31
0.0
  0
LINE
  5
54A
330
18
100
AcDbEntity
  8
外形線
100
AcDbLine
 10
91.6335044625775
 20
88.25257213442583
 30
0.0
 11
90.49852821322872
 21
90.48008844489675
 31
0.0
  0
LINE
  5
54B
330
18
100
AcDbEntity
  8
外形線
100
AcDbLine
 10
96.25901675489274
 20
91.43159865671174
 30
0.0
 11
94.58619023899563
 21
93.28946072040526
 31
0.0
  0
LINE
  5
54C
330
18
100
AcDbEntity
  8
外形線
100
AcDbLine
 10
95.40309712574885
 20
90.70057423315091
 30
0.0
 11
93.82979614812427
 21
92.64343913679329
 31
0.0
  0
LINE
  5
550
102
{ACAD_REACTORS
330
552
102
}
330
18
100
AcDbEntity
  8
ROGO
 62
     4
100
AcDbLine
 10
83.74839112017843
 20
99.23246691771112
 30
0.0
 11
84.32026455789383
 21
99.23246691771112
 31
0.0
  0
SPLINE
  5
551
102
{ACAD_REACTORS
330
552
102
}
330
18
100
AcDbEntity
  8
ROGO
 62
     4
100
AcDbSpline
210
0.0
220
0.0
230
1.0
 70
     8
 71
     3
 72
    11
 73
     7
 74
     0
 42
0.0000000001
 43
0.0000000001
 40
0.1647869275458134
 40
0.1647869275458134
 40
0.1647869275458134
 40
0.1647869275458134
 40
0.2895635144633836
 40
0.5387013147903714
 40
0.7953622617455423
 40
0.8850764140209602
 40
0.8850764140209602
 40
0.8850764140209602
 40
0.8850764140209602
 10
84.21794854027149
 20
98.24993803092866
 30
0.0
 10
84.20729637610259
 20
98.24697299697215
 30
0.0
 10
84.1742689299931
 20
98.24169391855003
 30
0.0
 10
84.11886979336868
 20
98.23444512388318
 30
0.0
 10
84.06621568482519
 20
98.22688074217893
 30
0.0
 10
84.03540600709879
 20
98.22747450975999
 30
0.0
 10
84.02742603358097
 20
98.22762830070884
 30
0.0
  0
HATCH
  5
552
330
18
100
AcDbEntity
  8
ROGO
 62
     4
100
AcDbHatch
 10
0.0
 20
0.0
 30
0.0
210
0.0
220
0.0
230
1.0
  2
SOLID
 70
     1
 71
     1
 91
        2
 92
        5
 93
        6
 72
     4
 94
        3
 73
     0
 74
     0
 95
       38
 96
       34
 40
0.0
 40
0.0
 40
0.0
 40
0.0
 40
0.1377518814269403
 40
0.1810136836454759
 40
0.2366021580813189
 40
0.2829259774522072
 40
0.3220114216621721
 40
0.3739258113479615
 40
0.400452018397381
 40
0.430327490341427
 40
0.4743583140443541
 40
0.5242356829021452
 40
0.5565906436074935
 40
0.5917389852555234
 40
0.6308103713097882
 40
0.690103179468453
 40
0.7464375304839319
 40
0.7726270891267914
 40
0.8024927772748714
 40
0.8378737549607437
 40
0.8630604644926993
 40
0.8841741806523193
 40
0.9143197975364294
 40
0.9474446665781009
 40
0.9805693511859566
 40
1.009553496326227
 40
1.075932340706376
 40
1.102121899349253
 40
1.154501047744393
 40
1.200801884818927
 40
1.289441366201207
 40
1.398813308257271
 40
1.556762308284053
 40
1.556762308284053
 40
1.556762308284053
 40
1.556762308284053
 10
83.7483911201785
 20
99.23246691771112
 10
83.70247428916703
 20
99.22922321726867
 10
83.64213700276039
 20
99.22496081330262
 10
83.56552275724325
 20
99.20397079420801
 10
83.52375951697856
 20
99.17896492246791
 10
83.48029651788692
 20
99.16058440813216
 10
83.44324026321263
 20
99.13336651133871
 10
83.40575864392606
 20
99.11934139134555
 10
83.37951286672666
 20
99.09405159313743
 10
83.3491355204463
 20
99.07860349286481
 10
83.32494550026861
 20
99.04402615336138
 10
83.29790791869617
 20
99.01169759390079
 10
83.26654092262161
 20
98.98809918729362
 10
83.24079760796999
 20
98.96331395606916
 10
83.21718169635081
 20
98.92506289717488
 10
83.20320474289244
 20
98.87423856658607
 10
83.16380605715195
 20
98.84214991717289
 10
83.15787384863941
 20
98.80356978602355
 10
83.13608123409423
 20
98.78080815785381
 10
83.12660504310773
 20
98.75142616587879
 10
83.12299605344454
 20
98.72450707128486
 10
83.11866440528516
 20
98.69936650041672
 10
83.10733363405296
 20
98.67291973039854
 10
83.11103203687679
 20
98.64025099978125
 10
83.10997847294606
 20
98.60861678359661
 10
83.11059849655604
 20
98.56590960668087
 10
83.10836074547939
 20
98.52432891806566
 10
83.12620593338698
 20
98.47907926663296
 10
83.13676612337202
 20
98.43874546246537
 10
83.16568692149351
 20
98.3828984195685
 10
83.2155746921782
 20
98.31846300733809
 10
83.31044046115156
 20
98.24025062524619
 10
83.40165667165303
 20
98.23231634315263
 10
83.45555259586564
 20
98.22762830070884
 72
     1
 10
83.45555259586573
 20
98.22762830070878
 11
84.02742603357998
 21
98.22762830070876
 72
     4
 94
        3
 73
     0
 74
     0
 95
       11
 96
        7
 40
0.1647869275458135
 40
0.1647869275458135
 40
0.1647869275458135
 40
0.1647869275458135
 40
0.2545010798212315
 40
0.5111620267764023
 40
0.7602998271033902
 40
0.8850764140209603
 40
0.8850764140209603
 40
0.8850764140209603
 40
0.8850764140209603
 10
84.02742603358097
 20
98.22762830070884
 10
84.03540600709879
 20
98.22747450975999
 10
84.06621568482519
 20
98.22688074217893
 10
84.11886979336868
 20
98.23444512388318
 10
84.1742689299931
 20
98.24169391855003
 10
84.20729637610259
 20
98.24697299697215
 10
84.21794854027149
 20
98.24993803092866
 72
     4
 94
        3
 73
     0
 74
     0
 95
        9
 96
        5
 40
0.0
 40
0.0
 40
0.0
 40
0.0
 40
0.0865516336707051
 40
0.2029257078463241
 40
0.2029257078463241
 40
0.2029257078463241
 40
0.2029257078463241
 10
84.21794854027149
 20
98.24993803092866
 10
84.24575142915328
 20
98.25844414468706
 10
84.3109370376419
 20
98.27838725936029
 10
84.36479528256844
 20
98.32053728156875
 10
84.39568197236525
 20
98.34470952599776
 72
     4
 94
        3
 73
     0
 74
     0
 95
       25
 96
       21
 40
0.0
 40
0.0
 40
0.0
 40
0.0
 40
0.165525918914855
 40
0.3412380755365305
 40
0.5940540902285263
 40
0.7697671103696209
 40
0.9377330196075423
 40
1.11479469302833
 40
1.274661249598185
 40
1.574522170874768
 40
1.815540668866877
 40
2.15849091873445
 40
2.536227739636605
 40
2.738070817316548
 40
2.925680654369045
 40
3.162706124480894
 40
3.395643218188267
 40
3.648478129958861
 40
3.928509979727306
 40
4.337226830236035
 40
4.337226830236035
 40
4.337226830236035
 40
4.337226830236035
 10
84.39568197236525
 20
98.34470952599776
 10
84.40703072550281
 20
98.35408771789957
 10
84.42855620736464
 20
98.37639262923715
 10
84.46673519392687
 20
98.4125439209658
 10
84.50037924088121
 20
98.45466304462348
 10
84.54188159500631
 20
98.48879911822223
 10
84.56348759080844
 20
98.5305329986615
 10
84.5946309282387
 20
98.56335580669338
 10
84.62075508858589
 20
98.61404739603649
 10
84.64292014748242
 20
98.67227597381811
 10
84.66405147052388
 20
98.74817581835566
 10
84.67214921150917
 20
98.8338021249703
 10
84.66016354781244
 20
98.91664553364837
 10
84.63120921417994
 20
98.97856826043579
 10
84.60992235540841
 20
99.0301744712586
 10
84.57761688034111
 20
99.07905463942576
 10
84.5407606995929
 20
99.13221722788069
 10
84.48883686718437
 20
99.17619129533983
 10
84.42097774936826
 20
99.22923110674156
 10
84.3577720481241
 20
99.23126184073403
 10
84.32026455789383
 20
99.23246691771112
 72
     1
 10
84.32026455789385
 20
99.23246691771112
 11
83.7483911201785
 21
99.23246691771112
 97
        6
330
581
330
550
330
56B
330
56C
330
551
330
582
 92
       20
 93
        1
 72
     3
 10
83.87981076513643
 20
98.7160376254314
 11
0.1358595110271534
 21
0.119471439333386
 40
0.678808341743879
 50
0.0
 51
360.0
 73
     1
 97
        1
330
56D
 75
     0
 76
     1
 47
0.088756267210375
 98
        2
 10
83.91976532728438
 20
98.9549264649861
 10
83.91976532728438
 20
98.9549264649861
450
        0
451
        0
460
0.0
461
0.0
452
        0
462
0.0
453
        0
470

  0
SPLINE
  5
554
102
{ACAD_REACTORS
330
555
102
}
330
18
100
AcDbEntity
  8
ROGO
 62
     4
100
AcDbSpline
210
0.0
220
0.0
230
1.0
 70
     8
 71
     3
 72
    26
 73
    22
 74
    20
 42
0.0000000001
 43
0.0000000001
 44
0.0000000001
 40
0.0
 40
0.0
 40
0.0
 40
0.0
 40
0.1815320543485053
 40
0.3030537083199962
 40
0.3906807171793024
 40
0.4561089693578315
 40
0.5409728463824015
 40
0.6029152034572501
 40
0.714768662850487
 40
0.8058157707230188
 40
0.867742392801297
 40
0.9284646163791247
 40
1.037084869234313
 40
1.113892352366038
 40
1.155259116207495
 40
1.21401938228823
 40
1.256451488881051
 40
1.317921602285561
 40
1.352708369427598
 40
1.428408276764845
 40
1.46297351205421
 40
1.46297351205421
 40
1.46297351205421
 40
1.46297351205421
 10
82.19058848368741
 20
99.22829307508358
 30
0.0
 10
82.1289736996162
 20
99.22461703140761
 30
0.0
 10
82.0261125885737
 20
99.21848016113452
 30
0.0
 10
81.91317171438232
 20
99.14986979295841
 30
0.0
 10
81.83042461802854
 20
99.10998273997634
 30
0.0
 10
81.77140948926096
 20
99.0557596896005
 30
0.0
 10
81.72815116064469
 20
98.99975123948101
 30
0.0
 10
81.67361591653033
 20
98.93301758182843
 30
0.0
 10
81.62914398330158
 20
98.85530893794237
 30
0.0
 10
81.60649713133114
 20
98.7696604651875
 30
0.0
 10
81.58643676479739
 20
98.7013981354536
 30
0.0
 10
81.57155966114677
 20
98.62532867738089
 30
0.0
 10
81.57534481748088
 20
98.54314690282642
 30
0.0
 10
81.580765334584
 20
98.46682067788966
 30
0.0
 10
81.6049666253537
 20
98.41233518088788
 30
0.0
 10
81.63252760875316
 20
98.37354526157383
 30
0.0
 10
81.66627565547983
 20
98.3308224658851
 30
0.0
 10
81.70320339869093
 20
98.30252729664227
 30
0.0
 10
81.7337456565785
 20
98.25126869616941
 30
0.0
 10
81.78720884868747
 20
98.24472772906956
 30
0.0
 10
81.82119218054415
 20
98.23170925232345
 30
0.0
 10
81.83184506534132
 20
98.22762830070884
 30
0.0
 11
82.19058848368741
 21
99.22829307508358
 31
0.0
 11
82.01121677451425
 21
99.20037038351757
 31
0.0
 11
81.90250650567367
 21
99.14606025709003
 31
0.0
 11
81.82640947376119
 21
99.1026121913593
 31
0.0
 11
81.77749008719684
 21
99.059163948572
 31
0.0
 11
81.72313510905258
 21
98.99399176144761
 31
0.0
 11
81.68508659309622
 21
98.94511266536852
 31
0.0
 11
81.63073130240002
 21
98.84735429615359
 31
0.0
 11
81.60355396960387
 21
98.76045798763568
 31
0.0
 11
81.58724750741578
 21
98.70071683085967
 31
0.0
 11
81.57637632425565
 21
98.64097567408368
 31
0.0
 11
81.57637632425565
 21
98.53235542122849
 31
0.0
 11
81.58724750741578
 21
98.45632117340734
 31
0.0
 11
81.60355396960387
 21
98.41830396096845
 31
0.0
 11
81.63616689398002
 21
98.36942486488931
 31
0.0
 11
81.66334453932819
 21
98.33683868279884
 31
0.0
 11
81.70682833431232
 21
98.29339061706811
 31
0.0
 11
81.72857038808059
 21
98.26623546532609
 31
0.0
 11
81.79923214096499
 21
98.23908049064057
 31
0.0
 11
81.83184506534132
 21
98.22762830070884
 31
0.0
  0
HATCH
  5
555
330
18
100
AcDbEntity
  8
ROGO
 62
     4
100
AcDbHatch
 10
0.0
 20
0.0
 30
0.0
210
0.0
220
0.0
230
1.0
  2
SOLID
 70
     1
 71
     1
 91
        1
 92
        5
 93
        8
 72
     1
 10
83.00704770856851
 20
98.85598090068853
 11
83.19269458328582
 21
99.22829307508358
 72
     1
 10
83.19269458328582
 20
99.22829307508358
 11
82.19058848368744
 21
99.22829307508358
 72
     4
 94
        3
 73
     0
 74
     0
 95
       26
 96
       22
 40
0.0
 40
0.0
 40
0.0
 40
0.0
 40
0.1815320543485053
 40
0.3030537083199962
 40
0.3906807171793024
 40
0.4561089693578315
 40
0.5409728463824015
 40
0.6029152034572501
 40
0.714768662850487
 40
0.8058157707230188
 40
0.867742392801297
 40
0.9284646163791247
 40
1.037084869234313
 40
1.113892352366038
 40
1.155259116207495
 40
1.21401938228823
 40
1.256451488881051
 40
1.317921602285561
 40
1.352708369427598
 40
1.428408276764845
 40
1.46297351205421
 40
1.46297351205421
 40
1.46297351205421
 40
1.46297351205421
 10
82.19058848368741
 20
99.22829307508358
 10
82.1289736996162
 20
99.22461703140761
 10
82.0261125885737
 20
99.21848016113452
 10
81.91317171438232
 20
99.14986979295841
 10
81.83042461802854
 20
99.10998273997634
 10
81.77140948926096
 20
99.0557596896005
 10
81.72815116064469
 20
98.99975123948101
 10
81.67361591653033
 20
98.93301758182843
 10
81.62914398330158
 20
98.85530893794237
 10
81.60649713133114
 20
98.7696604651875
 10
81.58643676479739
 20
98.7013981354536
 10
81.57155966114677
 20
98.62532867738089
 10
81.57534481748088
 20
98.54314690282642
 10
81.580765334584
 20
98.46682067788966
 10
81.6049666253537
 20
98.41233518088788
 10
81.63252760875316
 20
98.37354526157383
 10
81.66627565547983
 20
98.3308224658851
 10
81.70320339869093
 20
98.30252729664227
 10
81.7337456565785
 20
98.25126869616941
 10
81.78720884868747
 20
98.24472772906956
 10
81.82119218054415
 20
98.23170925232345
 10
81.83184506534132
 20
98.22762830070884
 72
     1
 10
81.83184506534137
 20
98.22762830070878
 11
82.69373080831881
 21
98.22762830070878
 72
     1
 10
82.69373080831881
 20
98.22762830070878
 11
82.87937571708644
 21
98.5999365324197
 72
     1
 10
82.87937571708644
 20
98.5999365324197
 11
82.23950787025177
 21
98.5999365324197
 72
     4
 94
        3
 73
     0
 74
     0
 95
       16
 96
       12
 40
0.0
 40
0.0
 40
0.0
 40
0.0
 40
0.0548221980867551
 40
0.1102098473221577
 40
0.1432460907511411
 40
0.174921048923576
 40
0.2097076778523846
 40
0.2340000650060201
 40
0.2570514321000279
 40
0.3037962950973969
 40
0.3995010334847652
 40
0.3995010334847652
 40
0.3995010334847652
 40
0.3995010334847652
 10
82.23950787025177
 20
98.5999365324197
 10
82.22020720106163
 20
98.60561507229411
 10
82.18140679029934
 20
98.61703072205664
 10
82.17815950923879
 20
98.67236959833348
 10
82.18258345988365
 20
98.71180307604555
 10
82.20111097506494
 20
98.74051295058679
 10
82.22358806453469
 20
98.7614031617813
 10
82.23195728183091
 20
98.78860939555009
 10
82.25655783355749
 20
98.80915350584224
 10
82.30018120335218
 20
98.84368528542134
 10
82.34842109869195
 20
98.85103978290924
 10
82.38083106346858
 20
98.85598090068851
 72
     1
 10
82.38083106346856
 20
98.8559809006885
 11
83.00704770856851
 21
98.85598090068853
 97
        8
330
56A
330
554
330
56E
330
569
330
567
330
568
330
566
330
565
 75
     0
 76
     1
 47
0.0514683685270805
 98
        1
 10
82.54106208904898
 20
99.00553336489963
450
        0
451
        0
460
0.0
461
0.0
452
        0
462
0.0
453
        0
470

  0
LINE
  5
556
102
{ACAD_REACTORS
330
4D5
102
}
330
18
100
AcDbEntity
  8
ROGO
 62
     4
100
AcDbLine
 10
79.92075720180299
 20
99.22829307508358
 30
0.0
 11
79.8073400660183
 21
98.99907062646503
 31
0.0
  0
LINE
  5
557
102
{ACAD_REACTORS
330
4D5
102
}
330
18
100
AcDbEntity
  8
ROGO
 62
     4
100
AcDbLine
 10
79.71866195969636
 20
98.81984715613709
 30
0.0
 11
79.62773086902837
 21
98.63607027697112
 31
0.0
  0
LINE
  5
558
102
{ACAD_REACTORS
330
4D5
102
}
330
18
100
AcDbEntity
  8
ROGO
 62
     4
100
AcDbLine
 10
79.5390490085017
 20
98.45683921918306
 30
0.0
 11
79.42563757772518
 21
98.22762830070878
 31
0.0
  0
LINE
  5
559
102
{ACAD_REACTORS
330
564
102
}
330
18
100
AcDbEntity
  8
ROGO
 62
     4
100
AcDbLine
 10
80.31282077058405
 20
99.22829307508358
 30
0.0
 11
79.59122195408935
 21
98.22762830070878
 31
0.0
  0
LINE
  5
55A
102
{ACAD_REACTORS
330
564
102
}
330
18
100
AcDbEntity
  8
ROGO
 62
     4
100
AcDbLine
 10
80.67412365013728
 20
98.9608113138923
 30
0.0
 11
80.42770629383239
 21
98.61909627416043
 31
0.0
  0
LINE
  5
55B
102
{ACAD_REACTORS
330
564
102
}
330
18
100
AcDbEntity
  8
ROGO
 62
     4
100
AcDbLine
 10
80.28279908007101
 20
98.41814868243893
 30
0.0
 11
80.91519589356527
 21
98.41814868243893
 31
0.0
  0
LINE
  5
55C
102
{ACAD_REACTORS
330
564
102
}
330
18
100
AcDbEntity
  8
ROGO
 62
     4
100
AcDbLine
 10
80.42770629383239
 20
98.61909627416054
 30
0.0
 11
80.82592701094847
 21
98.61909627416054
 31
0.0
  0
LINE
  5
55D
102
{ACAD_REACTORS
330
564
102
}
330
18
100
AcDbEntity
  8
ROGO
 62
     4
100
AcDbLine
 10
80.28279908007101
 20
98.41814868243893
 30
0.0
 11
80.14541113008505
 21
98.22762830070884
 31
0.0
  0
LINE
  5
55E
102
{ACAD_REACTORS
330
564
102
}
330
18
100
AcDbEntity
  8
ROGO
 62
     4
100
AcDbLine
 10
79.59122195408935
 20
98.22762830070878
 30
0.0
 11
80.14541113008494
 21
98.22762830070878
 31
0.0
  0
LINE
  5
55F
102
{ACAD_REACTORS
330
564
102
}
330
18
100
AcDbEntity
  8
ROGO
 62
     4
100
AcDbLine
 10
80.31282077058405
 20
99.22829307508358
 30
0.0
 11
81.11326689014811
 21
99.22829307508358
 31
0.0
  0
LINE
  5
560
102
{ACAD_REACTORS
330
564
102
}
330
18
100
AcDbEntity
  8
ROGO
 62
     4
100
AcDbLine
 10
81.5578018333997
 20
98.22762830070884
 30
0.0
 11
80.99983259633484
 21
98.22762830070878
 31
0.0
  0
LINE
  5
561
102
{ACAD_REACTORS
330
564
102
}
330
18
100
AcDbEntity
  8
ROGO
 62
     4
100
AcDbLine
 10
81.11326689014811
 20
99.22829307508358
 30
0.0
 11
81.5578018333997
 21
98.22762830070878
 31
0.0
  0
LINE
  5
562
102
{ACAD_REACTORS
330
564
102
}
330
18
100
AcDbEntity
  8
ROGO
 62
     4
100
AcDbLine
 10
80.67412365013735
 20
98.9608113138923
 30
0.0
 11
80.82592701094847
 21
98.61909627416043
 31
0.0
  0
LINE
  5
563
102
{ACAD_REACTORS
330
564
102
}
330
18
100
AcDbEntity
  8
ROGO
 62
     4
100
AcDbLine
 10
80.91519589356527
 20
98.41814868243893
 30
0.0
 11
80.99983259633484
 21
98.22762830070878
 31
0.0
  0
HATCH
  5
564
330
18
100
AcDbEntity
  8
ROGO
 62
     4
100
AcDbHatch
 10
0.0
 20
0.0
 30
0.0
210
0.0
220
0.0
230
1.0
  2
SOLID
 70
     1
 71
     1
 91
        2
 92
        7
 72
     0
 73
     1
 93
        8
 10
81.11326689014811
 20
99.22829307508358
 10
80.31282077058405
 20
99.22829307508358
 10
79.59122195408935
 20
98.22762830070878
 10
80.14541113008503
 20
98.22762830070878
 10
80.28279908007101
 20
98.41814868243893
 10
80.91519589356527
 20
98.41814868243893
 10
80.99983259633482
 20
98.22762830070878
 10
81.55780183339969
 20
98.22762830070882
 97
        8
330
55F
330
559
330
55E
330
55D
330
55B
330
563
330
560
330
561
 92
       22
 72
     0
 73
     1
 93
        3
 10
80.82592701094844
 20
98.61909627416055
 10
80.42770629383246
 20
98.61909627416052
 10
80.67412365013733
 20
98.96081131389236
 97
        3
330
55C
330
55A
330
562
 75
     0
 76
     1
 47
0.0128389261915577
 98
        2
 10
81.05058563423716
 20
98.98821953768004
 10
81.05058563423716
 20
98.98821953768004
450
        0
451
        0
460
0.0
461
0.0
452
        0
462
0.0
453
        0
470

  0
LINE
  5
565
102
{ACAD_REACTORS
330
555
102
}
330
18
100
AcDbEntity
  8
ROGO
 62
     4
100
AcDbLine
 10
83.1926945832858
 20
99.22829307508358
 30
0.0
 11
83.00704770856851
 21
98.85598090068851
 31
0.0
  0
LINE
  5
566
102
{ACAD_REACTORS
330
555
102
}
330
18
100
AcDbEntity
  8
ROGO
 62
     4
100
AcDbLine
 10
82.38083106346858
 20
98.85598090068851
 30
0.0
 11
83.00704770856851
 21
98.85598090068851
 31
0.0
  0
LINE
  5
567
102
{ACAD_REACTORS
330
555
102
}
330
18
100
AcDbEntity
  8
ROGO
 62
     4
100
AcDbLine
 10
82.23950787025177
 20
98.5999365324197
 30
0.0
 11
82.87937571708642
 21
98.5999365324197
 31
0.0
  0
SPLINE
  5
568
102
{ACAD_REACTORS
330
555
102
}
330
18
100
AcDbEntity
  8
ROGO
 62
     4
100
AcDbSpline
210
0.0
220
0.0
230
1.0
 70
     8
 71
     3
 72
    16
 73
    12
 74
    10
 42
0.0000000001
 43
0.0000000001
 44
0.0000000001
 40
0.0
 40
0.0
 40
0.0
 40
0.0
 40
0.0957047383873683
 40
0.1424496013847372
 40
0.1655009684787451
 40
0.1897933556323806
 40
0.2245799845611891
 40
0.256254942733624
 40
0.2892911861626075
 40
0.3446788353980101
 40
0.3995010334847652
 40
0.3995010334847652
 40
0.3995010334847652
 40
0.3995010334847652
 10
82.38083106346858
 20
98.85598090068851
 30
0.0
 10
82.34842109869195
 20
98.85103978290924
 30
0.0
 10
82.30018120335218
 20
98.84368528542134
 30
0.0
 10
82.25655783355749
 20
98.80915350584224
 30
0.0
 10
82.23195728183091
 20
98.78860939555009
 30
0.0
 10
82.22358806453469
 20
98.7614031617813
 30
0.0
 10
82.20111097506494
 20
98.74051295058679
 30
0.0
 10
82.18258345988365
 20
98.71180307604555
 30
0.0
 10
82.17815950923879
 20
98.67236959833348
 30
0.0
 10
82.18140679029934
 20
98.61703072205664
 30
0.0
 10
82.22020720106163
 20
98.60561507229411
 30
0.0
 10
82.23950787025177
 20
98.5999365324197
 30
0.0
 11
82.38083106346858
 21
98.85598090068851
 31
0.0
 11
82.28842756936803
 21
98.83106120510843
 31
0.0
 11
82.2503790534118
 21
98.80390623042291
 31
0.0
 11
82.23407259122371
 21
98.78761313937758
 31
0.0
 11
82.22320140806363
 21
98.76588901798402
 31
0.0
 11
82.20145935429542
 21
98.73873404329851
 31
0.0
 11
82.18515289210728
 21
98.71157889155648
 31
0.0
 11
82.17971730052727
 21
98.67899288652251
 31
0.0
 11
82.19058848368741
 21
98.62468258303852
 31
0.0
 11
82.23950787025177
 21
98.5999365324197
 31
0.0
  0
LINE
  5
569
102
{ACAD_REACTORS
330
555
102
}
330
18
100
AcDbEntity
  8
ROGO
 62
     4
100
AcDbLine
 10
82.87937571708642
 20
98.5999365324197
 30
0.0
 11
82.69373080831883
 21
98.22762830070878
 31
0.0
  0
LINE
  5
56A
102
{ACAD_REACTORS
330
555
102
}
330
18
100
AcDbEntity
  8
ROGO
 62
     4
100
AcDbLine
 10
82.19058848368769
 20
99.22829307508358
 30
0.0
 11
83.1926945832858
 21
99.22829307508358
 31
0.0
  0
SPLINE
  5
56B
102
{ACAD_REACTORS
330
552
102
}
330
18
100
AcDbEntity
  8
ROGO
 62
     4
100
AcDbSpline
210
0.0
220
0.0
230
1.0
 70
     8
 71
     3
 72
    38
 73
    34
 74
    32
 42
0.0000000001
 43
0.0000000001
 44
0.0000000001
 40
0.0
 40
0.0
 40
0.0
 40
0.0
 40
0.1377518814269403
 40
0.1810136836454759
 40
0.2366021580813189
 40
0.2829259774522072
 40
0.3220114216621721
 40
0.3739258113479615
 40
0.400452018397381
 40
0.430327490341427
 40
0.4743583140443541
 40
0.5242356829021452
 40
0.5565906436074935
 40
0.5917389852555234
 40
0.6308103713097882
 40
0.690103179468453
 40
0.7464375304839319
 40
0.7726270891267914
 40
0.8024927772748714
 40
0.8378737549607437
 40
0.8630604644926993
 40
0.8841741806523193
 40
0.9143197975364294
 40
0.9474446665781009
 40
0.9805693511859566
 40
1.009553496326227
 40
1.075932340706376
 40
1.102121899349253
 40
1.154501047744393
 40
1.200801884818927
 40
1.289441366201207
 40
1.398813308257271
 40
1.556762308284053
 40
1.556762308284053
 40
1.556762308284053
 40
1.556762308284053
 10
83.7483911201785
 20
99.23246691771112
 30
0.0
 10
83.70247428916703
 20
99.22922321726867
 30
0.0
 10
83.64213700276039
 20
99.22496081330262
 30
0.0
 10
83.56552275724325
 20
99.20397079420801
 30
0.0
 10
83.52375951697856
 20
99.17896492246791
 30
0.0
 10
83.48029651788692
 20
99.16058440813216
 30
0.0
 10
83.44324026321263
 20
99.13336651133871
 30
0.0
 10
83.40575864392606
 20
99.11934139134555
 30
0.0
 10
83.37951286672666
 20
99.09405159313743
 30
0.0
 10
83.3491355204463
 20
99.07860349286481
 30
0.0
 10
83.32494550026861
 20
99.04402615336138
 30
0.0
 10
83.29790791869617
 20
99.01169759390079
 30
0.0
 10
83.26654092262161
 20
98.98809918729362
 30
0.0
 10
83.24079760796999
 20
98.96331395606916
 30
0.0
 10
83.21718169635081
 20
98.92506289717488
 30
0.0
 10
83.20320474289244
 20
98.87423856658607
 30
0.0
 10
83.16380605715195
 20
98.84214991717289
 30
0.0
 10
83.15787384863941
 20
98.80356978602355
 30
0.0
 10
83.13608123409423
 20
98.78080815785381
 30
0.0
 10
83.12660504310773
 20
98.75142616587879
 30
0.0
 10
83.12299605344454
 20
98.72450707128486
 30
0.0
 10
83.11866440528516
 20
98.69936650041672
 30
0.0
 10
83.10733363405296
 20
98.67291973039854
 30
0.0
 10
83.11103203687679
 20
98.64025099978125
 30
0.0
 10
83.10997847294606
 20
98.60861678359661
 30
0.0
 10
83.11059849655604
 20
98.56590960668087
 30
0.0
 10
83.10836074547939
 20
98.52432891806566
 30
0.0
 10
83.12620593338698
 20
98.47907926663296
 30
0.0
 10
83.13676612337202
 20
98.43874546246537
 30
0.0
 10
83.16568692149351
 20
98.3828984195685
 30
0.0
 10
83.2155746921782
 20
98.31846300733809
 30
0.0
 10
83.31044046115156
 20
98.24025062524619
 30
0.0
 10
83.40165667165303
 20
98.23231634315263
 30
0.0
 10
83.45555259586564
 20
98.22762830070884
 30
0.0
 11
83.7483911201785
 21
99.23246691771112
 31
0.0
 11
83.61163855696771
 21
99.21590439097332
 31
0.0
 11
83.57019839616373
 21
99.20348277257085
 31
0.0
 11
83.52047039854392
 21
99.178639166898
 31
0.0
 11
83.47903023773989
 21
99.15793628512654
 31
0.0
 11
83.4458782393267
 21
99.13723321892121
 31
0.0
 11
83.4002941601148
 21
99.11238979768235
 31
0.0
 11
83.37957391692521
 21
99.09582745537841
 31
0.0
 11
83.35470975532786
 21
99.07926492864062
 31
0.0
 11
83.32570167532258
 21
99.04614024403281
 31
0.0
 11
83.29254967690934
 21
99.00887501995748
 31
0.0
 11
83.26768551531188
 21
98.98817195375222
 31
0.0
 11
83.24282167928947
 21
98.96332853251323
 31
0.0
 11
83.22210143609998
 21
98.93020384790538
 31
0.0
 11
83.19723760007764
 21
98.8763760970923
 31
0.0
 11
83.16408527608933
 21
98.83082960964806
 31
0.0
 11
83.15579743927356
 21
98.80598600397531
 31
0.0
 11
83.13922144006694
 21
98.78114258273626
 31
0.0
 11
83.12678935926829
 21
98.74801771369465
 31
0.0
 11
83.12264511528542
 21
98.72317429245567
 31
0.0
 11
83.11850119687751
 21
98.70247122625045
 31
0.0
 11
83.11021336006161
 21
98.67348726554395
 31
0.0
 11
83.11021336006161
 21
98.64036239650227
 31
0.0
 11
83.11021336006161
 21
98.60723771189441
 31
0.0
 11
83.11021336006161
 21
98.57825356675414
 31
0.0
 11
83.11435727846959
 21
98.51200419753849
 31
0.0
 11
83.12264511528542
 21
98.48716059186575
 31
0.0
 11
83.13922144006694
 21
98.43747356495391
 31
0.0
 11
83.15994135768153
 21
98.39606761697723
 31
0.0
 11
83.21381359928409
 21
98.32567770829399
 31
0.0
 11
83.30083783930012
 21
98.25942815464458
 31
0.0
 11
83.45555259586564
 21
98.22762830070884
 31
0.0
  0
LINE
  5
56C
102
{ACAD_REACTORS
330
552
102
}
330
18
100
AcDbEntity
  8
ROGO
 62
     4
100
AcDbLine
 10
83.45555259586564
 20
98.22762830070878
 30
0.0
 11
84.02742603358092
 21
98.22762830070878
 31
0.0
  0
ELLIPSE
  5
56D
102
{ACAD_REACTORS
330
552
102
}
330
18
100
AcDbEntity
  8
ROGO
 62
     4
100
AcDbEllipse
 10
83.87981076513643
 20
98.7160376254314
 30
0.0
 11
0.1358595110271534
 21
0.119471439333386
 31
0.0
210
0.0
220
0.0
230
1.0
 40
0.678808341743879
 41
0.0
 42
6.283185307179586
  0
LINE
  5
56E
102
{ACAD_REACTORS
330
555
102
}
330
18
100
AcDbEntity
  8
ROGO
 62
     4
100
AcDbLine
 10
81.83184506534121
 20
98.22762830070878
 30
0.0
 11
82.69373080831883
 21
98.22762830070878
 31
0.0
  0
LINE
  5
570
102
{ACAD_REACTORS
330
572
102
}
330
18
100
AcDbEntity
  8
ROGO
 62
     4
100
AcDbLine
 10
87.01632620200758
 20
98.4464894928733
 30
0.0
 11
87.40615871800271
 21
97.66468591066297
 31
0.0
  0
LINE
  5
571
102
{ACAD_REACTORS
330
572
102
}
330
18
100
AcDbEntity
  8
ROGO
 62
     4
100
AcDbLine
 10
86.62650629200943
 20
99.22829307508358
 30
0.0
 11
85.84684126001889
 21
97.66468591066297
 31
0.0
  0
HATCH
  5
572
330
18
100
AcDbEntity
  8
ROGO
 62
     4
100
AcDbHatch
 10
0.0
 20
0.0
 30
0.0
210
0.0
220
0.0
230
1.0
  2
SOLID
 70
     1
 71
     1
 91
        1
 92
        7
 72
     0
 73
     1
 93
       11
 10
85.84684126001887
 20
97.66468591066297
 10
86.42300490349441
 20
97.66468591066297
 10
86.62650629200941
 20
98.07280505926616
 10
86.83000768052448
 20
97.66468591066297
 10
87.40615871800269
 20
97.66468591066299
 10
87.01632620200756
 20
98.44648949287329
 10
87.96346841782318
 20
99.22829307508358
 10
87.38731738034477
 20
99.22829307508358
 10
87.11754637970255
 20
99.05757899118725
 10
87.2026699354849
 20
99.22829307508358
 10
86.62650629200944
 20
99.22829307508358
 97
       11
330
587
330
585
330
584
330
588
330
571
330
4D6
330
573
330
577
330
576
330
570
330
586
 75
     0
 76
     1
 47
0.0514683685270805
 98
        1
 10
86.57691960695599
 20
98.55747513172094
450
        0
451
        0
460
0.0
461
0.0
452
        0
462
0.0
453
        0
470

  0
LINE
  5
573
102
{ACAD_REACTORS
330
572
102
}
330
18
100
AcDbEntity
  8
ROGO
 62
     4
100
AcDbLine
 10
86.62650629200943
 20
98.07280505926616
 30
0.0
 11
86.42300490349441
 21
97.66468591066297
 31
0.0
  0
LINE
  5
576
102
{ACAD_REACTORS
330
572
102
}
330
18
100
AcDbEntity
  8
ROGO
 62
     4
100
AcDbLine
 10
86.83000768052449
 20
97.66468591066297
 30
0.0
 11
87.40615871800271
 21
97.66468591066297
 31
0.0
  0
LINE
  5
577
102
{ACAD_REACTORS
330
572
102
}
330
18
100
AcDbEntity
  8
ROGO
 62
     4
100
AcDbLine
 10
86.62650629200943
 20
98.07280505926616
 30
0.0
 11
86.83000768052449
 21
97.66468591066297
 31
0.0
  0
LINE
  5
578
102
{ACAD_REACTORS
330
580
102
}
330
18
100
AcDbEntity
  8
ROGO
 62
     4
100
AcDbLine
 10
85.05607597783603
 20
98.22762830070878
 30
0.0
 11
85.91796172081377
 21
98.22762830070878
 31
0.0
  0
LINE
  5
579
102
{ACAD_REACTORS
330
580
102
}
330
18
100
AcDbEntity
  8
ROGO
 62
     4
100
AcDbLine
 10
85.41481939618245
 20
99.22829307508358
 30
0.0
 11
86.41692549578067
 21
99.22829307508358
 31
0.0
  0
SPLINE
  5
57A
102
{ACAD_REACTORS
330
580
102
}
330
18
100
AcDbEntity
  8
ROGO
 62
     4
100
AcDbSpline
210
0.0
220
0.0
230
1.0
 70
     8
 71
     3
 72
    16
 73
    12
 74
    10
 42
0.0000000001
 43
0.0000000001
 44
0.0000000001
 40
0.0
 40
0.0
 40
0.0
 40
0.0
 40
0.0957047383873134
 40
0.1424496013846823
 40
0.1655009684787305
 40
0.1897933556323151
 40
0.2245799845611325
 40
0.2562549427335381
 40
0.2892911861624654
 40
0.3446788353979572
 40
0.3995010334846103
 40
0.3995010334846103
 40
0.3995010334846103
 40
0.3995010334846103
 10
85.60506197596334
 20
98.85598090068851
 30
0.0
 10
85.57265201118672
 20
98.85103978290926
 30
0.0
 10
85.52441211584698
 20
98.8436852854214
 30
0.0
 10
85.48078874605232
 20
98.80915350584217
 30
0.0
 10
85.45618819432567
 20
98.78860939555014
 30
0.0
 10
85.44781897702957
 20
98.76140316178126
 30
0.0
 10
85.42534188755992
 20
98.74051295058675
 30
0.0
 10
85.40681437237864
 20
98.71180307604552
 30
0.0
 10
85.40239042173382
 20
98.67236959833341
 30
0.0
 10
85.4056377027941
 20
98.61703072205656
 30
0.0
 10
85.44443811355646
 20
98.60561507229405
 30
0.0
 10
85.46373878274659
 20
98.5999365324197
 30
0.0
 11
85.60506197596334
 21
98.85598090068851
 31
0.0
 11
85.51265848186284
 21
98.83106120510843
 31
0.0
 11
85.47460996590661
 21
98.80390623042291
 31
0.0
 11
85.45830350371847
 21
98.78761313937758
 31
0.0
 11
85.4474323205585
 21
98.76588901798402
 31
0.0
 11
85.42569026679036
 21
98.73873404329845
 31
0.0
 11
85.40938380460227
 21
98.71157889155643
 31
0.0
 11
85.40394821302227
 21
98.67899288652251
 31
0.0
 11
85.41481939618227
 21
98.62468258303842
 31
0.0
 11
85.46373878274659
 21
98.5999365324197
 31
0.0
  0
SPLINE
  5
57B
102
{ACAD_REACTORS
330
580
102
}
330
18
100
AcDbEntity
  8
ROGO
 62
     4
100
AcDbSpline
210
0.0
220
0.0
230
1.0
 70
     8
 71
     3
 72
    26
 73
    22
 74
    20
 42
0.0000000001
 43
0.0000000001
 44
0.0000000001
 40
0.0
 40
0.0
 40
0.0
 40
0.0
 40
0.1815320543484491
 40
0.3030537083199909
 40
0.3906807171792971
 40
0.4561089693578263
 40
0.5409728463824398
 40
0.6029152034572436
 40
0.7147686628505081
 40
0.8058157707231654
 40
0.867742392801334
 40
0.9284646163791412
 40
1.03708486923433
 40
1.113892352366038
 40
1.155259116207496
 40
1.214019382288231
 40
1.256451488881088
 40
1.317921602285679
 40
1.35270836942768
 40
1.428408276764927
 40
1.462973512054238
 40
1.462973512054238
 40
1.462973512054238
 40
1.462973512054238
 10
85.41481939618227
 20
99.22829307508358
 30
0.0
 10
85.3532046121111
 20
99.22461703140761
 30
0.0
 10
85.25034350106862
 20
99.2184801611345
 30
0.0
 10
85.13740262687718
 20
99.14986979295845
 30
0.0
 10
85.0546555305234
 20
99.10998273997632
 30
0.0
 10
84.99564040175583
 20
99.0557596896005
 30
0.0
 10
84.95238207313963
 20
98.99975123948093
 30
0.0
 10
84.89784682902518
 20
98.93301758182841
 30
0.0
 10
84.8533748957964
 20
98.85530893794237
 30
0.0
 10
84.83072804382596
 20
98.76966046518743
 30
0.0
 10
84.81066767729208
 20
98.7013981354536
 30
0.0
 10
84.79579057364173
 20
98.62532867738085
 30
0.0
 10
84.79957572997578
 20
98.54314690282642
 30
0.0
 10
84.80499624707876
 20
98.46682067788965
 30
0.0
 10
84.82919753784846
 20
98.4123351808879
 30
0.0
 10
84.85675852124789
 20
98.37354526157382
 30
0.0
 10
84.89050656797472
 20
98.3308224658851
 30
0.0
 10
84.92743431118583
 20
98.30252729664231
 30
0.0
 10
84.95797656907337
 20
98.25126869616937
 30
0.0
 10
85.01143976118235
 20
98.24472772906959
 30
0.0
 10
85.045423093039
 20
98.23170925232346
 30
0.0
 10
85.05607597783614
 20
98.22762830070884
 30
0.0
 11
85.41481939618227
 21
99.22829307508358
 31
0.0
 11
85.23544768700919
 21
99.20037038351757
 31
0.0
 11
85.12673741816854
 21
99.14606025709003
 31
0.0
 11
85.05064038625608
 21
99.1026121913593
 31
0.0
 11
85.00172099969171
 21
99.059163948572
 31
0.0
 11
84.94736602154745
 21
98.99399176144754
 31
0.0
 11
84.90931750559111
 21
98.94511266536852
 31
0.0
 11
84.85496221489484
 21
98.84735429615359
 31
0.0
 11
84.82778488209863
 21
98.76045798763556
 31
0.0
 11
84.81147841991054
 21
98.70071683085967
 31
0.0
 11
84.80060723675052
 21
98.64097567408368
 31
0.0
 11
84.80060723675052
 21
98.53235542122849
 31
0.0
 11
84.81147841991054
 21
98.45632117340734
 31
0.0
 11
84.82778488209863
 21
98.41830396096845
 31
0.0
 11
84.86039780647478
 21
98.36942486488931
 31
0.0
 11
84.887575451823
 21
98.33683868279884
 31
0.0
 11
84.93105924680724
 21
98.29339061706811
 31
0.0
 11
84.95280130057546
 21
98.26623546532609
 31
0.0
 11
85.02346305345986
 21
98.23908049064057
 31
0.0
 11
85.05607597783614
 21
98.22762830070884
 31
0.0
  0
LINE
  5
57C
102
{ACAD_REACTORS
330
580
102
}
330
18
100
AcDbEntity
  8
ROGO
 62
     4
100
AcDbLine
 10
86.10360662958129
 20
98.5999365324197
 30
0.0
 11
85.91796172081371
 21
98.22762830070878
 31
0.0
  0
LINE
  5
57D
102
{ACAD_REACTORS
330
580
102
}
330
18
100
AcDbEntity
  8
ROGO
 62
     4
100
AcDbLine
 10
85.46373878274659
 20
98.5999365324197
 30
0.0
 11
86.10360662958129
 21
98.5999365324197
 31
0.0
  0
LINE
  5
57E
102
{ACAD_REACTORS
330
580
102
}
330
18
100
AcDbEntity
  8
ROGO
 62
     4
100
AcDbLine
 10
85.60506197596334
 20
98.85598090068851
 30
0.0
 11
86.23127862106338
 21
98.85598090068851
 31
0.0
  0
LINE
  5
57F
102
{ACAD_REACTORS
330
580
102
}
330
18
100
AcDbEntity
  8
ROGO
 62
     4
100
AcDbLine
 10
86.41692549578067
 20
99.22829307508358
 30
0.0
 11
86.23127862106338
 21
98.85598090068851
 31
0.0
  0
HATCH
  5
580
330
18
100
AcDbEntity
  8
ROGO
 62
     4
100
AcDbHatch
 10
0.0
 20
0.0
 30
0.0
210
0.0
220
0.0
230
1.0
  2
SOLID
 70
     1
 71
     1
 91
        1
 92
        5
 93
        8
 72
     4
 94
        3
 73
     0
 74
     0
 95
       26
 96
       22
 40
0.0
 40
0.0
 40
0.0
 40
0.0
 40
0.1815320543484491
 40
0.3030537083199909
 40
0.3906807171792971
 40
0.4561089693578263
 40
0.5409728463824398
 40
0.6029152034572436
 40
0.7147686628505081
 40
0.8058157707231654
 40
0.867742392801334
 40
0.9284646163791412
 40
1.03708486923433
 40
1.113892352366038
 40
1.155259116207496
 40
1.214019382288231
 40
1.256451488881088
 40
1.317921602285679
 40
1.35270836942768
 40
1.428408276764927
 40
1.462973512054238
 40
1.462973512054238
 40
1.462973512054238
 40
1.462973512054238
 10
85.41481939618227
 20
99.22829307508358
 10
85.3532046121111
 20
99.22461703140761
 10
85.25034350106862
 20
99.2184801611345
 10
85.13740262687718
 20
99.14986979295845
 10
85.0546555305234
 20
99.10998273997632
 10
84.99564040175583
 20
99.0557596896005
 10
84.95238207313963
 20
98.99975123948093
 10
84.89784682902518
 20
98.93301758182841
 10
84.8533748957964
 20
98.85530893794237
 10
84.83072804382596
 20
98.76966046518743
 10
84.81066767729208
 20
98.7013981354536
 10
84.79579057364173
 20
98.62532867738085
 10
84.79957572997578
 20
98.54314690282642
 10
84.80499624707876
 20
98.46682067788965
 10
84.82919753784846
 20
98.4123351808879
 10
84.85675852124789
 20
98.37354526157382
 10
84.89050656797472
 20
98.3308224658851
 10
84.92743431118583
 20
98.30252729664231
 10
84.95797656907337
 20
98.25126869616937
 10
85.01143976118235
 20
98.24472772906959
 10
85.045423093039
 20
98.23170925232346
 10
85.05607597783614
 20
98.22762830070884
 72
     1
 10
85.05607597783617
 20
98.22762830070878
 11
85.91796172081371
 21
98.22762830070878
 72
     1
 10
85.91796172081371
 20
98.22762830070878
 11
86.10360662958129
 21
98.5999365324197
 72
     1
 10
86.10360662958129
 20
98.5999365324197
 11
85.46373878274659
 21
98.5999365324197
 72
     4
 94
        3
 73
     0
 74
     0
 95
       16
 96
       12
 40
0.0
 40
0.0
 40
0.0
 40
0.0
 40
0.0548221980866531
 40
0.1102098473221448
 40
0.1432460907510722
 40
0.1749210489234778
 40
0.2097076778522952
 40
0.2340000650058798
 40
0.2570514320999279
 40
0.3037962950972969
 40
0.3995010334846103
 40
0.3995010334846103
 40
0.3995010334846103
 40
0.3995010334846103
 10
85.46373878274659
 20
98.5999365324197
 10
85.44443811355646
 20
98.60561507229405
 10
85.4056377027941
 20
98.61703072205656
 10
85.40239042173382
 20
98.67236959833341
 10
85.40681437237864
 20
98.71180307604552
 10
85.42534188755992
 20
98.74051295058675
 10
85.44781897702957
 20
98.76140316178126
 10
85.45618819432567
 20
98.78860939555014
 10
85.48078874605232
 20
98.80915350584217
 10
85.52441211584698
 20
98.8436852854214
 10
85.57265201118672
 20
98.85103978290926
 10
85.60506197596334
 20
98.85598090068851
 72
     1
 10
85.6050619759633
 20
98.8559809006885
 11
86.23127862106336
 21
98.85598090068851
 72
     1
 10
86.23127862106336
 20
98.85598090068851
 11
86.41692549578065
 21
99.22829307508358
 72
     1
 10
86.41692549578065
 20
99.22829307508358
 11
85.41481939618231
 21
99.22829307508358
 97
        8
330
579
330
57B
330
578
330
57C
330
57D
330
57A
330
57E
330
57F
 75
     0
 76
     1
 47
0.0514683685270805
 98
        1
 10
85.58773883050617
 20
99.04506795133881
450
        0
451
        0
460
0.0
461
0.0
452
        0
462
0.0
453
        0
470

  0
SPLINE
  5
581
102
{ACAD_REACTORS
330
552
102
}
330
18
100
AcDbEntity
  8
ROGO
 62
     4
100
AcDbSpline
210
0.0
220
0.0
230
1.0
 70
     8
 71
     3
 72
    25
 73
    21
 74
     0
 42
0.0000000001
 43
0.0000000001
 40
0.0
 40
0.0
 40
0.0
 40
0.0
 40
0.4087168505087288
 40
0.6887487002771746
 40
0.9415836120477687
 40
1.17452070575514
 40
1.41154617586699
 40
1.599156012919487
 40
1.80099909059943
 40
2.178735911501585
 40
2.521686161369157
 40
2.762704659361267
 40
3.06256558063785
 40
3.222432137207705
 40
3.399493810628493
 40
3.567459719866414
 40
3.743172740007509
 40
3.995988754699505
 40
4.17170091132118
 40
4.337226830236035
 40
4.337226830236035
 40
4.337226830236035
 40
4.337226830236035
 10
84.32026455789383
 20
99.23246691771112
 30
0.0
 10
84.3577720481241
 20
99.23126184073403
 30
0.0
 10
84.42097774936826
 20
99.22923110674156
 30
0.0
 10
84.48883686718437
 20
99.17619129533983
 30
0.0
 10
84.5407606995929
 20
99.13221722788069
 30
0.0
 10
84.57761688034111
 20
99.07905463942576
 30
0.0
 10
84.60992235540841
 20
99.0301744712586
 30
0.0
 10
84.63120921417994
 20
98.97856826043579
 30
0.0
 10
84.66016354781244
 20
98.91664553364837
 30
0.0
 10
84.67214921150917
 20
98.8338021249703
 30
0.0
 10
84.66405147052388
 20
98.74817581835566
 30
0.0
 10
84.64292014748242
 20
98.67227597381811
 30
0.0
 10
84.62075508858589
 20
98.61404739603649
 30
0.0
 10
84.5946309282387
 20
98.56335580669338
 30
0.0
 10
84.56348759080844
 20
98.5305329986615
 30
0.0
 10
84.54188159500631
 20
98.48879911822223
 30
0.0
 10
84.50037924088121
 20
98.45466304462348
 30
0.0
 10
84.46673519392687
 20
98.4125439209658
 30
0.0
 10
84.42855620736464
 20
98.37639262923715
 30
0.0
 10
84.40703072550281
 20
98.35408771789957
 30
0.0
 10
84.39568197236525
 20
98.34470952599776
 30
0.0
  0
SPLINE
  5
582
102
{ACAD_REACTORS
330
552
102
}
330
18
100
AcDbEntity
  8
ROGO
 62
     4
100
AcDbSpline
210
0.0
220
0.0
230
1.0
 70
     8
 71
     3
 72
     9
 73
     5
 74
     3
 42
0.0000000001
 43
0.0000000001
 44
0.0000000001
 40
0.0
 40
0.0
 40
0.0
 40
0.0
 40
0.0865516336707051
 40
0.2029257078463241
 40
0.2029257078463241
 40
0.2029257078463241
 40
0.2029257078463241
 10
84.21794854027149
 20
98.24993803092866
 30
0.0
 10
84.24575142915328
 20
98.25844414468706
 30
0.0
 10
84.3109370376419
 20
98.27838725936029
 30
0.0
 10
84.36479528256844
 20
98.32053728156875
 30
0.0
 10
84.39568197236525
 20
98.34470952599776
 30
0.0
 11
84.21794854027149
 21
98.24993803092866
 31
0.0
 11
84.29929655214085
 21
98.27949621517554
 31
0.0
 11
84.39568197236525
 21
98.34470952599776
 31
0.0
  0
POINT
  5
583
330
18
100
AcDbEntity
  8
DEFPOINTS
  6
ByBlock
 62
     0
100
AcDbPoint
 10
87.96346841782321
 20
99.22829307508358
 30
0.0
  0
LINE
  5
584
102
{ACAD_REACTORS
330
572
102
}
330
18
100
AcDbEntity
  8
ROGO
 62
     4
100
AcDbLine
 10
87.2026699354849
 20
99.22829307508358
 30
0.0
 11
87.11754637970257
 21
99.05757899118725
 31
0.0
  0
LINE
  5
585
102
{ACAD_REACTORS
330
572
102
}
330
18
100
AcDbEntity
  8
ROGO
 62
     4
100
AcDbLine
 10
87.11754637970257
 20
99.05757899118725
 30
0.0
 11
87.38731738034477
 21
99.22829307508358
 31
0.0
  0
LINE
  5
586
102
{ACAD_REACTORS
330
572
102
}
330
18
100
AcDbEntity
  8
ROGO
 62
     4
100
AcDbLine
 10
87.01632620200758
 20
98.4464894928733
 30
0.0
 11
87.96346841782321
 21
99.22829307508358
 31
0.0
  0
LINE
  5
587
102
{ACAD_REACTORS
330
572
102
}
330
18
100
AcDbEntity
  8
ROGO
 62
     4
100
AcDbLine
 10
87.38731738034477
 20
99.22829307508358
 30
0.0
 11
87.96346841782321
 21
99.22829307508358
 31
0.0
  0
LINE
  5
588
102
{ACAD_REACTORS
330
572
102
}
330
18
100
AcDbEntity
  8
ROGO
 62
     4
100
AcDbLine
 10
86.62650629200943
 20
99.22829307508358
 30
0.0
 11
87.2026699354849
 21
99.22829307508358
 31
0.0
  0
TEXT
  5
58D
330
18
100
AcDbEntity
  8
文字
100
AcDbText
 10
93.05888054448677
 20
98.61635540641282
 30
0.0
 40
2.0
  1
40
  7
STYLE3
100
AcDbText
  0
LINE
  5
592
330
18
100
AcDbEntity
  8
外形線
100
AcDbLine
 10
102.6401139833923
 20
101.8446029347715
 30
0.0
 11
99.2593735913806
 21
102.7504695926303
 31
0.0
  0
LINE
  5
593
330
18
100
AcDbEntity
  8
外形線
100
AcDbLine
 10
101.0293489882272
 20
97.6484166600755
 30
0.0
 11
98.80183267775635
 21
98.78339290942438
 31
0.0
  0
LINE
  5
594
330
18
100
AcDbEntity
  8
外形線
100
AcDbLine
 10
102.3204238185231
 20
100.7653470254143
 30
0.0
 11
99.94278252778526
 21
101.5378895113516
 31
0.0
  0
LINE
  5
595
330
18
100
AcDbEntity
  8
外形線
100
AcDbLine
 10
101.9446878878672
 20
99.70430148925187
 30
0.0
 11
99.61073682162419
 21
100.6002213631151
 31
0.0
  0
LINE
  5
596
330
18
100
AcDbEntity
  8
外形線
100
AcDbLine
 10
101.5139360574932
 20
98.66437457834601
 30
0.0
 11
99.23007241338678
 21
99.68121618603561
 31
0.0
  0
LINE
  5
597
330
18
100
AcDbEntity
  8
外形線
100
AcDbLine
 10
103.3727087181773
 20
107.4092124044758
 30
0.0
 11
99.87270871817736
 21
107.4092124044758
 31
0.0
  0
LINE
  5
598
330
18
100
AcDbEntity
  8
外形線
100
AcDbLine
 10
103.3432437154007
 20
106.2839893452525
 30
0.0
 11
100.8466698785142
 21
106.4148292358598
 31
0.0
  0
LINE
  5
599
330
18
100
AcDbEntity
  8
外形線
100
AcDbLine
 10
103.2549294685952
 20
105.1618504442213
 30
0.0
 11
100.7686247301745
 21
105.4231716023904
 31
0.0
  0
LINE
  5
59A
330
18
100
AcDbEntity
  8
外形線
100
AcDbLine
 10
103.1080080409728
 20
104.0458714061109
 30
0.0
 11
100.6387871894849
 21
104.4369575687115
 31
0.0
  0
LINE
  5
59B
330
18
100
AcDbEntity
  8
外形線
100
AcDbLine
 10
102.9028821339541
 20
102.939111051894
 30
0.0
 11
100.4575131321197
 21
103.4588902789385
 31
0.0
  0
LINE
  5
59C
330
18
100
AcDbEntity
  8
外形線
100
AcDbLine
 10
103.3432437154007
 20
108.534435463699
 30
0.0
 11
100.8466698785142
 21
108.4035955730917
 31
0.0
  0
LINE
  5
59E
102
{ACAD_REACTORS
330
5A0
102
}
330
18
100
AcDbEntity
  8
外形線
100
AcDbLine
 10
80.12408354913004
 20
114.1925457378093
 30
0.0
 11
79.12408354912997
 21
114.1925457378093
 31
0.0
  0
LINE
  5
59F
102
{ACAD_REACTORS
330
5A0
102
}
330
18
100
AcDbEntity
  8
外形線
100
AcDbLine
 10
80.12408354913004
 20
114.5258790711425
 30
0.0
 11
79.12408354912997
 21
114.5258790711425
 31
0.0
  0
HATCH
  5
5A0
330
18
100
AcDbEntity
  8
外形線
100
AcDbHatch
 10
0.0
 20
0.0
 30
0.0
210
0.0
220
0.0
230
1.0
  2
SOLID
 70
     1
 71
     1
 91
        2
 92
        1
 93
        4
 72
     1
 10
81.45741688246335
 20
113.6092124044759
 11
81.29075021579671
 21
113.6092124044759
 72
     1
 10
81.29075021579671
 20
113.6092124044759
 11
81.29075021579671
 21
115.1092124044759
 72
     1
 10
81.29075021579671
 20
115.1092124044759
 11
81.45741688246335
 21
115.1092124044759
 72
     1
 10
81.45741688246335
 20
115.1092124044759
 11
81.45741688246335
 21
113.6092124044759
 97
        4
330
5D0
330
5D2
330
5D1
330
5D3
 92
        1
 93
        7
 72
     1
 10
80.12408354913004
 20
114.1925457378093
 11
80.12408354913004
 21
113.9345804644986
 72
     1
 10
80.12408354912997
 20
113.9345804644986
 11
81.29075021579671
 21
114.3592124044759
 72
     1
 10
81.29075021579671
 20
114.3592124044759
 11
80.12408354912997
 21
114.7838443444531
 72
     1
 10
80.12408354913004
 20
114.7838443444531
 11
80.12408354913004
 21
114.5258790711426
 72
     1
 10
80.12408354913004
 20
114.5258790711425
 11
79.12408354912997
 21
114.5258790711425
 72
     1
 10
79.12408354912997
 20
114.5258790711425
 11
79.12408354912997
 21
114.1925457378093
 72
     1
 10
79.12408354912997
 20
114.1925457378093
 11
80.12408354913004
 21
114.1925457378093
 97
        7
330
5D4
330
5D6
330
5D7
330
5D5
330
59F
330
5B5
330
59E
 75
     0
 76
     1
 98
        1
 10
447.4594719860601
 20
-123.4007006493626
450
        0
451
        0
460
0.0
461
0.0
452
        0
462
0.0
453
        0
470

  0
TEXT
  5
5A1
330
18
100
AcDbEntity
  8
文字
100
AcDbText
 10
77.07127432407799
 20
111.3827649066974
 30
0.0
 40
1.5
  1
0.01mm
  7
STYLE3
100
AcDbText
  0
LINE
  5
5A2
330
18
100
AcDbEntity
  8
外形線
100
AcDbLine
 10
60.49048796775946
 20
109.6565743647302
 30
0.0
 11
62.97679270618028
 21
109.3952532065612
 31
0.0
  0
LINE
  5
5A3
330
18
100
AcDbEntity
  8
外形線
100
AcDbLine
 10
60.63740939538189
 20
110.7725534028408
 30
0.0
 11
63.10663024686977
 21
110.3814672402402
 31
0.0
  0
LINE
  5
5A4
330
18
100
AcDbEntity
  8
外形線
100
AcDbLine
 10
60.84253530240056
 20
111.8793137570576
 30
0.0
 11
63.28790430423509
 21
111.3595345300132
 31
0.0
  0
LINE
  5
5A5
330
18
100
AcDbEntity
  8
外形線
100
AcDbLine
 10
61.1053034529624
 20
112.97382187418
 30
0.0
 11
64.48604384497418
 21
112.0679552163211
 31
0.0
  0
LINE
  5
5A6
330
18
100
AcDbEntity
  8
外形線
100
AcDbLine
 10
67.48640068146198
 20
123.3868261522398
 30
0.0
 11
69.15922719735914
 21
121.5289640885463
 31
0.0
  0
LINE
  5
5A7
330
18
100
AcDbEntity
  8
外形線
100
AcDbLine
 10
66.66991292266658
 20
122.6120081999866
 30
0.0
 11
69.14478665681952
 21
120.1371344658337
 31
0.0
  0
LINE
  5
5A8
330
18
100
AcDbEntity
  8
外形線
100
AcDbLine
 10
71.12270871817736
 20
126.0287585858412
 30
0.0
 11
72.87270871817736
 21
122.9976696725956
 31
0.0
  0
LINE
  5
5A9
330
18
100
AcDbEntity
  8
外形線
100
AcDbLine
 10
68.34232031060588
 20
124.1178505758006
 30
0.0
 11
69.91562128823057
 21
122.1749856721582
 31
0.0
  0
LINE
  5
5AA
330
18
100
AcDbEntity
  8
外形線
100
AcDbLine
 10
69.23532579388922
 20
124.8030777835372
 30
0.0
 11
70.70478892462052
 21
122.7805352975998
 31
0.0
  0
TEXT
  5
5AB
330
18
100
AcDbEntity
  8
文字
100
AcDbText
 10
67.23105352088021
 20
115.0740213978772
 30
0.0
 40
2.0
  1
20
  7
STYLE3
100
AcDbText
  0
LINE
  5
5AC
330
18
100
AcDbEntity
  8
外形線
100
AcDbLine
 10
62.23148137886147
 20
116.1540502306055
 30
0.0
 11
64.51534502296801
 21
115.137208622916
 31
0.0
  0
LINE
  5
5AD
330
18
100
AcDbEntity
  8
外形線
100
AcDbLine
 10
61.42499361783155
 20
114.0530777835372
 30
0.0
 11
63.80263490856953
 21
113.2805352975998
 31
0.0
  0
LINE
  5
5AE
330
18
100
AcDbEntity
  8
外形線
100
AcDbLine
 10
61.80072954848748
 20
115.1141233196997
 30
0.0
 11
64.1346806147306
 21
114.2182034458365
 31
0.0
  0
LINE
  5
5AF
330
18
100
AcDbEntity
  8
外形線
100
AcDbLine
 10
63.84129150735077
 20
119.1189516572989
 30
0.0
 11
65.93796792721434
 21
117.7573540697614
 31
0.0
  0
LINE
  5
5B0
330
18
100
AcDbEntity
  8
外形線
100
AcDbLine
 10
64.47884333911599
 20
120.0465953287639
 30
0.0
 11
66.50138582505338
 21
118.5771321980328
 31
0.0
  0
LINE
  5
5B1
330
18
100
AcDbEntity
  8
外形線
100
AcDbLine
 10
65.16407054685254
 20
120.9396008120474
 30
0.0
 11
67.10693545049491
 21
119.3662998344227
 31
0.0
  0
LINE
  5
5B2
330
18
100
AcDbEntity
  8
外形線
100
AcDbLine
 10
63.25316253681194
 20
118.1592124044758
 30
0.0
 11
66.28425145005746
 21
116.4092124044758
 31
0.0
  0
LINE
  5
5B3
330
18
100
AcDbEntity
  8
外形線
100
AcDbLine
 10
62.71606844812743
 20
117.170008148876
 30
0.0
 11
64.94358475859837
 21
116.0350318995271
 31
0.0
  0
LINE
  5
5B4
330
18
100
AcDbEntity
  8
外形線
100
AcDbLine
 10
65.89509497041337
 20
121.7955204411912
 30
0.0
 11
67.75295703410683
 21
120.122693925294
 31
0.0
  0
LINE
  5
5B5
102
{ACAD_REACTORS
330
5A0
102
}
330
18
100
AcDbEntity
  8
外形線
100
AcDbLine
 10
79.12408354912997
 20
114.5258790711425
 30
0.0
 11
79.12408354912997
 21
114.1925457378093
 31
0.0
  0
TEXT
  5
5B6
330
18
100
AcDbEntity
  8
文字
100
AcDbText
 10
72.60020532187081
 20
120.3238315494001
 30
0.0
 40
2.0
  1
10
  7
STYLE3
100
AcDbText
  0
LINE
  5
5B7
330
18
100
AcDbEntity
  8
外形線
100
AcDbLine
 10
70.16296946535425
 20
125.4406296153024
 30
0.0
 11
71.52456705289182
 21
123.3439531954388
 31
0.0
  0
LINE
  5
5B8
330
18
100
AcDbEntity
  8
外形線
100
AcDbLine
 10
74.16779780295343
 20
127.4811915741656
 30
0.0
 11
75.06371767681668
 21
125.1472405079226
 31
0.0
  0
LINE
  5
5B9
330
18
100
AcDbEntity
  8
外形線
100
AcDbLine
 10
72.11191297377706
 20
126.5658526745256
 30
0.0
 11
73.246889223126
 21
124.3383363640548
 31
0.0
  0
LINE
  5
5BA
330
18
100
AcDbEntity
  8
外形線
100
AcDbLine
 10
73.12787089204761
 20
127.0504397437917
 30
0.0
 11
74.14471249973718
 21
124.7665760996851
 31
0.0
  0
LINE
  5
5BB
330
18
100
AcDbEntity
  8
外形線
100
AcDbLine
 10
78.50936771981242
 20
128.6445117272712
 30
0.0
 11
78.90045388241304
 21
126.1752908757834
 31
0.0
  0
LINE
  5
5BC
330
18
100
AcDbEntity
  8
外形線
100
AcDbLine
 10
77.40260736559554
 20
128.4393858202526
 30
0.0
 11
77.92238659264
 21
125.9940168184181
 31
0.0
  0
LINE
  5
5BD
330
18
100
AcDbEntity
  8
外形線
100
AcDbLine
 10
75.22884333911594
 20
127.8569275048215
 30
0.0
 11
76.00138582505332
 21
125.4792862140837
 31
0.0
  0
LINE
  5
5BE
330
18
100
AcDbEntity
  8
外形線
100
AcDbLine
 10
76.30809924847318
 20
128.1766176696907
 30
0.0
 11
77.21396590633196
 21
124.795877277679
 31
0.0
  0
LINE
  5
5C0
330
18
100
AcDbEntity
  8
外形線
100
AcDbLine
 10
100.4922548995428
 20
118.1592124044758
 30
0.0
 11
97.46116598629726
 21
116.4092124044758
 31
0.0
  0
LINE
  5
5C1
330
18
100
AcDbEntity
  8
外形線
100
AcDbLine
 10
98.58134688950219
 20
120.9396008120473
 30
0.0
 11
96.63848198585981
 21
119.3662998344227
 31
0.0
  0
LINE
  5
5C2
330
18
100
AcDbEntity
  8
外形線
100
AcDbLine
 10
99.26657409723873
 20
120.0465953287639
 30
0.0
 11
97.24403161130135
 21
118.5771321980328
 31
0.0
  0
LINE
  5
5C3
330
18
100
AcDbEntity
  8
外形線
100
AcDbLine
 10
99.90412592900396
 20
119.1189516572989
 30
0.0
 11
97.80744950914039
 21
117.7573540697614
 31
0.0
  0
TEXT
  5
5C6
330
18
100
AcDbEntity
  8
文字
100
AcDbText
 10
80.88435913383557
 20
122.3658817383121
 30
0.0
 40
2.0
  1
0
  7
STYLE3
100
AcDbText
  0
LINE
  5
5C7
330
18
100
AcDbEntity
  8
外形線
100
AcDbLine
 10
97.07550451368815
 20
122.6120081999866
 30
0.0
 11
94.6006307795352
 21
120.1371344658337
 31
0.0
  0
LINE
  5
5C8
330
18
100
AcDbEntity
  8
外形線
100
AcDbLine
 10
92.62270871817742
 20
126.0287585858412
 30
0.0
 11
90.87270871817736
 21
122.9976696725956
 31
0.0
  0
LINE
  5
5C9
330
18
100
AcDbEntity
  8
外形線
100
AcDbLine
 10
94.51009164246546
 20
124.8030777835372
 30
0.0
 11
93.04062851173421
 21
122.7805352975998
 31
0.0
  0
LINE
  5
5CA
330
18
100
AcDbEntity
  8
外形線
100
AcDbLine
 10
95.40309712574885
 20
124.1178505758007
 30
0.0
 11
93.82979614812416
 21
122.1749856721582
 31
0.0
  0
LINE
  5
5CB
330
18
100
AcDbEntity
  8
外形線
100
AcDbLine
 10
96.25901675489274
 20
123.3868261522398
 30
0.0
 11
94.58619023899558
 21
121.5289640885463
 31
0.0
  0
TEXT
  5
5CC
330
18
100
AcDbEntity
  8
文字
100
AcDbText
 10
87.85814958489266
 20
119.5989543570174
 30
0.0
 40
2.0
  1
10
  7
STYLE3
100
AcDbText
  0
LINE
  5
5CD
102
{ACAD_REACTORS
330
5CF
102
}
330
18
100
AcDbEntity
  8
外形線
100
AcDbLine
 10
83.62408354912991
 20
114.5258790711425
 30
0.0
 11
84.62408354912998
 21
114.5258790711425
 31
0.0
  0
LINE
  5
5CE
102
{ACAD_REACTORS
330
5CF
102
}
330
18
100
AcDbEntity
  8
外形線
100
AcDbLine
 10
83.62408354912991
 20
114.1925457378093
 30
0.0
 11
84.62408354912998
 21
114.1925457378093
 31
0.0
  0
HATCH
  5
5CF
330
18
100
AcDbEntity
  8
外形線
100
AcDbHatch
 10
0.0
 20
0.0
 30
0.0
210
0.0
220
0.0
230
1.0
  2
SOLID
 70
     1
 71
     1
 91
        2
 92
        1
 93
        4
 72
     1
 10
82.2907502157966
 20
113.6092124044759
 11
82.45741688246324
 21
113.6092124044759
 72
     1
 10
82.45741688246324
 20
113.6092124044759
 11
82.45741688246324
 21
115.1092124044759
 72
     1
 10
82.45741688246324
 20
115.1092124044759
 11
82.2907502157966
 21
115.1092124044759
 72
     1
 10
82.2907502157966
 20
115.1092124044759
 11
82.2907502157966
 21
113.6092124044759
 97
        4
330
5DE
330
5DD
330
5DC
330
5DF
 92
        1
 93
        7
 72
     1
 10
83.62408354912991
 20
114.1925457378093
 11
83.62408354912991
 21
113.9345804644986
 72
     1
 10
83.62408354912998
 20
113.9345804644986
 11
82.45741688246324
 21
114.3592124044759
 72
     1
 10
82.45741688246324
 20
114.3592124044759
 11
83.62408354912998
 21
114.7838443444531
 72
     1
 10
83.62408354912991
 20
114.7838443444531
 11
83.62408354912991
 21
114.5258790711426
 72
     1
 10
83.62408354912991
 20
114.5258790711425
 11
84.62408354912998
 21
114.5258790711425
 72
     1
 10
84.62408354912998
 20
114.5258790711425
 11
84.62408354912998
 21
114.1925457378093
 72
     1
 10
84.62408354912998
 20
114.1925457378093
 11
83.62408354912991
 21
114.1925457378093
 97
        7
330
5DB
330
5D9
330
5D8
330
5DA
330
5CD
330
5E0
330
5CE
 75
     0
 76
     1
 98
        1
 10
-283.7113048878
 20
-123.4007006493626
450
        0
451
        0
460
0.0
461
0.0
452
        0
462
0.0
453
        0
470

  0
LINE
  5
5D0
102
{ACAD_REACTORS
330
5A0
102
}
330
18
100
AcDbEntity
  8
外形線
100
AcDbLine
 10
81.45741688246335
 20
113.6092124044759
 30
0.0
 11
81.29075021579671
 21
113.6092124044759
 31
0.0
  0
LINE
  5
5D1
102
{ACAD_REACTORS
330
5A0
102
}
330
18
100
AcDbEntity
  8
外形線
100
AcDbLine
 10
81.45741688246335
 20
115.1092124044759
 30
0.0
 11
81.29075021579671
 21
115.1092124044759
 31
0.0
  0
LINE
  5
5D2
102
{ACAD_REACTORS
330
5A0
102
}
330
18
100
AcDbEntity
  8
外形線
100
AcDbLine
 10
81.29075021579671
 20
115.1092124044759
 30
0.0
 11
81.29075021579671
 21
113.6092124044759
 31
0.0
  0
LINE
  5
5D3
102
{ACAD_REACTORS
330
5A0
102
}
330
18
100
AcDbEntity
  8
外形線
100
AcDbLine
 10
81.45741688246335
 20
115.1092124044759
 30
0.0
 11
81.45741688246335
 21
113.6092124044759
 31
0.0
  0
LINE
  5
5D4
102
{ACAD_REACTORS
330
5A0
102
}
330
18
100
AcDbEntity
  8
外形線
100
AcDbLine
 10
80.12408354913004
 20
114.1925457378093
 30
0.0
 11
80.12408354913004
 21
113.9345804644986
 31
0.0
  0
LINE
  5
5D5
102
{ACAD_REACTORS
330
5A0
102
}
330
18
100
AcDbEntity
  8
外形線
100
AcDbLine
 10
80.12408354913004
 20
114.7838443444531
 30
0.0
 11
80.12408354913004
 21
114.5258790711426
 31
0.0
  0
LINE
  5
5D6
102
{ACAD_REACTORS
330
5A0
102
}
330
18
100
AcDbEntity
  8
外形線
100
AcDbLine
 10
81.29075021579671
 20
114.3592124044759
 30
0.0
 11
80.12408354912997
 21
113.9345804644986
 31
0.0
  0
LINE
  5
5D7
102
{ACAD_REACTORS
330
5A0
102
}
330
18
100
AcDbEntity
  8
外形線
100
AcDbLine
 10
81.29075021579671
 20
114.3592124044759
 30
0.0
 11
80.12408354912997
 21
114.7838443444531
 31
0.0
  0
LINE
  5
5D8
102
{ACAD_REACTORS
330
5CF
102
}
330
18
100
AcDbEntity
  8
外形線
100
AcDbLine
 10
82.45741688246324
 20
114.3592124044759
 30
0.0
 11
83.62408354912998
 21
114.7838443444531
 31
0.0
  0
LINE
  5
5D9
102
{ACAD_REACTORS
330
5CF
102
}
330
18
100
AcDbEntity
  8
外形線
100
AcDbLine
 10
82.45741688246324
 20
114.3592124044759
 30
0.0
 11
83.62408354912998
 21
113.9345804644986
 31
0.0
  0
LINE
  5
5DA
102
{ACAD_REACTORS
330
5CF
102
}
330
18
100
AcDbEntity
  8
外形線
100
AcDbLine
 10
83.62408354912991
 20
114.7838443444531
 30
0.0
 11
83.62408354912991
 21
114.5258790711426
 31
0.0
  0
LINE
  5
5DB
102
{ACAD_REACTORS
330
5CF
102
}
330
18
100
AcDbEntity
  8
外形線
100
AcDbLine
 10
83.62408354912991
 20
114.1925457378093
 30
0.0
 11
83.62408354912991
 21
113.9345804644986
 31
0.0
  0
LINE
  5
5DC
102
{ACAD_REACTORS
330
5CF
102
}
330
18
100
AcDbEntity
  8
外形線
100
AcDbLine
 10
82.2907502157966
 20
115.1092124044759
 30
0.0
 11
82.45741688246324
 21
115.1092124044759
 31
0.0
  0
LINE
  5
5DD
102
{ACAD_REACTORS
330
5CF
102
}
330
18
100
AcDbEntity
  8
外形線
100
AcDbLine
 10
82.45741688246324
 20
115.1092124044759
 30
0.0
 11
82.45741688246324
 21
113.6092124044759
 31
0.0
  0
LINE
  5
5DE
102
{ACAD_REACTORS
330
5CF
102
}
330
18
100
AcDbEntity
  8
外形線
100
AcDbLine
 10
82.2907502157966
 20
113.6092124044759
 30
0.0
 11
82.45741688246324
 21
113.6092124044759
 31
0.0
  0
LINE
  5
5DF
102
{ACAD_REACTORS
330
5CF
102
}
330
18
100
AcDbEntity
  8
外形線
100
AcDbLine
 10
82.2907502157966
 20
115.1092124044759
 30
0.0
 11
82.2907502157966
 21
113.6092124044759
 31
0.0
  0
LINE
  5
5E0
102
{ACAD_REACTORS
330
5CF
102
}
330
18
100
AcDbEntity
  8
外形線
100
AcDbLine
 10
84.62408354912998
 20
114.5258790711425
 30
0.0
 11
84.62408354912998
 21
114.1925457378093
 31
0.0
  0
TEXT
  5
5E3
330
18
100
AcDbEntity
  8
文字
100
AcDbText
 10
79.39217014523762
 20
117.3966089799946
 30
0.0
 40
1.5
  1
S-7
  7
STYLE3
100
AcDbText
  0
TEXT
  5
5E7
330
18
100
AcDbEntity
  8
文字
100
AcDbText
 10
93.48271210080929
 20
113.6205691707491
 30
0.0
 40
2.0
  1
20
  7
STYLE3
100
AcDbText
  0
LINE
  5
5E8
330
18
100
AcDbEntity
  8
外形線
100
AcDbLine
 10
97.85032246594136
 20
121.7955204411912
 30
0.0
 11
95.99246040224789
 21
120.122693925294
 31
0.0
  0
LINE
  5
5E9
330
18
100
AcDbEntity
  8
外形線
100
AcDbLine
 10
89.57761963340136
 20
127.4811915741656
 30
0.0
 11
88.68169975953804
 21
125.1472405079226
 31
0.0
  0
LINE
  5
5ED
330
18
100
AcDbEntity
  8
外形線
100
AcDbLine
 10
84.12007067843182
 20
128.7914331548937
 30
0.0
 11
83.85874952026274
 21
126.305128416473
 31
0.0
  0
LINE
  5
5EE
330
18
100
AcDbEntity
  8
外形線
100
AcDbLine
 10
81.87270871817736
 20
128.9092124044758
 30
0.0
 11
81.87270871817736
 21
125.4092124044758
 31
0.0
  0
LINE
  5
5EF
330
18
100
AcDbEntity
  8
外形線
100
AcDbLine
 10
80.74748565895403
 20
128.8797474016991
 30
0.0
 11
80.8783255495614
 21
126.3831735648127
 31
0.0
  0
LINE
  5
5F0
330
18
100
AcDbEntity
  8
外形線
100
AcDbLine
 10
79.6253467579229
 20
128.7914331548937
 30
0.0
 11
79.88666791609199
 21
126.305128416473
 31
0.0
  0
LINE
  5
5F1
330
18
100
AcDbEntity
  8
外形線
100
AcDbLine
 10
82.99793177740065
 20
128.8797474016991
 30
0.0
 11
82.86709188679333
 21
126.3831735648127
 31
0.0
  0
LINE
  5
5F2
330
18
100
AcDbEntity
  8
外形線
100
AcDbLine
 10
81.87270871817736
 20
128.9092124044758
 30
0.0
 11
81.87270871817736
 21
125.4092124044758
 31
0.0
  0
POINT
  5
5F3
330
18
100
AcDbEntity
  8
DEFPOINTS
  6
ByBlock
 62
     0
100
AcDbPoint
 10
81.87270871817736
 20
125.4092124044758
 30
0.0
  0
LINE
  5
5F6
330
18
100
AcDbEntity
  8
外形線
100
AcDbLine
 10
87.43731818788154
 20
128.1766176696907
 30
0.0
 11
86.53145153002276
 21
124.795877277679
 31
0.0
  0
LINE
  5
5F7
330
18
100
AcDbEntity
  8
外形線
100
AcDbLine
 10
88.51657409723879
 20
127.8569275048216
 30
0.0
 11
87.74403161130141
 21
125.4792862140837
 31
0.0
  0
LINE
  5
5F8
330
18
100
AcDbEntity
  8
外形線
100
AcDbLine
 10
86.34281007075918
 20
128.4393858202526
 30
0.0
 11
85.82303084371472
 21
125.9940168184181
 31
0.0
  0
LINE
  5
5F9
330
18
100
AcDbEntity
  8
外形線
100
AcDbLine
 10
85.23604971654231
 20
128.6445117272712
 30
0.0
 11
84.84496355394169
 21
126.1752908757834
 31
0.0
  0
POINT
  5
601
330
18
100
AcDbEntity
  8
DEFPOINTS
  6
ByBlock
 62
     0
100
AcDbPoint
 10
86.53145153002276
 20
124.7958772776789
 30
0.0
  0
POINT
  5
602
330
18
100
AcDbEntity
  8
DEFPOINTS
  6
ByBlock
 62
     0
100
AcDbPoint
 10
87.74403161130141
 20
125.4792862140837
 30
0.0
  0
LINE
  5
603
330
18
100
AcDbEntity
  8
外形線
100
AcDbLine
 10
93.58244797100041
 20
125.4406296153024
 30
0.0
 11
92.22085038346291
 21
123.3439531954388
 31
0.0
  0
LINE
  5
604
330
18
100
AcDbEntity
  8
外形線
100
AcDbLine
 10
90.61754654430712
 20
127.0504397437917
 30
0.0
 11
89.60070493661755
 21
124.7665760996851
 31
0.0
  0
LINE
  5
605
330
18
100
AcDbEntity
  8
外形線
100
AcDbLine
 10
91.63350446257766
 20
126.5658526745256
 30
0.0
 11
90.49852821322872
 21
124.3383363640548
 31
0.0
  0
LINE
  5
606
330
18
100
AcDbEntity
  8
外形線
100
AcDbLine
 10
101.5139360574932
 20
116.1540502306055
 30
0.0
 11
99.23007241338673
 21
115.137208622916
 31
0.0
  0
LINE
  5
607
330
18
100
AcDbEntity
  8
外形線
100
AcDbLine
 10
102.6401139833923
 20
112.97382187418
 30
0.0
 11
99.25937359138055
 21
112.0679552163211
 31
0.0
  0
LINE
  5
608
330
18
100
AcDbEntity
  8
外形線
100
AcDbLine
 10
102.9028821339541
 20
111.8793137570576
 30
0.0
 11
100.4575131321196
 21
111.3595345300132
 31
0.0
  0
LINE
  5
609
330
18
100
AcDbEntity
  8
外形線
100
AcDbLine
 10
103.1080080409728
 20
110.7725534028408
 30
0.0
 11
100.6387871894849
 21
110.3814672402402
 31
0.0
  0
LINE
  5
60A
330
18
100
AcDbEntity
  8
外形線
100
AcDbLine
 10
103.2549294685952
 20
109.6565743647302
 30
0.0
 11
100.7686247301744
 21
109.3952532065612
 31
0.0
  0
LINE
  5
60B
330
18
100
AcDbEntity
  8
外形線
100
AcDbLine
 10
101.9446878878672
 20
115.1141233196997
 30
0.0
 11
99.61073682162414
 21
114.2182034458365
 31
0.0
  0
LINE
  5
60C
330
18
100
AcDbEntity
  8
外形線
100
AcDbLine
 10
102.3204238185231
 20
114.0530777835371
 30
0.0
 11
99.94278252778521
 21
113.2805352975998
 31
0.0
  0
LINE
  5
60D
330
18
100
AcDbEntity
  8
外形線
100
AcDbLine
 10
101.0293489882273
 20
117.170008148876
 30
0.0
 11
98.80183267775635
 21
116.0350318995271
 31
0.0
  0
LINE
  5
632
330
18
100
AcDbEntity
  8
外形線
100
AcDbLine
 10
93.46453853808139
 20
131.5010422243798
 30
0.0
 11
95.28087889827336
 21
133.3173825845717
 31
0.0
  0
LINE
  5
634
330
18
100
AcDbEntity
  8
外形線
100
AcDbLine
 10
95.28087889827334
 20
131.5010422243798
 30
0.0
 11
93.46453853808137
 21
133.3173825845717
 31
0.0
  0
LINE
  5
635
330
18
100
AcDbEntity
  8
外形線
100
AcDbLine
 10
70.28087889827332
 20
131.5010422243798
 30
0.0
 11
68.46453853808134
 21
133.3173825845717
 31
0.0
  0
LINE
  5
636
330
18
100
AcDbEntity
  8
外形線
100
AcDbLine
 10
68.46453853808134
 20
131.5010422243798
 30
0.0
 11
70.28087889827332
 21
133.3173825845717
 31
0.0
  0
LINE
  5
637
330
18
100
AcDbEntity
  8
外形線
100
AcDbLine
 10
70.28087889827332
 20
83.0010422243798
 30
0.0
 11
68.46453853808134
 21
84.81738258457175
 31
0.0
  0
LINE
  5
638
330
18
100
AcDbEntity
  8
外形線
100
AcDbLine
 10
68.46453853808134
 20
83.0010422243798
 30
0.0
 11
70.28087889827332
 21
84.81738258457175
 31
0.0
  0
LINE
  5
639
330
18
100
AcDbEntity
  8
外形線
100
AcDbLine
 10
95.28087889827334
 20
83.0010422243798
 30
0.0
 11
93.46453853808137
 21
84.81738258457175
 31
0.0
  0
LINE
  5
63A
330
18
100
AcDbEntity
  8
外形線
100
AcDbLine
 10
93.46453853808139
 20
83.0010422243798
 30
0.0
 11
95.28087889827336
 21
84.81738258457175
 31
0.0
  0
LINE
  5
641
330
18
100
AcDbEntity
  8
中心線
 48
0.5
100
AcDbLine
 10
104.991335588794
 20
152.7435036637014
 30
0.0
 11
98.62552754514879
 21
128.9859846135867
 31
0.0
  0
LINE
  5
644
330
18
100
AcDbEntity
  8
外形線
100
AcDbLine
 10
103.5469433323521
 20
135.7618484611322
 30
0.0
 11
102.7815981609612
 21
132.9055413961739
 31
0.0
  0
LINE
  5
645
330
18
100
AcDbEntity
  8
外形線
100
AcDbLine
 10
97.75138837461774
 20
137.3147627317474
 30
0.0
 11
96.96381927539349
 21
134.3755148389712
 31
0.0
  0
LINE
  5
64D
330
18
100
AcDbEntity
  8
外形線
100
AcDbLine
 10
104.5128691586412
 20
135.5030294160297
 30
0.0
 11
104.7716882037437
 21
136.4689552423188
 31
0.0
  0
LINE
  5
64F
330
18
100
AcDbEntity
  8
外形線
100
AcDbLine
 10
100.6491658534849
 20
136.5383055964398
 30
0.0
 11
104.5128691586412
 21
135.5030294160297
 31
0.0
  0
LINE
  5
650
330
18
100
AcDbEntity
  8
外形線
100
AcDbLine
 10
100.9079848985874
 20
137.5042314227288
 30
0.0
 11
105.2546511168882
 21
136.3395457197675
 31
0.0
  0
LINE
  5
651
330
18
100
AcDbEntity
  8
外形線
100
AcDbLine
 10
101.684442033895
 20
140.4020089015961
 30
0.0
 11
106.0311082521957
 21
139.2373231986347
 31
0.0
  0
LINE
  5
652
330
18
100
AcDbEntity
  8
外形線
100
AcDbLine
 10
101.9432610789975
 20
141.367934727885
 30
0.0
 11
106.2899272972982
 21
140.2032490249238
 31
0.0
  0
LINE
  5
653
330
18
100
AcDbEntity
  8
外形線
100
AcDbLine
 10
103.7549943947151
 20
148.1294155119086
 30
0.0
 11
107.6186976998714
 21
147.0941393314985
 31
0.0
  0
LINE
  5
654
330
18
100
AcDbEntity
  8
外形線
100
AcDbLine
 10
107.6186976998714
 20
147.0941393314985
 30
0.0
 11
107.9722510904647
 21
146.4817668958027
 31
0.0
  0
LINE
  5
658
330
18
100
AcDbEntity
  8
外形線
100
AcDbLine
 10
105.2546511168882
 20
136.3395457197675
 30
0.0
 11
106.0311082521957
 21
139.2373231986347
 31
0.0
  0
LINE
  5
659
330
18
100
AcDbEntity
  8
外形線
100
AcDbLine
 10
106.2899272972982
 20
140.2032490249238
 30
0.0
 11
107.9722510904647
 21
146.4817668958027
 31
0.0
  0
LINE
  5
65A
330
18
100
AcDbEntity
  8
外形線
100
AcDbLine
 10
105.5481453390513
 20
139.366732721186
 30
0.0
 11
105.8069643841538
 21
140.3326585474751
 31
0.0
  0
LINE
  5
65B
330
18
100
AcDbEntity
  8
外形線
100
AcDbLine
 10
107.9722510904647
 20
146.4817668958027
 30
0.0
 11
103.6255848721639
 21
147.6464525987641
 31
0.0
  0
LINE
  5
65C
330
18
100
AcDbEntity
  8
外形線
100
AcDbLine
 10
104.2887252905991
 20
136.59836476487
 30
0.0
 11
105.0651824259067
 21
139.4961422437372
 31
0.0
  0
LINE
  5
65D
330
18
100
AcDbEntity
  8
外形線
100
AcDbLine
 10
103.3227994643101
 20
136.8571838099726
 30
0.0
 11
104.0992565996176
 21
139.7549612888397
 31
0.0
  0
LINE
  5
65E
330
18
100
AcDbEntity
  8
外形線
100
AcDbLine
 10
102.356873638021
 20
137.116002855075
 30
0.0
 11
103.1333307733285
 21
140.0137803339423
 31
0.0
  0
LINE
  5
65F
330
18
100
AcDbEntity
  8
外形線
100
AcDbLine
 10
101.3909478117319
 20
137.3748219001776
 30
0.0
 11
102.1674049470394
 21
140.2725993790448
 31
0.0
  0
LINE
  5
660
330
18
100
AcDbEntity
  8
外形線
100
AcDbLine
 10
105.3240014710092
 20
140.4620680700263
 30
0.0
 11
107.0063252641756
 21
146.7405859409053
 31
0.0
  0
LINE
  5
661
330
18
100
AcDbEntity
  8
外形線
100
AcDbLine
 10
104.3580756447201
 20
140.7208871151289
 30
0.0
 11
106.0403994378866
 21
146.9994049860078
 31
0.0
  0
LINE
  5
662
330
18
100
AcDbEntity
  8
外形線
100
AcDbLine
 10
103.3921498184311
 20
140.9797061602314
 30
0.0
 11
105.0744736115975
 21
147.2582240311104
 31
0.0
  0
LINE
  5
663
330
18
100
AcDbEntity
  8
外形線
100
AcDbLine
 10
102.426223992142
 20
141.238525205334
 30
0.0
 11
104.1085477853084
 21
147.5170430762129
 31
0.0
  0
LINE
  5
668
330
18
100
AcDbEntity
  8
外形線
100
AcDbLine
 10
97.59659486069677
 20
142.5326204308465
 30
0.0
 11
99.27891865386309
 21
148.8111383017255
 31
0.0
  0
LINE
  5
669
330
18
100
AcDbEntity
  8
外形線
100
AcDbLine
 10
99.27891865386309
 20
148.8111383017255
 30
0.0
 11
103.6255848721639
 21
147.6464525987641
 31
0.0
  0
LINE
  5
66A
330
18
100
AcDbEntity
  8
外形線
100
AcDbLine
 10
103.7549943947151
 20
148.1294155119086
 30
0.0
 11
99.89129108955891
 21
149.1646916923187
 31
0.0
  0
LINE
  5
66B
330
18
100
AcDbEntity
  8
外形線
100
AcDbLine
 10
99.89129108955891
 20
149.1646916923187
 30
0.0
 11
99.27891865386309
 21
148.8111383017255
 31
0.0
  0
LINE
  5
66C
330
18
100
AcDbEntity
  8
外形線
100
AcDbLine
 10
100.6491658534849
 20
136.5383055964398
 30
0.0
 11
96.78546254832866
 21
137.5735817768499
 31
0.0
  0
LINE
  5
66D
330
18
100
AcDbEntity
  8
外形線
100
AcDbLine
 10
101.9432610789975
 20
141.367934727885
 30
0.0
 11
97.59659486069677
 21
142.5326204308465
 31
0.0
  0
LINE
  5
66E
330
18
100
AcDbEntity
  8
外形線
100
AcDbLine
 10
101.684442033895
 20
140.4020089015961
 30
0.0
 11
97.33777581559426
 21
141.5666946045574
 31
0.0
  0
LINE
  5
66F
330
18
100
AcDbEntity
  8
外形線
100
AcDbLine
 10
100.9079848985874
 20
137.5042314227288
 30
0.0
 11
96.56131868028666
 21
138.6689171256902
 31
0.0
  0
LINE
  5
674
330
18
100
AcDbEntity
  8
外形線
100
AcDbLine
 10
96.56131868028666
 20
138.6689171256902
 30
0.0
 11
97.33777581559426
 21
141.5666946045574
 31
0.0
  0
LINE
  5
675
330
18
100
AcDbEntity
  8
外形線
100
AcDbLine
 10
97.82073872873874
 20
141.4372850820062
 30
0.0
 11
98.07955777384126
 21
142.4032109082952
 31
0.0
  0
LINE
  5
676
330
18
100
AcDbEntity
  8
外形線
100
AcDbLine
 10
96.78546254832866
 20
137.5735817768499
 30
0.0
 11
97.04428159343116
 21
138.539507603139
 31
0.0
  0
LINE
  5
679
330
18
100
AcDbEntity
  8
外形線
100
AcDbLine
 10
57.45549013905645
 20
140.2032490249238
 30
0.0
 11
55.77316634588999
 21
146.4817668958027
 31
0.0
  0
LINE
  5
67A
330
18
100
AcDbEntity
  8
外形線
100
AcDbLine
 10
62.2851192705017
 20
141.4973442504364
 30
0.0
 11
60.60279547733535
 21
147.7758621213154
 31
0.0
  0
LINE
  5
67B
330
18
100
AcDbEntity
  8
外形線
100
AcDbLine
 10
63.25104509679073
 20
141.7561632955389
 30
0.0
 11
61.56872130362444
 21
148.0346811664179
 31
0.0
  0
LINE
  5
67C
330
18
100
AcDbEntity
  8
外形線
100
AcDbLine
 10
64.21697092307983
 20
142.0149823406414
 30
0.0
 11
62.53464712991348
 21
148.2935002115204
 31
0.0
  0
LINE
  5
67D
330
18
100
AcDbEntity
  8
外形線
100
AcDbLine
 10
65.18289674936892
 20
142.273801385744
 30
0.0
 11
63.50057295620257
 21
148.5523192566229
 31
0.0
  0
LINE
  5
67E
330
18
100
AcDbEntity
  8
外形線
100
AcDbLine
 10
66.14882257565795
 20
142.5326204308464
 30
0.0
 11
64.46649878249161
 21
148.8111383017255
 31
0.0
  0
LINE
  5
67F
330
18
100
AcDbEntity
  8
外形線
100
AcDbLine
 10
62.06097540245974
 20
140.4020089015961
 30
0.0
 11
57.71430918415899
 21
139.2373231986347
 31
0.0
  0
LINE
  5
680
330
18
100
AcDbEntity
  8
外形線
100
AcDbLine
 10
61.80215635735726
 20
141.367934727885
 30
0.0
 11
57.45549013905645
 21
140.2032490249238
 31
0.0
  0
LINE
  5
681
330
18
100
AcDbEntity
  8
外形線
100
AcDbLine
 10
63.0962515828698
 20
136.5383055964398
 30
0.0
 11
59.23254827771353
 21
135.5030294160297
 31
0.0
  0
LINE
  5
682
330
18
100
AcDbEntity
  8
外形線
100
AcDbLine
 10
62.83743253776731
 20
137.5042314227288
 30
0.0
 11
58.4907663194665
 21
136.3395457197675
 31
0.0
  0
LINE
  5
684
330
18
100
AcDbEntity
  8
外形線
100
AcDbLine
 10
58.4907663194665
 20
136.3395457197675
 30
0.0
 11
57.71430918415899
 21
139.2373231986347
 31
0.0
  0
LINE
  5
685
330
18
100
AcDbEntity
  8
外形線
100
AcDbLine
 10
60.19847410400263
 20
135.7618484611322
 30
0.0
 11
60.96381927539349
 21
132.905541396174
 31
0.0
  0
LINE
  5
686
330
18
100
AcDbEntity
  8
外形線
100
AcDbLine
 10
59.23254827771353
 20
135.5030294160297
 30
0.0
 11
58.97372923261099
 21
136.4689552423187
 31
0.0
  0
LINE
  5
687
330
18
100
AcDbEntity
  8
外形線
100
AcDbLine
 10
58.19727209730348
 20
139.366732721186
 30
0.0
 11
57.93845305220094
 21
140.332658547475
 31
0.0
  0
LINE
  5
688
330
18
100
AcDbEntity
  8
外形線
100
AcDbLine
 10
64.28632127720089
 20
137.8924599903826
 30
0.0
 11
63.50986414189327
 21
140.7902374692498
 31
0.0
  0
LINE
  5
689
330
18
100
AcDbEntity
  8
外形線
100
AcDbLine
 10
65.25224710348993
 20
138.1512790354851
 30
0.0
 11
64.47578996818236
 21
141.0490565143523
 31
0.0
  0
LINE
  5
68A
330
18
100
AcDbEntity
  8
外形線
100
AcDbLine
 10
66.21817292977903
 20
138.4100980805876
 30
0.0
 11
65.44171579447141
 21
141.3078755594549
 31
0.0
  0
LINE
  5
68B
330
18
100
AcDbEntity
  8
外形線
100
AcDbLine
 10
67.18409875606806
 20
138.6689171256902
 30
0.0
 11
66.4076416207605
 21
141.5666946045574
 31
0.0
  0
LINE
  5
68C
330
18
100
AcDbEntity
  8
外形線
100
AcDbLine
 10
63.32039545091181
 20
137.6336409452801
 30
0.0
 11
62.54393831560424
 21
140.5314184241472
 31
0.0
  0
LINE
  5
68D
330
18
100
AcDbEntity
  8
外形線
100
AcDbLine
 10
63.0962515828698
 20
136.5383055964398
 30
0.0
 11
66.95995488802606
 21
137.5735817768499
 31
0.0
  0
LINE
  5
68E
330
18
100
AcDbEntity
  8
外形線
100
AcDbLine
 10
62.83743253776731
 20
137.5042314227288
 30
0.0
 11
67.18409875606806
 21
138.6689171256902
 31
0.0
  0
LINE
  5
68F
330
18
100
AcDbEntity
  8
外形線
100
AcDbLine
 10
65.99402906173702
 20
137.3147627317473
 30
0.0
 11
66.78159816096126
 21
134.3755148389712
 31
0.0
  0
LINE
  5
691
330
18
100
AcDbEntity
  8
外形線
100
AcDbLine
 10
66.95995488802606
 20
137.5735817768499
 30
0.0
 11
66.70113584292358
 21
138.539507603139
 31
0.0
  0
LINE
  5
692
330
18
100
AcDbEntity
  8
外形線
100
AcDbLine
 10
61.80215635735726
 20
141.367934727885
 30
0.0
 11
66.14882257565795
 21
142.5326204308464
 31
0.0
  0
LINE
  5
693
330
18
100
AcDbEntity
  8
外形線
100
AcDbLine
 10
62.06097540245974
 20
140.4020089015961
 30
0.0
 11
66.4076416207605
 21
141.5666946045574
 31
0.0
  0
LINE
  5
694
330
18
100
AcDbEntity
  8
外形線
100
AcDbLine
 10
65.92467870761601
 20
141.4372850820061
 30
0.0
 11
65.66585966251347
 21
142.4032109082952
 31
0.0
  0
LINE
  5
695
330
18
100
AcDbEntity
  8
外形線
100
AcDbLine
 10
59.99042304163959
 20
148.1294155119086
 30
0.0
 11
56.12671973648332
 21
147.0941393314985
 31
0.0
  0
LINE
  5
696
330
18
100
AcDbEntity
  8
外形線
100
AcDbLine
 10
55.77316634588999
 20
146.4817668958027
 30
0.0
 11
60.1198325641908
 21
147.646452598764
 31
0.0
  0
LINE
  5
697
330
18
100
AcDbEntity
  8
外形線
100
AcDbLine
 10
56.12671973648332
 20
147.0941393314985
 30
0.0
 11
55.77316634588999
 21
146.4817668958027
 31
0.0
  0
LINE
  5
698
330
18
100
AcDbEntity
  8
外形線
100
AcDbLine
 10
64.46649878249161
 20
148.8111383017255
 30
0.0
 11
60.1198325641908
 21
147.646452598764
 31
0.0
  0
LINE
  5
699
330
18
100
AcDbEntity
  8
外形線
100
AcDbLine
 10
59.99042304163959
 20
148.1294155119086
 30
0.0
 11
63.85412634679585
 21
149.1646916923187
 31
0.0
  0
LINE
  5
69A
330
18
100
AcDbEntity
  8
外形線
100
AcDbLine
 10
63.85412634679585
 20
149.1646916923187
 30
0.0
 11
64.46649878249161
 21
148.8111383017255
 31
0.0
  0
LINE
  5
69C
330
18
100
AcDbEntity
  8
外形線
100
AcDbLine
 10
79.67270871817731
 20
42.40921240447579
 30
0.0
 11
84.07270871817734
 21
42.40921240447579
 31
0.0
  0
LINE
  5
69D
330
18
100
AcDbEntity
  8
外形線
100
AcDbLine
 10
83.87270871817737
 20
52.20921240447579
 30
0.0
 11
83.87270871817737
 21
42.40921240447579
 31
0.0
  0
LINE
  5
69E
330
18
100
AcDbEntity
  8
外形線
100
AcDbLine
 10
79.87270871817736
 20
52.20921240447579
 30
0.0
 11
79.87270871817736
 21
42.40921240447579
 31
0.0
  0
LINE
  5
701
330
18
100
AcDbEntity
  8
外形線
100
AcDbLine
 10
79.67270871817731
 20
42.40921240447579
 30
0.0
 11
79.67270871817731
 21
41.90921240447579
 31
0.0
  0
LINE
  5
702
330
18
100
AcDbEntity
  8
外形線
100
AcDbLine
 10
84.07270871817734
 20
42.40921240447579
 30
0.0
 11
84.07270871817734
 21
41.90921240447579
 31
0.0
  0
LINE
  5
704
330
18
100
AcDbEntity
  8
外形線
100
AcDbLine
 10
79.3727087181773
 20
39.80921240447583
 30
0.0
 11
84.37270871817743
 21
39.80921240447583
 31
0.0
  0
LINE
  5
705
330
18
100
AcDbEntity
  8
外形線
100
AcDbLine
 10
79.3727087181773
 20
41.00921240447582
 30
0.0
 11
84.37270871817743
 21
41.00921240447582
 31
0.0
  0
LINE
  5
706
330
18
100
AcDbEntity
  8
外形線
100
AcDbLine
 10
79.3727087181773
 20
41.90921240447582
 30
0.0
 11
84.37270871817743
 21
41.90921240447582
 31
0.0
  0
LINE
  5
707
330
18
100
AcDbEntity
  8
外形線
100
AcDbLine
 10
79.3727087181773
 20
38.90921240447582
 30
0.0
 11
84.37270871817743
 21
38.90921240447582
 31
0.0
  0
LINE
  5
708
330
18
100
AcDbEntity
  8
外形線
100
AcDbLine
 10
84.37270871817743
 20
38.90921240447582
 30
0.0
 11
83.17270871817731
 21
34.40921240447583
 31
0.0
  0
LINE
  5
709
330
18
100
AcDbEntity
  8
外形線
100
AcDbLine
 10
79.3727087181773
 20
38.90921240447582
 30
0.0
 11
80.5727087181774
 21
34.40921240447583
 31
0.0
  0
POINT
  5
70A
330
18
100
AcDbEntity
  8
DEFPOINTS
  6
ByBlock
 62
     0
100
AcDbPoint
 10
81.87270871817736
 20
33.4092124044758
 30
0.0
  0
LINE
  5
70B
330
18
100
AcDbEntity
  8
外形線
100
AcDbLine
 10
80.5727087181774
 20
34.40921240447579
 30
0.0
 11
83.17270871817731
 21
34.40921240447583
 31
0.0
  0
ARC
  5
70C
330
18
100
AcDbEntity
  8
外形線
100
AcDbCircle
 10
81.87270871817736
 20
34.5592124044758
 30
0.0
 40
1.149999999999999
100
AcDbArc
 50
187.494717453927
 51
352.5052825460744
  0
LINE
  5
711
330
18
100
AcDbEntity
  8
中心線
100
AcDbLine
 10
79.37270871817725
 20
41.28613689513037
 30
0.0
 11
79.73244153122329
 21
41.90921240447585
 31
0.0
  0
LINE
  5
712
330
18
100
AcDbEntity
  8
中心線
100
AcDbLine
 10
81.43675632170134
 20
41.00921240447592
 30
0.0
 11
80.91714107943067
 21
41.90921240447585
 31
0.0
  0
LINE
  5
713
330
18
100
AcDbEntity
  8
中心線
100
AcDbLine
 10
80.28205578332217
 20
41.0092124044759
 30
0.0
 11
79.76244054105155
 21
41.90921240447585
 31
0.0
  0
LINE
  5
714
330
18
100
AcDbEntity
  8
中心線
100
AcDbLine
 10
80.85940605251176
 20
41.00921240447592
 30
0.0
 11
80.33979081024114
 21
41.90921240447585
 31
0.0
  0
LINE
  5
715
330
18
100
AcDbEntity
  8
中心線
100
AcDbLine
 10
80.36752682733192
 20
41.00921240447587
 30
0.0
 11
80.88714206960252
 21
41.90921240447585
 31
0.0
  0
LINE
  5
716
330
18
100
AcDbEntity
  8
中心線
100
AcDbLine
 10
79.79017655814232
 20
41.0092124044759
 30
0.0
 11
80.30979180041294
 21
41.90921240447585
 31
0.0
  0
LINE
  5
717
330
18
100
AcDbEntity
  8
中心線
100
AcDbLine
 10
80.94487709652156
 20
41.00921240447592
 30
0.0
 11
81.46449233879218
 21
41.90921240447585
 31
0.0
  0
LINE
  5
718
330
18
100
AcDbEntity
  8
中心線
100
AcDbLine
 10
79.70470551413263
 20
41.00921240447587
 30
0.0
 11
79.37270871817725
 21
41.58424772302057
 31
0.0
  0
LINE
  5
719
330
18
100
AcDbEntity
  8
中心線
100
AcDbLine
 10
81.87270871817725
 20
41.25412070409803
 30
0.0
 11
81.49449134862027
 21
41.90921240447585
 31
0.0
  0
LINE
  5
71A
330
18
100
AcDbEntity
  8
中心線
100
AcDbLine
 10
81.52222736571104
 20
41.00921240447584
 30
0.0
 11
81.87270871817725
 21
41.6162639140528
 31
0.0
  0
LINE
  5
71B
330
18
100
AcDbEntity
  8
中心線
100
AcDbLine
 10
79.70470551413274
 20
38.90921240447582
 30
0.0
 11
79.37270871817736
 21
39.48424772302053
 31
0.0
  0
LINE
  5
71C
330
18
100
AcDbEntity
  8
中心線
100
AcDbLine
 10
80.85940605251186
 20
38.90921240447588
 30
0.0
 11
80.33979081024126
 21
39.8092124044758
 31
0.0
  0
LINE
  5
71D
330
18
100
AcDbEntity
  8
中心線
100
AcDbLine
 10
81.87270871817736
 20
39.15412070409798
 30
0.0
 11
81.49449134862038
 21
39.8092124044758
 31
0.0
  0
LINE
  5
71E
330
18
100
AcDbEntity
  8
中心線
100
AcDbLine
 10
80.94487709652169
 20
38.90921240447588
 30
0.0
 11
81.46449233879229
 21
39.8092124044758
 31
0.0
  0
LINE
  5
71F
330
18
100
AcDbEntity
  8
中心線
100
AcDbLine
 10
79.79017655814243
 20
38.90921240447585
 30
0.0
 11
80.30979180041304
 21
39.8092124044758
 31
0.0
  0
LINE
  5
720
330
18
100
AcDbEntity
  8
中心線
100
AcDbLine
 10
81.43675632170147
 20
38.90921240447588
 30
0.0
 11
80.91714107943079
 21
39.8092124044758
 31
0.0
  0
LINE
  5
721
330
18
100
AcDbEntity
  8
中心線
100
AcDbLine
 10
80.28205578332228
 20
38.90921240447585
 30
0.0
 11
79.76244054105166
 21
39.8092124044758
 31
0.0
  0
LINE
  5
722
330
18
100
AcDbEntity
  8
中心線
100
AcDbLine
 10
79.37270871817736
 20
39.18613689513032
 30
0.0
 11
79.7324415312234
 21
39.8092124044758
 31
0.0
  0
LINE
  5
723
330
18
100
AcDbEntity
  8
中心線
100
AcDbLine
 10
80.36752682733203
 20
38.90921240447582
 30
0.0
 11
80.88714206960265
 21
39.8092124044758
 31
0.0
  0
LINE
  5
724
330
18
100
AcDbEntity
  8
中心線
100
AcDbLine
 10
81.52222736571117
 20
38.9092124044758
 30
0.0
 11
81.87270871817736
 21
39.51626391405276
 31
0.0
  0
ARC
  5
725
330
18
100
AcDbEntity
  8
外形線
100
AcDbCircle
 10
79.01215359063098
 20
40.40921240447576
 30
0.0
 40
0.7
100
AcDbArc
 50
301.0027191338767
 51
58.99728086613252
  0
LINE
  5
726
330
18
100
AcDbEntity
  8
外形線
100
AcDbLine
 10
79.3727087181773
 20
39.80921240447583
 30
0.0
 11
79.3727087181773
 21
38.90921240447582
 31
0.0
  0
LINE
  5
727
330
18
100
AcDbEntity
  8
外形線
100
AcDbLine
 10
79.3727087181773
 20
41.90921240447582
 30
0.0
 11
79.3727087181773
 21
41.00921240447584
 31
0.0
  0
ARC
  5
72C
330
18
100
AcDbEntity
  8
外形線
100
AcDbCircle
 10
84.73326384572374
 20
40.40921240447576
 30
0.0
 40
0.7
100
AcDbArc
 50
121.0027191338674
 51
238.9972808661233
  0
LINE
  5
72D
330
18
100
AcDbEntity
  8
外形線
100
AcDbLine
 10
84.37270871817743
 20
39.80921240447583
 30
0.0
 11
84.37270871817743
 21
38.90921240447582
 31
0.0
  0
LINE
  5
72E
330
18
100
AcDbEntity
  8
外形線
100
AcDbLine
 10
84.37270871817743
 20
41.90921240447582
 30
0.0
 11
84.37270871817743
 21
41.00921240447584
 31
0.0
  0
LINE
  5
730
330
18
100
AcDbEntity
  8
外形線
100
AcDbLine
 10
77.97270871817733
 20
54.2092124044758
 30
0.0
 11
85.77270871817729
 21
54.2092124044758
 31
0.0
  0
LINE
  5
731
330
18
100
AcDbEntity
  8
外形線
100
AcDbLine
 10
78.82270871817735
 20
52.20921240447577
 30
0.0
 11
84.92270871817737
 21
52.2092124044758
 31
0.0
  0
LINE
  5
732
330
18
100
AcDbEntity
  8
外形線
100
AcDbLine
 10
78.62270871817731
 20
53.00921240447578
 30
0.0
 11
85.12270871817742
 21
53.00921240447582
 31
0.0
  0
LINE
  5
736
330
18
100
AcDbEntity
  8
外形線
100
AcDbLine
 10
78.62270871817731
 20
53.00921240447578
 30
0.0
 11
78.62270871817736
 21
52.40921240447576
 31
0.0
  0
LINE
  5
73F
330
18
100
AcDbEntity
  8
外形線
100
AcDbLine
 10
78.62270871817736
 20
52.40921240447576
 30
0.0
 11
78.82270871817735
 21
52.20921240447577
 31
0.0
  0
LINE
  5
741
330
18
100
AcDbEntity
  8
外形線
100
AcDbLine
 10
79.87270871817736
 20
52.20921240447584
 30
0.0
 11
79.87270871817736
 21
46.20921240447583
 31
0.0
  0
ARC
  5
742
330
18
100
AcDbEntity
  8
外形線
100
AcDbCircle
 10
78.17270871817715
 20
53.54540266921396
 30
0.0
 40
0.7
100
AcDbArc
 50
310.0052008848602
 51
71.49566077351135
  0
LINE
  5
743
330
18
100
AcDbEntity
  8
外形線
100
AcDbLine
 10
77.97270871817724
 20
57.2092124044758
 30
0.0
 11
77.97270871817733
 21
54.2092124044758
 31
0.0
  0
LINE
  5
745
330
18
100
AcDbEntity
  8
外形線
100
AcDbLine
 10
85.12270871817742
 20
53.00921240447582
 30
0.0
 11
85.12270871817737
 21
52.4092124044758
 31
0.0
  0
LINE
  5
74E
330
18
100
AcDbEntity
  8
外形線
 48
0.5
100
AcDbLine
 10
84.92270871817737
 20
52.2092124044758
 30
0.0
 11
85.12270871817737
 21
52.4092124044758
 31
0.0
  0
LINE
  5
750
330
18
100
AcDbEntity
  8
外形線
100
AcDbLine
 10
83.87270871817724
 20
52.20921240447584
 30
0.0
 11
83.87270871817724
 21
46.20921240447583
 31
0.0
  0
LINE
  5
751
330
18
100
AcDbEntity
  8
外形線
100
AcDbLine
 10
85.7727087181772
 20
57.20921240447577
 30
0.0
 11
85.77270871817729
 21
54.2092124044758
 31
0.0
  0
ARC
  5
752
330
18
100
AcDbEntity
  8
外形線
100
AcDbCircle
 10
85.57270871817747
 20
53.54540266921396
 30
0.0
 40
0.7
100
AcDbArc
 50
108.5043392264886
 51
229.9947991151398
  0
LINE
  5
759
330
18
100
AcDbEntity
  8
外形線
100
AcDbLine
 10
81.8727087181773
 20
151.9092124044757
 30
0.0
 11
92.12270871817736
 21
151.9092124044758
 31
0.0
  0
LINE
  5
767
330
18
100
AcDbEntity
  8
中心線
 48
0.5
100
AcDbLine
 10
58.75408184756068
 20
152.7435036637014
 30
0.0
 11
65.11988989120593
 21
128.9859846135867
 31
0.0
  0
LINE
  5
771
330
18
100
AcDbEntity
  8
外形線
100
AcDbLine
 10
72.12270871817736
 20
141.9092124044757
 30
0.0
 11
91.62270871817737
 21
141.9092124044758
 31
0.0
  0
LINE
  5
772
330
18
100
AcDbEntity
  8
外形線
100
AcDbLine
 10
92.12270871817736
 20
151.9092124044758
 30
0.0
 11
92.12270871817736
 21
144.4092124044758
 31
0.0
  0
LINE
  5
773
330
18
100
AcDbEntity
  8
外形線
100
AcDbLine
 10
82.37270871817736
 20
144.4092124044757
 30
0.0
 11
83.87270871817737
 21
144.4092124044757
 31
0.0
  0
LINE
  5
774
330
18
100
AcDbEntity
  8
外形線
100
AcDbLine
 10
82.37270871817736
 20
151.9092124044757
 30
0.0
 11
82.37270871817736
 21
144.4092124044757
 31
0.0
  0
LINE
  5
775
330
18
100
AcDbEntity
  8
外形線
100
AcDbLine
 10
83.87270871817737
 20
151.9092124044758
 30
0.0
 11
83.87270871817737
 21
144.4092124044757
 31
0.0
  0
LINE
  5
776
330
18
100
AcDbEntity
  8
外形線
100
AcDbLine
 10
84.87270871817736
 20
151.9092124044758
 30
0.0
 11
84.8727087181774
 21
144.4092124044757
 31
0.0
  0
LINE
  5
777
330
18
100
AcDbEntity
  8
外形線
100
AcDbLine
 10
86.37270871817737
 20
151.9092124044758
 30
0.0
 11
86.37270871817737
 21
144.4092124044757
 31
0.0
  0
LINE
  5
778
330
18
100
AcDbEntity
  8
外形線
100
AcDbLine
 10
87.37270871817736
 20
151.9092124044758
 30
0.0
 11
87.37270871817736
 21
144.4092124044757
 31
0.0
  0
LINE
  5
779
330
18
100
AcDbEntity
  8
外形線
100
AcDbLine
 10
88.87270871817737
 20
151.9092124044758
 30
0.0
 11
88.87270871817742
 21
144.4092124044757
 31
0.0
  0
LINE
  5
77A
330
18
100
AcDbEntity
  8
外形線
100
AcDbLine
 10
89.87270871817736
 20
151.9092124044758
 30
0.0
 11
89.87270871817736
 21
144.4092124044757
 31
0.0
  0
LINE
  5
77C
330
18
100
AcDbEntity
  8
外形線
100
AcDbLine
 10
81.87270871817743
 20
151.9092124044757
 30
0.0
 11
71.62270871817736
 21
151.9092124044758
 31
0.0
  0
LINE
  5
77D
330
18
100
AcDbEntity
  8
外形線
100
AcDbLine
 10
81.37270871817737
 20
144.4092124044757
 30
0.0
 11
79.87270871817736
 21
144.4092124044757
 31
0.0
  0
LINE
  5
77E
330
18
100
AcDbEntity
  8
外形線
100
AcDbLine
 10
77.37270871817736
 20
151.9092124044758
 30
0.0
 11
77.37270871817736
 21
144.4092124044757
 31
0.0
  0
LINE
  5
77F
330
18
100
AcDbEntity
  8
外形線
100
AcDbLine
 10
78.87270871817737
 20
151.9092124044758
 30
0.0
 11
78.87270871817733
 21
144.4092124044757
 31
0.0
  0
LINE
  5
780
330
18
100
AcDbEntity
  8
外形線
100
AcDbLine
 10
79.87270871817736
 20
151.9092124044758
 30
0.0
 11
79.87270871817736
 21
144.4092124044757
 31
0.0
  0
LINE
  5
781
330
18
100
AcDbEntity
  8
外形線
100
AcDbLine
 10
81.37270871817737
 20
151.9092124044757
 30
0.0
 11
81.37270871817737
 21
144.4092124044757
 31
0.0
  0
LINE
  5
782
330
18
100
AcDbEntity
  8
外形線
100
AcDbLine
 10
73.87270871817737
 20
151.9092124044758
 30
0.0
 11
73.87270871817737
 21
144.4092124044757
 31
0.0
  0
LINE
  5
783
330
18
100
AcDbEntity
  8
外形線
100
AcDbLine
 10
74.87270871817736
 20
151.9092124044758
 30
0.0
 11
74.87270871817731
 21
144.4092124044757
 31
0.0
  0
LINE
  5
784
330
18
100
AcDbEntity
  8
外形線
100
AcDbLine
 10
76.37270871817737
 20
151.9092124044758
 30
0.0
 11
76.37270871817737
 21
144.4092124044757
 31
0.0
  0
LINE
  5
785
330
18
100
AcDbEntity
  8
外形線
100
AcDbLine
 10
71.62270871817736
 20
151.9092124044758
 30
0.0
 11
71.62270871817736
 21
144.4092124044757
 31
0.0
  0
LINE
  5
786
330
18
100
AcDbEntity
  8
外形線
100
AcDbLine
 10
89.8727087181774
 20
144.4092124044758
 30
0.0
 11
92.12270871817736
 21
144.4092124044758
 31
0.0
  0
LINE
  5
787
330
18
100
AcDbEntity
  8
外形線
100
AcDbLine
 10
87.37270871817736
 20
144.4092124044758
 30
0.0
 11
88.87270871817742
 21
144.4092124044758
 31
0.0
  0
LINE
  5
788
330
18
100
AcDbEntity
  8
外形線
100
AcDbLine
 10
84.8727087181774
 20
144.4092124044757
 30
0.0
 11
86.37270871817737
 21
144.4092124044758
 31
0.0
  0
LINE
  5
789
330
18
100
AcDbEntity
  8
外形線
100
AcDbLine
 10
78.87270871817733
 20
144.4092124044757
 30
0.0
 11
77.37270871817736
 21
144.4092124044757
 31
0.0
  0
LINE
  5
78A
330
18
100
AcDbEntity
  8
外形線
100
AcDbLine
 10
76.37270871817737
 20
144.4092124044757
 30
0.0
 11
74.87270871817731
 21
144.4092124044757
 31
0.0
  0
LINE
  5
78B
330
18
100
AcDbEntity
  8
外形線
100
AcDbLine
 10
73.87270871817737
 20
144.4092124044757
 30
0.0
 11
71.62270871817736
 21
144.4092124044757
 31
0.0
  0
LINE
  5
78C
330
18
100
AcDbEntity
  8
外形線
100
AcDbLine
 10
91.62270871817737
 20
144.4092124044757
 30
0.0
 11
91.62270871817737
 21
141.4092124044758
 31
0.0
  0
LINE
  5
78D
330
18
100
AcDbEntity
  8
外形線
100
AcDbLine
 10
72.12270871817736
 20
144.409212404476
 30
0.0
 11
72.12270871817736
 21
141.4092124044757
 31
0.0
  0
LINE
  5
7A8
330
18
100
AcDbEntity
  8
想像線
 48
0.3
100
AcDbLine
 10
81.87270871817736
 20
166.9092124044757
 30
0.0
 11
88.87270871817737
 21
166.9092124044757
 31
0.0
  0
LINE
  5
7A9
330
18
100
AcDbEntity
  8
想像線
 48
0.3
100
AcDbLine
 10
81.87270871817714
 20
186.9092124044757
 30
0.0
 11
83.97244697214881
 21
186.9092124044757
 31
0.0
  0
LINE
  5
7AA
330
18
100
AcDbEntity
  8
想像線
 48
0.3
100
AcDbLine
 10
88.87270871817737
 20
166.9092124044757
 30
0.0
 11
90.87270871817736
 21
151.9092124044758
 31
0.0
  0
LINE
  5
7AC
330
18
100
AcDbEntity
  8
想像線
 48
0.3
100
AcDbLine
 10
84.96695242507021
 20
186.0138971889938
 30
0.0
 11
86.87270871817736
 21
167.9092124044757
 31
0.0
  0
ARC
  5
7AD
330
18
100
AcDbEntity
  8
想像線
 48
0.3
100
AcDbCircle
 10
87.87270871817737
 20
167.9092124044757
 30
0.0
 40
1.0
100
AcDbArc
 50
180.0
 51
270.0
  0
ARC
  5
7AF
330
18
100
AcDbEntity
  8
想像線
 48
0.3
100
AcDbCircle
 10
83.97244697214881
 20
185.9092124044757
 30
0.0
 40
1.0
100
AcDbArc
 50
6.009005957494516
 51
90.0000000000003
  0
LINE
  5
7B0
330
18
100
AcDbEntity
  8
想像線
 48
0.3
100
AcDbLine
 10
74.87270871817736
 20
166.9092124044757
 30
0.0
 11
72.87270871817736
 21
151.9092124044758
 31
0.0
  0
LINE
  5
7B1
330
18
100
AcDbEntity
  8
想像線
 48
0.3
100
AcDbLine
 10
78.77846501128451
 20
186.0138971889938
 30
0.0
 11
76.87270871817736
 21
167.9092124044757
 31
0.0
  0
LINE
  5
7B2
330
18
100
AcDbEntity
  8
想像線
 48
0.3
100
AcDbLine
 10
81.87270871817736
 20
166.9092124044757
 30
0.0
 11
74.87270871817736
 21
166.9092124044757
 31
0.0
  0
ARC
  5
7B3
330
18
100
AcDbEntity
  8
想像線
 48
0.3
100
AcDbCircle
 10
75.87270871817736
 20
167.9092124044757
 30
0.0
 40
1.0
100
AcDbArc
 50
270.0
 51
0.000000000000007
  0
ARC
  5
7B4
330
18
100
AcDbEntity
  8
想像線
 48
0.3
100
AcDbCircle
 10
79.77297046420591
 20
185.9092124044757
 30
0.0
 40
1.0
100
AcDbArc
 50
89.99999999999969
 51
173.9909940425054
  0
LINE
  5
7B5
330
18
100
AcDbEntity
  8
想像線
 48
0.3
100
AcDbLine
 10
81.87270871817759
 20
186.9092124044757
 30
0.0
 11
79.77297046420591
 21
186.9092124044757
 31
0.0
  0
CIRCLE
  5
7B7
330
18
100
AcDbEntity
  8
想像線
 48
0.3
100
AcDbCircle
 10
81.87270871817736
 20
161.4092124044757
 30
0.0
 40
4.5
  0
LINE
  5
7E3
330
18
100
AcDbEntity
  8
外形線
100
AcDbLine
 10
77.87270871817736
 20
57.2092124044758
 30
0.0
 11
85.87270871817736
 21
57.20921240447577
 31
0.0
  0
LINE
  5
7E4
330
18
100
AcDbEntity
  8
外形線
100
AcDbLine
 10
85.87270871817736
 20
57.20921240447577
 30
0.0
 11
85.87270871817736
 21
73.24921240447579
 31
0.0
  0
LINE
  5
7E5
330
18
100
AcDbEntity
  8
外形線
100
AcDbLine
 10
77.87270871817736
 20
57.20921240447577
 30
0.0
 11
77.87270871817736
 21
73.24921240447579
 31
0.0
  0
LINE
  5
7F4
330
18
100
AcDbEntity
  8
外形線
100
AcDbLine
 10
163.5679896515612
 20
141.4092124044758
 30
0.0
 11
163.5679896515612
 21
73.24921240447578
 31
0.0
  0
LINE
  5
7F5
330
18
100
AcDbEntity
  8
中心線
 48
0.6
100
AcDbLine
 10
153.4282304324246
 20
107.4092124044758
 30
0.0
 11
186.0718721232978
 21
107.4092124044758
 31
0.0
  0
LINE
  5
7F6
330
18
100
AcDbEntity
  8
外形線
100
AcDbLine
 10
161.5679896515612
 20
141.4092124044758
 30
0.0
 11
165.5679896515612
 21
141.4092124044758
 31
0.0
  0
LINE
  5
7F7
330
18
100
AcDbEntity
  8
外形線
100
AcDbLine
 10
161.5679896515612
 20
73.24921240447579
 30
0.0
 11
179.0679896515612
 21
73.24921240447579
 31
0.0
  0
ARC
  5
7FA
330
18
100
AcDbEntity
  8
外形線
100
AcDbCircle
 10
353.6423896515613
 20
107.3292124044757
 30
0.0
 40
195.0744000000001
100
AcDbArc
 50
169.9386497180784
 51
184.7877421798614
  0
LINE
  5
802
330
18
100
AcDbEntity
  8
外形線
100
AcDbLine
 10
164.0679896515612
 20
141.4092124044758
 30
0.0
 11
164.0679896515612
 21
73.24921240447578
 31
0.0
  0
LINE
  5
804
330
18
100
AcDbEntity
  8
外形線
100
AcDbLine
 10
179.0679896515612
 20
141.4092124044758
 30
0.0
 11
179.0679896515612
 21
73.24921240447579
 31
0.0
  0
LINE
  5
805
330
18
100
AcDbEntity
  8
外形線
100
AcDbLine
 10
164.0679896515612
 20
132.2098114532771
 30
0.0
 11
179.0679896515612
 21
132.2098114532771
 31
0.0
  0
LINE
  5
806
330
18
100
AcDbEntity
  8
外形線
100
AcDbLine
 10
164.0679896515612
 20
84.10010135902332
 30
0.0
 11
179.0679896515612
 21
84.10010135902339
 31
0.0
  0
LINE
  5
810
330
18
100
AcDbEntity
  8
中心線
 48
0.6
100
AcDbLine
 10
170.0679896515612
 20
151.1435733387306
 30
0.0
 11
170.0679896515612
 21
32.07727565770222
 31
0.0
  0
LINE
  5
811
330
18
100
AcDbEntity
  8
外形線
100
AcDbLine
 10
180.0679896515612
 20
130.4092124044758
 30
0.0
 11
180.0679896515612
 21
84.40921240447579
 31
0.0
  0
ELLIPSE
  5
82A
330
18
100
AcDbEntity
  8
外形線
100
AcDbEllipse
 10
170.0679896515612
 20
148.1294155119086
 30
0.0
 11
-4.0
 21
0.0
 31
0.0
210
0.0
220
0.0
230
1.0
 40
0.258819045102527
 41
0.0
 42
6.283185307179586
  0
ELLIPSE
  5
830
330
18
100
AcDbEntity
  8
外形線
100
AcDbEllipse
 10
170.0679896515612
 20
147.6464525987641
 30
0.0
 11
-4.5
 21
0.0
 31
0.0
210
0.0
220
0.0
230
1.0
 40
0.2588190451025222
 41
0.0
 42
3.141592653589793
  0
LINE
  5
831
330
18
100
AcDbEntity
  8
外形線
100
AcDbLine
 10
165.5679896515612
 20
147.6464525987641
 30
0.0
 11
166.1067824315744
 21
148.2732493755253
 31
0.0
  0
LINE
  5
832
330
18
100
AcDbEntity
  8
外形線
100
AcDbLine
 10
174.5679896515612
 20
147.6464525987641
 30
0.0
 11
174.029196871548
 21
148.2732493755253
 31
0.0
  0
LINE
  5
835
330
18
100
AcDbEntity
  8
外形線
100
AcDbLine
 10
174.5679896515612
 20
147.6464525987643
 30
0.0
 11
174.5679896515612
 21
141.367934727885
 31
0.0
  0
LINE
  5
836
330
18
100
AcDbEntity
  8
外形線
100
AcDbLine
 10
165.5679896515612
 20
147.6464525987636
 30
0.0
 11
165.5679896515612
 21
141.367934727885
 31
0.0
  0
ELLIPSE
  5
837
330
18
100
AcDbEntity
  8
外形線
100
AcDbEllipse
 10
170.0679896515612
 20
141.3679347278851
 30
0.0
 11
-4.499999999999971
 21
0.0000000000000284
 31
0.0
210
0.0
220
0.0
230
1.0
 40
0.2588190451024986
 41
0.0
 42
3.141592653589793
  0
LINE
  5
838
330
18
100
AcDbEntity
  8
外形線
100
AcDbLine
 10
174.5679896515611
 20
141.4092124044758
 30
0.0
 11
179.0679896515612
 21
141.4092124044758
 31
0.0
  0
LINE
  5
84A
330
18
100
AcDbEntity
  8
外形線
100
AcDbLine
 10
174.0679896515612
 20
140.8343655974457
 30
0.0
 11
174.0679896515612
 21
140.214383681244
 31
0.0
  0
LINE
  5
84D
330
18
100
AcDbEntity
  8
外形線
100
AcDbLine
 10
166.0679896515612
 20
140.8343655974453
 30
0.0
 11
166.0679896515612
 21
140.2143836812435
 31
0.0
  0
LINE
  5
852
330
18
100
AcDbEntity
  8
外形線
100
AcDbLine
 10
174.5679896515612
 20
140.1252538655489
 30
0.0
 11
174.5679896515612
 21
137.5042314227291
 31
0.0
  0
LINE
  5
853
330
18
100
AcDbEntity
  8
外形線
100
AcDbLine
 10
165.5679896515612
 20
140.1252538655481
 30
0.0
 11
165.5679896515612
 21
137.5042314227284
 31
0.0
  0
ELLIPSE
  5
855
330
18
100
AcDbEntity
  8
外形線
100
AcDbEllipse
 10
170.0679896515612
 20
140.1252538655486
 30
0.0
 11
-4.5
 21
0.0
 31
0.0
210
0.0
220
0.0
230
1.0
 40
0.2588190451025159
 41
-0.4758822496603723
 42
3.617474903250253
  0
ELLIPSE
  5
857
330
18
100
AcDbEntity
  8
外形線
100
AcDbEllipse
 10
170.0679896515612
 20
137.5042314227288
 30
0.0
 11
-4.5
 21
0.0
 31
0.0
210
0.0
220
0.0
230
1.0
 40
0.2588190451025159
 41
0.0
 42
3.141592653589793
  0
ELLIPSE
  5
85B
330
18
100
AcDbEntity
  8
外形線
100
AcDbEllipse
 10
170.0679896515612
 20
140.7479528116834
 30
0.0
 11
-4.5
 21
0.0
 31
0.0
210
0.0
220
0.0
230
1.0
 40
0.2588190451025159
 41
0.4758822496604608
 42
2.66571040392942
  0
ELLIPSE
  5
861
330
18
100
AcDbEntity
  8
外形線
100
AcDbEllipse
 10
170.0679896515612
 20
133.2929351662644
 30
0.0
 11
-3.0
 21
0.0
 31
0.0
210
0.0
220
0.0
230
1.0
 40
0.2449955737995519
 41
0.0
 42
3.141592653589793
  0
LINE
  5
862
330
18
100
AcDbEntity
  8
外形線
100
AcDbLine
 10
173.0679896515612
 20
136.6361259546478
 30
0.0
 11
173.0679896515612
 21
133.2929351662645
 31
0.0
  0
LINE
  5
863
330
18
100
AcDbEntity
  8
外形線
100
AcDbLine
 10
167.0679896515612
 20
136.6361259546475
 30
0.0
 11
167.0679896515612
 21
133.2929351662641
 31
0.0
  0
ARC
  5
865
330
18
100
AcDbEntity
  8
外形線
100
AcDbCircle
 10
352.734656318228
 20
107.4092124044758
 30
0.0
 40
193.0666666666667
100
AcDbArc
 50
172.6196122596948
 51
186.9342863464043
  0
ARC
  5
866
330
18
100
AcDbEntity
  8
外形線
100
AcDbCircle
 10
172.2671321329385
 20
135.6100401638303
 30
0.0
 40
11.51317676456242
100
AcDbArc
 50
172.7049379092088
 51
197.1775465671375
  0
ARC
  5
867
330
18
100
AcDbEntity
  8
外形線
100
AcDbCircle
 10
172.9412939667082
 20
80.5314963323064
 30
0.0
 40
12.38628383968187
100
AcDbArc
 50
163.2551965685733
 51
186.0197151914278
  0
LINE
  5
86A
330
18
100
AcDbEntity
  8
外形線
100
AcDbLine
 10
179.0679896515612
 20
130.4092124044757
 30
0.0
 11
180.0679896515612
 21
130.4092124044758
 31
0.0
  0
LINE
  5
86B
330
18
100
AcDbEntity
  8
外形線
100
AcDbLine
 10
179.0679896515612
 20
84.40921240447579
 30
0.0
 11
180.0679896515612
 21
84.40921240447579
 31
0.0
  0
LINE
  5
86C
330
18
100
AcDbEntity
  8
外形線
100
AcDbLine
 10
173.967989651561
 20
57.20921240447577
 30
0.0
 11
173.9679896515611
 21
54.2092124044758
 31
0.0
  0
LINE
  5
86D
330
18
100
AcDbEntity
  8
外形線
100
AcDbLine
 10
166.1679896515611
 20
57.2092124044758
 30
0.0
 11
166.1679896515612
 21
54.2092124044758
 31
0.0
  0
LINE
  5
86E
330
18
100
AcDbEntity
  8
外形線
100
AcDbLine
 10
173.567989651561
 20
44.15921240447582
 30
0.0
 11
172.546303604651
 21
44.96421240447583
 31
0.0
  0
LINE
  5
86F
330
18
100
AcDbEntity
  8
外形線
100
AcDbLine
 10
166.5679896515614
 20
44.15921240447582
 30
0.0
 11
167.5896756984714
 21
44.96421240447583
 31
0.0
  0
LINE
  5
870
330
18
100
AcDbEntity
  8
外形線
100
AcDbLine
 10
168.0679896515612
 20
52.20921240447579
 30
0.0
 11
168.0679896515612
 21
42.40921240447579
 31
0.0
  0
LINE
  5
871
330
18
100
AcDbEntity
  8
外形線
100
AcDbLine
 10
172.0679896515612
 20
52.20921240447579
 30
0.0
 11
172.0679896515612
 21
42.40921240447579
 31
0.0
  0
LINE
  5
872
330
18
100
AcDbEntity
  8
外形線
100
AcDbLine
 10
167.5271901889098
 20
43.4034455670008
 30
0.0
 11
166.5679896515614
 21
44.15921240447582
 31
0.0
  0
LINE
  5
873
330
18
100
AcDbEntity
  8
外形線
100
AcDbLine
 10
172.5679896515613
 20
39.80921240447583
 30
0.0
 11
172.5679896515613
 21
38.90921240447582
 31
0.0
  0
LINE
  5
874
330
18
100
AcDbEntity
  8
外形線
100
AcDbLine
 10
167.5679896515611
 20
39.80921240447583
 30
0.0
 11
167.5679896515611
 21
38.90921240447582
 31
0.0
  0
LINE
  5
875
330
18
100
AcDbEntity
  8
中心線
100
AcDbLine
 10
169.717508299095
 20
38.9092124044758
 30
0.0
 11
170.0679896515612
 21
39.51626391405276
 31
0.0
  0
LINE
  5
876
330
18
100
AcDbEntity
  8
中心線
100
AcDbLine
 10
168.5628077607159
 20
38.90921240447582
 30
0.0
 11
169.0824230029865
 21
39.8092124044758
 31
0.0
  0
LINE
  5
877
330
18
100
AcDbEntity
  8
中心線
100
AcDbLine
 10
168.4773367167061
 20
38.90921240447585
 30
0.0
 11
167.9577214744355
 21
39.8092124044758
 31
0.0
  0
LINE
  5
878
330
18
100
AcDbEntity
  8
中心線
100
AcDbLine
 10
169.6320372550853
 20
38.90921240447588
 30
0.0
 11
169.1124220128146
 21
39.8092124044758
 31
0.0
  0
LINE
  5
879
330
18
100
AcDbEntity
  8
中心線
100
AcDbLine
 10
167.9854574915263
 20
38.90921240447585
 30
0.0
 11
168.5050727337969
 21
39.8092124044758
 31
0.0
  0
LINE
  5
87A
330
18
100
AcDbEntity
  8
中心線
100
AcDbLine
 10
169.1401580299055
 20
38.90921240447588
 30
0.0
 11
169.6597732721761
 21
39.8092124044758
 31
0.0
  0
LINE
  5
87B
330
18
100
AcDbEntity
  8
中心線
100
AcDbLine
 10
169.0546869858957
 20
38.90921240447588
 30
0.0
 11
168.5350717436251
 21
39.8092124044758
 31
0.0
  0
LINE
  5
87C
330
18
100
AcDbEntity
  8
中心線
100
AcDbLine
 10
167.8999864475166
 20
38.90921240447582
 30
0.0
 11
167.5679896515612
 21
39.48424772302053
 31
0.0
  0
ARC
  5
87D
330
18
100
AcDbEntity
  8
外形線
100
AcDbCircle
 10
170.0679896515612
 20
34.5592124044758
 30
0.0
 40
1.149999999999999
100
AcDbArc
 50
187.494717453927
 51
352.5052825460744
  0
LINE
  5
87E
330
18
100
AcDbEntity
  8
外形線
100
AcDbLine
 10
168.7679896515613
 20
34.40921240447579
 30
0.0
 11
171.3679896515611
 21
34.40921240447583
 31
0.0
  0
LINE
  5
87F
330
18
100
AcDbEntity
  8
外形線
100
AcDbLine
 10
167.5679896515611
 20
38.90921240447582
 30
0.0
 11
172.5679896515613
 21
38.90921240447582
 31
0.0
  0
POINT
  5
880
330
18
100
AcDbEntity
  8
DEFPOINTS
  6
ByBlock
 62
     0
100
AcDbPoint
 10
170.0679896515612
 20
33.4092124044758
 30
0.0
  0
LINE
  5
881
330
18
100
AcDbEntity
  8
外形線
100
AcDbLine
 10
167.5679896515611
 20
38.90921240447582
 30
0.0
 11
168.7679896515613
 21
34.40921240447583
 31
0.0
  0
LINE
  5
882
330
18
100
AcDbEntity
  8
外形線
100
AcDbLine
 10
172.5679896515613
 20
38.90921240447582
 30
0.0
 11
171.3679896515611
 21
34.40921240447583
 31
0.0
  0
LINE
  5
883
330
18
100
AcDbEntity
  8
外形線
100
AcDbLine
 10
167.5679896515611
 20
41.90921240447582
 30
0.0
 11
172.5679896515613
 21
41.90921240447582
 31
0.0
  0
LINE
  5
884
330
18
100
AcDbEntity
  8
外形線
100
AcDbLine
 10
167.5679896515611
 20
41.00921240447582
 30
0.0
 11
172.5679896515613
 21
41.00921240447582
 31
0.0
  0
LINE
  5
885
330
18
100
AcDbEntity
  8
外形線
100
AcDbLine
 10
167.5679896515611
 20
39.80921240447583
 30
0.0
 11
172.5679896515613
 21
39.80921240447583
 31
0.0
  0
LINE
  5
886
330
18
100
AcDbEntity
  8
外形線
100
AcDbLine
 10
167.1679896515612
 20
40.70921240447589
 30
0.0
 11
172.9679896515612
 21
40.70921240447589
 31
0.0
  0
LINE
  5
887
330
18
100
AcDbEntity
  8
外形線
100
AcDbLine
 10
167.8679896515611
 20
42.40921240447579
 30
0.0
 11
172.2679896515612
 21
42.40921240447579
 31
0.0
  0
LINE
  5
888
330
18
100
AcDbEntity
  8
外形線
100
AcDbLine
 10
167.5679896515611
 20
41.90921240447582
 30
0.0
 11
167.5679896515611
 21
41.00921240447584
 31
0.0
  0
ARC
  5
889
330
18
100
AcDbEntity
  8
外形線
100
AcDbCircle
 10
167.2074345240148
 20
40.40921240447576
 30
0.0
 40
0.7
100
AcDbArc
 50
301.0027191338767
 51
58.99728086613252
  0
LINE
  5
88A
330
18
100
AcDbEntity
  8
中心線
100
AcDbLine
 10
167.5679896515612
 20
39.18613689513032
 30
0.0
 11
167.9277224646072
 21
39.8092124044758
 31
0.0
  0
LINE
  5
88B
330
18
100
AcDbEntity
  8
中心線
100
AcDbLine
 10
170.0679896515612
 20
39.15412070409798
 30
0.0
 11
169.6897722820042
 21
39.8092124044758
 31
0.0
  0
LINE
  5
88C
330
18
100
AcDbEntity
  8
中心線
100
AcDbLine
 10
169.7175082990949
 20
41.00921240447584
 30
0.0
 11
170.0679896515611
 21
41.6162639140528
 31
0.0
  0
LINE
  5
88D
330
18
100
AcDbEntity
  8
中心線
100
AcDbLine
 10
170.0679896515611
 20
41.25412070409803
 30
0.0
 11
169.6897722820041
 21
41.90921240447585
 31
0.0
  0
LINE
  5
88E
330
18
100
AcDbEntity
  8
中心線
100
AcDbLine
 10
167.8999864475165
 20
41.00921240447587
 30
0.0
 11
167.5679896515611
 21
41.58424772302057
 31
0.0
  0
LINE
  5
88F
330
18
100
AcDbEntity
  8
中心線
100
AcDbLine
 10
169.1401580299054
 20
41.00921240447592
 30
0.0
 11
169.659773272176
 21
41.90921240447585
 31
0.0
  0
LINE
  5
890
330
18
100
AcDbEntity
  8
中心線
100
AcDbLine
 10
167.9854574915261
 20
41.0092124044759
 30
0.0
 11
168.5050727337968
 21
41.90921240447585
 31
0.0
  0
LINE
  5
891
330
18
100
AcDbEntity
  8
中心線
100
AcDbLine
 10
168.5628077607157
 20
41.00921240447587
 30
0.0
 11
169.0824230029864
 21
41.90921240447585
 31
0.0
  0
LINE
  5
892
330
18
100
AcDbEntity
  8
中心線
100
AcDbLine
 10
169.0546869858956
 20
41.00921240447592
 30
0.0
 11
168.535071743625
 21
41.90921240447585
 31
0.0
  0
LINE
  5
893
330
18
100
AcDbEntity
  8
中心線
100
AcDbLine
 10
168.477336716706
 20
41.0092124044759
 30
0.0
 11
167.9577214744354
 21
41.90921240447585
 31
0.0
  0
LINE
  5
894
330
18
100
AcDbEntity
  8
中心線
100
AcDbLine
 10
169.6320372550852
 20
41.00921240447592
 30
0.0
 11
169.1124220128145
 21
41.90921240447585
 31
0.0
  0
LINE
  5
895
330
18
100
AcDbEntity
  8
中心線
100
AcDbLine
 10
167.5679896515611
 20
41.28613689513037
 30
0.0
 11
167.9277224646071
 21
41.90921240447585
 31
0.0
  0
LINE
  5
896
330
18
100
AcDbEntity
  8
外形線
 48
0.5
100
AcDbLine
 10
167.1679896515612
 20
42.70921240447586
 30
0.0
 11
167.1679896515612
 21
40.70921240447589
 31
0.0
  0
LINE
  5
897
330
18
100
AcDbEntity
  8
外形線
100
AcDbLine
 10
167.1679896515612
 20
42.70921240447586
 30
0.0
 11
167.5271901889098
 21
43.4034455670008
 31
0.0
  0
LINE
  5
898
330
18
100
AcDbEntity
  8
外形線
100
AcDbLine
 10
167.8679896515611
 20
42.40921240447579
 30
0.0
 11
167.8679896515611
 21
41.90921240447579
 31
0.0
  0
LINE
  5
899
330
18
100
AcDbEntity
  8
外形線
100
AcDbLine
 10
172.5679896515613
 20
41.90921240447582
 30
0.0
 11
172.5679896515613
 21
41.00921240447584
 31
0.0
  0
ARC
  5
89A
330
18
100
AcDbEntity
  8
外形線
100
AcDbCircle
 10
172.9285447791076
 20
40.40921240447576
 30
0.0
 40
0.7
100
AcDbArc
 50
121.0027191338674
 51
238.9972808661233
  0
LINE
  5
89B
330
18
100
AcDbEntity
  8
外形線
 48
0.5
100
AcDbLine
 10
172.9679896515611
 20
42.70921240447586
 30
0.0
 11
172.9679896515612
 21
40.70921240447589
 31
0.0
  0
LINE
  5
89C
330
18
100
AcDbEntity
  8
外形線
100
AcDbLine
 10
172.6087891142126
 20
43.4034455670008
 30
0.0
 11
173.567989651561
 21
44.15921240447582
 31
0.0
  0
LINE
  5
89D
330
18
100
AcDbEntity
  8
外形線
100
AcDbLine
 10
172.9679896515612
 20
42.70921240447586
 30
0.0
 11
172.6087891142126
 21
43.4034455670008
 31
0.0
  0
LINE
  5
89E
330
18
100
AcDbEntity
  8
外形線
100
AcDbLine
 10
172.2679896515612
 20
42.40921240447579
 30
0.0
 11
172.2679896515612
 21
41.90921240447579
 31
0.0
  0
ARC
  5
89F
330
18
100
AcDbEntity
  8
外形線
100
AcDbCircle
 10
166.367989651561
 20
53.54540266921396
 30
0.0
 40
0.7
100
AcDbArc
 50
310.0052008848602
 51
71.49566077351135
  0
LINE
  5
8A0
330
18
100
AcDbEntity
  8
外形線
100
AcDbLine
 10
166.5679896515614
 20
45.76921240447584
 30
0.0
 11
167.5896756984714
 21
46.57421240447584
 31
0.0
  0
LINE
  5
8A1
330
18
100
AcDbEntity
  8
外形線
100
AcDbLine
 10
166.5679896515614
 20
47.37921240447582
 30
0.0
 11
167.5896756984714
 21
48.18421240447583
 31
0.0
  0
LINE
  5
8A2
330
18
100
AcDbEntity
  8
外形線
100
AcDbLine
 10
167.5896756984714
 20
46.57421240447582
 30
0.0
 11
166.5679896515614
 21
47.37921240447582
 31
0.0
  0
LINE
  5
8A3
330
18
100
AcDbEntity
  8
外形線
100
AcDbLine
 10
166.5679896515614
 20
48.98921240447584
 30
0.0
 11
167.5896756984714
 21
49.79421240447584
 31
0.0
  0
LINE
  5
8A4
330
18
100
AcDbEntity
  8
外形線
100
AcDbLine
 10
167.5896756984714
 20
48.18421240447583
 30
0.0
 11
166.5679896515614
 21
48.98921240447584
 31
0.0
  0
LINE
  5
8A5
330
18
100
AcDbEntity
  8
外形線
100
AcDbLine
 10
166.5679896515614
 20
50.59921240447582
 30
0.0
 11
167.5896756984714
 21
51.40421240447583
 31
0.0
  0
LINE
  5
8A6
330
18
100
AcDbEntity
  8
外形線
100
AcDbLine
 10
167.5896756984714
 20
49.79421240447582
 30
0.0
 11
166.5679896515614
 21
50.59921240447582
 31
0.0
  0
LINE
  5
8A7
330
18
100
AcDbEntity
  8
外形線
100
AcDbLine
 10
167.5896756984714
 20
51.40421240447583
 30
0.0
 11
166.5679896515614
 21
52.20921240447584
 31
0.0
  0
LINE
  5
8A8
330
18
100
AcDbEntity
  8
外形線
100
AcDbLine
 10
166.1679896515612
 20
54.2092124044758
 30
0.0
 11
173.9679896515611
 21
54.2092124044758
 31
0.0
  0
LINE
  5
8A9
330
18
100
AcDbEntity
  8
外形線
100
AcDbLine
 10
167.5896756984714
 20
44.96421240447583
 30
0.0
 11
166.5679896515614
 21
45.76921240447584
 31
0.0
  0
LINE
  5
8AA
330
18
100
AcDbEntity
  8
外形線
 48
0.5
100
AcDbLine
 10
166.5679896515613
 20
54.20921240447589
 30
0.0
 11
166.5679896515614
 21
52.20921240447586
 31
0.0
  0
LINE
  5
8AB
330
18
100
AcDbEntity
  8
外形線
100
AcDbLine
 10
172.0679896515611
 20
52.20921240447584
 30
0.0
 11
172.0679896515611
 21
46.20921240447583
 31
0.0
  0
LINE
  5
8AC
330
18
100
AcDbEntity
  8
外形線
100
AcDbLine
 10
173.567989651561
 20
50.59921240447582
 30
0.0
 11
172.546303604651
 21
51.40421240447583
 31
0.0
  0
LINE
  5
8AD
330
18
100
AcDbEntity
  8
外形線
100
AcDbLine
 10
168.0679896515612
 20
52.20921240447584
 30
0.0
 11
168.0679896515612
 21
46.20921240447583
 31
0.0
  0
LINE
  5
8AE
330
18
100
AcDbEntity
  8
外形線
100
AcDbLine
 10
172.546303604651
 20
49.79421240447582
 30
0.0
 11
173.567989651561
 21
50.59921240447582
 31
0.0
  0
LINE
  5
8AF
330
18
100
AcDbEntity
  8
外形線
100
AcDbLine
 10
172.546303604651
 20
48.18421240447583
 30
0.0
 11
173.567989651561
 21
48.98921240447584
 31
0.0
  0
LINE
  5
8B0
330
18
100
AcDbEntity
  8
外形線
100
AcDbLine
 10
173.567989651561
 20
48.98921240447584
 30
0.0
 11
172.546303604651
 21
49.79421240447584
 31
0.0
  0
LINE
  5
8B1
330
18
100
AcDbEntity
  8
外形線
100
AcDbLine
 10
172.546303604651
 20
46.57421240447582
 30
0.0
 11
173.567989651561
 21
47.37921240447582
 31
0.0
  0
LINE
  5
8B2
330
18
100
AcDbEntity
  8
外形線
100
AcDbLine
 10
173.567989651561
 20
47.37921240447582
 30
0.0
 11
172.546303604651
 21
48.18421240447583
 31
0.0
  0
LINE
  5
8B3
330
18
100
AcDbEntity
  8
外形線
100
AcDbLine
 10
173.567989651561
 20
45.76921240447584
 30
0.0
 11
172.546303604651
 21
46.57421240447584
 31
0.0
  0
LINE
  5
8B4
330
18
100
AcDbEntity
  8
外形線
100
AcDbLine
 10
172.546303604651
 20
44.96421240447583
 30
0.0
 11
173.567989651561
 21
45.76921240447584
 31
0.0
  0
LINE
  5
8B5
330
18
100
AcDbEntity
  8
外形線
100
AcDbLine
 10
166.8179896515611
 20
53.00921240447578
 30
0.0
 11
173.3179896515613
 21
53.00921240447582
 31
0.0
  0
LINE
  5
8B6
330
18
100
AcDbEntity
  8
外形線
100
AcDbLine
 10
167.0179896515612
 20
52.20921240447577
 30
0.0
 11
173.1179896515612
 21
52.2092124044758
 31
0.0
  0
LINE
  5
8B7
330
18
100
AcDbEntity
  8
外形線
100
AcDbLine
 10
166.8179896515612
 20
52.40921240447576
 30
0.0
 11
167.0179896515612
 21
52.20921240447577
 31
0.0
  0
LINE
  5
8B8
330
18
100
AcDbEntity
  8
外形線
100
AcDbLine
 10
166.8179896515611
 20
53.00921240447578
 30
0.0
 11
166.8179896515612
 21
52.40921240447576
 31
0.0
  0
ARC
  5
8B9
330
18
100
AcDbEntity
  8
外形線
100
AcDbCircle
 10
173.7679896515613
 20
53.54540266921396
 30
0.0
 40
0.7
100
AcDbArc
 50
108.5043392264886
 51
229.9947991151398
  0
LINE
  5
8BA
330
18
100
AcDbEntity
  8
外形線
 48
0.5
100
AcDbLine
 10
173.1179896515612
 20
52.2092124044758
 30
0.0
 11
173.3179896515612
 21
52.4092124044758
 31
0.0
  0
LINE
  5
8BB
330
18
100
AcDbEntity
  8
外形線
100
AcDbLine
 10
172.546303604651
 20
51.40421240447583
 30
0.0
 11
173.567989651561
 21
52.20921240447584
 31
0.0
  0
LINE
  5
8BC
330
18
100
AcDbEntity
  8
外形線
100
AcDbLine
 10
173.3179896515613
 20
53.00921240447582
 30
0.0
 11
173.3179896515612
 21
52.4092124044758
 31
0.0
  0
LINE
  5
8BD
330
18
100
AcDbEntity
  8
外形線
 48
0.5
100
AcDbLine
 10
173.5679896515613
 20
54.20921240447578
 30
0.0
 11
173.5679896515613
 21
52.20921240447572
 31
0.0
  0
LINE
  5
8BE
330
18
100
AcDbEntity
  8
外形線
100
AcDbLine
 10
166.0679896515612
 20
57.20921240447577
 30
0.0
 11
166.0679896515612
 21
73.24921240447579
 31
0.0
  0
LINE
  5
8BF
330
18
100
AcDbEntity
  8
外形線
100
AcDbLine
 10
174.0679896515612
 20
57.20921240447577
 30
0.0
 11
174.0679896515612
 21
73.24921240447579
 31
0.0
  0
LINE
  5
8C0
330
18
100
AcDbEntity
  8
外形線
100
AcDbLine
 10
166.0679896515612
 20
57.2092124044758
 30
0.0
 11
174.0679896515612
 21
57.20921240447577
 31
0.0
  0
LINE
  5
8C1
330
18
100
AcDbEntity
  8
外形線
100
AcDbLine
 10
166.1679896515611
 20
56.7092124044758
 30
0.0
 11
173.967989651561
 21
56.70921240447578
 31
0.0
  0
DIMENSION
  5
8FC
330
18
100
AcDbEntity
  8
文字
100
AcDbDimension
  2
*D4
 10
106.8727087181773
 20
26.7242691072874
 30
0.0
 11
81.87270871817736
 21
28.5992691072874
 31
0.0
 70
    32
 71
     5
 42
50.00000000000003
  3
STYLE3
100
AcDbAlignedDimension
 13
56.87270871817734
 23
107.4092124044758
 33
0.0
 14
106.8727087181773
 24
107.4092124044758
 34
0.0
100
AcDbRotatedDimension
1001
ACAD
1000
DSTYLE
1002
{
1070
   271
1070
     2
1002
}
  0
DIMENSION
  5
909
330
18
100
AcDbEntity
  8
文字
100
AcDbDimension
  2
*D5
 10
120.0449248047719
 20
141.4092124044758
 30
0.0
 11
118.1699248047718
 21
146.6592124044758
 31
0.0
 70
    32
 71
     5
 42
10.5
  3
STYLE3
100
AcDbAlignedDimension
 13
92.12270871817738
 23
151.9092124044758
 33
0.0
 14
91.62270871817737
 24
141.4092124044758
 34
0.0
 50
90.0
100
AcDbRotatedDimension
1001
ACAD
1000
DSTYLE
1002
{
1070
   271
1070
     2
1002
}
  0
DIMENSION
  5
920
330
18
100
AcDbEntity
  8
文字
100
AcDbDimension
  2
*D6
 10
120.0449248047718
 20
107.4092124044758
 30
0.0
 11
118.1699248047718
 21
124.4092124044758
 31
0.0
 70
    32
 71
     5
 42
34.00000000000003
  3
STYLE3
100
AcDbAlignedDimension
 13
91.62270871817737
 23
141.4092124044758
 33
0.0
 14
111.2174863408583
 24
107.4092124044758
 34
0.0
 50
90.0
100
AcDbRotatedDimension
1001
ACAD
1000
DSTYLE
1002
{
1070
    75
1070
     1
1070
   271
1070
     2
1070
   279
1070
     1
1002
}
  0
DIMENSION
  5
92C
330
18
100
AcDbEntity
  8
文字
100
AcDbDimension
  2
*D7
 10
120.0449248047718
 20
73.40730658672962
 30
0.0
 11
118.1699248047718
 21
90.40825949560272
 31
0.0
 70
    32
 71
     5
 42
34.00190581774618
  3
STYLE3
100
AcDbAlignedDimension
 13
111.2174863408583
 23
107.4092124044758
 33
0.0
 14
90.90658604294604
 24
73.40730658672963
 34
0.0
 50
90.0
100
AcDbRotatedDimension
1001
ACAD
1000
DSTYLE
1002
{
1070
    75
1070
     1
1070
   271
1070
     2
1070
   279
1070
     1
1002
}
  0
DIMENSION
  5
938
330
18
100
AcDbEntity
  8
文字
100
AcDbDimension
  2
*D8
 10
120.0449248047718
 20
52.2092124044758
 30
0.0
 11
118.1699248047718
 21
62.80825949560274
 31
0.0
 70
    32
 71
     5
 42
21.19809418225382
  3
STYLE3
100
AcDbAlignedDimension
 13
90.90658604294604
 23
73.40730658672963
 33
0.0
 14
84.92270871817737
 24
52.2092124044758
 34
0.0
 50
90.0
100
AcDbRotatedDimension
1001
ACAD
1000
DSTYLE
1002
{
1070
    75
1070
     1
1070
   271
1070
     2
1070
   279
1070
     1
1002
}
  0
DIMENSION
  5
982
330
18
100
AcDbEntity
  8
文字
100
AcDbDimension
  2
*D9
 10
120.0449248047718
 20
42.40921240447579
 30
0.0
 11
118.1699248047718
 21
47.30921240447581
 31
0.0
 70
    32
 71
     5
 42
9.800000000000011
  3
STYLE3
100
AcDbAlignedDimension
 13
84.92270871817737
 23
52.2092124044758
 33
0.0
 14
83.87270871817738
 24
42.40921240447579
 34
0.0
 50
90.0
100
AcDbRotatedDimension
1001
ACAD
1000
DSTYLE
1002
{
1070
    75
1070
     1
1070
   271
1070
     2
1070
   279
1070
     1
1002
}
  0
DIMENSION
  5
98E
330
18
100
AcDbEntity
  8
文字
100
AcDbDimension
  2
*D10
 10
120.0449248047718
 20
33.40921240447579
 30
0.0
 11
118.1699248047718
 21
37.90921240447581
 31
0.0
 70
    32
 71
     5
 42
9.0
  3
STYLE3
100
AcDbAlignedDimension
 13
83.87270871817738
 23
42.40921240447579
 33
0.0
 14
81.87270871817736
 24
33.4092124044758
 34
0.0
 50
90.0
100
AcDbRotatedDimension
1001
ACAD
1000
DSTYLE
1002
{
1070
    75
1070
     1
1070
   271
1070
     2
1070
   279
1070
     1
1002
}
  0
DIMENSION
  5
99B
330
18
100
AcDbEntity
  8
文字
100
AcDbDimension
  2
*D11
 10
127.724557387658
 20
33.4092124044758
 30
0.0
 11
125.849557387658
 21
70.4092124044758
 31
0.0
 70
    32
 71
     5
 42
73.99999999999998
  3
STYLE3
100
AcDbAlignedDimension
 13
121.2949248047718
 23
107.4092124044758
 33
0.0
 14
121.2949248047718
 24
33.4092124044758
 34
0.0
 50
90.0
100
AcDbRotatedDimension
1001
ACAD
1000
DSTYLE
1002
{
1070
   271
1070
     2
1002
}
  0
DIMENSION
  5
9A8
330
18
100
AcDbEntity
  8
文字
100
AcDbDimension
  2
*D12
 10
135.8214139580948
 20
33.4092124044758
 30
0.0
 11
133.9464139580948
 21
110.1592124044758
 31
0.0
 70
    32
 71
     5
 42
153.4999999999999
  3
STYLE3
100
AcDbAlignedDimension
 13
83.97244697214881
 23
186.9092124044757
 33
0.0
 14
128.974557387658
 24
33.4092124044758
 34
0.0
 50
90.0
100
AcDbRotatedDimension
1001
ACAD
1000
DSTYLE
1002
{
1070
   271
1070
     2
1002
}
  0
DIMENSION
  5
9B5
330
18
100
AcDbEntity
  8
文字
100
AcDbDimension
  2
*D13
 10
193.4159022186337
 20
84.40921240447579
 30
0.0
 11
191.5409022186337
 21
107.4092124044758
 31
0.0
 70
    32
  1
φ46
 71
     5
 42
45.99999999999998
  3
STYLE3
100
AcDbAlignedDimension
 13
180.0679896515612
 23
130.4092124044758
 33
0.0
 14
180.0679896515612
 24
84.40921240447579
 34
0.0
 50
90.0
100
AcDbRotatedDimension
1001
ACAD
1000
DSTYLE
1002
{
1070
   271
1070
     2
1002
}
  0
CIRCLE
  5
9C5
330
18
100
AcDbEntity
  8
外形線
100
AcDbCircle
 10
99.3642922310115
 20
89.54739541365569
 30
0.0
 40
3.0
  0
CIRCLE
  5
9C6
330
18
100
AcDbEntity
  8
外形線
100
AcDbCircle
 10
99.3642922310115
 20
89.54739541365569
 30
0.0
 40
2.5
  0
LINE
  5
9C7
330
18
100
AcDbEntity
  8
中心線
100
AcDbLine
 10
99.3642922310115
 20
93.37936699371168
 30
0.0
 11
99.3642922310115
 21
85.7154238335997
 31
0.0
  0
LINE
  5
9C8
330
18
100
AcDbEntity
  8
中心線
100
AcDbLine
 10
95.53232065095549
 20
89.54739541365569
 30
0.0
 11
103.1962638110675
 21
89.54739541365569
 31
0.0
  0
LINE
  5
9C9
330
18
100
AcDbEntity
  8
中心線
100
AcDbLine
 10
153.9634299857474
 20
89.54739541365569
 30
0.0
 11
163.2634838023417
 21
89.54739541365569
 31
0.0
  0
LINE
  5
9CA
330
18
100
AcDbEntity
  8
外形線
100
AcDbLine
 10
155.5679896515612
 20
92.54739541365568
 30
0.0
 11
158.0679896515612
 21
92.54739541365566
 31
0.0
  0
LINE
  5
9CB
330
18
100
AcDbEntity
  8
外形線
100
AcDbLine
 10
155.5679896515612
 20
86.5473954136557
 30
0.0
 11
158.0679896515612
 21
86.5473954136557
 31
0.0
  0
LINE
  5
9CC
330
18
100
AcDbEntity
  8
外形線
100
AcDbLine
 10
155.0679896515612
 20
92.04739541365567
 30
0.0
 11
155.0679896515612
 21
87.04739541365569
 31
0.0
  0
LINE
  5
9CD
330
18
100
AcDbEntity
  8
外形線
100
AcDbLine
 10
155.5679896515612
 20
86.5473954136557
 30
0.0
 11
155.0679896515612
 21
87.04739541365569
 31
0.0
  0
LINE
  5
9CE
330
18
100
AcDbEntity
  8
外形線
100
AcDbLine
 10
155.0679896515612
 20
92.04739541365567
 30
0.0
 11
155.5679896515612
 21
92.54739541365568
 31
0.0
  0
LINE
  5
9CF
330
18
100
AcDbEntity
  8
外形線
100
AcDbLine
 10
155.5679896515612
 20
92.54739541365568
 30
0.0
 11
155.5679896515612
 21
86.5473954136557
 31
0.0
  0
LINE
  5
9D0
330
18
100
AcDbEntity
  8
外形線
100
AcDbLine
 10
158.0679896515612
 20
92.54739541365566
 30
0.0
 11
158.0679896515612
 21
86.5473954136557
 31
0.0
  0
LINE
  5
9D1
330
18
100
AcDbEntity
  8
外形線
100
AcDbLine
 10
159.0679896515612
 20
91.54739541365572
 30
0.0
 11
159.0679896515612
 21
87.54739541365569
 31
0.0
  0
LINE
  5
9D4
330
18
100
AcDbEntity
  8
外形線
100
AcDbLine
 10
158.0679896515612
 20
92.54739541365566
 30
0.0
 11
159.0679896515612
 21
91.54739541365572
 31
0.0
  0
LINE
  5
9D5
330
18
100
AcDbEntity
  8
外形線
100
AcDbLine
 10
159.0679896515612
 20
87.54739541365569
 30
0.0
 11
158.0679896515612
 21
86.5473954136557
 31
0.0
  0
LINE
  5
9D6
330
18
100
AcDbEntity
  8
外形線
100
AcDbLine
 10
159.0679896515612
 20
91.04739541365569
 30
0.0
 11
160.3625462748624
 21
91.04739541365569
 31
0.0
  0
LINE
  5
9D7
330
18
100
AcDbEntity
  8
外形線
100
AcDbLine
 10
159.0679896515612
 20
88.0473954136557
 30
0.0
 11
160.6412992738163
 21
88.04739541365568
 31
0.0
  0
ARC
  5
9D8
330
18
100
AcDbEntity
  8
外形線
100
AcDbCircle
 10
353.6423896515613
 20
107.3292124044757
 30
0.0
 40
195.0744000000001
100
AcDbArc
 50
185.6725722186489
 51
190.0613502819215
  0
LINE
  5
9DA
330
18
100
AcDbEntity
  8
外形線
100
AcDbLine
 10
173.7723555962317
 20
146.9851877700342
 30
0.0
 11
173.7723555962317
 21
140.7066698991552
 31
0.0
  0
LINE
  5
9DB
330
18
100
AcDbEntity
  8
外形線
100
AcDbLine
 10
172.7723555962317
 20
146.7155526002254
 30
0.0
 11
172.7723555962317
 21
140.4370347293465
 31
0.0
  0
LINE
  5
9DC
330
18
100
AcDbEntity
  8
外形線
100
AcDbLine
 10
171.7723555962317
 20
146.5685361620085
 30
0.0
 11
171.7723555962317
 21
140.2900182911295
 31
0.0
  0
LINE
  5
9DD
330
18
100
AcDbEntity
  8
外形線
100
AcDbLine
 10
170.7723555962317
 20
146.496122956548
 30
0.0
 11
170.7723555962317
 21
140.217605085669
 31
0.0
  0
LINE
  5
9DE
330
18
100
AcDbEntity
  8
外形線
100
AcDbLine
 10
173.8779643261992
 20
139.5054866546249
 30
0.0
 11
173.8779643261992
 21
136.8844642118052
 31
0.0
  0
LINE
  5
9DF
330
18
100
AcDbEntity
  8
外形線
100
AcDbLine
 10
172.8779643261991
 20
139.2155484647433
 30
0.0
 11
172.8779643261991
 21
136.5945260219235
 31
0.0
  0
LINE
  5
9E0
330
18
100
AcDbEntity
  8
外形線
100
AcDbLine
 10
171.8779643261991
 20
139.0589322252556
 30
0.0
 11
171.8779643261991
 21
136.4379097824358
 31
0.0
  0
LINE
  5
9E1
330
18
100
AcDbEntity
  8
外形線
100
AcDbLine
 10
170.8779643261991
 20
138.9795902287666
 30
0.0
 11
170.8779643261991
 21
136.3585677859468
 31
0.0
  0
LINE
  5
9EB
330
18
100
AcDbEntity
  8
外形線
100
AcDbLine
 10
155.5679896515612
 20
91.54739541365568
 30
0.0
 11
158.0679896515612
 21
91.54739541365566
 31
0.0
  0
LINE
  5
9EC
330
18
100
AcDbEntity
  8
外形線
100
AcDbLine
 10
155.5679896515612
 20
90.54739541365568
 30
0.0
 11
158.0679896515612
 21
90.54739541365567
 31
0.0
  0
LINE
  5
9ED
330
18
100
AcDbEntity
  8
外形線
100
AcDbLine
 10
155.5679896515612
 20
89.54739541365567
 30
0.0
 11
158.0679896515612
 21
89.54739541365567
 31
0.0
  0
DIMENSION
  5
9FA
330
18
100
AcDbEntity
  8
外形線
100
AcDbDimension
  2
*D14
 10
170.0679896515612
 20
30.69101878351694
 30
0.0
 11
164.3179896515612
 21
32.56601878351694
 31
0.0
 70
    32
 71
     5
 42
11.5
  3
STYLE3
100
AcDbAlignedDimension
 13
158.5679896515612
 23
107.3292124044758
 33
0.0
 14
170.0679896515612
 24
32.07727565770222
 34
0.0
100
AcDbRotatedDimension
1001
ACAD
1000
DSTYLE
1002
{
1070
   271
1070
     2
1002
}
  0
DIMENSION
  5
A06
330
18
100
AcDbEntity
  8
外形線
100
AcDbDimension
  2
*D15
 10
180.0679896515612
 20
30.69101878351694
 30
0.0
 11
175.0679896515612
 21
32.56601878351694
 31
0.0
 70
    32
 71
     5
 42
10.0
  3
STYLE3
100
AcDbAlignedDimension
 13
170.0679896515612
 23
32.07727565770222
 33
0.0
 14
180.0679896515612
 24
84.40921240447579
 34
0.0
100
AcDbRotatedDimension
1001
ACAD
1000
DSTYLE
1002
{
1070
    75
1070
     1
1070
   271
1070
     2
1070
   279
1070
     1
1002
}
  0
DIMENSION
  5
A28
330
18
100
AcDbEntity
  8
外形線
100
AcDbDimension
  2
*D16
 10
180.0679896515612
 20
26.2130226721556
 30
0.0
 11
167.5679896515612
 21
28.0880226721556
 31
0.0
 70
    32
 71
     5
 42
25.00000000000003
  3
STYLE3
100
AcDbAlignedDimension
 13
155.0679896515612
 23
87.04739541365569
 33
0.0
 14
180.0679896515612
 24
29.44101878351694
 34
0.0
100
AcDbRotatedDimension
1001
ACAD
1000
DSTYLE
1002
{
1070
   271
1070
     2
1002
}
  0
LINE
  5
A68
330
18
100
AcDbEntity
  8
想像線
 48
0.3
100
AcDbLine
 10
83.57270871817737
 20
189.4971615812576
 30
0.0
 11
83.57270871817737
 21
186.9092124044758
 31
0.0
  0
LINE
  5
A69
330
18
100
AcDbEntity
  8
想像線
 48
0.3
100
AcDbLine
 10
80.17270871817734
 20
189.4971615812576
 30
0.0
 11
80.17270871817737
 21
186.9092124044758
 31
0.0
  0
ARC
  5
A6D
330
18
100
AcDbEntity
  8
想像線
 48
0.3
100
AcDbCircle
 10
81.02270871817735
 20
190.9694047676912
 30
0.0
 40
1.700000000000002
100
AcDbArc
 50
240.0000000000004
 51
299.9999999999996
  0
ARC
  5
A6E
330
18
100
AcDbEntity
  8
想像線
 48
0.3
100
AcDbCircle
 10
81.02270871817735
 20
188.0249183948241
 30
0.0
 40
1.700000000000002
100
AcDbArc
 50
60.0000000000004
 51
119.9999999999996
  0
ARC
  5
A6F
330
18
100
AcDbEntity
  8
想像線
 48
0.3
100
AcDbCircle
 10
82.72270871817738
 20
188.0249183948241
 30
0.0
 40
1.700000000000002
100
AcDbArc
 50
60.0000000000004
 51
119.9999999999996
  0
LINE
  5
AC9
330
18
100
AcDbEntity
  8
想像線
 48
0.3
100
AcDbLine
 10
78.19754784821578
 20
160.8860493956617
 30
0.0
 11
84.89857398741856
 21
160.8860493956617
 31
0.0
  0
LINE
  5
ACA
330
18
100
AcDbEntity
  8
想像線
 48
0.3
100
AcDbLine
 10
84.26026745233059
 20
161.8760067637468
 30
0.0
 11
84.89472496792263
 21
161.8760067637468
 31
0.0
  0
LINE
  5
ACB
330
18
100
AcDbEntity
  8
想像線
 48
0.3
100
AcDbLine
 10
84.89472496792263
 20
161.8760067637468
 30
0.0
 11
84.777187458713
 21
161.6402869559479
 31
0.0
  0
LINE
  5
ACC
330
18
100
AcDbEntity
  8
想像線
 48
0.3
100
AcDbLine
 10
85.0274156194858
 20
161.8760067637468
 30
0.0
 11
84.58326940934421
 21
160.9852778382049
 31
0.0
  0
LINE
  5
ACF
330
18
100
AcDbEntity
  8
想像線
 48
0.3
100
AcDbLine
 10
81.01106174344034
 20
161.3630848297976
 30
0.0
 11
81.41524087283086
 21
161.3630848297976
 31
0.0
  0
LINE
  5
AD0
330
18
100
AcDbEntity
  8
想像線
 48
0.3
100
AcDbLine
 10
81.03006919902254
 20
161.8760067637468
 30
0.0
 11
81.39623341724865
 21
161.8760067637468
 31
0.0
  0
LINE
  5
AD1
330
18
100
AcDbEntity
  8
想像線
 48
0.3
100
AcDbLine
 10
78.7026161055434
 20
160.9852778382049
 30
0.0
 11
84.58326940934421
 21
160.9852778382049
 31
0.0
  0
SPLINE
  5
AD4
330
18
100
AcDbEntity
  8
想像線
 48
0.3
100
AcDbSpline
210
0.0
220
0.0
230
1.0
 70
     8
 71
     3
 72
    18
 73
    14
 74
     0
 42
0.0000000001
 43
0.0000000001
 40
0.1087402787915014
 40
0.1087402787915014
 40
0.1087402787915014
 40
0.1087402787915014
 40
0.5992371417938475
 40
1.083176791562496
 40
1.448211145705696
 40
1.714037220764907
 40
2.164002567013297
 40
2.740236056362883
 40
3.395137510199602
 40
4.071816045172726
 40
4.784906178399433
 40
5.506895915094292
 40
6.060470601257719
 40
6.060470601257719
 40
6.060470601257719
 40
6.060470601257719
 10
79.46534171485047
 20
161.8760067637468
 30
0.0
 10
79.49026557501749
 20
161.8668725866626
 30
0.0
 10
79.53927808892576
 20
161.8475615404579
 30
0.0
 10
79.59909648481081
 20
161.8034873520435
 30
0.0
 10
79.63171885503564
 20
161.7526073028615
 30
0.0
 10
79.6630979229344
 20
161.7024741245653
 30
0.0
 10
79.66748936620646
 20
161.6305496013236
 30
0.0
 10
79.66029588544715
 20
161.5396195713697
 30
0.0
 10
79.61385542353799
 20
161.4447434685276
 30
0.0
 10
79.53931575078897
 20
161.3617611163616
 30
0.0
 10
79.44676954527906
 20
161.2953431239084
 30
0.0
 10
79.34917637935602
 20
161.2432067102023
 30
0.0
 10
79.27941675692014
 20
161.2426872314165
 30
0.0
 10
79.24914218951705
 20
161.2424617858798
 30
0.0
  0
LINE
  5
AD5
330
18
100
AcDbEntity
  8
想像線
 48
0.3
100
AcDbLine
 10
78.68736954724136
 20
161.8760067637468
 30
0.0
 11
78.19754784821578
 21
160.8860493956617
 31
0.0
  0
LINE
  5
AD6
330
18
100
AcDbEntity
  8
想像線
 48
0.3
100
AcDbLine
 10
79.92494836804358
 20
161.8760067637468
 30
0.0
 11
79.61147620502689
 21
161.2424617858798
 31
0.0
  0
LINE
  5
AD7
330
18
100
AcDbEntity
  8
想像線
 48
0.3
100
AcDbLine
 10
80.54017565381519
 20
161.3875807407889
 30
0.0
 11
80.46837214454706
 21
161.2424617858798
 31
0.0
  0
LINE
  5
AD8
330
18
100
AcDbEntity
  8
想像線
 48
0.3
100
AcDbLine
 10
81.03006919902254
 20
161.8760067637468
 30
0.0
 11
80.57320760267959
 21
161.2424617858798
 31
0.0
  0
LINE
  5
AD9
330
18
100
AcDbEntity
  8
想像線
 48
0.3
100
AcDbLine
 10
81.01106174344034
 20
161.3630848297976
 30
0.0
 11
80.9240781221897
 21
161.2424617858798
 31
0.0
  0
LINE
  5
ADA
330
18
100
AcDbEntity
  8
想像線
 48
0.3
100
AcDbLine
 10
79.24914218966614
 20
161.2424617858798
 30
0.0
 11
78.81897341881984
 21
161.2424617858798
 31
0.0
  0
LINE
  5
ADB
330
18
100
AcDbEntity
  8
想像線
 48
0.3
100
AcDbLine
 10
78.81897341881987
 20
161.2424617858798
 30
0.0
 11
78.7026161055434
 21
160.9852778382049
 31
0.0
  0
LINE
  5
ADC
330
18
100
AcDbEntity
  8
想像線
 48
0.3
100
AcDbLine
 10
79.61147620502689
 20
161.2424617858798
 30
0.0
 11
80.46837214454706
 21
161.2424617858798
 31
0.0
  0
LINE
  5
ADD
330
18
100
AcDbEntity
  8
想像線
 48
0.3
100
AcDbLine
 10
80.57320760267961
 20
161.2424617858798
 30
0.0
 11
80.9240781221897
 21
161.2424617858798
 31
0.0
  0
LINE
  5
ADE
330
18
100
AcDbEntity
  8
想像線
 48
0.3
100
AcDbLine
 10
78.68736954724136
 20
161.8760067637468
 30
0.0
 11
79.46534171485047
 21
161.8760067637468
 31
0.0
  0
LINE
  5
ADF
330
18
100
AcDbEntity
  8
想像線
 48
0.3
100
AcDbLine
 10
79.19063911322249
 20
161.6310131035733
 30
0.0
 11
78.99476505669449
 21
161.6310131035733
 31
0.0
  0
LINE
  5
AE0
330
18
100
AcDbEntity
  8
想像線
 48
0.3
100
AcDbLine
 10
79.15622566697431
 20
161.4625262599105
 30
0.0
 11
78.91853682927879
 21
161.4625262599105
 31
0.0
  0
LINE
  5
AE1
330
18
100
AcDbEntity
  8
想像線
 48
0.3
100
AcDbLine
 10
78.99476505669449
 20
161.6310131035733
 30
0.0
 11
78.91853682927879
 21
161.4625262599105
 31
0.0
  0
LINE
  5
AE2
330
18
100
AcDbEntity
  8
想像線
 48
0.3
100
AcDbLine
 10
79.92494836804354
 20
161.8760067637468
 30
0.0
 11
80.78184430756369
 21
161.8760067637468
 31
0.0
  0
SPLINE
  5
AE3
330
18
100
AcDbEntity
  8
想像線
 48
0.3
100
AcDbSpline
210
0.0
220
0.0
230
1.0
 70
     8
 71
     3
 72
    15
 73
    11
 74
     9
 42
0.0000000001
 43
0.0000000001
 44
0.0000000001
 40
0.0
 40
0.0
 40
0.0
 40
0.0
 40
0.0742852038590909
 40
0.1081551708376181
 40
0.1465998381500646
 40
0.1727901329955084
 40
0.2142103559253779
 40
0.2390199379856283
 40
0.2815850509457101
 40
0.295773430987964
 40
0.295773430987964
 40
0.295773430987964
 40
0.295773430987964
 10
79.19063911322249
 20
161.6310131035733
 30
0.0
 10
79.21853919523369
 20
161.6311409008415
 30
0.0
 10
79.25916018002668
 20
161.6313269666347
 30
0.0
 10
79.28137318126764
 20
161.5810786909742
 30
0.0
 10
79.27141625499186
 20
161.5487266400842
 30
0.0
 10
79.25889958716068
 20
161.5155111672256
 30
0.0
 10
79.23677980026496
 20
161.4929407524575
 30
0.0
 10
79.20709180630078
 20
161.4712016381897
 30
0.0
 10
79.1790352332771
 20
161.4685700210642
 30
0.0
 10
79.16078758198181
 20
161.4637350126042
 30
0.0
 10
79.15622566697429
 20
161.4625262599105
 30
0.0
 11
79.19063911322249
 21
161.6310131035733
 31
0.0
 11
79.26290740970897
 21
161.6138205227511
 31
0.0
 11
79.27667282778509
 21
161.5828739893698
 31
0.0
 11
79.26979021768912
 21
161.5450504236597
 31
0.0
 11
79.2594662036031
 21
161.5209808105086
 31
0.0
 11
79.23193536745085
 21
161.4900342771273
 31
0.0
 11
79.21128733927877
 21
161.4762802124696
 31
0.0
 11
79.16999108505041
 21
161.4659647760749
 31
0.0
 11
79.15622566697429
 21
161.4625262599105
 31
0.0
  0
LINE
  5
AE4
330
18
100
AcDbEntity
  8
想像線
 48
0.3
100
AcDbLine
 10
80.78184430756369
 20
161.8760067637468
 30
0.0
 11
80.71003718631738
 21
161.7308805088255
 31
0.0
  0
LINE
  5
AE5
330
18
100
AcDbEntity
  8
想像線
 48
0.3
100
AcDbLine
 10
80.25967433378548
 20
161.7308805088255
 30
0.0
 11
80.20353008813421
 21
161.6174098116951
 31
0.0
  0
LINE
  5
AE6
330
18
100
AcDbEntity
  8
想像線
 48
0.3
100
AcDbLine
 10
80.25967433378548
 20
161.7308805088255
 30
0.0
 11
80.71003718631738
 21
161.7308805088255
 31
0.0
  0
LINE
  5
AE7
330
18
100
AcDbEntity
  8
想像線
 48
0.3
100
AcDbLine
 10
80.20353008813421
 20
161.6174098116951
 30
0.0
 11
80.65389294066614
 21
161.6174098116951
 31
0.0
  0
LINE
  5
AE8
330
18
100
AcDbEntity
  8
想像線
 48
0.3
100
AcDbLine
 10
80.08981280128329
 20
161.3875807407889
 30
0.0
 11
80.54017565381519
 21
161.3875807407889
 31
0.0
  0
LINE
  5
AE9
330
18
100
AcDbEntity
  8
想像線
 48
0.3
100
AcDbLine
 10
80.145959423812
 20
161.5010562417232
 30
0.0
 11
80.59632227634393
 21
161.5010562417232
 31
0.0
  0
LINE
  5
AEA
330
18
100
AcDbEntity
  8
想像線
 48
0.3
100
AcDbLine
 10
80.65389294066614
 20
161.6174098116951
 30
0.0
 11
80.59632227634393
 21
161.5010562417232
 31
0.0
  0
LINE
  5
AEB
330
18
100
AcDbEntity
  8
想像線
 48
0.3
100
AcDbLine
 10
80.145959423812
 20
161.5010562417232
 30
0.0
 11
80.08981280128327
 21
161.3875807407889
 31
0.0
  0
SPLINE
  5
AEE
330
18
100
AcDbEntity
  8
想像線
 48
0.3
100
AcDbSpline
210
0.0
220
0.0
230
1.0
 70
     8
 71
     3
 72
    26
 73
    22
 74
    20
 42
0.0000000001
 43
0.0000000001
 44
0.0000000001
 40
0.0
 40
0.0
 40
0.0
 40
0.0
 40
0.114932317294985
 40
0.1918706042691379
 40
0.2473493747924701
 40
0.2887735776222223
 40
0.3425029428083393
 40
0.3817201414616345
 40
0.4525372615105442
 40
0.5101813791203331
 40
0.5493886155681816
 40
0.5878333183075883
 40
0.6566034173989694
 40
0.7052320855072738
 40
0.7314223803527119
 40
0.7686249205309493
 40
0.7954897095398233
 40
0.8344079193476495
 40
0.8564322597495637
 40
0.9043596949373485
 40
0.9262437781858603
 40
0.9262437781858603
 40
0.9262437781858603
 40
0.9262437781858603
 10
84.26026745233041
 20
161.8760067637468
 30
0.0
 10
84.221257648038
 20
161.8736793719279
 30
0.0
 10
84.15613380038429
 20
161.8697939715012
 30
0.0
 10
84.08462821182737
 20
161.826355094366
 30
0.0
 10
84.03223903148397
 20
161.8011016401166
 30
0.0
 10
83.99487513159828
 20
161.7667717205172
 30
0.0
 10
83.96748724151999
 20
161.7313114213241
 30
0.0
 10
83.9329596645431
 20
161.6890607348372
 30
0.0
 10
83.90480341214496
 20
161.6398615201437
 30
0.0
 10
83.89046514452742
 20
161.5856354084972
 30
0.0
 10
83.87776444315663
 20
161.5424168828852
 30
0.0
 10
83.86834539039854
 20
161.4942554762232
 30
0.0
 10
83.87074186407016
 20
161.4422242147313
 30
0.0
 10
83.87417372404566
 20
161.3939002427813
 30
0.0
 10
83.88949614431835
 20
161.3594041618999
 30
0.0
 10
83.90694566694065
 20
161.334845329409
 30
0.0
 10
83.92831236842164
 20
161.3077964981299
 30
0.0
 10
83.95169221235589
 20
161.2898821447614
 30
0.0
 10
83.97102925168496
 20
161.2574290898185
 30
0.0
 10
84.00487808670822
 20
161.2532878459548
 30
0.0
 10
84.02639375287368
 20
161.2450455346702
 30
0.0
 10
84.03313835090074
 20
161.2424617858798
 30
0.0
 11
84.26026745233041
 21
161.8760067637468
 31
0.0
 11
84.14670290161556
 21
161.8583282349695
 31
0.0
 11
84.07787581123498
 21
161.8239431854239
 31
0.0
 11
84.02969694691066
 21
161.796435168207
 31
0.0
 11
83.9987249046525
 21
161.7689270388915
 31
0.0
 11
83.96431145840432
 21
161.7276649570169
 31
0.0
 11
83.94022202624215
 21
161.6967184236357
 31
0.0
 11
83.90580838210977
 21
161.6348252447744
 31
0.0
 11
83.88860175792773
 21
161.5798090982421
 31
0.0
 11
83.87827774384172
 21
161.5419855325319
 31
0.0
 11
83.87139493586154
 21
161.5041619668218
 31
0.0
 11
83.87139493586154
 21
161.4353918677304
 31
0.0
 11
83.87827774384172
 21
161.3872527535269
 31
0.0
 11
83.88860175792773
 21
161.3631831403758
 31
0.0
 11
83.90924978609982
 21
161.3322366069946
 31
0.0
 11
83.92645660816604
 21
161.3116055100079
 31
0.0
 11
83.95398724643406
 21
161.2840974927911
 31
0.0
 11
83.96775266451021
 21
161.2669049119689
 31
0.0
 11
84.01249032272867
 21
161.2497124432454
 31
0.0
 11
84.03313835090074
 21
161.2424617858798
 31
0.0
  0
SPLINE
  5
AEF
330
18
100
AcDbEntity
  8
想像線
 48
0.3
100
AcDbSpline
210
0.0
220
0.0
230
1.0
 70
     8
 71
     3
 72
    26
 73
    22
 74
    20
 42
0.0000000001
 43
0.0000000001
 44
0.0000000001
 40
0.0
 40
0.0
 40
0.0
 40
0.0
 40
0.114932317294985
 40
0.1918706042691252
 40
0.2473493747924838
 40
0.2887735776222254
 40
0.3425029428083424
 40
0.3817201414616376
 40
0.4525372615105473
 40
0.5101813791203319
 40
0.549388615568188
 40
0.5878333183075948
 40
0.6566034173989759
 40
0.7052320855072802
 40
0.7314223803527296
 40
0.7686249205309512
 40
0.7954897095398343
 40
0.8344079193476304
 40
0.8564322597495534
 40
0.9043596949373249
 40
0.9262437781858595
 40
0.9262437781858595
 40
0.9262437781858595
 40
0.9262437781858595
 10
82.21892917960969
 20
161.8760067637468
 30
0.0
 10
82.1799193753173
 20
161.8736793719279
 30
0.0
 10
82.11479552766361
 20
161.8697939715012
 30
0.0
 10
82.04328993910664
 20
161.8263550943661
 30
0.0
 10
81.99090075876325
 20
161.8011016401165
 30
0.0
 10
81.95353685887758
 20
161.7667717205172
 30
0.0
 10
81.92614896879925
 20
161.7313114213241
 30
0.0
 10
81.89162139182242
 20
161.6890607348372
 30
0.0
 10
81.86346513942423
 20
161.6398615201436
 30
0.0
 10
81.84912687180675
 20
161.5856354084973
 30
0.0
 10
81.8364261704359
 20
161.5424168828851
 30
0.0
 10
81.82700711767784
 20
161.4942554762231
 30
0.0
 10
81.82940359134944
 20
161.4422242147313
 30
0.0
 10
81.83283545132495
 20
161.3939002427813
 30
0.0
 10
81.84815787159767
 20
161.3594041618999
 30
0.0
 10
81.86560739421992
 20
161.3348453294091
 30
0.0
 10
81.88697409570094
 20
161.30779649813
 30
0.0
 10
81.91035393963515
 20
161.2898821447614
 30
0.0
 10
81.92969097896428
 20
161.2574290898185
 30
0.0
 10
81.96353981398752
 20
161.2532878459549
 30
0.0
 10
81.98505548015296
 20
161.2450455346702
 30
0.0
 10
81.99180007818004
 20
161.2424617858798
 30
0.0
 11
82.21892917960969
 21
161.8760067637468
 31
0.0
 11
82.10536462889484
 21
161.8583282349695
 31
0.0
 11
82.03653753851426
 21
161.8239431854239
 31
0.0
 11
81.98835867418994
 21
161.796435168207
 31
0.0
 11
81.9573866319318
 21
161.7689270388915
 31
0.0
 11
81.92297318568362
 21
161.7276649570169
 31
0.0
 11
81.89888375352145
 21
161.6967184236357
 31
0.0
 11
81.86447010938906
 21
161.6348252447744
 31
0.0
 11
81.84726348520703
 21
161.5798090982421
 31
0.0
 11
81.836939471121
 21
161.5419855325319
 31
0.0
 11
81.83005666314082
 21
161.5041619668218
 31
0.0
 11
81.83005666314082
 21
161.4353918677304
 31
0.0
 11
81.836939471121
 21
161.3872527535269
 31
0.0
 11
81.84726348520703
 21
161.3631831403758
 31
0.0
 11
81.8679115133791
 21
161.3322366069946
 31
0.0
 11
81.88511833544534
 21
161.3116055100079
 31
0.0
 11
81.91264897371334
 21
161.2840974927911
 31
0.0
 11
81.92641439178951
 21
161.2669049119689
 31
0.0
 11
81.97115205000795
 21
161.2497124432454
 31
0.0
 11
81.99180007818004
 21
161.2424617858798
 31
0.0
  0
LINE
  5
AF0
330
18
100
AcDbEntity
  8
想像線
 48
0.3
100
AcDbLine
 10
81.39623341724865
 20
161.8760067637468
 30
0.0
 11
81.8530950135916
 21
161.2424617858798
 31
0.0
  0
LINE
  5
AF1
330
18
100
AcDbEntity
  8
想像線
 48
0.3
100
AcDbLine
 10
81.41524087283086
 20
161.3630848297976
 30
0.0
 11
81.5022244940815
 21
161.2424617858798
 31
0.0
  0
LINE
  5
AF2
330
18
100
AcDbEntity
  8
想像線
 48
0.3
100
AcDbLine
 10
82.65501697215894
 20
161.4781790974704
 30
0.0
 11
82.53748070763942
 21
161.2424617858798
 31
0.0
  0
LINE
  5
AF3
330
18
100
AcDbEntity
  8
想像線
 48
0.3
100
AcDbLine
 10
84.69635524487964
 20
161.4781790974704
 30
0.0
 11
84.57881898036012
 21
161.2424617858798
 31
0.0
  0
ARC
  5
AF4
330
18
100
AcDbEntity
  8
想像線
 48
0.3
100
AcDbCircle
 10
83.18752372085242
 20
161.5592342748133
 30
0.0
 40
0.3170399864842043
100
AcDbArc
 50
92.3538081120337
 51
270.0
  0
ARC
  5
AF5
330
18
100
AcDbEntity
  8
想像線
 48
0.3
100
AcDbCircle
 10
83.43068550856873
 20
161.5589667772626
 30
0.0
 40
0.3170399864842043
100
AcDbArc
 50
273.3290215232082
 51
90.0000000000006
  0
LINE
  5
AF6
330
18
100
AcDbEntity
  8
想像線
 48
0.3
100
AcDbLine
 10
81.99180007818
 20
161.2424617858798
 30
0.0
 11
82.53748070763942
 21
161.2424617858798
 31
0.0
  0
LINE
  5
AF7
330
18
100
AcDbEntity
  8
想像線
 48
0.3
100
AcDbLine
 10
81.8530950135916
 20
161.2424617858798
 30
0.0
 11
81.5022244940815
 21
161.2424617858798
 31
0.0
  0
LINE
  5
AF8
330
18
100
AcDbEntity
  8
想像線
 48
0.3
100
AcDbLine
 10
83.17450284205042
 20
161.2424617858798
 30
0.0
 11
83.4490959257198
 21
161.2424617858798
 31
0.0
  0
LINE
  5
AF9
330
18
100
AcDbEntity
  8
想像線
 48
0.3
100
AcDbLine
 10
83.17450284205021
 20
161.2424617858798
 30
0.0
 11
83.44909592572003
 21
161.2424617858798
 31
0.0
  0
LINE
  5
AFA
330
18
100
AcDbEntity
  8
想像線
 48
0.3
100
AcDbLine
 10
84.03313835090068
 20
161.2424617858798
 30
0.0
 11
84.57881898036012
 21
161.2424617858798
 31
0.0
  0
LINE
  5
AFB
330
18
100
AcDbEntity
  8
想像線
 48
0.3
100
AcDbLine
 10
81.2131513081356
 20
161.6433290652879
 30
0.0
 11
81.10280599175021
 21
161.4903095915858
 31
0.0
  0
LINE
  5
AFC
330
18
100
AcDbEntity
  8
想像線
 48
0.3
100
AcDbLine
 10
81.10280599175021
 20
161.4903095915858
 30
0.0
 11
81.32349662452098
 21
161.4903095915858
 31
0.0
  0
LINE
  5
AFD
330
18
100
AcDbEntity
  8
想像線
 48
0.3
100
AcDbLine
 10
81.2131513081356
 20
161.6433290652879
 30
0.0
 11
81.32349662452098
 21
161.4903095915858
 31
0.0
  0
SPLINE
  5
AFE
330
18
100
AcDbEntity
  8
想像線
 48
0.3
100
AcDbSpline
210
0.0
220
0.0
230
1.0
 70
     8
 71
     3
 72
    16
 73
    12
 74
    10
 42
0.0000000001
 43
0.0000000001
 44
0.0000000001
 40
0.0
 40
0.0
 40
0.0
 40
0.0
 40
0.0605929757058536
 40
0.0901882747025431
 40
0.104782650590779
 40
0.1201627461789808
 40
0.1421869990747607
 40
0.1622411782446313
 40
0.1831572199081235
 40
0.2182244751044609
 40
0.252933729554985
 40
0.252933729554985
 40
0.252933729554985
 40
0.252933729554985
 10
82.33937634042048
 20
161.6402869559479
 30
0.0
 10
82.31885681086081
 20
161.6371586152346
 30
0.0
 10
82.28831497086806
 20
161.6325023056817
 30
0.0
 10
82.2606959644248
 20
161.6106394040492
 30
0.0
 10
82.24512076242078
 20
161.5976324328501
 30
0.0
 10
82.23982200930938
 20
161.580407510766
 30
0.0
 10
82.22559122242129
 20
161.5671814147468
 30
0.0
 10
82.213861006173
 20
161.5490045014622
 30
0.0
 10
82.21106009643262
 20
161.5240382166442
 30
0.0
 10
82.21311602830935
 20
161.4890018407831
 30
0.0
 10
82.2376815031888
 20
161.481774317879
 30
0.0
 10
82.24990122186785
 20
161.4781790974704
 30
0.0
 11
82.33937634042048
 21
161.6402869559479
 31
0.0
 11
82.28087346201013
 21
161.6245096962811
 31
0.0
 11
82.25678402984797
 21
161.6073172275576
 31
0.0
 11
82.24646001576195
 21
161.5970016790643
 31
0.0
 11
82.23957720778177
 21
161.5832476144065
 31
0.0
 11
82.22581178970566
 21
161.566055145683
 31
0.0
 11
82.21548777561961
 21
161.5488625648608
 31
0.0
 11
82.21204637162953
 21
161.5282315799729
 31
0.0
 11
82.21892917960969
 21
161.4938464183285
 31
0.0
 11
82.24990122186785
 21
161.4781790974704
 31
0.0
  0
LINE
  5
AFF
330
18
100
AcDbEntity
  8
想像線
 48
0.3
100
AcDbLine
 10
82.85338669520191
 20
161.8760067637468
 30
0.0
 11
82.7358491859923
 21
161.6402869559479
 31
0.0
  0
LINE
  5
B00
330
18
100
AcDbEntity
  8
想像線
 48
0.3
100
AcDbLine
 10
82.33937634042048
 20
161.6402869559479
 30
0.0
 11
82.7358491859923
 21
161.6402869559479
 31
0.0
  0
LINE
  5
B01
330
18
100
AcDbEntity
  8
想像線
 48
0.3
100
AcDbLine
 10
82.24990122186781
 20
161.4781790974704
 30
0.0
 11
82.65501697215894
 21
161.4781790974704
 31
0.0
  0
LINE
  5
B02
330
18
100
AcDbEntity
  8
想像線
 48
0.3
100
AcDbLine
 10
82.21892917960989
 20
161.8760067637468
 30
0.0
 11
82.85338669520191
 21
161.8760067637468
 31
0.0
  0
LINE
  5
B03
330
18
100
AcDbEntity
  8
想像線
 48
0.3
100
AcDbLine
 10
83.31366059728884
 20
161.619918653246
 30
0.0
 11
83.33661985610763
 21
161.6167095686025
 31
0.0
  0
LINE
  5
B04
330
18
100
AcDbEntity
  8
想像線
 48
0.3
100
AcDbLine
 10
83.39173430166409
 20
161.5555646181024
 30
0.0
 11
83.38330314936499
 21
161.4952442996067
 31
0.0
  0
LINE
  5
B05
330
18
100
AcDbEntity
  8
想像線
 48
0.3
100
AcDbLine
 10
83.23240280367002
 20
161.5175400847443
 30
0.0
 11
83.24083395596915
 21
161.57786040324
 31
0.0
  0
LINE
  5
B06
330
18
100
AcDbEntity
  8
想像線
 48
0.3
100
AcDbLine
 10
83.29176534774768
 20
161.4632700269362
 30
0.0
 11
83.3147246065665
 21
161.4600609422927
 31
0.0
  0
ARC
  5
B07
330
18
100
AcDbEntity
  8
想像線
 48
0.3
100
AcDbCircle
 10
83.32529671782841
 20
161.551091361445
 30
0.0
 40
0.0665880062101451
100
AcDbArc
 50
3.851923331663601
 51
80.20940670206341
  0
ARC
  5
B08
330
18
100
AcDbEntity
  8
想像線
 48
0.3
100
AcDbCircle
 10
83.30472514274456
 20
161.5513097858727
 30
0.0
 40
0.0691882867988374
100
AcDbArc
 50
82.57970078354313
 51
157.4341870372611
  0
ARC
  5
B09
330
18
100
AcDbEntity
  8
想像線
 48
0.3
100
AcDbCircle
 10
83.29558388339322
 20
161.527048352173
 30
0.0
 40
0.0638925346537704
100
AcDbArc
 50
188.5583509056651
 51
266.5736774635929
  0
ARC
  5
B0A
330
18
100
AcDbEntity
  8
想像線
 48
0.3
100
AcDbCircle
 10
83.32846699545999
 20
161.5177021036845
 30
0.0
 40
0.0592567020605202
100
AcDbArc
 50
256.5902863289752
 51
337.7287536965499
  0
LINE
  5
B0B
330
18
100
AcDbEntity
  8
想像線
 48
0.3
100
AcDbLine
 10
83.17450284205028
 20
161.8760067637468
 30
0.0
 11
83.3540451148146
 21
161.8760067637468
 31
0.0
  0
LINE
  5
B0C
330
18
100
AcDbEntity
  8
想像線
 48
0.3
100
AcDbLine
 10
83.17450284205021
 20
161.8760067637468
 30
0.0
 11
83.43068550856873
 21
161.8760067637468
 31
0.0
  0
SPLINE
  5
B0D
330
18
100
AcDbEntity
  8
想像線
 48
0.3
100
AcDbSpline
210
0.0
220
0.0
230
1.0
 70
     8
 71
     3
 72
    16
 73
    12
 74
    10
 42
0.0000000001
 43
0.0000000001
 44
0.0000000001
 40
0.0
 40
0.0
 40
0.0
 40
0.0
 40
0.0605929757058462
 40
0.0901882747025473
 40
0.104782650590763
 40
0.1201627461789648
 40
0.1421869990747448
 40
0.1622411782446227
 40
0.1831572199081429
 40
0.2182244751044497
 40
0.2529337295549865
 40
0.2529337295549865
 40
0.2529337295549865
 40
0.2529337295549865
 10
84.3807146131412
 20
161.6402869559479
 30
0.0
 10
84.36019508358153
 20
161.6371586152346
 30
0.0
 10
84.32965324358878
 20
161.6325023056816
 30
0.0
 10
84.30203423714548
 20
161.6106394040492
 30
0.0
 10
84.2864590351415
 20
161.5976324328501
 30
0.0
 10
84.28116028203012
 20
161.580407510766
 30
0.0
 10
84.26692949514201
 20
161.5671814147468
 30
0.0
 10
84.25519927889368
 20
161.5490045014622
 30
0.0
 10
84.25239836915336
 20
161.5240382166442
 30
0.0
 10
84.25445430103007
 20
161.4890018407831
 30
0.0
 10
84.27901977590952
 20
161.481774317879
 30
0.0
 10
84.29123949458855
 20
161.4781790974704
 30
0.0
 11
84.3807146131412
 21
161.6402869559479
 31
0.0
 11
84.32221173473084
 21
161.6245096962811
 31
0.0
 11
84.29812230256867
 21
161.6073172275576
 31
0.0
 11
84.28779828848266
 21
161.5970016790643
 31
0.0
 11
84.28091548050248
 21
161.5832476144065
 31
0.0
 11
84.26715006242638
 21
161.566055145683
 31
0.0
 11
84.25682604834031
 21
161.5488625648608
 31
0.0
 11
84.25338464435023
 21
161.5282315799729
 31
0.0
 11
84.26026745233039
 21
161.4938464183285
 31
0.0
 11
84.29123949458855
 21
161.4781790974704
 31
0.0
  0
LINE
  5
B0E
330
18
100
AcDbEntity
  8
想像線
 48
0.3
100
AcDbLine
 10
84.29123949458853
 20
161.4781790974704
 30
0.0
 11
84.69635524487967
 21
161.4781790974704
 31
0.0
  0
LINE
  5
B0F
330
18
100
AcDbEntity
  8
想像線
 48
0.3
100
AcDbLine
 10
84.38071461314118
 20
161.6402869559479
 30
0.0
 11
84.777187458713
 21
161.6402869559479
 31
0.0
  0
LINE
  5
B10
330
18
100
AcDbEntity
  8
想像線
 48
0.3
100
AcDbLine
 10
85.27421999651224
 20
161.3810280797042
 30
0.0
 11
85.52103235469919
 21
160.8860493956617
 31
0.0
  0
LINE
  5
B11
330
18
100
AcDbEntity
  8
想像線
 48
0.3
100
AcDbLine
 10
85.0274156194858
 20
161.1444394615361
 30
0.0
 11
85.15625725155302
 21
160.8860493956617
 31
0.0
  0
LINE
  5
B12
330
18
100
AcDbEntity
  8
想像線
 48
0.3
100
AcDbLine
 10
85.0274156194858
 20
161.1444394615361
 30
0.0
 11
84.89857398741856
 21
160.8860493956617
 31
0.0
  0
LINE
  5
B13
330
18
100
AcDbEntity
  8
想像線
 48
0.3
100
AcDbLine
 10
85.15625725155302
 20
160.8860493956617
 30
0.0
 11
85.52103235469919
 21
160.8860493956617
 31
0.0
  0
LINE
  5
B14
330
18
100
AcDbEntity
  8
想像線
 48
0.3
100
AcDbLine
 10
85.27421999651224
 20
161.3810280797042
 30
0.0
 11
85.87387855302608
 21
161.8760067637468
 31
0.0
  0
LINE
  5
B15
330
18
100
AcDbEntity
  8
想像線
 48
0.3
100
AcDbLine
 10
85.50910344987995
 20
161.8760067637468
 30
0.0
 11
85.87387855302608
 21
161.8760067637468
 31
0.0
  0
LINE
  5
B16
330
18
100
AcDbEntity
  8
想像線
 48
0.3
100
AcDbLine
 10
85.0274156194858
 20
161.8760067637468
 30
0.0
 11
85.39219870379241
 21
161.8760067637468
 31
0.0
  0
LINE
  5
B17
330
18
100
AcDbEntity
  8
想像線
 48
0.3
100
AcDbLine
 10
85.39219870379241
 20
161.8760067637468
 30
0.0
 11
85.3383049297283
 21
161.7679235641846
 31
0.0
  0
LINE
  5
B18
330
18
100
AcDbEntity
  8
想像線
 48
0.3
100
AcDbLine
 10
85.3383049297283
 20
161.7679235641846
 30
0.0
 11
85.50910344987995
 21
161.8760067637468
 31
0.0
  0
LINE
  5
B92
102
{ACAD_REACTORS
330
BA8
102
}
330
18
100
AcDbEntity
  8
針
100
AcDbLine
 10
76.97782815476839
 20
88.53290618049141
 30
0.0
 11
76.673646522588
 21
88.61441140318651
 31
0.0
  0
CIRCLE
  5
B93
102
{ACAD_REACTORS
330
BA8
102
}
330
18
100
AcDbEntity
  8
針
100
AcDbCircle
 10
81.87270871817736
 20
107.4092124044758
 30
0.0
 40
1.9
  0
CIRCLE
  5
B94
330
18
100
AcDbEntity
  8
針
100
AcDbCircle
 10
81.87270871817736
 20
107.4092124044758
 30
0.0
 40
1.5
  0
CIRCLE
  5
B95
330
18
100
AcDbEntity
  8
針
100
AcDbCircle
 10
81.87270871817734
 20
107.4092124044758
 30
0.0
 40
0.0000000000000568
  0
CIRCLE
  5
B96
330
18
100
AcDbEntity
  8
針
100
AcDbCircle
 10
81.87270871817736
 20
107.4092124044758
 30
0.0
 40
0.475
  0
ARC
  5
B97
102
{ACAD_REACTORS
330
BA8
102
}
330
18
100
AcDbEntity
  8
針
100
AcDbCircle
 10
84.54801580166494
 20
103.4842624673376
 30
0.0
 40
3.0
100
AcDbArc
 50
135.5277208229603
 51
165.0
  0
ARC
  5
B98
102
{ACAD_REACTORS
330
BA8
102
}
330
18
100
AcDbEntity
  8
針
100
AcDbCircle
 10
77.59334985238351
 20
105.3477595920758
 30
0.0
 40
3.0
100
AcDbArc
 50
345.0
 51
14.47227917703957
  0
POINT
  5
B99
330
18
100
AcDbEntity
  8
DEFPOINTS
  6
ByBlock
 62
     0
100
AcDbPoint
 10
81.87270871817739
 20
107.4092124044758
 30
0.0
  0
POINT
  5
B9A
330
18
100
AcDbEntity
  8
DEFPOINTS
  6
ByBlock
 62
     0
100
AcDbPoint
 10
81.87270871817739
 20
107.4092124044758
 30
0.0
  0
LINE
  5
B9C
102
{ACAD_REACTORS
330
BA8
102
}
330
18
100
AcDbEntity
  8
針
100
AcDbLine
 10
76.97782815476839
 20
88.53290618049141
 30
0.0
 11
81.6502383227978
 21
104.2607196026451
 31
0.0
  0
LINE
  5
B9D
102
{ACAD_REACTORS
330
BA8
102
}
330
18
100
AcDbEntity
  8
針
100
AcDbLine
 10
76.673646522588
 20
88.61441140318651
 30
0.0
 11
80.49112733125074
 21
104.5713024567682
 31
0.0
  0
HATCH
  5
BA8
330
18
100
AcDbEntity
  8
針
100
AcDbHatch
 10
0.0
 20
0.0
 30
0.0
210
0.0
220
0.0
230
1.0
  2
SOLID
 70
     1
 71
     1
 91
        1
 92
        7
 72
     1
 73
     1
 93
        6
 10
76.673646522588
 20
88.61441140318655
 42
0.0
 10
76.97782815476839
 20
88.5329061804914
 42
0.0
 10
81.6502383227978
 20
104.2607196026451
 42
-0.1293106770632744
 10
82.4072473636931
 20
105.5859547604632
 42
-0.2805221108582043
 10
80.49815584984987
 20
106.0974942898747
 42
-0.1293106770632774
 10
80.49112733125074
 20
104.5713024567682
 42
0.0
 97
        6
330
B92
330
B9C
330
B97
330
B93
330
B98
330
B9D
 75
     0
 76
     1
 47
0.0534153898818126
 98
        1
 10
79.34748650455052
 20
98.32663868706667
450
        0
451
        0
460
0.0
461
0.0
452
        0
462
0.0
453
        0
470

  0
LINE
  5
BAA
330
18
100
AcDbEntity
  8
想像線
 48
0.3
100
AcDbLine
 10
86.83889258592046
 20
166.9092124044757
 30
0.0
 11
86.83889258592046
 21
151.9092124044758
 31
0.0
  0
LINE
  5
BAB
330
18
100
AcDbEntity
  8
外形線
100
AcDbLine
 10
72.87270871817733
 20
135.9092124044758
 30
0.0
 11
90.87270871817736
 21
135.9092124044758
 31
0.0
  0
TEXT
  5
BAC
330
18
100
AcDbEntity
  8
文字
100
AcDbText
 10
77.39054384865608
 20
136.6328227984527
 30
0.0
 40
1.7
  1
SIGNAL
 41
1.3
  7
4
100
AcDbText
  0
TEXT
  5
BAE
330
18
100
AcDbEntity
  8
文字
100
AcDbText
 10
74.29558957010783
 20
133.6022971237865
 30
0.0
 40
1.7
  1
INDICATOR
 41
1.199999999999999
  7
4
100
AcDbText
  0
LINE
  5
C55
330
18
100
AcDbEntity
  8
文字
100
AcDbLine
 10
72.98331430973445
 20
135.7317625937502
 30
0.0
 11
72.98331430973445
 21
135.7317625937502
 31
0.0
  0
LINE
  5
C56
330
18
100
AcDbEntity
  8
文字
100
AcDbLine
 10
73.30081430973445
 20
135.7317625937502
 30
0.0
 11
73.30081430973445
 21
135.7317625937502
 31
0.0
  0
LINE
  5
C57
330
18
100
AcDbEntity
  8
文字
100
AcDbLine
 10
73.61831430973444
 20
135.7317625937502
 30
0.0
 11
73.61831430973444
 21
135.7317625937502
 31
0.0
  0
LINE
  5
C58
330
18
100
AcDbEntity
  8
文字
100
AcDbLine
 10
73.93581430973447
 20
135.7317625937502
 30
0.0
 11
73.93581430973447
 21
135.7317625937502
 31
0.0
  0
LINE
  5
C59
330
18
100
AcDbEntity
  8
文字
100
AcDbLine
 10
74.25331430973447
 20
135.7317625937502
 30
0.0
 11
74.25331430973447
 21
135.7317625937502
 31
0.0
  0
LINE
  5
C5A
330
18
100
AcDbEntity
  8
文字
100
AcDbLine
 10
74.57081430973445
 20
135.7317625937502
 30
0.0
 11
74.57081430973445
 21
135.7317625937502
 31
0.0
  0
LINE
  5
C5B
330
18
100
AcDbEntity
  8
文字
100
AcDbLine
 10
74.88831430973448
 20
135.7317625937502
 30
0.0
 11
74.88831430973448
 21
135.7317625937502
 31
0.0
  0
LINE
  5
C5C
330
18
100
AcDbEntity
  8
文字
100
AcDbLine
 10
75.20581430973448
 20
135.7317625937502
 30
0.0
 11
75.20581430973448
 21
135.7317625937502
 31
0.0
  0
LINE
  5
C5D
330
18
100
AcDbEntity
  8
文字
100
AcDbLine
 10
75.52331430973447
 20
135.7317625937502
 30
0.0
 11
75.52331430973447
 21
135.7317625937502
 31
0.0
  0
LINE
  5
C5E
330
18
100
AcDbEntity
  8
文字
100
AcDbLine
 10
75.84081430973447
 20
135.7317625937502
 30
0.0
 11
75.84081430973447
 21
135.7317625937502
 31
0.0
  0
LINE
  5
C5F
330
18
100
AcDbEntity
  8
文字
100
AcDbLine
 10
76.15831430973447
 20
135.7317625937502
 30
0.0
 11
76.15831430973447
 21
135.7317625937502
 31
0.0
  0
LINE
  5
C60
330
18
100
AcDbEntity
  8
文字
100
AcDbLine
 10
76.47581430973449
 20
135.7317625937502
 30
0.0
 11
76.47581430973449
 21
135.7317625937502
 31
0.0
  0
LINE
  5
C61
330
18
100
AcDbEntity
  8
文字
100
AcDbLine
 10
76.79331430973448
 20
135.7317625937502
 30
0.0
 11
76.79331430973448
 21
135.7317625937502
 31
0.0
  0
LINE
  5
C62
330
18
100
AcDbEntity
  8
文字
100
AcDbLine
 10
77.11081430973448
 20
135.7317625937502
 30
0.0
 11
77.11081430973448
 21
135.7317625937502
 31
0.0
  0
LINE
  5
C63
330
18
100
AcDbEntity
  8
文字
100
AcDbLine
 10
77.4283143097345
 20
135.7317625937502
 30
0.0
 11
77.4283143097345
 21
135.7317625937502
 31
0.0
  0
LINE
  5
C64
330
18
100
AcDbEntity
  8
文字
100
AcDbLine
 10
77.7458143097345
 20
135.7317625937502
 30
0.0
 11
77.7458143097345
 21
135.7317625937502
 31
0.0
  0
LINE
  5
C65
330
18
100
AcDbEntity
  8
文字
100
AcDbLine
 10
78.06331430973449
 20
135.7317625937502
 30
0.0
 11
78.06331430973449
 21
135.7317625937502
 31
0.0
  0
LINE
  5
C66
330
18
100
AcDbEntity
  8
文字
100
AcDbLine
 10
78.38081430973449
 20
135.7317625937502
 30
0.0
 11
78.38081430973449
 21
135.7317625937502
 31
0.0
  0
LINE
  5
C67
330
18
100
AcDbEntity
  8
文字
100
AcDbLine
 10
78.69831430973448
 20
135.7317625937502
 30
0.0
 11
78.69831430973448
 21
135.7317625937502
 31
0.0
  0
LINE
  5
C68
330
18
100
AcDbEntity
  8
文字
100
AcDbLine
 10
79.0158143097345
 20
135.7317625937502
 30
0.0
 11
79.0158143097345
 21
135.7317625937502
 31
0.0
  0
LINE
  5
C69
330
18
100
AcDbEntity
  8
文字
100
AcDbLine
 10
79.3333143097345
 20
135.7317625937502
 30
0.0
 11
79.3333143097345
 21
135.7317625937502
 31
0.0
  0
LINE
  5
C6A
330
18
100
AcDbEntity
  8
文字
100
AcDbLine
 10
79.6508143097345
 20
135.7317625937502
 30
0.0
 11
79.6508143097345
 21
135.7317625937502
 31
0.0
  0
LINE
  5
C6B
330
18
100
AcDbEntity
  8
文字
100
AcDbLine
 10
79.96831430973452
 20
135.7317625937502
 30
0.0
 11
79.96831430973452
 21
135.7317625937502
 31
0.0
  0
LINE
  5
C6C
330
18
100
AcDbEntity
  8
文字
100
AcDbLine
 10
80.28581430973451
 20
135.7317625937502
 30
0.0
 11
80.28581430973451
 21
135.7317625937502
 31
0.0
  0
LINE
  5
C6D
330
18
100
AcDbEntity
  8
文字
100
AcDbLine
 10
80.60331430973452
 20
135.7317625937502
 30
0.0
 11
80.60331430973452
 21
135.7317625937502
 31
0.0
  0
LINE
  5
C6E
330
18
100
AcDbEntity
  8
文字
100
AcDbLine
 10
80.92081430973451
 20
135.7317625937502
 30
0.0
 11
80.92081430973451
 21
135.7317625937502
 31
0.0
  0
LINE
  5
C6F
330
18
100
AcDbEntity
  8
文字
100
AcDbLine
 10
81.23831430973451
 20
135.7317625937502
 30
0.0
 11
81.23831430973451
 21
135.7317625937502
 31
0.0
  0
LINE
  5
C70
330
18
100
AcDbEntity
  8
文字
100
AcDbLine
 10
81.55581430973454
 20
135.7317625937502
 30
0.0
 11
81.55581430973454
 21
135.7317625937502
 31
0.0
  0
LINE
  5
C71
330
18
100
AcDbEntity
  8
文字
100
AcDbLine
 10
81.87331430973443
 20
135.7317625937502
 30
0.0
 11
81.87331430973443
 21
135.7317625937502
 31
0.0
  0
LINE
  5
C72
330
18
100
AcDbEntity
  8
文字
100
AcDbLine
 10
82.19081430973446
 20
135.7317625937502
 30
0.0
 11
82.19081430973446
 21
135.7317625937502
 31
0.0
  0
LINE
  5
C73
330
18
100
AcDbEntity
  8
文字
100
AcDbLine
 10
82.50831430973446
 20
135.7317625937502
 30
0.0
 11
82.50831430973446
 21
135.7317625937502
 31
0.0
  0
LINE
  5
C74
330
18
100
AcDbEntity
  8
文字
100
AcDbLine
 10
82.82581430973445
 20
135.7317625937502
 30
0.0
 11
82.82581430973445
 21
135.7317625937502
 31
0.0
  0
LINE
  5
C75
330
18
100
AcDbEntity
  8
文字
100
AcDbLine
 10
83.14331430973448
 20
135.7317625937502
 30
0.0
 11
83.14331430973448
 21
135.7317625937502
 31
0.0
  0
LINE
  5
C76
330
18
100
AcDbEntity
  8
文字
100
AcDbLine
 10
83.46081430973447
 20
135.7317625937502
 30
0.0
 11
83.46081430973447
 21
135.7317625937502
 31
0.0
  0
LINE
  5
C77
330
18
100
AcDbEntity
  8
文字
100
AcDbLine
 10
83.77831430973447
 20
135.7317625937502
 30
0.0
 11
83.77831430973447
 21
135.7317625937502
 31
0.0
  0
LINE
  5
C78
330
18
100
AcDbEntity
  8
文字
100
AcDbLine
 10
84.09581430973446
 20
135.7317625937502
 30
0.0
 11
84.09581430973446
 21
135.7317625937502
 31
0.0
  0
LINE
  5
C79
330
18
100
AcDbEntity
  8
文字
100
AcDbLine
 10
84.41331430973447
 20
135.7317625937502
 30
0.0
 11
84.41331430973447
 21
135.7317625937502
 31
0.0
  0
LINE
  5
C7A
330
18
100
AcDbEntity
  8
文字
100
AcDbLine
 10
84.73081430973449
 20
135.7317625937502
 30
0.0
 11
84.73081430973449
 21
135.7317625937502
 31
0.0
  0
LINE
  5
C7B
330
18
100
AcDbEntity
  8
文字
100
AcDbLine
 10
85.04831430973448
 20
135.7317625937502
 30
0.0
 11
85.04831430973448
 21
135.7317625937502
 31
0.0
  0
LINE
  5
C7C
330
18
100
AcDbEntity
  8
文字
100
AcDbLine
 10
85.36581430973447
 20
135.7317625937502
 30
0.0
 11
85.36581430973447
 21
135.7317625937502
 31
0.0
  0
LINE
  5
C7D
330
18
100
AcDbEntity
  8
文字
100
AcDbLine
 10
85.68331430973449
 20
135.7317625937502
 30
0.0
 11
85.68331430973449
 21
135.7317625937502
 31
0.0
  0
LINE
  5
C7E
330
18
100
AcDbEntity
  8
文字
100
AcDbLine
 10
86.0008143097345
 20
135.7317625937502
 30
0.0
 11
86.0008143097345
 21
135.7317625937502
 31
0.0
  0
LINE
  5
C7F
330
18
100
AcDbEntity
  8
文字
100
AcDbLine
 10
86.31831430973448
 20
135.7317625937502
 30
0.0
 11
86.31831430973448
 21
135.7317625937502
 31
0.0
  0
LINE
  5
C80
330
18
100
AcDbEntity
  8
文字
100
AcDbLine
 10
86.63581430973449
 20
135.7317625937502
 30
0.0
 11
86.63581430973449
 21
135.7317625937502
 31
0.0
  0
LINE
  5
C81
330
18
100
AcDbEntity
  8
文字
100
AcDbLine
 10
86.95331430973448
 20
135.7317625937502
 30
0.0
 11
86.95331430973448
 21
135.7317625937502
 31
0.0
  0
LINE
  5
C82
330
18
100
AcDbEntity
  8
文字
100
AcDbLine
 10
87.2708143097345
 20
135.7317625937502
 30
0.0
 11
87.2708143097345
 21
135.7317625937502
 31
0.0
  0
LINE
  5
C83
330
18
100
AcDbEntity
  8
文字
100
AcDbLine
 10
87.58831430973449
 20
135.7317625937502
 30
0.0
 11
87.58831430973449
 21
135.7317625937502
 31
0.0
  0
LINE
  5
C84
330
18
100
AcDbEntity
  8
文字
100
AcDbLine
 10
87.9058143097345
 20
135.7317625937502
 30
0.0
 11
87.9058143097345
 21
135.7317625937502
 31
0.0
  0
LINE
  5
C85
330
18
100
AcDbEntity
  8
文字
100
AcDbLine
 10
88.22331430973452
 20
135.7317625937502
 30
0.0
 11
88.22331430973452
 21
135.7317625937502
 31
0.0
  0
LINE
  5
C86
330
18
100
AcDbEntity
  8
文字
100
AcDbLine
 10
88.54081430973451
 20
135.7317625937502
 30
0.0
 11
88.54081430973451
 21
135.7317625937502
 31
0.0
  0
LINE
  5
C87
330
18
100
AcDbEntity
  8
文字
100
AcDbLine
 10
88.85831430973452
 20
135.7317625937502
 30
0.0
 11
88.85831430973452
 21
135.7317625937502
 31
0.0
  0
LINE
  5
C88
330
18
100
AcDbEntity
  8
文字
100
AcDbLine
 10
89.1758143097345
 20
135.7317625937502
 30
0.0
 11
89.1758143097345
 21
135.7317625937502
 31
0.0
  0
LINE
  5
C89
330
18
100
AcDbEntity
  8
文字
100
AcDbLine
 10
89.49331430973449
 20
135.7317625937502
 30
0.0
 11
89.49331430973449
 21
135.7317625937502
 31
0.0
  0
LINE
  5
C8A
330
18
100
AcDbEntity
  8
文字
100
AcDbLine
 10
89.8108143097345
 20
135.7317625937502
 30
0.0
 11
89.8108143097345
 21
135.7317625937502
 31
0.0
  0
LINE
  5
C8B
330
18
100
AcDbEntity
  8
文字
100
AcDbLine
 10
90.12831430973449
 20
135.7317625937502
 30
0.0
 11
90.12831430973449
 21
135.7317625937502
 31
0.0
  0
LINE
  5
C8C
330
18
100
AcDbEntity
  8
文字
100
AcDbLine
 10
90.44581430973449
 20
135.7317625937502
 30
0.0
 11
90.44581430973449
 21
135.7317625937502
 31
0.0
  0
LINE
  5
C8D
330
18
100
AcDbEntity
  8
文字
100
AcDbLine
 10
90.76331430973448
 20
135.7317625937502
 30
0.0
 11
90.76331430973448
 21
135.7317625937502
 31
0.0
  0
LINE
  5
C8E
330
18
100
AcDbEntity
  8
文字
100
AcDbLine
 10
73.14206430973445
 20
135.4142625937502
 30
0.0
 11
73.14206430973445
 21
135.4142625937502
 31
0.0
  0
LINE
  5
C8F
330
18
100
AcDbEntity
  8
文字
100
AcDbLine
 10
73.45956430973444
 20
135.4142625937502
 30
0.0
 11
73.45956430973444
 21
135.4142625937502
 31
0.0
  0
LINE
  5
C90
330
18
100
AcDbEntity
  8
文字
100
AcDbLine
 10
73.77706430973444
 20
135.4142625937502
 30
0.0
 11
73.77706430973444
 21
135.4142625937502
 31
0.0
  0
LINE
  5
C91
330
18
100
AcDbEntity
  8
文字
100
AcDbLine
 10
74.09456430973446
 20
135.4142625937502
 30
0.0
 11
74.09456430973446
 21
135.4142625937502
 31
0.0
  0
LINE
  5
C92
330
18
100
AcDbEntity
  8
文字
100
AcDbLine
 10
89.65206430973443
 20
135.4142625937502
 30
0.0
 11
89.65206430973443
 21
135.4142625937502
 31
0.0
  0
LINE
  5
C93
330
18
100
AcDbEntity
  8
文字
100
AcDbLine
 10
89.96956430973444
 20
135.4142625937502
 30
0.0
 11
89.96956430973444
 21
135.4142625937502
 31
0.0
  0
LINE
  5
C94
330
18
100
AcDbEntity
  8
文字
100
AcDbLine
 10
90.28706430973443
 20
135.4142625937502
 30
0.0
 11
90.28706430973443
 21
135.4142625937502
 31
0.0
  0
LINE
  5
C95
330
18
100
AcDbEntity
  8
文字
100
AcDbLine
 10
90.60456430973443
 20
135.4142625937502
 30
0.0
 11
90.60456430973443
 21
135.4142625937502
 31
0.0
  0
LINE
  5
C96
330
18
100
AcDbEntity
  8
文字
100
AcDbLine
 10
72.98331430973445
 20
135.0967625937502
 30
0.0
 11
72.98331430973445
 21
135.0967625937502
 31
0.0
  0
LINE
  5
C97
330
18
100
AcDbEntity
  8
文字
100
AcDbLine
 10
73.30081430973445
 20
135.0967625937502
 30
0.0
 11
73.30081430973445
 21
135.0967625937502
 31
0.0
  0
LINE
  5
C98
330
18
100
AcDbEntity
  8
文字
100
AcDbLine
 10
73.61831430973444
 20
135.0967625937502
 30
0.0
 11
73.61831430973444
 21
135.0967625937502
 31
0.0
  0
LINE
  5
C99
330
18
100
AcDbEntity
  8
文字
100
AcDbLine
 10
73.93581430973447
 20
135.0967625937502
 30
0.0
 11
73.93581430973447
 21
135.0967625937502
 31
0.0
  0
LINE
  5
C9A
330
18
100
AcDbEntity
  8
文字
100
AcDbLine
 10
89.49331430973444
 20
135.0967625937502
 30
0.0
 11
89.49331430973444
 21
135.0967625937502
 31
0.0
  0
LINE
  5
C9B
330
18
100
AcDbEntity
  8
文字
100
AcDbLine
 10
89.81081430973445
 20
135.0967625937502
 30
0.0
 11
89.81081430973445
 21
135.0967625937502
 31
0.0
  0
LINE
  5
C9C
330
18
100
AcDbEntity
  8
文字
100
AcDbLine
 10
90.12831430973443
 20
135.0967625937502
 30
0.0
 11
90.12831430973443
 21
135.0967625937502
 31
0.0
  0
LINE
  5
C9D
330
18
100
AcDbEntity
  8
文字
100
AcDbLine
 10
90.44581430973442
 20
135.0967625937502
 30
0.0
 11
90.44581430973442
 21
135.0967625937502
 31
0.0
  0
LINE
  5
C9E
330
18
100
AcDbEntity
  8
文字
100
AcDbLine
 10
90.76331430973443
 20
135.0967625937502
 30
0.0
 11
90.76331430973443
 21
135.0967625937502
 31
0.0
  0
LINE
  5
C9F
330
18
100
AcDbEntity
  8
文字
100
AcDbLine
 10
73.14206430973445
 20
134.7792625937502
 30
0.0
 11
73.14206430973445
 21
134.7792625937502
 31
0.0
  0
LINE
  5
CA0
330
18
100
AcDbEntity
  8
文字
100
AcDbLine
 10
73.45956430973444
 20
134.7792625937502
 30
0.0
 11
73.45956430973444
 21
134.7792625937502
 31
0.0
  0
LINE
  5
CA1
330
18
100
AcDbEntity
  8
文字
100
AcDbLine
 10
73.77706430973447
 20
134.7792625937502
 30
0.0
 11
73.77706430973447
 21
134.7792625937502
 31
0.0
  0
LINE
  5
CA2
330
18
100
AcDbEntity
  8
文字
100
AcDbLine
 10
74.09456430973446
 20
134.7792625937502
 30
0.0
 11
74.09456430973446
 21
134.7792625937502
 31
0.0
  0
LINE
  5
CA3
330
18
100
AcDbEntity
  8
文字
100
AcDbLine
 10
89.65206430973443
 20
134.7792625937502
 30
0.0
 11
89.65206430973443
 21
134.7792625937502
 31
0.0
  0
LINE
  5
CA4
330
18
100
AcDbEntity
  8
文字
100
AcDbLine
 10
89.96956430973444
 20
134.7792625937502
 30
0.0
 11
89.96956430973444
 21
134.7792625937502
 31
0.0
  0
LINE
  5
CA5
330
18
100
AcDbEntity
  8
文字
100
AcDbLine
 10
90.28706430973443
 20
134.7792625937502
 30
0.0
 11
90.28706430973443
 21
134.7792625937502
 31
0.0
  0
LINE
  5
CA6
330
18
100
AcDbEntity
  8
文字
100
AcDbLine
 10
90.60456430973443
 20
134.7792625937502
 30
0.0
 11
90.60456430973443
 21
134.7792625937502
 31
0.0
  0
LINE
  5
CA7
330
18
100
AcDbEntity
  8
文字
100
AcDbLine
 10
72.98331430973445
 20
134.4617625937502
 30
0.0
 11
72.98331430973445
 21
134.4617625937502
 31
0.0
  0
LINE
  5
CA8
330
18
100
AcDbEntity
  8
文字
100
AcDbLine
 10
73.30081430973445
 20
134.4617625937502
 30
0.0
 11
73.30081430973445
 21
134.4617625937502
 31
0.0
  0
LINE
  5
CA9
330
18
100
AcDbEntity
  8
文字
100
AcDbLine
 10
73.61831430973447
 20
134.4617625937502
 30
0.0
 11
73.61831430973447
 21
134.4617625937502
 31
0.0
  0
LINE
  5
CAA
330
18
100
AcDbEntity
  8
文字
100
AcDbLine
 10
73.93581430973447
 20
134.4617625937502
 30
0.0
 11
73.93581430973447
 21
134.4617625937502
 31
0.0
  0
LINE
  5
CAB
330
18
100
AcDbEntity
  8
文字
100
AcDbLine
 10
89.49331430973444
 20
134.4617625937502
 30
0.0
 11
89.49331430973444
 21
134.4617625937502
 31
0.0
  0
LINE
  5
CAC
330
18
100
AcDbEntity
  8
文字
100
AcDbLine
 10
89.81081430973445
 20
134.4617625937502
 30
0.0
 11
89.81081430973445
 21
134.4617625937502
 31
0.0
  0
LINE
  5
CAD
330
18
100
AcDbEntity
  8
文字
100
AcDbLine
 10
90.12831430973443
 20
134.4617625937502
 30
0.0
 11
90.12831430973443
 21
134.4617625937502
 31
0.0
  0
LINE
  5
CAE
330
18
100
AcDbEntity
  8
文字
100
AcDbLine
 10
90.44581430973442
 20
134.4617625937502
 30
0.0
 11
90.44581430973442
 21
134.4617625937502
 31
0.0
  0
LINE
  5
CAF
330
18
100
AcDbEntity
  8
文字
100
AcDbLine
 10
90.76331430973443
 20
134.4617625937502
 30
0.0
 11
90.76331430973443
 21
134.4617625937502
 31
0.0
  0
LINE
  5
CB0
330
18
100
AcDbEntity
  8
文字
100
AcDbLine
 10
73.14206430973445
 20
134.1442625937502
 30
0.0
 11
73.14206430973445
 21
134.1442625937502
 31
0.0
  0
LINE
  5
CB1
330
18
100
AcDbEntity
  8
文字
100
AcDbLine
 10
73.45956430973448
 20
134.1442625937502
 30
0.0
 11
73.45956430973448
 21
134.1442625937502
 31
0.0
  0
LINE
  5
CB2
330
18
100
AcDbEntity
  8
文字
100
AcDbLine
 10
73.77706430973447
 20
134.1442625937502
 30
0.0
 11
73.77706430973447
 21
134.1442625937502
 31
0.0
  0
LINE
  5
CB3
330
18
100
AcDbEntity
  8
文字
100
AcDbLine
 10
74.09456430973446
 20
134.1442625937502
 30
0.0
 11
74.09456430973446
 21
134.1442625937502
 31
0.0
  0
LINE
  5
CB4
330
18
100
AcDbEntity
  8
文字
100
AcDbLine
 10
89.65206430973443
 20
134.1442625937502
 30
0.0
 11
89.65206430973443
 21
134.1442625937502
 31
0.0
  0
LINE
  5
CB5
330
18
100
AcDbEntity
  8
文字
100
AcDbLine
 10
89.96956430973444
 20
134.1442625937502
 30
0.0
 11
89.96956430973444
 21
134.1442625937502
 31
0.0
  0
LINE
  5
CB6
330
18
100
AcDbEntity
  8
文字
100
AcDbLine
 10
90.28706430973443
 20
134.1442625937502
 30
0.0
 11
90.28706430973443
 21
134.1442625937502
 31
0.0
  0
LINE
  5
CB7
330
18
100
AcDbEntity
  8
文字
100
AcDbLine
 10
90.60456430973443
 20
134.1442625937502
 30
0.0
 11
90.60456430973443
 21
134.1442625937502
 31
0.0
  0
LINE
  5
CB8
330
18
100
AcDbEntity
  8
文字
100
AcDbLine
 10
72.98331430973445
 20
133.8267625937502
 30
0.0
 11
72.98331430973445
 21
133.8267625937502
 31
0.0
  0
LINE
  5
CB9
330
18
100
AcDbEntity
  8
文字
100
AcDbLine
 10
73.30081430973445
 20
133.8267625937502
 30
0.0
 11
73.30081430973445
 21
133.8267625937502
 31
0.0
  0
LINE
  5
CBA
330
18
100
AcDbEntity
  8
文字
100
AcDbLine
 10
73.61831430973444
 20
133.8267625937502
 30
0.0
 11
73.61831430973444
 21
133.8267625937502
 31
0.0
  0
LINE
  5
CBB
330
18
100
AcDbEntity
  8
文字
100
AcDbLine
 10
73.93581430973447
 20
133.8267625937502
 30
0.0
 11
73.93581430973447
 21
133.8267625937502
 31
0.0
  0
LINE
  5
CBC
330
18
100
AcDbEntity
  8
文字
100
AcDbLine
 10
89.49331430973444
 20
133.8267625937502
 30
0.0
 11
89.49331430973444
 21
133.8267625937502
 31
0.0
  0
LINE
  5
CBD
330
18
100
AcDbEntity
  8
文字
100
AcDbLine
 10
89.81081430973445
 20
133.8267625937502
 30
0.0
 11
89.81081430973445
 21
133.8267625937502
 31
0.0
  0
LINE
  5
CBE
330
18
100
AcDbEntity
  8
文字
100
AcDbLine
 10
90.12831430973443
 20
133.8267625937502
 30
0.0
 11
90.12831430973443
 21
133.8267625937502
 31
0.0
  0
LINE
  5
CBF
330
18
100
AcDbEntity
  8
文字
100
AcDbLine
 10
90.44581430973442
 20
133.8267625937502
 30
0.0
 11
90.44581430973442
 21
133.8267625937502
 31
0.0
  0
LINE
  5
CC0
330
18
100
AcDbEntity
  8
文字
100
AcDbLine
 10
90.76331430973443
 20
133.8267625937502
 30
0.0
 11
90.76331430973443
 21
133.8267625937502
 31
0.0
  0
LINE
  5
CC1
330
18
100
AcDbEntity
  8
文字
100
AcDbLine
 10
73.14206430973445
 20
133.5092625937502
 30
0.0
 11
73.14206430973445
 21
133.5092625937502
 31
0.0
  0
LINE
  5
CC2
330
18
100
AcDbEntity
  8
文字
100
AcDbLine
 10
73.45956430973444
 20
133.5092625937502
 30
0.0
 11
73.45956430973444
 21
133.5092625937502
 31
0.0
  0
LINE
  5
CC3
330
18
100
AcDbEntity
  8
文字
100
AcDbLine
 10
73.77706430973444
 20
133.5092625937502
 30
0.0
 11
73.77706430973444
 21
133.5092625937502
 31
0.0
  0
LINE
  5
CC4
330
18
100
AcDbEntity
  8
文字
100
AcDbLine
 10
74.09456430973446
 20
133.5092625937502
 30
0.0
 11
74.09456430973446
 21
133.5092625937502
 31
0.0
  0
LINE
  5
CC5
330
18
100
AcDbEntity
  8
文字
100
AcDbLine
 10
89.65206430973443
 20
133.5092625937502
 30
0.0
 11
89.65206430973443
 21
133.5092625937502
 31
0.0
  0
LINE
  5
CC6
330
18
100
AcDbEntity
  8
文字
100
AcDbLine
 10
89.96956430973444
 20
133.5092625937502
 30
0.0
 11
89.96956430973444
 21
133.5092625937502
 31
0.0
  0
LINE
  5
CC7
330
18
100
AcDbEntity
  8
文字
100
AcDbLine
 10
90.28706430973443
 20
133.5092625937502
 30
0.0
 11
90.28706430973443
 21
133.5092625937502
 31
0.0
  0
LINE
  5
CC8
330
18
100
AcDbEntity
  8
文字
100
AcDbLine
 10
90.60456430973443
 20
133.5092625937502
 30
0.0
 11
90.60456430973443
 21
133.5092625937502
 31
0.0
  0
LINE
  5
CC9
330
18
100
AcDbEntity
  8
文字
100
AcDbLine
 10
72.98331430973445
 20
133.1917625937502
 30
0.0
 11
72.98331430973445
 21
133.1917625937502
 31
0.0
  0
LINE
  5
CCA
330
18
100
AcDbEntity
  8
文字
100
AcDbLine
 10
73.30081430973445
 20
133.1917625937502
 30
0.0
 11
73.30081430973445
 21
133.1917625937502
 31
0.0
  0
LINE
  5
CCB
330
18
100
AcDbEntity
  8
文字
100
AcDbLine
 10
73.61831430973444
 20
133.1917625937502
 30
0.0
 11
73.61831430973444
 21
133.1917625937502
 31
0.0
  0
LINE
  5
CCC
330
18
100
AcDbEntity
  8
文字
100
AcDbLine
 10
73.93581430973447
 20
133.1917625937502
 30
0.0
 11
73.93581430973447
 21
133.1917625937502
 31
0.0
  0
LINE
  5
CCD
330
18
100
AcDbEntity
  8
文字
100
AcDbLine
 10
89.49331430973444
 20
133.1917625937502
 30
0.0
 11
89.49331430973444
 21
133.1917625937502
 31
0.0
  0
LINE
  5
CCE
330
18
100
AcDbEntity
  8
文字
100
AcDbLine
 10
89.81081430973445
 20
133.1917625937502
 30
0.0
 11
89.81081430973445
 21
133.1917625937502
 31
0.0
  0
LINE
  5
CCF
330
18
100
AcDbEntity
  8
文字
100
AcDbLine
 10
90.12831430973443
 20
133.1917625937502
 30
0.0
 11
90.12831430973443
 21
133.1917625937502
 31
0.0
  0
LINE
  5
CD0
330
18
100
AcDbEntity
  8
文字
100
AcDbLine
 10
90.44581430973442
 20
133.1917625937502
 30
0.0
 11
90.44581430973442
 21
133.1917625937502
 31
0.0
  0
LINE
  5
CD1
330
18
100
AcDbEntity
  8
文字
100
AcDbLine
 10
90.76331430973443
 20
133.1917625937502
 30
0.0
 11
90.76331430973443
 21
133.1917625937502
 31
0.0
  0
LINE
  5
CD2
330
18
100
AcDbEntity
  8
文字
100
AcDbLine
 10
73.14206430973445
 20
132.8742625937502
 30
0.0
 11
73.14206430973445
 21
132.8742625937502
 31
0.0
  0
LINE
  5
CD3
330
18
100
AcDbEntity
  8
文字
100
AcDbLine
 10
73.45956430973444
 20
132.8742625937502
 30
0.0
 11
73.45956430973444
 21
132.8742625937502
 31
0.0
  0
LINE
  5
CD4
330
18
100
AcDbEntity
  8
文字
100
AcDbLine
 10
73.77706430973447
 20
132.8742625937502
 30
0.0
 11
73.77706430973447
 21
132.8742625937502
 31
0.0
  0
LINE
  5
CD5
330
18
100
AcDbEntity
  8
文字
100
AcDbLine
 10
74.09456430973446
 20
132.8742625937502
 30
0.0
 11
74.09456430973446
 21
132.8742625937502
 31
0.0
  0
LINE
  5
CD6
330
18
100
AcDbEntity
  8
文字
100
AcDbLine
 10
74.41206430973446
 20
132.8742625937502
 30
0.0
 11
74.41206430973446
 21
132.8742625937502
 31
0.0
  0
LINE
  5
CD7
330
18
100
AcDbEntity
  8
文字
100
AcDbLine
 10
74.72956430973448
 20
132.8742625937502
 30
0.0
 11
74.72956430973448
 21
132.8742625937502
 31
0.0
  0
LINE
  5
CD8
330
18
100
AcDbEntity
  8
文字
100
AcDbLine
 10
75.04706430973448
 20
132.8742625937502
 30
0.0
 11
75.04706430973448
 21
132.8742625937502
 31
0.0
  0
LINE
  5
CD9
330
18
100
AcDbEntity
  8
文字
100
AcDbLine
 10
75.36456430973448
 20
132.8742625937502
 30
0.0
 11
75.36456430973448
 21
132.8742625937502
 31
0.0
  0
LINE
  5
CDA
330
18
100
AcDbEntity
  8
文字
100
AcDbLine
 10
75.68206430973447
 20
132.8742625937502
 30
0.0
 11
75.68206430973447
 21
132.8742625937502
 31
0.0
  0
LINE
  5
CDB
330
18
100
AcDbEntity
  8
文字
100
AcDbLine
 10
75.99956430973446
 20
132.8742625937502
 30
0.0
 11
75.99956430973446
 21
132.8742625937502
 31
0.0
  0
LINE
  5
CDC
330
18
100
AcDbEntity
  8
文字
100
AcDbLine
 10
76.31706430973449
 20
132.8742625937502
 30
0.0
 11
76.31706430973449
 21
132.8742625937502
 31
0.0
  0
LINE
  5
CDD
330
18
100
AcDbEntity
  8
文字
100
AcDbLine
 10
76.63456430973448
 20
132.8742625937502
 30
0.0
 11
76.63456430973448
 21
132.8742625937502
 31
0.0
  0
LINE
  5
CDE
330
18
100
AcDbEntity
  8
文字
100
AcDbLine
 10
76.95206430973448
 20
132.8742625937502
 30
0.0
 11
76.95206430973448
 21
132.8742625937502
 31
0.0
  0
LINE
  5
CDF
330
18
100
AcDbEntity
  8
文字
100
AcDbLine
 10
77.26956430973451
 20
132.8742625937502
 30
0.0
 11
77.26956430973451
 21
132.8742625937502
 31
0.0
  0
LINE
  5
CE0
330
18
100
AcDbEntity
  8
文字
100
AcDbLine
 10
77.5870643097345
 20
132.8742625937502
 30
0.0
 11
77.5870643097345
 21
132.8742625937502
 31
0.0
  0
LINE
  5
CE1
330
18
100
AcDbEntity
  8
文字
100
AcDbLine
 10
77.90456430973449
 20
132.8742625937502
 30
0.0
 11
77.90456430973449
 21
132.8742625937502
 31
0.0
  0
LINE
  5
CE2
330
18
100
AcDbEntity
  8
文字
100
AcDbLine
 10
78.22206430973449
 20
132.8742625937502
 30
0.0
 11
78.22206430973449
 21
132.8742625937502
 31
0.0
  0
LINE
  5
CE3
330
18
100
AcDbEntity
  8
文字
100
AcDbLine
 10
78.53956430973449
 20
132.8742625937502
 30
0.0
 11
78.53956430973449
 21
132.8742625937502
 31
0.0
  0
LINE
  5
CE4
330
18
100
AcDbEntity
  8
文字
100
AcDbLine
 10
78.85706430973451
 20
132.8742625937502
 30
0.0
 11
78.85706430973451
 21
132.8742625937502
 31
0.0
  0
LINE
  5
CE5
330
18
100
AcDbEntity
  8
文字
100
AcDbLine
 10
79.17456430973451
 20
132.8742625937502
 30
0.0
 11
79.17456430973451
 21
132.8742625937502
 31
0.0
  0
LINE
  5
CE6
330
18
100
AcDbEntity
  8
文字
100
AcDbLine
 10
79.4920643097345
 20
132.8742625937502
 30
0.0
 11
79.4920643097345
 21
132.8742625937502
 31
0.0
  0
LINE
  5
CE7
330
18
100
AcDbEntity
  8
文字
100
AcDbLine
 10
79.80956430973453
 20
132.8742625937502
 30
0.0
 11
79.80956430973453
 21
132.8742625937502
 31
0.0
  0
LINE
  5
CE8
330
18
100
AcDbEntity
  8
文字
100
AcDbLine
 10
80.12706430973452
 20
132.8742625937502
 30
0.0
 11
80.12706430973452
 21
132.8742625937502
 31
0.0
  0
LINE
  5
CE9
330
18
100
AcDbEntity
  8
文字
100
AcDbLine
 10
80.44456430973452
 20
132.8742625937502
 30
0.0
 11
80.44456430973452
 21
132.8742625937502
 31
0.0
  0
LINE
  5
CEA
330
18
100
AcDbEntity
  8
文字
100
AcDbLine
 10
80.76206430973451
 20
132.8742625937502
 30
0.0
 11
80.76206430973451
 21
132.8742625937502
 31
0.0
  0
LINE
  5
CEB
330
18
100
AcDbEntity
  8
文字
100
AcDbLine
 10
81.0795643097345
 20
132.8742625937502
 30
0.0
 11
81.0795643097345
 21
132.8742625937502
 31
0.0
  0
LINE
  5
CEC
330
18
100
AcDbEntity
  8
文字
100
AcDbLine
 10
81.39706430973452
 20
132.8742625937502
 30
0.0
 11
81.39706430973452
 21
132.8742625937502
 31
0.0
  0
LINE
  5
CED
330
18
100
AcDbEntity
  8
文字
100
AcDbLine
 10
81.71456430973453
 20
132.8742625937502
 30
0.0
 11
81.71456430973453
 21
132.8742625937502
 31
0.0
  0
LINE
  5
CEE
330
18
100
AcDbEntity
  8
文字
100
AcDbLine
 10
82.03206430973446
 20
132.8742625937502
 30
0.0
 11
82.03206430973446
 21
132.8742625937502
 31
0.0
  0
LINE
  5
CEF
330
18
100
AcDbEntity
  8
文字
100
AcDbLine
 10
82.34956430973445
 20
132.8742625937502
 30
0.0
 11
82.34956430973445
 21
132.8742625937502
 31
0.0
  0
LINE
  5
CF0
330
18
100
AcDbEntity
  8
文字
100
AcDbLine
 10
82.66706430973446
 20
132.8742625937502
 30
0.0
 11
82.66706430973446
 21
132.8742625937502
 31
0.0
  0
LINE
  5
CF1
330
18
100
AcDbEntity
  8
文字
100
AcDbLine
 10
82.98456430973448
 20
132.8742625937502
 30
0.0
 11
82.98456430973448
 21
132.8742625937502
 31
0.0
  0
LINE
  5
CF2
330
18
100
AcDbEntity
  8
文字
100
AcDbLine
 10
83.30206430973447
 20
132.8742625937502
 30
0.0
 11
83.30206430973447
 21
132.8742625937502
 31
0.0
  0
LINE
  5
CF3
330
18
100
AcDbEntity
  8
文字
100
AcDbLine
 10
83.61956430973448
 20
132.8742625937502
 30
0.0
 11
83.61956430973448
 21
132.8742625937502
 31
0.0
  0
LINE
  5
CF4
330
18
100
AcDbEntity
  8
文字
100
AcDbLine
 10
83.93706430973447
 20
132.8742625937502
 30
0.0
 11
83.93706430973447
 21
132.8742625937502
 31
0.0
  0
LINE
  5
CF5
330
18
100
AcDbEntity
  8
文字
100
AcDbLine
 10
84.25456430973445
 20
132.8742625937502
 30
0.0
 11
84.25456430973445
 21
132.8742625937502
 31
0.0
  0
LINE
  5
CF6
330
18
100
AcDbEntity
  8
文字
100
AcDbLine
 10
84.57206430973448
 20
132.8742625937502
 30
0.0
 11
84.57206430973448
 21
132.8742625937502
 31
0.0
  0
LINE
  5
CF7
330
18
100
AcDbEntity
  8
文字
100
AcDbLine
 10
84.88956430973448
 20
132.8742625937502
 30
0.0
 11
84.88956430973448
 21
132.8742625937502
 31
0.0
  0
LINE
  5
CF8
330
18
100
AcDbEntity
  8
文字
100
AcDbLine
 10
85.20706430973447
 20
132.8742625937502
 30
0.0
 11
85.20706430973447
 21
132.8742625937502
 31
0.0
  0
LINE
  5
CF9
330
18
100
AcDbEntity
  8
文字
100
AcDbLine
 10
85.5245643097345
 20
132.8742625937502
 30
0.0
 11
85.5245643097345
 21
132.8742625937502
 31
0.0
  0
LINE
  5
CFA
330
18
100
AcDbEntity
  8
文字
100
AcDbLine
 10
85.8420643097345
 20
132.8742625937502
 30
0.0
 11
85.8420643097345
 21
132.8742625937502
 31
0.0
  0
LINE
  5
CFB
330
18
100
AcDbEntity
  8
文字
100
AcDbLine
 10
86.15956430973449
 20
132.8742625937502
 30
0.0
 11
86.15956430973449
 21
132.8742625937502
 31
0.0
  0
LINE
  5
CFC
330
18
100
AcDbEntity
  8
文字
100
AcDbLine
 10
86.47706430973448
 20
132.8742625937502
 30
0.0
 11
86.47706430973448
 21
132.8742625937502
 31
0.0
  0
LINE
  5
CFD
330
18
100
AcDbEntity
  8
文字
100
AcDbLine
 10
86.79456430973448
 20
132.8742625937502
 30
0.0
 11
86.79456430973448
 21
132.8742625937502
 31
0.0
  0
LINE
  5
CFE
330
18
100
AcDbEntity
  8
文字
100
AcDbLine
 10
87.11206430973451
 20
132.8742625937502
 30
0.0
 11
87.11206430973451
 21
132.8742625937502
 31
0.0
  0
LINE
  5
CFF
330
18
100
AcDbEntity
  8
文字
100
AcDbLine
 10
87.4295643097345
 20
132.8742625937502
 30
0.0
 11
87.4295643097345
 21
132.8742625937502
 31
0.0
  0
LINE
  5
D00
330
18
100
AcDbEntity
  8
文字
100
AcDbLine
 10
87.7470643097345
 20
132.8742625937502
 30
0.0
 11
87.7470643097345
 21
132.8742625937502
 31
0.0
  0
LINE
  5
D01
330
18
100
AcDbEntity
  8
文字
100
AcDbLine
 10
88.06456430973453
 20
132.8742625937502
 30
0.0
 11
88.06456430973453
 21
132.8742625937502
 31
0.0
  0
LINE
  5
D02
330
18
100
AcDbEntity
  8
文字
100
AcDbLine
 10
88.38206430973452
 20
132.8742625937502
 30
0.0
 11
88.38206430973452
 21
132.8742625937502
 31
0.0
  0
LINE
  5
D03
330
18
100
AcDbEntity
  8
文字
100
AcDbLine
 10
88.6995643097345
 20
132.8742625937502
 30
0.0
 11
88.6995643097345
 21
132.8742625937502
 31
0.0
  0
LINE
  5
D04
330
18
100
AcDbEntity
  8
文字
100
AcDbLine
 10
89.01706430973451
 20
132.8742625937502
 30
0.0
 11
89.01706430973451
 21
132.8742625937502
 31
0.0
  0
LINE
  5
D05
330
18
100
AcDbEntity
  8
文字
100
AcDbLine
 10
89.3345643097345
 20
132.8742625937502
 30
0.0
 11
89.3345643097345
 21
132.8742625937502
 31
0.0
  0
LINE
  5
D06
330
18
100
AcDbEntity
  8
文字
100
AcDbLine
 10
89.6520643097345
 20
132.8742625937502
 30
0.0
 11
89.6520643097345
 21
132.8742625937502
 31
0.0
  0
LINE
  5
D07
330
18
100
AcDbEntity
  8
文字
100
AcDbLine
 10
89.96956430973449
 20
132.8742625937502
 30
0.0
 11
89.96956430973449
 21
132.8742625937502
 31
0.0
  0
LINE
  5
D08
330
18
100
AcDbEntity
  8
文字
100
AcDbLine
 10
90.28706430973448
 20
132.8742625937502
 30
0.0
 11
90.28706430973448
 21
132.8742625937502
 31
0.0
  0
LINE
  5
D09
330
18
100
AcDbEntity
  8
文字
100
AcDbLine
 10
90.60456430973449
 20
132.8742625937502
 30
0.0
 11
90.60456430973449
 21
132.8742625937502
 31
0.0
  0
LINE
  5
D0A
330
18
100
AcDbEntity
  8
文字
100
AcDbLine
 10
72.98331430973445
 20
132.5567625937502
 30
0.0
 11
72.98331430973445
 21
132.5567625937502
 31
0.0
  0
LINE
  5
D0B
330
18
100
AcDbEntity
  8
文字
100
AcDbLine
 10
73.30081430973445
 20
132.5567625937502
 30
0.0
 11
73.30081430973445
 21
132.5567625937502
 31
0.0
  0
LINE
  5
D0C
330
18
100
AcDbEntity
  8
文字
100
AcDbLine
 10
73.61831430973447
 20
132.5567625937502
 30
0.0
 11
73.61831430973447
 21
132.5567625937502
 31
0.0
  0
LINE
  5
D0D
330
18
100
AcDbEntity
  8
文字
100
AcDbLine
 10
73.93581430973447
 20
132.5567625937502
 30
0.0
 11
73.93581430973447
 21
132.5567625937502
 31
0.0
  0
LINE
  5
D0E
330
18
100
AcDbEntity
  8
文字
100
AcDbLine
 10
74.25331430973447
 20
132.5567625937502
 30
0.0
 11
74.25331430973447
 21
132.5567625937502
 31
0.0
  0
LINE
  5
D0F
330
18
100
AcDbEntity
  8
文字
100
AcDbLine
 10
74.57081430973449
 20
132.5567625937502
 30
0.0
 11
74.57081430973449
 21
132.5567625937502
 31
0.0
  0
LINE
  5
D10
330
18
100
AcDbEntity
  8
文字
100
AcDbLine
 10
74.88831430973448
 20
132.5567625937502
 30
0.0
 11
74.88831430973448
 21
132.5567625937502
 31
0.0
  0
LINE
  5
D11
330
18
100
AcDbEntity
  8
文字
100
AcDbLine
 10
75.20581430973448
 20
132.5567625937502
 30
0.0
 11
75.20581430973448
 21
132.5567625937502
 31
0.0
  0
LINE
  5
D12
330
18
100
AcDbEntity
  8
文字
100
AcDbLine
 10
75.52331430973447
 20
132.5567625937502
 30
0.0
 11
75.52331430973447
 21
132.5567625937502
 31
0.0
  0
LINE
  5
D13
330
18
100
AcDbEntity
  8
文字
100
AcDbLine
 10
75.84081430973447
 20
132.5567625937502
 30
0.0
 11
75.84081430973447
 21
132.5567625937502
 31
0.0
  0
LINE
  5
D14
330
18
100
AcDbEntity
  8
文字
100
AcDbLine
 10
76.15831430973449
 20
132.5567625937502
 30
0.0
 11
76.15831430973449
 21
132.5567625937502
 31
0.0
  0
LINE
  5
D15
330
18
100
AcDbEntity
  8
文字
100
AcDbLine
 10
76.47581430973449
 20
132.5567625937502
 30
0.0
 11
76.47581430973449
 21
132.5567625937502
 31
0.0
  0
LINE
  5
D16
330
18
100
AcDbEntity
  8
文字
100
AcDbLine
 10
76.79331430973448
 20
132.5567625937502
 30
0.0
 11
76.79331430973448
 21
132.5567625937502
 31
0.0
  0
LINE
  5
D17
330
18
100
AcDbEntity
  8
文字
100
AcDbLine
 10
77.1108143097345
 20
132.5567625937502
 30
0.0
 11
77.1108143097345
 21
132.5567625937502
 31
0.0
  0
LINE
  5
D18
330
18
100
AcDbEntity
  8
文字
100
AcDbLine
 10
77.4283143097345
 20
132.5567625937502
 30
0.0
 11
77.4283143097345
 21
132.5567625937502
 31
0.0
  0
LINE
  5
D19
330
18
100
AcDbEntity
  8
文字
100
AcDbLine
 10
77.7458143097345
 20
132.5567625937502
 30
0.0
 11
77.7458143097345
 21
132.5567625937502
 31
0.0
  0
LINE
  5
D1A
330
18
100
AcDbEntity
  8
文字
100
AcDbLine
 10
78.06331430973449
 20
132.5567625937502
 30
0.0
 11
78.06331430973449
 21
132.5567625937502
 31
0.0
  0
LINE
  5
D1B
330
18
100
AcDbEntity
  8
文字
100
AcDbLine
 10
78.38081430973449
 20
132.5567625937502
 30
0.0
 11
78.38081430973449
 21
132.5567625937502
 31
0.0
  0
LINE
  5
D1C
330
18
100
AcDbEntity
  8
文字
100
AcDbLine
 10
78.69831430973452
 20
132.5567625937502
 30
0.0
 11
78.69831430973452
 21
132.5567625937502
 31
0.0
  0
LINE
  5
D1D
330
18
100
AcDbEntity
  8
文字
100
AcDbLine
 10
79.0158143097345
 20
132.5567625937502
 30
0.0
 11
79.0158143097345
 21
132.5567625937502
 31
0.0
  0
LINE
  5
D1E
330
18
100
AcDbEntity
  8
文字
100
AcDbLine
 10
79.3333143097345
 20
132.5567625937502
 30
0.0
 11
79.3333143097345
 21
132.5567625937502
 31
0.0
  0
LINE
  5
D1F
330
18
100
AcDbEntity
  8
文字
100
AcDbLine
 10
79.65081430973453
 20
132.5567625937502
 30
0.0
 11
79.65081430973453
 21
132.5567625937502
 31
0.0
  0
LINE
  5
D20
330
18
100
AcDbEntity
  8
文字
100
AcDbLine
 10
79.96831430973452
 20
132.5567625937502
 30
0.0
 11
79.96831430973452
 21
132.5567625937502
 31
0.0
  0
LINE
  5
D21
330
18
100
AcDbEntity
  8
文字
100
AcDbLine
 10
80.28581430973451
 20
132.5567625937502
 30
0.0
 11
80.28581430973451
 21
132.5567625937502
 31
0.0
  0
LINE
  5
D22
330
18
100
AcDbEntity
  8
文字
100
AcDbLine
 10
80.60331430973452
 20
132.5567625937502
 30
0.0
 11
80.60331430973452
 21
132.5567625937502
 31
0.0
  0
LINE
  5
D23
330
18
100
AcDbEntity
  8
文字
100
AcDbLine
 10
80.92081430973451
 20
132.5567625937502
 30
0.0
 11
80.92081430973451
 21
132.5567625937502
 31
0.0
  0
LINE
  5
D24
330
18
100
AcDbEntity
  8
文字
100
AcDbLine
 10
81.23831430973453
 20
132.5567625937502
 30
0.0
 11
81.23831430973453
 21
132.5567625937502
 31
0.0
  0
LINE
  5
D25
330
18
100
AcDbEntity
  8
文字
100
AcDbLine
 10
81.55581430973454
 20
132.5567625937502
 30
0.0
 11
81.55581430973454
 21
132.5567625937502
 31
0.0
  0
LINE
  5
D26
330
18
100
AcDbEntity
  8
文字
100
AcDbLine
 10
81.87331430973447
 20
132.5567625937502
 30
0.0
 11
81.87331430973447
 21
132.5567625937502
 31
0.0
  0
LINE
  5
D27
330
18
100
AcDbEntity
  8
文字
100
AcDbLine
 10
82.19081430973446
 20
132.5567625937502
 30
0.0
 11
82.19081430973446
 21
132.5567625937502
 31
0.0
  0
LINE
  5
D28
330
18
100
AcDbEntity
  8
文字
100
AcDbLine
 10
82.50831430973446
 20
132.5567625937502
 30
0.0
 11
82.50831430973446
 21
132.5567625937502
 31
0.0
  0
LINE
  5
D29
330
18
100
AcDbEntity
  8
文字
100
AcDbLine
 10
82.82581430973449
 20
132.5567625937502
 30
0.0
 11
82.82581430973449
 21
132.5567625937502
 31
0.0
  0
LINE
  5
D2A
330
18
100
AcDbEntity
  8
文字
100
AcDbLine
 10
83.14331430973448
 20
132.5567625937502
 30
0.0
 11
83.14331430973448
 21
132.5567625937502
 31
0.0
  0
LINE
  5
D2B
330
18
100
AcDbEntity
  8
文字
100
AcDbLine
 10
83.46081430973447
 20
132.5567625937502
 30
0.0
 11
83.46081430973447
 21
132.5567625937502
 31
0.0
  0
LINE
  5
D2C
330
18
100
AcDbEntity
  8
文字
100
AcDbLine
 10
83.77831430973447
 20
132.5567625937502
 30
0.0
 11
83.77831430973447
 21
132.5567625937502
 31
0.0
  0
LINE
  5
D2D
330
18
100
AcDbEntity
  8
文字
100
AcDbLine
 10
84.09581430973446
 20
132.5567625937502
 30
0.0
 11
84.09581430973446
 21
132.5567625937502
 31
0.0
  0
LINE
  5
D2E
330
18
100
AcDbEntity
  8
文字
100
AcDbLine
 10
84.41331430973448
 20
132.5567625937502
 30
0.0
 11
84.41331430973448
 21
132.5567625937502
 31
0.0
  0
LINE
  5
D2F
330
18
100
AcDbEntity
  8
文字
100
AcDbLine
 10
84.73081430973449
 20
132.5567625937502
 30
0.0
 11
84.73081430973449
 21
132.5567625937502
 31
0.0
  0
LINE
  5
D30
330
18
100
AcDbEntity
  8
文字
100
AcDbLine
 10
85.04831430973448
 20
132.5567625937502
 30
0.0
 11
85.04831430973448
 21
132.5567625937502
 31
0.0
  0
LINE
  5
D31
330
18
100
AcDbEntity
  8
文字
100
AcDbLine
 10
85.3658143097345
 20
132.5567625937502
 30
0.0
 11
85.3658143097345
 21
132.5567625937502
 31
0.0
  0
LINE
  5
D32
330
18
100
AcDbEntity
  8
文字
100
AcDbLine
 10
85.68331430973449
 20
132.5567625937502
 30
0.0
 11
85.68331430973449
 21
132.5567625937502
 31
0.0
  0
LINE
  5
D33
330
18
100
AcDbEntity
  8
文字
100
AcDbLine
 10
86.0008143097345
 20
132.5567625937502
 30
0.0
 11
86.0008143097345
 21
132.5567625937502
 31
0.0
  0
LINE
  5
D34
330
18
100
AcDbEntity
  8
文字
100
AcDbLine
 10
86.31831430973448
 20
132.5567625937502
 30
0.0
 11
86.31831430973448
 21
132.5567625937502
 31
0.0
  0
LINE
  5
D35
330
18
100
AcDbEntity
  8
文字
100
AcDbLine
 10
86.63581430973449
 20
132.5567625937502
 30
0.0
 11
86.63581430973449
 21
132.5567625937502
 31
0.0
  0
LINE
  5
D36
330
18
100
AcDbEntity
  8
文字
100
AcDbLine
 10
86.95331430973451
 20
132.5567625937502
 30
0.0
 11
86.95331430973451
 21
132.5567625937502
 31
0.0
  0
LINE
  5
D37
330
18
100
AcDbEntity
  8
文字
100
AcDbLine
 10
87.2708143097345
 20
132.5567625937502
 30
0.0
 11
87.2708143097345
 21
132.5567625937502
 31
0.0
  0
LINE
  5
D38
330
18
100
AcDbEntity
  8
文字
100
AcDbLine
 10
87.58831430973449
 20
132.5567625937502
 30
0.0
 11
87.58831430973449
 21
132.5567625937502
 31
0.0
  0
LINE
  5
D39
330
18
100
AcDbEntity
  8
文字
100
AcDbLine
 10
87.90581430973452
 20
132.5567625937502
 30
0.0
 11
87.90581430973452
 21
132.5567625937502
 31
0.0
  0
LINE
  5
D3A
330
18
100
AcDbEntity
  8
文字
100
AcDbLine
 10
88.22331430973452
 20
132.5567625937502
 30
0.0
 11
88.22331430973452
 21
132.5567625937502
 31
0.0
  0
LINE
  5
D3B
330
18
100
AcDbEntity
  8
文字
100
AcDbLine
 10
88.54081430973451
 20
132.5567625937502
 30
0.0
 11
88.54081430973451
 21
132.5567625937502
 31
0.0
  0
LINE
  5
D3C
330
18
100
AcDbEntity
  8
文字
100
AcDbLine
 10
88.85831430973452
 20
132.5567625937502
 30
0.0
 11
88.85831430973452
 21
132.5567625937502
 31
0.0
  0
LINE
  5
D3D
330
18
100
AcDbEntity
  8
文字
100
AcDbLine
 10
89.1758143097345
 20
132.5567625937502
 30
0.0
 11
89.1758143097345
 21
132.5567625937502
 31
0.0
  0
LINE
  5
D3E
330
18
100
AcDbEntity
  8
文字
100
AcDbLine
 10
89.49331430973449
 20
132.5567625937502
 30
0.0
 11
89.49331430973449
 21
132.5567625937502
 31
0.0
  0
LINE
  5
D3F
330
18
100
AcDbEntity
  8
文字
100
AcDbLine
 10
89.8108143097345
 20
132.5567625937502
 30
0.0
 11
89.8108143097345
 21
132.5567625937502
 31
0.0
  0
LINE
  5
D40
330
18
100
AcDbEntity
  8
文字
100
AcDbLine
 10
90.12831430973449
 20
132.5567625937502
 30
0.0
 11
90.12831430973449
 21
132.5567625937502
 31
0.0
  0
LINE
  5
D41
330
18
100
AcDbEntity
  8
文字
100
AcDbLine
 10
90.44581430973449
 20
132.5567625937502
 30
0.0
 11
90.44581430973449
 21
132.5567625937502
 31
0.0
  0
LINE
  5
D42
330
18
100
AcDbEntity
  8
文字
100
AcDbLine
 10
90.76331430973448
 20
132.5567625937502
 30
0.0
 11
90.76331430973448
 21
132.5567625937502
 31
0.0
  0
LINE
  5
D43
330
18
100
AcDbEntity
  8
文字
100
AcDbLine
 10
73.14206430973445
 20
132.2392625937502
 30
0.0
 11
73.14206430973445
 21
132.2392625937502
 31
0.0
  0
LINE
  5
D44
330
18
100
AcDbEntity
  8
文字
100
AcDbLine
 10
73.45956430973448
 20
132.2392625937502
 30
0.0
 11
73.45956430973448
 21
132.2392625937502
 31
0.0
  0
LINE
  5
D45
330
18
100
AcDbEntity
  8
文字
100
AcDbLine
 10
73.77706430973447
 20
132.2392625937502
 30
0.0
 11
73.77706430973447
 21
132.2392625937502
 31
0.0
  0
LINE
  5
D46
330
18
100
AcDbEntity
  8
文字
100
AcDbLine
 10
74.09456430973446
 20
132.2392625937502
 30
0.0
 11
74.09456430973446
 21
132.2392625937502
 31
0.0
  0
LINE
  5
D47
330
18
100
AcDbEntity
  8
文字
100
AcDbLine
 10
74.41206430973449
 20
132.2392625937502
 30
0.0
 11
74.41206430973449
 21
132.2392625937502
 31
0.0
  0
LINE
  5
D48
330
18
100
AcDbEntity
  8
文字
100
AcDbLine
 10
74.72956430973448
 20
132.2392625937502
 30
0.0
 11
74.72956430973448
 21
132.2392625937502
 31
0.0
  0
LINE
  5
D49
330
18
100
AcDbEntity
  8
文字
100
AcDbLine
 10
75.04706430973448
 20
132.2392625937502
 30
0.0
 11
75.04706430973448
 21
132.2392625937502
 31
0.0
  0
LINE
  5
D4A
330
18
100
AcDbEntity
  8
文字
100
AcDbLine
 10
75.36456430973448
 20
132.2392625937502
 30
0.0
 11
75.36456430973448
 21
132.2392625937502
 31
0.0
  0
LINE
  5
D4B
330
18
100
AcDbEntity
  8
文字
100
AcDbLine
 10
75.68206430973447
 20
132.2392625937502
 30
0.0
 11
75.68206430973447
 21
132.2392625937502
 31
0.0
  0
LINE
  5
D4C
330
18
100
AcDbEntity
  8
文字
100
AcDbLine
 10
75.99956430973449
 20
132.2392625937502
 30
0.0
 11
75.99956430973449
 21
132.2392625937502
 31
0.0
  0
LINE
  5
D4D
330
18
100
AcDbEntity
  8
文字
100
AcDbLine
 10
76.31706430973449
 20
132.2392625937502
 30
0.0
 11
76.31706430973449
 21
132.2392625937502
 31
0.0
  0
LINE
  5
D4E
330
18
100
AcDbEntity
  8
文字
100
AcDbLine
 10
76.63456430973448
 20
132.2392625937502
 30
0.0
 11
76.63456430973448
 21
132.2392625937502
 31
0.0
  0
LINE
  5
D4F
330
18
100
AcDbEntity
  8
文字
100
AcDbLine
 10
76.95206430973451
 20
132.2392625937502
 30
0.0
 11
76.95206430973451
 21
132.2392625937502
 31
0.0
  0
LINE
  5
D50
330
18
100
AcDbEntity
  8
文字
100
AcDbLine
 10
77.26956430973451
 20
132.2392625937502
 30
0.0
 11
77.26956430973451
 21
132.2392625937502
 31
0.0
  0
LINE
  5
D51
330
18
100
AcDbEntity
  8
文字
100
AcDbLine
 10
77.5870643097345
 20
132.2392625937502
 30
0.0
 11
77.5870643097345
 21
132.2392625937502
 31
0.0
  0
LINE
  5
D52
330
18
100
AcDbEntity
  8
文字
100
AcDbLine
 10
77.90456430973449
 20
132.2392625937502
 30
0.0
 11
77.90456430973449
 21
132.2392625937502
 31
0.0
  0
LINE
  5
D53
330
18
100
AcDbEntity
  8
文字
100
AcDbLine
 10
78.22206430973449
 20
132.2392625937502
 30
0.0
 11
78.22206430973449
 21
132.2392625937502
 31
0.0
  0
LINE
  5
D54
330
18
100
AcDbEntity
  8
文字
100
AcDbLine
 10
78.53956430973451
 20
132.2392625937502
 30
0.0
 11
78.53956430973451
 21
132.2392625937502
 31
0.0
  0
LINE
  5
D55
330
18
100
AcDbEntity
  8
文字
100
AcDbLine
 10
78.85706430973451
 20
132.2392625937502
 30
0.0
 11
78.85706430973451
 21
132.2392625937502
 31
0.0
  0
LINE
  5
D56
330
18
100
AcDbEntity
  8
文字
100
AcDbLine
 10
79.17456430973451
 20
132.2392625937502
 30
0.0
 11
79.17456430973451
 21
132.2392625937502
 31
0.0
  0
LINE
  5
D57
330
18
100
AcDbEntity
  8
文字
100
AcDbLine
 10
79.49206430973453
 20
132.2392625937502
 30
0.0
 11
79.49206430973453
 21
132.2392625937502
 31
0.0
  0
LINE
  5
D58
330
18
100
AcDbEntity
  8
文字
100
AcDbLine
 10
79.80956430973453
 20
132.2392625937502
 30
0.0
 11
79.80956430973453
 21
132.2392625937502
 31
0.0
  0
LINE
  5
D59
330
18
100
AcDbEntity
  8
文字
100
AcDbLine
 10
80.12706430973452
 20
132.2392625937502
 30
0.0
 11
80.12706430973452
 21
132.2392625937502
 31
0.0
  0
LINE
  5
D5A
330
18
100
AcDbEntity
  8
文字
100
AcDbLine
 10
80.44456430973452
 20
132.2392625937502
 30
0.0
 11
80.44456430973452
 21
132.2392625937502
 31
0.0
  0
LINE
  5
D5B
330
18
100
AcDbEntity
  8
文字
100
AcDbLine
 10
80.76206430973451
 20
132.2392625937502
 30
0.0
 11
80.76206430973451
 21
132.2392625937502
 31
0.0
  0
LINE
  5
D5C
330
18
100
AcDbEntity
  8
文字
100
AcDbLine
 10
81.07956430973453
 20
132.2392625937502
 30
0.0
 11
81.07956430973453
 21
132.2392625937502
 31
0.0
  0
LINE
  5
D5D
330
18
100
AcDbEntity
  8
文字
100
AcDbLine
 10
81.39706430973452
 20
132.2392625937502
 30
0.0
 11
81.39706430973452
 21
132.2392625937502
 31
0.0
  0
LINE
  5
D5E
330
18
100
AcDbEntity
  8
文字
100
AcDbLine
 10
81.71456430973453
 20
132.2392625937502
 30
0.0
 11
81.71456430973453
 21
132.2392625937502
 31
0.0
  0
LINE
  5
D5F
330
18
100
AcDbEntity
  8
文字
100
AcDbLine
 10
82.03206430973446
 20
132.2392625937502
 30
0.0
 11
82.03206430973446
 21
132.2392625937502
 31
0.0
  0
LINE
  5
D60
330
18
100
AcDbEntity
  8
文字
100
AcDbLine
 10
82.34956430973445
 20
132.2392625937502
 30
0.0
 11
82.34956430973445
 21
132.2392625937502
 31
0.0
  0
LINE
  5
D61
330
18
100
AcDbEntity
  8
文字
100
AcDbLine
 10
82.66706430973446
 20
132.2392625937502
 30
0.0
 11
82.66706430973446
 21
132.2392625937502
 31
0.0
  0
LINE
  5
D62
330
18
100
AcDbEntity
  8
文字
100
AcDbLine
 10
82.98456430973448
 20
132.2392625937502
 30
0.0
 11
82.98456430973448
 21
132.2392625937502
 31
0.0
  0
LINE
  5
D63
330
18
100
AcDbEntity
  8
文字
100
AcDbLine
 10
83.30206430973447
 20
132.2392625937502
 30
0.0
 11
83.30206430973447
 21
132.2392625937502
 31
0.0
  0
LINE
  5
D64
330
18
100
AcDbEntity
  8
文字
100
AcDbLine
 10
83.61956430973448
 20
132.2392625937502
 30
0.0
 11
83.61956430973448
 21
132.2392625937502
 31
0.0
  0
LINE
  5
D65
330
18
100
AcDbEntity
  8
文字
100
AcDbLine
 10
83.93706430973447
 20
132.2392625937502
 30
0.0
 11
83.93706430973447
 21
132.2392625937502
 31
0.0
  0
LINE
  5
D66
330
18
100
AcDbEntity
  8
文字
100
AcDbLine
 10
84.25456430973445
 20
132.2392625937502
 30
0.0
 11
84.25456430973445
 21
132.2392625937502
 31
0.0
  0
LINE
  5
D67
330
18
100
AcDbEntity
  8
文字
100
AcDbLine
 10
84.57206430973448
 20
132.2392625937502
 30
0.0
 11
84.57206430973448
 21
132.2392625937502
 31
0.0
  0
LINE
  5
D68
330
18
100
AcDbEntity
  8
文字
100
AcDbLine
 10
84.88956430973448
 20
132.2392625937502
 30
0.0
 11
84.88956430973448
 21
132.2392625937502
 31
0.0
  0
LINE
  5
D69
330
18
100
AcDbEntity
  8
文字
100
AcDbLine
 10
85.20706430973447
 20
132.2392625937502
 30
0.0
 11
85.20706430973447
 21
132.2392625937502
 31
0.0
  0
LINE
  5
D6A
330
18
100
AcDbEntity
  8
文字
100
AcDbLine
 10
85.5245643097345
 20
132.2392625937502
 30
0.0
 11
85.5245643097345
 21
132.2392625937502
 31
0.0
  0
LINE
  5
D6B
330
18
100
AcDbEntity
  8
文字
100
AcDbLine
 10
85.8420643097345
 20
132.2392625937502
 30
0.0
 11
85.8420643097345
 21
132.2392625937502
 31
0.0
  0
LINE
  5
D6C
330
18
100
AcDbEntity
  8
文字
100
AcDbLine
 10
86.15956430973449
 20
132.2392625937502
 30
0.0
 11
86.15956430973449
 21
132.2392625937502
 31
0.0
  0
LINE
  5
D6D
330
18
100
AcDbEntity
  8
文字
100
AcDbLine
 10
86.47706430973448
 20
132.2392625937502
 30
0.0
 11
86.47706430973448
 21
132.2392625937502
 31
0.0
  0
LINE
  5
D6E
330
18
100
AcDbEntity
  8
文字
100
AcDbLine
 10
86.79456430973448
 20
132.2392625937502
 30
0.0
 11
86.79456430973448
 21
132.2392625937502
 31
0.0
  0
LINE
  5
D6F
330
18
100
AcDbEntity
  8
文字
100
AcDbLine
 10
87.11206430973451
 20
132.2392625937502
 30
0.0
 11
87.11206430973451
 21
132.2392625937502
 31
0.0
  0
LINE
  5
D70
330
18
100
AcDbEntity
  8
文字
100
AcDbLine
 10
87.4295643097345
 20
132.2392625937502
 30
0.0
 11
87.4295643097345
 21
132.2392625937502
 31
0.0
  0
LINE
  5
D71
330
18
100
AcDbEntity
  8
文字
100
AcDbLine
 10
87.7470643097345
 20
132.2392625937502
 30
0.0
 11
87.7470643097345
 21
132.2392625937502
 31
0.0
  0
LINE
  5
D72
330
18
100
AcDbEntity
  8
文字
100
AcDbLine
 10
88.06456430973453
 20
132.2392625937502
 30
0.0
 11
88.06456430973453
 21
132.2392625937502
 31
0.0
  0
LINE
  5
D73
330
18
100
AcDbEntity
  8
文字
100
AcDbLine
 10
88.38206430973452
 20
132.2392625937502
 30
0.0
 11
88.38206430973452
 21
132.2392625937502
 31
0.0
  0
LINE
  5
D74
330
18
100
AcDbEntity
  8
文字
100
AcDbLine
 10
88.6995643097345
 20
132.2392625937502
 30
0.0
 11
88.6995643097345
 21
132.2392625937502
 31
0.0
  0
LINE
  5
D75
330
18
100
AcDbEntity
  8
文字
100
AcDbLine
 10
89.01706430973451
 20
132.2392625937502
 30
0.0
 11
89.01706430973451
 21
132.2392625937502
 31
0.0
  0
LINE
  5
D76
330
18
100
AcDbEntity
  8
文字
100
AcDbLine
 10
89.3345643097345
 20
132.2392625937502
 30
0.0
 11
89.3345643097345
 21
132.2392625937502
 31
0.0
  0
LINE
  5
D77
330
18
100
AcDbEntity
  8
文字
100
AcDbLine
 10
89.6520643097345
 20
132.2392625937502
 30
0.0
 11
89.6520643097345
 21
132.2392625937502
 31
0.0
  0
LINE
  5
D78
330
18
100
AcDbEntity
  8
文字
100
AcDbLine
 10
89.96956430973449
 20
132.2392625937502
 30
0.0
 11
89.96956430973449
 21
132.2392625937502
 31
0.0
  0
LINE
  5
D79
330
18
100
AcDbEntity
  8
文字
100
AcDbLine
 10
90.28706430973448
 20
132.2392625937502
 30
0.0
 11
90.28706430973448
 21
132.2392625937502
 31
0.0
  0
LINE
  5
D7A
330
18
100
AcDbEntity
  8
文字
100
AcDbLine
 10
90.60456430973449
 20
132.2392625937502
 30
0.0
 11
90.60456430973449
 21
132.2392625937502
 31
0.0
  0
LINE
  5
D7B
330
18
100
AcDbEntity
  8
文字
100
AcDbLine
 10
73.30081430973445
 20
131.9217625937502
 30
0.0
 11
73.30081430973445
 21
131.9217625937502
 31
0.0
  0
LINE
  5
D7C
330
18
100
AcDbEntity
  8
文字
100
AcDbLine
 10
73.61831430973444
 20
131.9217625937502
 30
0.0
 11
73.61831430973444
 21
131.9217625937502
 31
0.0
  0
LINE
  5
D7D
330
18
100
AcDbEntity
  8
文字
100
AcDbLine
 10
73.93581430973444
 20
131.9217625937502
 30
0.0
 11
73.93581430973444
 21
131.9217625937502
 31
0.0
  0
LINE
  5
D7E
330
18
100
AcDbEntity
  8
文字
100
AcDbLine
 10
74.25331430973447
 20
131.9217625937502
 30
0.0
 11
74.25331430973447
 21
131.9217625937502
 31
0.0
  0
LINE
  5
D7F
330
18
100
AcDbEntity
  8
文字
100
AcDbLine
 10
74.57081430973445
 20
131.9217625937502
 30
0.0
 11
74.57081430973445
 21
131.9217625937502
 31
0.0
  0
LINE
  5
D80
330
18
100
AcDbEntity
  8
文字
100
AcDbLine
 10
74.88831430973445
 20
131.9217625937502
 30
0.0
 11
74.88831430973445
 21
131.9217625937502
 31
0.0
  0
LINE
  5
D81
330
18
100
AcDbEntity
  8
文字
100
AcDbLine
 10
75.20581430973448
 20
131.9217625937502
 30
0.0
 11
75.20581430973448
 21
131.9217625937502
 31
0.0
  0
LINE
  5
D82
330
18
100
AcDbEntity
  8
文字
100
AcDbLine
 10
75.52331430973447
 20
131.9217625937502
 30
0.0
 11
75.52331430973447
 21
131.9217625937502
 31
0.0
  0
LINE
  5
D83
330
18
100
AcDbEntity
  8
文字
100
AcDbLine
 10
75.84081430973447
 20
131.9217625937502
 30
0.0
 11
75.84081430973447
 21
131.9217625937502
 31
0.0
  0
LINE
  5
D84
330
18
100
AcDbEntity
  8
文字
100
AcDbLine
 10
76.15831430973447
 20
131.9217625937502
 30
0.0
 11
76.15831430973447
 21
131.9217625937502
 31
0.0
  0
LINE
  5
D85
330
18
100
AcDbEntity
  8
文字
100
AcDbLine
 10
76.47581430973446
 20
131.9217625937502
 30
0.0
 11
76.47581430973446
 21
131.9217625937502
 31
0.0
  0
LINE
  5
D86
330
18
100
AcDbEntity
  8
文字
100
AcDbLine
 10
76.79331430973448
 20
131.9217625937502
 30
0.0
 11
76.79331430973448
 21
131.9217625937502
 31
0.0
  0
LINE
  5
D87
330
18
100
AcDbEntity
  8
文字
100
AcDbLine
 10
77.11081430973448
 20
131.9217625937502
 30
0.0
 11
77.11081430973448
 21
131.9217625937502
 31
0.0
  0
LINE
  5
D88
330
18
100
AcDbEntity
  8
文字
100
AcDbLine
 10
77.42831430973447
 20
131.9217625937502
 30
0.0
 11
77.42831430973447
 21
131.9217625937502
 31
0.0
  0
LINE
  5
D89
330
18
100
AcDbEntity
  8
文字
100
AcDbLine
 10
77.7458143097345
 20
131.9217625937502
 30
0.0
 11
77.7458143097345
 21
131.9217625937502
 31
0.0
  0
LINE
  5
D8A
330
18
100
AcDbEntity
  8
文字
100
AcDbLine
 10
78.06331430973449
 20
131.9217625937502
 30
0.0
 11
78.06331430973449
 21
131.9217625937502
 31
0.0
  0
LINE
  5
D8B
330
18
100
AcDbEntity
  8
文字
100
AcDbLine
 10
78.38081430973449
 20
131.9217625937502
 30
0.0
 11
78.38081430973449
 21
131.9217625937502
 31
0.0
  0
LINE
  5
D8C
330
18
100
AcDbEntity
  8
文字
100
AcDbLine
 10
78.69831430973448
 20
131.9217625937502
 30
0.0
 11
78.69831430973448
 21
131.9217625937502
 31
0.0
  0
LINE
  5
D8D
330
18
100
AcDbEntity
  8
文字
100
AcDbLine
 10
79.01581430973448
 20
131.9217625937502
 30
0.0
 11
79.01581430973448
 21
131.9217625937502
 31
0.0
  0
LINE
  5
D8E
330
18
100
AcDbEntity
  8
文字
100
AcDbLine
 10
79.3333143097345
 20
131.9217625937502
 30
0.0
 11
79.3333143097345
 21
131.9217625937502
 31
0.0
  0
LINE
  5
D8F
330
18
100
AcDbEntity
  8
文字
100
AcDbLine
 10
79.6508143097345
 20
131.9217625937502
 30
0.0
 11
79.6508143097345
 21
131.9217625937502
 31
0.0
  0
LINE
  5
D90
330
18
100
AcDbEntity
  8
文字
100
AcDbLine
 10
79.9683143097345
 20
131.9217625937502
 30
0.0
 11
79.9683143097345
 21
131.9217625937502
 31
0.0
  0
LINE
  5
D91
330
18
100
AcDbEntity
  8
文字
100
AcDbLine
 10
80.28581430973451
 20
131.9217625937502
 30
0.0
 11
80.28581430973451
 21
131.9217625937502
 31
0.0
  0
LINE
  5
D92
330
18
100
AcDbEntity
  8
文字
100
AcDbLine
 10
80.60331430973452
 20
131.9217625937502
 30
0.0
 11
80.60331430973452
 21
131.9217625937502
 31
0.0
  0
LINE
  5
D93
330
18
100
AcDbEntity
  8
文字
100
AcDbLine
 10
80.92081430973451
 20
131.9217625937502
 30
0.0
 11
80.92081430973451
 21
131.9217625937502
 31
0.0
  0
LINE
  5
D94
330
18
100
AcDbEntity
  8
文字
100
AcDbLine
 10
81.23831430973451
 20
131.9217625937502
 30
0.0
 11
81.23831430973451
 21
131.9217625937502
 31
0.0
  0
LINE
  5
D95
330
18
100
AcDbEntity
  8
文字
100
AcDbLine
 10
81.5558143097345
 20
131.9217625937502
 30
0.0
 11
81.5558143097345
 21
131.9217625937502
 31
0.0
  0
LINE
  5
D96
330
18
100
AcDbEntity
  8
文字
100
AcDbLine
 10
81.87331430973443
 20
131.9217625937502
 30
0.0
 11
81.87331430973443
 21
131.9217625937502
 31
0.0
  0
LINE
  5
D97
330
18
100
AcDbEntity
  8
文字
100
AcDbLine
 10
82.19081430973444
 20
131.9217625937502
 30
0.0
 11
82.19081430973444
 21
131.9217625937502
 31
0.0
  0
LINE
  5
D98
330
18
100
AcDbEntity
  8
文字
100
AcDbLine
 10
82.50831430973446
 20
131.9217625937502
 30
0.0
 11
82.50831430973446
 21
131.9217625937502
 31
0.0
  0
LINE
  5
D99
330
18
100
AcDbEntity
  8
文字
100
AcDbLine
 10
82.82581430973445
 20
131.9217625937502
 30
0.0
 11
82.82581430973445
 21
131.9217625937502
 31
0.0
  0
LINE
  5
D9A
330
18
100
AcDbEntity
  8
文字
100
AcDbLine
 10
83.14331430973444
 20
131.9217625937502
 30
0.0
 11
83.14331430973444
 21
131.9217625937502
 31
0.0
  0
LINE
  5
D9B
330
18
100
AcDbEntity
  8
文字
100
AcDbLine
 10
83.46081430973447
 20
131.9217625937502
 30
0.0
 11
83.46081430973447
 21
131.9217625937502
 31
0.0
  0
LINE
  5
D9C
330
18
100
AcDbEntity
  8
文字
100
AcDbLine
 10
83.77831430973447
 20
131.9217625937502
 30
0.0
 11
83.77831430973447
 21
131.9217625937502
 31
0.0
  0
LINE
  5
D9D
330
18
100
AcDbEntity
  8
文字
100
AcDbLine
 10
84.09581430973446
 20
131.9217625937502
 30
0.0
 11
84.09581430973446
 21
131.9217625937502
 31
0.0
  0
LINE
  5
D9E
330
18
100
AcDbEntity
  8
文字
100
AcDbLine
 10
84.41331430973447
 20
131.9217625937502
 30
0.0
 11
84.41331430973447
 21
131.9217625937502
 31
0.0
  0
LINE
  5
D9F
330
18
100
AcDbEntity
  8
文字
100
AcDbLine
 10
84.73081430973445
 20
131.9217625937502
 30
0.0
 11
84.73081430973445
 21
131.9217625937502
 31
0.0
  0
LINE
  5
DA0
330
18
100
AcDbEntity
  8
文字
100
AcDbLine
 10
85.04831430973448
 20
131.9217625937502
 30
0.0
 11
85.04831430973448
 21
131.9217625937502
 31
0.0
  0
LINE
  5
DA1
330
18
100
AcDbEntity
  8
文字
100
AcDbLine
 10
85.36581430973447
 20
131.9217625937502
 30
0.0
 11
85.36581430973447
 21
131.9217625937502
 31
0.0
  0
LINE
  5
DA2
330
18
100
AcDbEntity
  8
文字
100
AcDbLine
 10
85.68331430973447
 20
131.9217625937502
 30
0.0
 11
85.68331430973447
 21
131.9217625937502
 31
0.0
  0
LINE
  5
DA3
330
18
100
AcDbEntity
  8
文字
100
AcDbLine
 10
86.0008143097345
 20
131.9217625937502
 30
0.0
 11
86.0008143097345
 21
131.9217625937502
 31
0.0
  0
LINE
  5
DA4
330
18
100
AcDbEntity
  8
文字
100
AcDbLine
 10
86.31831430973448
 20
131.9217625937502
 30
0.0
 11
86.31831430973448
 21
131.9217625937502
 31
0.0
  0
LINE
  5
DA5
330
18
100
AcDbEntity
  8
文字
100
AcDbLine
 10
86.63581430973449
 20
131.9217625937502
 30
0.0
 11
86.63581430973449
 21
131.9217625937502
 31
0.0
  0
LINE
  5
DA6
330
18
100
AcDbEntity
  8
文字
100
AcDbLine
 10
86.95331430973448
 20
131.9217625937502
 30
0.0
 11
86.95331430973448
 21
131.9217625937502
 31
0.0
  0
LINE
  5
DA7
330
18
100
AcDbEntity
  8
文字
100
AcDbLine
 10
87.27081430973447
 20
131.9217625937502
 30
0.0
 11
87.27081430973447
 21
131.9217625937502
 31
0.0
  0
LINE
  5
DA8
330
18
100
AcDbEntity
  8
文字
100
AcDbLine
 10
87.58831430973449
 20
131.9217625937502
 30
0.0
 11
87.58831430973449
 21
131.9217625937502
 31
0.0
  0
LINE
  5
DA9
330
18
100
AcDbEntity
  8
文字
100
AcDbLine
 10
87.9058143097345
 20
131.9217625937502
 30
0.0
 11
87.9058143097345
 21
131.9217625937502
 31
0.0
  0
LINE
  5
DAA
330
18
100
AcDbEntity
  8
文字
100
AcDbLine
 10
88.22331430973449
 20
131.9217625937502
 30
0.0
 11
88.22331430973449
 21
131.9217625937502
 31
0.0
  0
LINE
  5
DAB
330
18
100
AcDbEntity
  8
文字
100
AcDbLine
 10
88.54081430973451
 20
131.9217625937502
 30
0.0
 11
88.54081430973451
 21
131.9217625937502
 31
0.0
  0
LINE
  5
DAC
330
18
100
AcDbEntity
  8
文字
100
AcDbLine
 10
88.85831430973452
 20
131.9217625937502
 30
0.0
 11
88.85831430973452
 21
131.9217625937502
 31
0.0
  0
LINE
  5
DAD
330
18
100
AcDbEntity
  8
文字
100
AcDbLine
 10
89.1758143097345
 20
131.9217625937502
 30
0.0
 11
89.1758143097345
 21
131.9217625937502
 31
0.0
  0
LINE
  5
DAE
330
18
100
AcDbEntity
  8
文字
100
AcDbLine
 10
89.49331430973449
 20
131.9217625937502
 30
0.0
 11
89.49331430973449
 21
131.9217625937502
 31
0.0
  0
LINE
  5
DAF
330
18
100
AcDbEntity
  8
文字
100
AcDbLine
 10
89.8108143097345
 20
131.9217625937502
 30
0.0
 11
89.8108143097345
 21
131.9217625937502
 31
0.0
  0
LINE
  5
DB0
330
18
100
AcDbEntity
  8
文字
100
AcDbLine
 10
90.12831430973449
 20
131.9217625937502
 30
0.0
 11
90.12831430973449
 21
131.9217625937502
 31
0.0
  0
LINE
  5
DB1
330
18
100
AcDbEntity
  8
文字
100
AcDbLine
 10
90.44581430973449
 20
131.9217625937502
 30
0.0
 11
90.44581430973449
 21
131.9217625937502
 31
0.0
  0
LINE
  5
DB2
330
18
100
AcDbEntity
  8
文字
100
AcDbLine
 10
73.45956430973444
 20
131.6042625937502
 30
0.0
 11
73.45956430973444
 21
131.6042625937502
 31
0.0
  0
LINE
  5
DB3
330
18
100
AcDbEntity
  8
文字
100
AcDbLine
 10
73.77706430973444
 20
131.6042625937502
 30
0.0
 11
73.77706430973444
 21
131.6042625937502
 31
0.0
  0
LINE
  5
DB4
330
18
100
AcDbEntity
  8
文字
100
AcDbLine
 10
74.09456430973446
 20
131.6042625937502
 30
0.0
 11
74.09456430973446
 21
131.6042625937502
 31
0.0
  0
LINE
  5
DB5
330
18
100
AcDbEntity
  8
文字
100
AcDbLine
 10
74.41206430973446
 20
131.6042625937502
 30
0.0
 11
74.41206430973446
 21
131.6042625937502
 31
0.0
  0
LINE
  5
DB6
330
18
100
AcDbEntity
  8
文字
100
AcDbLine
 10
74.72956430973446
 20
131.6042625937502
 30
0.0
 11
74.72956430973446
 21
131.6042625937502
 31
0.0
  0
LINE
  5
DB7
330
18
100
AcDbEntity
  8
文字
100
AcDbLine
 10
75.04706430973448
 20
131.6042625937502
 30
0.0
 11
75.04706430973448
 21
131.6042625937502
 31
0.0
  0
LINE
  5
DB8
330
18
100
AcDbEntity
  8
文字
100
AcDbLine
 10
75.36456430973448
 20
131.6042625937502
 30
0.0
 11
75.36456430973448
 21
131.6042625937502
 31
0.0
  0
LINE
  5
DB9
330
18
100
AcDbEntity
  8
文字
100
AcDbLine
 10
75.68206430973447
 20
131.6042625937502
 30
0.0
 11
75.68206430973447
 21
131.6042625937502
 31
0.0
  0
LINE
  5
DBA
330
18
100
AcDbEntity
  8
文字
100
AcDbLine
 10
75.99956430973446
 20
131.6042625937502
 30
0.0
 11
75.99956430973446
 21
131.6042625937502
 31
0.0
  0
LINE
  5
DBB
330
18
100
AcDbEntity
  8
文字
100
AcDbLine
 10
76.31706430973446
 20
131.6042625937502
 30
0.0
 11
76.31706430973446
 21
131.6042625937502
 31
0.0
  0
LINE
  5
DBC
330
18
100
AcDbEntity
  8
文字
100
AcDbLine
 10
76.63456430973448
 20
131.6042625937502
 30
0.0
 11
76.63456430973448
 21
131.6042625937502
 31
0.0
  0
LINE
  5
DBD
330
18
100
AcDbEntity
  8
文字
100
AcDbLine
 10
76.95206430973448
 20
131.6042625937502
 30
0.0
 11
76.95206430973448
 21
131.6042625937502
 31
0.0
  0
LINE
  5
DBE
330
18
100
AcDbEntity
  8
文字
100
AcDbLine
 10
77.26956430973448
 20
131.6042625937502
 30
0.0
 11
77.26956430973448
 21
131.6042625937502
 31
0.0
  0
LINE
  5
DBF
330
18
100
AcDbEntity
  8
文字
100
AcDbLine
 10
77.5870643097345
 20
131.6042625937502
 30
0.0
 11
77.5870643097345
 21
131.6042625937502
 31
0.0
  0
LINE
  5
DC0
330
18
100
AcDbEntity
  8
文字
100
AcDbLine
 10
77.90456430973449
 20
131.6042625937502
 30
0.0
 11
77.90456430973449
 21
131.6042625937502
 31
0.0
  0
LINE
  5
DC1
330
18
100
AcDbEntity
  8
文字
100
AcDbLine
 10
78.22206430973449
 20
131.6042625937502
 30
0.0
 11
78.22206430973449
 21
131.6042625937502
 31
0.0
  0
LINE
  5
DC2
330
18
100
AcDbEntity
  8
文字
100
AcDbLine
 10
78.53956430973449
 20
131.6042625937502
 30
0.0
 11
78.53956430973449
 21
131.6042625937502
 31
0.0
  0
LINE
  5
DC3
330
18
100
AcDbEntity
  8
文字
100
AcDbLine
 10
78.85706430973448
 20
131.6042625937502
 30
0.0
 11
78.85706430973448
 21
131.6042625937502
 31
0.0
  0
LINE
  5
DC4
330
18
100
AcDbEntity
  8
文字
100
AcDbLine
 10
79.17456430973451
 20
131.6042625937502
 30
0.0
 11
79.17456430973451
 21
131.6042625937502
 31
0.0
  0
LINE
  5
DC5
330
18
100
AcDbEntity
  8
文字
100
AcDbLine
 10
79.4920643097345
 20
131.6042625937502
 30
0.0
 11
79.4920643097345
 21
131.6042625937502
 31
0.0
  0
LINE
  5
DC6
330
18
100
AcDbEntity
  8
文字
100
AcDbLine
 10
79.80956430973449
 20
131.6042625937502
 30
0.0
 11
79.80956430973449
 21
131.6042625937502
 31
0.0
  0
LINE
  5
DC7
330
18
100
AcDbEntity
  8
文字
100
AcDbLine
 10
80.12706430973452
 20
131.6042625937502
 30
0.0
 11
80.12706430973452
 21
131.6042625937502
 31
0.0
  0
LINE
  5
DC8
330
18
100
AcDbEntity
  8
文字
100
AcDbLine
 10
80.44456430973452
 20
131.6042625937502
 30
0.0
 11
80.44456430973452
 21
131.6042625937502
 31
0.0
  0
LINE
  5
DC9
330
18
100
AcDbEntity
  8
文字
100
AcDbLine
 10
80.76206430973451
 20
131.6042625937502
 30
0.0
 11
80.76206430973451
 21
131.6042625937502
 31
0.0
  0
LINE
  5
DCA
330
18
100
AcDbEntity
  8
文字
100
AcDbLine
 10
81.0795643097345
 20
131.6042625937502
 30
0.0
 11
81.0795643097345
 21
131.6042625937502
 31
0.0
  0
LINE
  5
DCB
330
18
100
AcDbEntity
  8
文字
100
AcDbLine
 10
81.39706430973451
 20
131.6042625937502
 30
0.0
 11
81.39706430973451
 21
131.6042625937502
 31
0.0
  0
LINE
  5
DCC
330
18
100
AcDbEntity
  8
文字
100
AcDbLine
 10
81.71456430973453
 20
131.6042625937502
 30
0.0
 11
81.71456430973453
 21
131.6042625937502
 31
0.0
  0
LINE
  5
DCD
330
18
100
AcDbEntity
  8
文字
100
AcDbLine
 10
82.03206430973443
 20
131.6042625937502
 30
0.0
 11
82.03206430973443
 21
131.6042625937502
 31
0.0
  0
LINE
  5
DCE
330
18
100
AcDbEntity
  8
文字
100
AcDbLine
 10
82.34956430973445
 20
131.6042625937502
 30
0.0
 11
82.34956430973445
 21
131.6042625937502
 31
0.0
  0
LINE
  5
DCF
330
18
100
AcDbEntity
  8
文字
100
AcDbLine
 10
82.66706430973446
 20
131.6042625937502
 30
0.0
 11
82.66706430973446
 21
131.6042625937502
 31
0.0
  0
LINE
  5
DD0
330
18
100
AcDbEntity
  8
文字
100
AcDbLine
 10
82.98456430973445
 20
131.6042625937502
 30
0.0
 11
82.98456430973445
 21
131.6042625937502
 31
0.0
  0
LINE
  5
DD1
330
18
100
AcDbEntity
  8
文字
100
AcDbLine
 10
83.30206430973447
 20
131.6042625937502
 30
0.0
 11
83.30206430973447
 21
131.6042625937502
 31
0.0
  0
LINE
  5
DD2
330
18
100
AcDbEntity
  8
文字
100
AcDbLine
 10
83.61956430973448
 20
131.6042625937502
 30
0.0
 11
83.61956430973448
 21
131.6042625937502
 31
0.0
  0
LINE
  5
DD3
330
18
100
AcDbEntity
  8
文字
100
AcDbLine
 10
83.93706430973447
 20
131.6042625937502
 30
0.0
 11
83.93706430973447
 21
131.6042625937502
 31
0.0
  0
LINE
  5
DD4
330
18
100
AcDbEntity
  8
文字
100
AcDbLine
 10
84.25456430973445
 20
131.6042625937502
 30
0.0
 11
84.25456430973445
 21
131.6042625937502
 31
0.0
  0
LINE
  5
DD5
330
18
100
AcDbEntity
  8
文字
100
AcDbLine
 10
84.57206430973446
 20
131.6042625937502
 30
0.0
 11
84.57206430973446
 21
131.6042625937502
 31
0.0
  0
LINE
  5
DD6
330
18
100
AcDbEntity
  8
文字
100
AcDbLine
 10
84.88956430973448
 20
131.6042625937502
 30
0.0
 11
84.88956430973448
 21
131.6042625937502
 31
0.0
  0
LINE
  5
DD7
330
18
100
AcDbEntity
  8
文字
100
AcDbLine
 10
85.20706430973447
 20
131.6042625937502
 30
0.0
 11
85.20706430973447
 21
131.6042625937502
 31
0.0
  0
LINE
  5
DD8
330
18
100
AcDbEntity
  8
文字
100
AcDbLine
 10
85.52456430973448
 20
131.6042625937502
 30
0.0
 11
85.52456430973448
 21
131.6042625937502
 31
0.0
  0
LINE
  5
DD9
330
18
100
AcDbEntity
  8
文字
100
AcDbLine
 10
85.8420643097345
 20
131.6042625937502
 30
0.0
 11
85.8420643097345
 21
131.6042625937502
 31
0.0
  0
LINE
  5
DDA
330
18
100
AcDbEntity
  8
文字
100
AcDbLine
 10
86.15956430973449
 20
131.6042625937502
 30
0.0
 11
86.15956430973449
 21
131.6042625937502
 31
0.0
  0
LINE
  5
DDB
330
18
100
AcDbEntity
  8
文字
100
AcDbLine
 10
86.47706430973448
 20
131.6042625937502
 30
0.0
 11
86.47706430973448
 21
131.6042625937502
 31
0.0
  0
LINE
  5
DDC
330
18
100
AcDbEntity
  8
文字
100
AcDbLine
 10
86.79456430973448
 20
131.6042625937502
 30
0.0
 11
86.79456430973448
 21
131.6042625937502
 31
0.0
  0
LINE
  5
DDD
330
18
100
AcDbEntity
  8
文字
100
AcDbLine
 10
87.11206430973447
 20
131.6042625937502
 30
0.0
 11
87.11206430973447
 21
131.6042625937502
 31
0.0
  0
LINE
  5
DDE
330
18
100
AcDbEntity
  8
文字
100
AcDbLine
 10
87.4295643097345
 20
131.6042625937502
 30
0.0
 11
87.4295643097345
 21
131.6042625937502
 31
0.0
  0
LINE
  5
DDF
330
18
100
AcDbEntity
  8
文字
100
AcDbLine
 10
87.7470643097345
 20
131.6042625937502
 30
0.0
 11
87.7470643097345
 21
131.6042625937502
 31
0.0
  0
LINE
  5
DE0
330
18
100
AcDbEntity
  8
文字
100
AcDbLine
 10
88.06456430973449
 20
131.6042625937502
 30
0.0
 11
88.06456430973449
 21
131.6042625937502
 31
0.0
  0
LINE
  5
DE1
330
18
100
AcDbEntity
  8
文字
100
AcDbLine
 10
88.38206430973452
 20
131.6042625937502
 30
0.0
 11
88.38206430973452
 21
131.6042625937502
 31
0.0
  0
LINE
  5
DE2
330
18
100
AcDbEntity
  8
文字
100
AcDbLine
 10
88.6995643097345
 20
131.6042625937502
 30
0.0
 11
88.6995643097345
 21
131.6042625937502
 31
0.0
  0
LINE
  5
DE3
330
18
100
AcDbEntity
  8
文字
100
AcDbLine
 10
89.01706430973451
 20
131.6042625937502
 30
0.0
 11
89.01706430973451
 21
131.6042625937502
 31
0.0
  0
LINE
  5
DE4
330
18
100
AcDbEntity
  8
文字
100
AcDbLine
 10
89.3345643097345
 20
131.6042625937502
 30
0.0
 11
89.3345643097345
 21
131.6042625937502
 31
0.0
  0
LINE
  5
DE5
330
18
100
AcDbEntity
  8
文字
100
AcDbLine
 10
89.6520643097345
 20
131.6042625937502
 30
0.0
 11
89.6520643097345
 21
131.6042625937502
 31
0.0
  0
LINE
  5
DE6
330
18
100
AcDbEntity
  8
文字
100
AcDbLine
 10
89.96956430973449
 20
131.6042625937502
 30
0.0
 11
89.96956430973449
 21
131.6042625937502
 31
0.0
  0
LINE
  5
DE7
330
18
100
AcDbEntity
  8
文字
100
AcDbLine
 10
90.28706430973448
 20
131.6042625937502
 30
0.0
 11
90.28706430973448
 21
131.6042625937502
 31
0.0
  0
LINE
  5
DE8
330
18
100
AcDbEntity
  8
文字
100
AcDbLine
 10
74.72956430973448
 20
133.2050046492508
 30
0.0
 11
74.72956430973448
 21
133.2050046492508
 31
0.0
  0
LINE
  5
DE9
330
18
100
AcDbEntity
  8
文字
100
AcDbLine
 10
74.41206430973446
 20
133.2050046492508
 30
0.0
 11
74.41206430973446
 21
133.2050046492508
 31
0.0
  0
LINE
  5
DEA
330
18
100
AcDbEntity
  8
文字
100
AcDbLine
 10
74.09456430973446
 20
133.2050046492508
 30
0.0
 11
74.09456430973446
 21
133.2050046492508
 31
0.0
  0
LINE
  5
DEB
330
18
100
AcDbEntity
  8
文字
100
AcDbLine
 10
78.85706430973451
 20
133.2050046492508
 30
0.0
 11
78.85706430973451
 21
133.2050046492508
 31
0.0
  0
LINE
  5
DEC
330
18
100
AcDbEntity
  8
文字
100
AcDbLine
 10
78.53956430973449
 20
133.2050046492508
 30
0.0
 11
78.53956430973449
 21
133.2050046492508
 31
0.0
  0
LINE
  5
DED
330
18
100
AcDbEntity
  8
文字
100
AcDbLine
 10
78.22206430973449
 20
133.2050046492508
 30
0.0
 11
78.22206430973449
 21
133.2050046492508
 31
0.0
  0
LINE
  5
DEE
330
18
100
AcDbEntity
  8
文字
100
AcDbLine
 10
77.90456430973449
 20
133.2050046492508
 30
0.0
 11
77.90456430973449
 21
133.2050046492508
 31
0.0
  0
LINE
  5
DEF
330
18
100
AcDbEntity
  8
文字
100
AcDbLine
 10
77.5870643097345
 20
133.2050046492508
 30
0.0
 11
77.5870643097345
 21
133.2050046492508
 31
0.0
  0
LINE
  5
DF0
330
18
100
AcDbEntity
  8
文字
100
AcDbLine
 10
77.26956430973451
 20
133.2050046492508
 30
0.0
 11
77.26956430973451
 21
133.2050046492508
 31
0.0
  0
LINE
  5
DF1
330
18
100
AcDbEntity
  8
文字
100
AcDbLine
 10
76.95206430973448
 20
133.2050046492508
 30
0.0
 11
76.95206430973448
 21
133.2050046492508
 31
0.0
  0
LINE
  5
DF2
330
18
100
AcDbEntity
  8
文字
100
AcDbLine
 10
76.63456430973448
 20
133.2050046492508
 30
0.0
 11
76.63456430973448
 21
133.2050046492508
 31
0.0
  0
LINE
  5
DF3
330
18
100
AcDbEntity
  8
文字
100
AcDbLine
 10
76.31706430973449
 20
133.2050046492508
 30
0.0
 11
76.31706430973449
 21
133.2050046492508
 31
0.0
  0
LINE
  5
DF4
330
18
100
AcDbEntity
  8
文字
100
AcDbLine
 10
75.99956430973446
 20
133.2050046492508
 30
0.0
 11
75.99956430973446
 21
133.2050046492508
 31
0.0
  0
LINE
  5
DF5
330
18
100
AcDbEntity
  8
文字
100
AcDbLine
 10
75.68206430973447
 20
133.2050046492508
 30
0.0
 11
75.68206430973447
 21
133.2050046492508
 31
0.0
  0
LINE
  5
DF6
330
18
100
AcDbEntity
  8
文字
100
AcDbLine
 10
75.36456430973448
 20
133.2050046492508
 30
0.0
 11
75.36456430973448
 21
133.2050046492508
 31
0.0
  0
LINE
  5
DF7
330
18
100
AcDbEntity
  8
文字
100
AcDbLine
 10
75.04706430973448
 20
133.2050046492508
 30
0.0
 11
75.04706430973448
 21
133.2050046492508
 31
0.0
  0
LINE
  5
DF8
330
18
100
AcDbEntity
  8
文字
100
AcDbLine
 10
82.98456430973448
 20
133.2050046492508
 30
0.0
 11
82.98456430973448
 21
133.2050046492508
 31
0.0
  0
LINE
  5
DF9
330
18
100
AcDbEntity
  8
文字
100
AcDbLine
 10
82.66706430973446
 20
133.2050046492508
 30
0.0
 11
82.66706430973446
 21
133.2050046492508
 31
0.0
  0
LINE
  5
DFA
330
18
100
AcDbEntity
  8
文字
100
AcDbLine
 10
82.34956430973445
 20
133.2050046492508
 30
0.0
 11
82.34956430973445
 21
133.2050046492508
 31
0.0
  0
LINE
  5
DFB
330
18
100
AcDbEntity
  8
文字
100
AcDbLine
 10
82.03206430973446
 20
133.2050046492508
 30
0.0
 11
82.03206430973446
 21
133.2050046492508
 31
0.0
  0
LINE
  5
DFC
330
18
100
AcDbEntity
  8
文字
100
AcDbLine
 10
81.71456430973453
 20
133.2050046492508
 30
0.0
 11
81.71456430973453
 21
133.2050046492508
 31
0.0
  0
LINE
  5
DFD
330
18
100
AcDbEntity
  8
文字
100
AcDbLine
 10
81.39706430973452
 20
133.2050046492508
 30
0.0
 11
81.39706430973452
 21
133.2050046492508
 31
0.0
  0
LINE
  5
DFE
330
18
100
AcDbEntity
  8
文字
100
AcDbLine
 10
81.0795643097345
 20
133.2050046492508
 30
0.0
 11
81.0795643097345
 21
133.2050046492508
 31
0.0
  0
LINE
  5
DFF
330
18
100
AcDbEntity
  8
文字
100
AcDbLine
 10
80.76206430973451
 20
133.2050046492508
 30
0.0
 11
80.76206430973451
 21
133.2050046492508
 31
0.0
  0
LINE
  5
E00
330
18
100
AcDbEntity
  8
文字
100
AcDbLine
 10
80.44456430973452
 20
133.2050046492508
 30
0.0
 11
80.44456430973452
 21
133.2050046492508
 31
0.0
  0
LINE
  5
E01
330
18
100
AcDbEntity
  8
文字
100
AcDbLine
 10
80.12706430973452
 20
133.2050046492508
 30
0.0
 11
80.12706430973452
 21
133.2050046492508
 31
0.0
  0
LINE
  5
E02
330
18
100
AcDbEntity
  8
文字
100
AcDbLine
 10
79.80956430973453
 20
133.2050046492508
 30
0.0
 11
79.80956430973453
 21
133.2050046492508
 31
0.0
  0
LINE
  5
E03
330
18
100
AcDbEntity
  8
文字
100
AcDbLine
 10
79.4920643097345
 20
133.2050046492508
 30
0.0
 11
79.4920643097345
 21
133.2050046492508
 31
0.0
  0
LINE
  5
E04
330
18
100
AcDbEntity
  8
文字
100
AcDbLine
 10
79.17456430973451
 20
133.2050046492508
 30
0.0
 11
79.17456430973451
 21
133.2050046492508
 31
0.0
  0
LINE
  5
E05
330
18
100
AcDbEntity
  8
文字
100
AcDbLine
 10
87.11206430973451
 20
133.2050046492508
 30
0.0
 11
87.11206430973451
 21
133.2050046492508
 31
0.0
  0
LINE
  5
E06
330
18
100
AcDbEntity
  8
文字
100
AcDbLine
 10
86.79456430973448
 20
133.2050046492508
 30
0.0
 11
86.79456430973448
 21
133.2050046492508
 31
0.0
  0
LINE
  5
E07
330
18
100
AcDbEntity
  8
文字
100
AcDbLine
 10
86.47706430973448
 20
133.2050046492508
 30
0.0
 11
86.47706430973448
 21
133.2050046492508
 31
0.0
  0
LINE
  5
E08
330
18
100
AcDbEntity
  8
文字
100
AcDbLine
 10
86.15956430973449
 20
133.2050046492508
 30
0.0
 11
86.15956430973449
 21
133.2050046492508
 31
0.0
  0
LINE
  5
E09
330
18
100
AcDbEntity
  8
文字
100
AcDbLine
 10
85.8420643097345
 20
133.2050046492508
 30
0.0
 11
85.8420643097345
 21
133.2050046492508
 31
0.0
  0
LINE
  5
E0A
330
18
100
AcDbEntity
  8
文字
100
AcDbLine
 10
85.5245643097345
 20
133.2050046492508
 30
0.0
 11
85.5245643097345
 21
133.2050046492508
 31
0.0
  0
LINE
  5
E0B
330
18
100
AcDbEntity
  8
文字
100
AcDbLine
 10
85.20706430973447
 20
133.2050046492508
 30
0.0
 11
85.20706430973447
 21
133.2050046492508
 31
0.0
  0
LINE
  5
E0C
330
18
100
AcDbEntity
  8
文字
100
AcDbLine
 10
84.88956430973448
 20
133.2050046492508
 30
0.0
 11
84.88956430973448
 21
133.2050046492508
 31
0.0
  0
LINE
  5
E0D
330
18
100
AcDbEntity
  8
文字
100
AcDbLine
 10
84.57206430973448
 20
133.2050046492508
 30
0.0
 11
84.57206430973448
 21
133.2050046492508
 31
0.0
  0
LINE
  5
E0E
330
18
100
AcDbEntity
  8
文字
100
AcDbLine
 10
84.25456430973445
 20
133.2050046492508
 30
0.0
 11
84.25456430973445
 21
133.2050046492508
 31
0.0
  0
LINE
  5
E0F
330
18
100
AcDbEntity
  8
文字
100
AcDbLine
 10
83.93706430973447
 20
133.2050046492508
 30
0.0
 11
83.93706430973447
 21
133.2050046492508
 31
0.0
  0
LINE
  5
E10
330
18
100
AcDbEntity
  8
文字
100
AcDbLine
 10
83.61956430973448
 20
133.2050046492508
 30
0.0
 11
83.61956430973448
 21
133.2050046492508
 31
0.0
  0
LINE
  5
E11
330
18
100
AcDbEntity
  8
文字
100
AcDbLine
 10
83.30206430973447
 20
133.2050046492508
 30
0.0
 11
83.30206430973447
 21
133.2050046492508
 31
0.0
  0
LINE
  5
E12
330
18
100
AcDbEntity
  8
文字
100
AcDbLine
 10
89.3345643097345
 20
133.2050046492508
 30
0.0
 11
89.3345643097345
 21
133.2050046492508
 31
0.0
  0
LINE
  5
E13
330
18
100
AcDbEntity
  8
文字
100
AcDbLine
 10
89.01706430973451
 20
133.2050046492508
 30
0.0
 11
89.01706430973451
 21
133.2050046492508
 31
0.0
  0
LINE
  5
E14
330
18
100
AcDbEntity
  8
文字
100
AcDbLine
 10
88.6995643097345
 20
133.2050046492508
 30
0.0
 11
88.6995643097345
 21
133.2050046492508
 31
0.0
  0
LINE
  5
E15
330
18
100
AcDbEntity
  8
文字
100
AcDbLine
 10
88.38206430973452
 20
133.2050046492508
 30
0.0
 11
88.38206430973452
 21
133.2050046492508
 31
0.0
  0
LINE
  5
E16
330
18
100
AcDbEntity
  8
文字
100
AcDbLine
 10
88.06456430973453
 20
133.2050046492508
 30
0.0
 11
88.06456430973453
 21
133.2050046492508
 31
0.0
  0
LINE
  5
E17
330
18
100
AcDbEntity
  8
文字
100
AcDbLine
 10
87.7470643097345
 20
133.2050046492508
 30
0.0
 11
87.7470643097345
 21
133.2050046492508
 31
0.0
  0
LINE
  5
E18
330
18
100
AcDbEntity
  8
文字
100
AcDbLine
 10
87.4295643097345
 20
133.2050046492508
 30
0.0
 11
87.4295643097345
 21
133.2050046492508
 31
0.0
  0
LINE
  5
E19
330
18
100
AcDbEntity
  8
文字
100
AcDbLine
 10
89.23869963375357
 20
133.1917625937502
 30
0.0
 11
89.23869963375357
 21
133.1917625937502
 31
0.0
  0
LINE
  5
E1A
330
18
100
AcDbEntity
  8
文字
100
AcDbLine
 10
89.23869963375357
 20
133.8267625937502
 30
0.0
 11
89.23869963375357
 21
133.8267625937502
 31
0.0
  0
LINE
  5
E1B
330
18
100
AcDbEntity
  8
文字
100
AcDbLine
 10
89.23869963375357
 20
134.4617625937502
 30
0.0
 11
89.23869963375357
 21
134.4617625937502
 31
0.0
  0
LINE
  5
E1C
330
18
100
AcDbEntity
  8
文字
100
AcDbLine
 10
89.23869963375357
 20
135.0967625937502
 30
0.0
 11
89.23869963375357
 21
135.0967625937502
 31
0.0
  0
TEXT
  5
E91
330
18
100
AcDbEntity
  8
文字
100
AcDbText
 10
161.3937883671969
 20
179.2645978088863
 30
0.0
 40
4.0
  1
Model No.S-7 Signal Gauge
  7
STYLE3
100
AcDbText
  0
LINE
  5
E92
330
18
100
AcDbEntity
  8
外形線
100
AcDbLine
 10
160.9343783671969
 20
176.1524918088863
 30
0.0
 11
243.9343783671969
 21
176.1524918088863
 31
0.0
  0
LINE
  5
E93
330
18
100
AcDbEntity
  8
外形線
100
AcDbLine
 10
160.9343783671969
 20
177.1524918088863
 30
0.0
 11
243.9343783671969
 21
177.1524918088863
 31
0.0
  0
LINE
  5
E95
330
18
100
AcDbEntity
  8
外形線
100
AcDbLine
 10
113.597258762025
 20
20.75193393994848
 30
0.0
 11
254.3886767620251
 21
20.75193393994848
 31
0.0
  0
LINE
  5
E96
330
18
100
AcDbEntity
  8
外形線
100
AcDbLine
 10
113.597258762025
 20
9.971727939948479
 30
0.0
 11
254.3886767620251
 21
9.971727939948479
 31
0.0
  0
TEXT
  5
E97
330
18
100
AcDbEntity
  8
0
  6
Continuous
100
AcDbText
 10
115.054725762025
 20
11.86971793994848
 30
0.0
 40
2.1
  1
Design and specifications are subject to change without notice for future improvement.
  7
STYLE3
100
AcDbText
  0
TEXT
  5
E98
330
18
100
AcDbEntity
  8
0
  6
Continuous
100
AcDbText
 10
115.346219762025
 20
15.79886593994848
 30
0.0
 40
3.5
  1
仕様及び外観は予告なく変更される場合がございますのでご了承下さい。
  7
STYLE3
100
AcDbText
  0
TEXT
  5
E99
330
18
100
AcDbEntity
  8
0
  6
Continuous
100
AcDbText
 10
114.763234762025
 20
2.10508993994848
 30
0.0
 40
2.1
  1
3RD Angle Projection
  7
STYLE3
100
AcDbText
  0
TEXT
  5
E9A
330
18
100
AcDbEntity
  8
0
  6
Continuous
100
AcDbText
 10
117.386677762025
 20
5.60137293994848
 30
0.0
 40
3.0
  1
三　　角　　法
  7
STYLE3
100
AcDbText
  0
LINE
  5
E9B
330
18
100
AcDbEntity
  8
外形線
100
AcDbLine
 10
113.597258762025
 20
0.3569499399484803
 30
0.0
 11
113.597258762025
 21
20.75193393994848
 31
0.0
  0
LINE
  5
E9C
330
18
100
AcDbEntity
  8
外形線
100
AcDbLine
 10
215.6200257620251
 20
9.971727939948479
 30
0.0
 11
215.6200257620251
 21
0.3569499399484803
 31
0.0
  0
LINE
  5
E9D
330
18
100
AcDbEntity
  8
外形線
100
AcDbLine
 10
185.8876757620251
 20
9.971727939948479
 30
0.0
 11
185.8876757620251
 21
0.3569499399484803
 31
0.0
  0
LINE
  5
E9E
330
18
100
AcDbEntity
  8
外形線
100
AcDbLine
 10
166.357603762025
 20
9.971727939948479
 30
0.0
 11
166.357603762025
 21
0.3569499399484803
 31
0.0
  0
LINE
  5
E9F
330
18
100
AcDbEntity
  8
外形線
100
AcDbLine
 10
148.867986762025
 20
9.971727939948479
 30
0.0
 11
148.867986762025
 21
0.3569499399484803
 31
0.0
  0
TEXT
  5
EA0
330
18
100
AcDbEntity
  8
0
  6
Continuous
100
AcDbText
 10
150.325455762025
 20
5.607327939948479
 30
0.0
 40
3.0
  1
単位
  7
STYLE3
100
AcDbText
  0
TEXT
  5
EA1
330
18
100
AcDbEntity
  8
0
  6
Continuous
100
AcDbText
 10
150.497176762025
 20
2.10509093994848
 30
0.0
 40
2.1
  1
Unit
  7
STYLE3
100
AcDbText
  0
TEXT
  5
EA2
330
18
100
AcDbEntity
  8
0
  6
Continuous
100
AcDbText
 10
167.643351762025
 20
5.315969939948479
 30
0.0
 40
3.0
  1
尺 度
  7
STYLE3
100
AcDbText
  0
TEXT
  5
EA3
330
18
100
AcDbEntity
  8
0
  6
Continuous
100
AcDbText
 10
158.3675037620251
 20
3.853233939948479
 30
0.0
 40
2.399999999999999
  1
mm
  7
STYLE3
100
AcDbText
  0
TEXT
  5
EA4
330
18
100
AcDbEntity
  8
0
  6
Continuous
100
AcDbText
 10
168.106566762025
 20
2.39644793994848
 30
0.0
 40
2.1
  1
Scale
  7
STYLE3
100
AcDbText
  0
TEXT
  5
EA5
330
18
100
AcDbEntity
  8
0
  6
Continuous
100
AcDbText
 10
177.725855762025
 20
4.14459093994848
 30
0.0
 40
2.399999999999999
  1
1/1
  7
STYLE3
100
AcDbText
  0
TEXT
  5
EA6
330
18
100
AcDbEntity
  8
0
  6
Continuous
100
AcDbText
 10
187.819626762025
 20
2.10509193994848
 30
0.0
 40
2.1
  1
Date
  7
STYLE3
100
AcDbText
  0
TEXT
  5
EA7
330
18
100
AcDbEntity
  8
0
  6
Continuous
100
AcDbText
 10
187.4362657620251
 20
5.43817493994848
 30
0.0
 40
3.0
  1
日 付
  7
STYLE3
100
AcDbText
  0
TEXT
  5
EA8
330
18
100
AcDbEntity
  8
0
  6
Continuous
100
AcDbText
 10
196.564434762025
 20
3.85323293994848
 30
0.0
 40
2.1
  1
2010.07.01
  7
STYLE3
100
AcDbText
  0
TEXT
  5
EA9
330
18
100
AcDbEntity
  8
0
  6
Continuous
100
AcDbText
 10
216.9689887620251
 20
5.89272993994848
 30
0.0
 40
3.0
  1
株式会社　尾崎製作所
  7
STYLE3
100
AcDbText
  0
TEXT
  5
EAA
330
18
100
AcDbEntity
  8
0
  6
Continuous
100
AcDbText
 10
217.8434677620251
 20
2.10509093994848
 30
0.0
 40
2.1
  1
OZAKI MFG. CO., LTD.
  7
STYLE3
100
AcDbText
  0
VIEWPORT
  5
177
330
15
100
AcDbEntity
 67
     1
  8
0
100
AcDbViewport
 10
127.5041203589828
 20
97.49391214526822
 30
0.0
 40
418.3086347473814
 41
243.0346063651093
 68
     1
 69
     1
 12
127.5041203589828
 22
97.49391214526822
 13
0.0
 23
0.0
 14
10.0
 24
10.0
 15
10.0
 25
10.0
 16
0.0
 26
0.0
 36
1.0
 17
0.0
 27
0.0
 37
0.0
 42
50.0
 43
0.0
 44
0.0
 45
243.0346063651093
 50
0.0
 51
0.0
 72
   100
 90
    32800
  1

281
     0
 71
     1
 74
     0
110
0.0
120
0.0
130
0.0
111
1.0
121
0.0
131
0.0
112
0.0
122
1.0
132
0.0
 79
     0
146
0.0
170
     0
  0
ENDSEC
  0
SECTION
  2
OBJECTS
  0
DICTIONARY
  5
C
330
0
100
AcDbDictionary
281
     1
  3
ACAD_COLOR
350
E43
  3
ACAD_GROUP
350
D
  3
ACAD_LAYOUT
350
E46
  3
ACAD_MATERIAL
350
E42
  3
ACAD_MLINESTYLE
350
1B
  3
ACAD_PLOTSETTINGS
350
E47
  3
ACAD_PLOTSTYLENAME
350
E40
  3
ACAD_TABLESTYLE
350
E44
  3
ACDBVARIABLEDICTIONARY
350
BA0
  0
DICTIONARY
  5
E50
330
18
100
AcDbDictionary
280
     1
281
     1
  3
ACAD_SORTENTS
360
E51
  0
DICTIONARY
  5
E43
102
{ACAD_REACTORS
330
C
102
}
330
C
100
AcDbDictionary
281
     1
  0
DICTIONARY
  5
D
102
{ACAD_REACTORS
330
C
102
}
330
C
100
AcDbDictionary
281
     1
  0
DICTIONARY
  5
E46
102
{ACAD_REACTORS
330
C
102
}
330
C
100
AcDbDictionary
281
     1
  3
Model
350
E48
  3
レイアウト1
350
E49
  0
DICTIONARY
  5
E42
102
{ACAD_REACTORS
330
C
102
}
330
C
100
AcDbDictionary
281
     1
  0
DICTIONARY
  5
1B
102
{ACAD_REACTORS
330
C
102
}
330
C
100
AcDbDictionary
281
     1
  3
STANDARD
350
1C
  0
DICTIONARY
  5
E47
102
{ACAD_REACTORS
330
C
102
}
330
C
100
AcDbDictionary
281
     1
  0
ACDBDICTIONARYWDFLT
  5
E40
102
{ACAD_REACTORS
330
C
102
}
330
C
100
AcDbDictionary
281
     1
  3
Normal
350
E41
100
AcDbDictionaryWithDefault
340
E41
  0
DICTIONARY
  5
E44
102
{ACAD_REACTORS
330
C
102
}
330
C
100
AcDbDictionary
281
     1
  3
Standard
350
E45
  0
DICTIONARY
  5
BA0
102
{ACAD_REACTORS
330
C
102
}
330
C
100
AcDbDictionary
281
     1
  3
CTABLESTYLE
350
E5B
  3
SORTENTS
350
BA1
  0
SORTENTSTABLE
  5
E51
102
{ACAD_REACTORS
330
E50
102
}
330
E50
100
AcDbSortentsTable
330
18
331
DDB
  5
DDA
331
DFA
  5
DF9
331
367
  5
367
331
DBC
  5
DBB
331
274
  5
274
331
293
  5
293
331
348
  5
348
331
E19
  5
E18
331
8A7
  5
8A7
331
8C6
  5
8C6
331
871
  5
871
331
888
  5
888
331
7F4
  5
7F4
331
776
  5
776
331
B10
  5
B10
331
730
  5
730
331
ADA
  5
ADA
331
B9D
  5
B9D
331
7AD
  5
7AD
331
852
  5
852
331
DFB
  5
DFA
331
E1A
  5
E19
331
DBD
  5
DBC
331
DDC
  5
DDB
331
294
  5
294
331
275
  5
275
331
368
  5
368
331
889
  5
889
331
8A8
  5
8A8
331
853
  5
853
331
7F5
  5
7F5
331
750
  5
750
331
777
  5
777
331
872
  5
872
331
ADB
  5
ADB
331
B11
  5
B11
331
731
  5
731
331
E1B
  5
E1A
331
DDD
  5
DDC
331
DFC
  5
DFB
331
369
  5
369
331
DBE
  5
DBD
331
276
  5
276
331
295
  5
295
331
34A
  5
34A
331
8A9
  5
8A9
331
7F6
  5
7F6
331
873
  5
873
331
778
  5
778
331
7AF
  5
7AF
331
88A
  5
88A
331
B12
  5
B12
331
732
  5
732
331
ADC
  5
ADC
331
751
  5
751
331
DFD
  5
DFC
331
E1C
  5
E1B
331
DBF
  5
DBE
331
DDE
  5
DDD
331
34B
  5
34B
331
277
  5
277
331
36A
  5
36A
331
88B
  5
88B
331
8AA
  5
8AA
331
855
  5
855
331
7F7
  5
7F7
331
752
  5
752
331
779
  5
779
331
874
  5
874
331
ADD
  5
ADD
331
B13
  5
B13
331
DDF
  5
DDE
331
DFE
  5
DFD
331
36B
  5
36B
331
297
  5
297
331
DC0
  5
DBF
331
8AB
  5
8AB
331
77A
  5
77A
331
875
  5
875
331
B14
  5
B14
331
ADE
  5
ADE
331
88C
  5
88C
331
DFF
  5
DFE
331
DC1
  5
DC0
331
DE0
  5
DDF
331
34D
  5
34D
331
36C
  5
36C
331
88D
  5
88D
331
8AC
  5
8AC
331
B15
  5
B15
331
830
  5
830
331
ADF
  5
ADF
331
857
  5
857
331
876
  5
876
331
E1F
  5
E1C
331
DE1
  5
DE0
331
E00
  5
DFF
331
36D
  5
36D
331
DC2
  5
DC1
331
34E
  5
34E
331
4D8
  5
4D8
331
8AD
  5
8AD
331
877
  5
877
331
7FA
  5
7FA
331
77C
  5
77C
331
B16
  5
B16
331
736
  5
736
331
831
  5
831
331
88E
  5
88E
331
E01
  5
E00
331
DC3
  5
DC2
331
DE2
  5
DE1
331
34F
  5
34F
331
36E
  5
36E
331
4F8
  5
4F8
331
832
  5
832
331
88F
  5
88F
331
8AE
  5
8AE
331
B17
  5
B17
331
77D
  5
77D
331
C50
  5
C4F
331
DE3
  5
DE2
331
E02
  5
E01
331
36F
  5
36F
331
DC4
  5
DC3
331
4F9
  5
4F9
331
510
  5
510
331
8AF
  5
8AF
331
77E
  5
77E
331
890
  5
890
331
C3A
  5
C37
331
C51
  5
C50
331
C70
  5
C6F
331
E03
  5
E02
331
DC5
  5
DC4
331
DE4
  5
DE3
331
4FA
  5
4FA
331
891
  5
891
331
77F
  5
77F
331
85B
  5
85B
331
8B0
  5
8B0
331
C52
  5
C51
331
C71
  5
C70
331
C1C
  5
BAE
331
C3B
  5
C3A
331
C90
  5
C8F
331
DC6
  5
DC5
331
DE5
  5
DE4
331
E04
  5
E03
331
539
  5
539
331
4FB
  5
4FB
331
558
  5
558
331
892
  5
892
331
8B1
  5
8B1
331
835
  5
835
331
C91
  5
C90
331
CB0
  5
CAF
331
C53
  5
C52
331
C1D
  5
C1C
331
C72
  5
C71
331
E05
  5
E04
331
DC7
  5
DC6
331
DE6
  5
DE5
331
559
  5
559
331
578
  5
578
331
53A
  5
53A
331
4FC
  5
4FC
331
836
  5
836
331
893
  5
893
331
8B2
  5
8B2
331
CB1
  5
CB0
331
CC8
  5
CC7
331
C54
  5
C53
331
C1E
  5
C1D
331
BA8
  5
E1F
331
C73
  5
C72
331
C92
  5
C91
331
DC8
  5
DC7
331
DE7
  5
DE6
331
E06
  5
E05
331
53B
  5
53B
331
4FD
  5
4FD
331
55A
  5
55A
331
4DE
  5
4DE
331
579
  5
579
331
894
  5
894
331
8B3
  5
8B3
331
837
  5
837
331
CC9
  5
CC8
331
CE8
  5
CE7
331
C74
  5
C73
331
C93
  5
C92
331
C55
  5
C54
331
CB2
  5
CB1
331
DE8
  5
DE7
331
E07
  5
E06
331
DC9
  5
DC8
331
5B0
  5
5B0
331
55B
  5
55B
331
57A
  5
57A
331
53C
  5
53C
331
4DF
  5
4DF
331
4FE
  5
4FE
331
8B4
  5
8B4
331
895
  5
895
331
CE9
  5
CE8
331
D08
  5
D07
331
CB3
  5
CB2
331
CCA
  5
CC9
331
C56
  5
C55
331
BAA
  5
BA8
331
C75
  5
C74
331
C94
  5
C93
331
DCA
  5
DC9
331
DE9
  5
DE8
331
E08
  5
E07
331
5D0
  5
5D0
331
57B
  5
57B
331
592
  5
592
331
53D
  5
53D
331
4FF
  5
4FF
331
55C
  5
55C
331
5B1
  5
5B1
331
4E0
  5
4E0
331
896
  5
896
331
8B5
  5
8B5
331
D09
  5
D08
331
D28
  5
D27
331
CCB
  5
CCA
331
CEA
  5
CE9
331
C76
  5
C75
331
C95
  5
C94
331
BAB
  5
BAA
331
C57
  5
C56
331
CB4
  5
CB3
331
DEA
  5
DE9
331
E09
  5
E08
331
DCB
  5
DCA
331
5F0
  5
5F0
331
5B2
  5
5B2
331
5D1
  5
5D1
331
55D
  5
55D
331
57C
  5
57C
331
4E1
  5
4E1
331
500
  5
500
331
593
  5
593
331
8B6
  5
8B6
331
897
  5
897
331
D29
  5
D28
331
D40
  5
D3F
331
CEB
  5
CEA
331
D0A
  5
D09
331
C96
  5
C95
331
CB5
  5
CB4
331
C58
  5
C57
331
C22
  5
C1E
331
BAC
  5
BAB
331
C77
  5
C76
331
CCC
  5
CCB
331
E0A
  5
E09
331
DCC
  5
DCB
331
DEB
  5
DEA
331
608
  5
608
331
5D2
  5
5D2
331
5F1
  5
5F1
331
57D
  5
57D
331
594
  5
594
331
53F
  5
53F
331
4E2
  5
4E2
331
501
  5
501
331
55E
  5
55E
331
5B3
  5
5B3
331
8B7
  5
8B7
331
D41
  5
D40
331
D60
  5
D5F
331
D0B
  5
D0A
331
D2A
  5
D29
331
CCD
  5
CCC
331
CEC
  5
CEB
331
C78
  5
C77
331
C97
  5
C96
331
C42
  5
C3B
331
C59
  5
C58
331
C23
  5
C22
331
CB6
  5
CB5
331
DEC
  5
DEB
331
E0B
  5
E0A
331
DCD
  5
DCC
331
5F2
  5
5F2
331
609
  5
609
331
595
  5
595
331
5B4
  5
5B4
331
55F
  5
55F
331
521
  5
521
331
57E
  5
57E
331
5D3
  5
5D3
331
4E3
  5
4E3
331
502
  5
502
331
D80
  5
D7F
331
D2B
  5
D2A
331
D42
  5
D41
331
CED
  5
CEC
331
D0C
  5
D0B
331
C98
  5
C97
331
CB7
  5
CB6
331
C5A
  5
C59
331
C79
  5
C78
331
BAE
  5
BAC
331
C43
  5
C42
331
CCE
  5
CCD
331
D61
  5
D60
331
E0C
  5
E0B
331
DCE
  5
DCD
331
DED
  5
DEC
331
668
  5
668
331
60A
  5
60A
331
5D4
  5
5D4
331
5F3
  5
5F3
331
57F
  5
57F
331
596
  5
596
331
560
  5
560
331
4E4
  5
4E4
331
503
  5
503
331
522
  5
522
331
5B5
  5
5B5
331
DA0
  5
D9F
331
D43
  5
D42
331
D62
  5
D61
331
D0D
  5
D0C
331
D2C
  5
D2B
331
CB8
  5
CB7
331
CCF
  5
CCE
331
C7A
  5
C79
331
C99
  5
C98
331
C44
  5
C43
331
C5B
  5
C5A
331
CEE
  5
CED
331
D81
  5
D80
331
DEE
  5
DED
331
E0D
  5
E0C
331
DCF
  5
DCE
331
669
  5
669
331
60B
  5
60B
331
597
  5
597
331
5B6
  5
5B6
331
561
  5
561
331
523
  5
523
331
4E5
  5
4E5
331
580
  5
580
331
5D5
  5
5D5
331
688
  5
688
331
D63
  5
D62
331
D82
  5
D81
331
D2D
  5
D2C
331
D44
  5
D43
331
CEF
  5
CEE
331
D0E
  5
D0D
331
DA1
  5
DA0
331
C9A
  5
C99
331
CB9
  5
CB8
331
C5C
  5
C5B
331
C7B
  5
C7A
331
C45
  5
C44
331
CD0
  5
CCF
331
E0E
  5
E0D
331
DD0
  5
DCF
331
DEF
  5
DEE
331
66A
  5
66A
331
60C
  5
60C
331
5B7
  5
5B7
331
5D6
  5
5D6
331
689
  5
689
331
581
  5
581
331
598
  5
598
331
562
  5
562
331
4E6
  5
4E6
331
505
  5
505
331
524
  5
524
331
DA2
  5
DA1
331
D45
  5
D44
331
D64
  5
D63
331
D0F
  5
D0E
331
D2E
  5
D2D
331
CBA
  5
CB9
331
CD1
  5
CD0
331
C7C
  5
C7B
331
C9B
  5
C9A
331
C46
  5
C45
331
C5D
  5
C5C
331
CF0
  5
CEF
331
D83
  5
D82
331
DF0
  5
DEF
331
E0F
  5
E0E
331
DD1
  5
DD0
331
68A
  5
68A
331
66B
  5
66B
331
5F6
  5
5F6
331
60D
  5
60D
331
599
  5
599
331
5B8
  5
5B8
331
563
  5
563
331
582
  5
582
331
525
  5
525
331
4E7
  5
4E7
331
544
  5
544
331
5D7
  5
5D7
331
D65
  5
D64
331
D84
  5
D83
331
D2F
  5
D2E
331
D46
  5
D45
331
CD2
  5
CD1
331
CF1
  5
CF0
331
C9C
  5
C9B
331
CBB
  5
CBA
331
C5E
  5
C5D
331
C7D
  5
C7C
331
D10
  5
D0F
331
DA3
  5
DA2
331
C28
  5
C23
331
C47
  5
C46
331
E10
  5
E0F
331
DD2
  5
DD1
331
DF1
  5
DF0
331
66C
  5
66C
331
68B
  5
68B
331
64D
  5
64D
331
5B9
  5
5B9
331
5D8
  5
5D8
331
583
  5
583
331
59A
  5
59A
331
545
  5
545
331
4E8
  5
4E8
331
507
  5
507
331
564
  5
564
331
5F7
  5
5F7
331
D85
  5
D84
331
DA4
  5
DA3
331
D47
  5
D46
331
D66
  5
D65
331
D11
  5
D10
331
D30
  5
D2F
331
CBC
  5
CBB
331
CD3
  5
CD2
331
C7E
  5
C7D
331
C9D
  5
C9C
331
C29
  5
C28
331
C48
  5
C47
331
C5F
  5
C5E
331
CF2
  5
CF1
331
DF2
  5
DF1
331
E11
  5
E10
331
DD3
  5
DD2
331
68C
  5
68C
331
5D9
  5
5D9
331
5F8
  5
5F8
331
59B
  5
59B
331
5BA
  5
5BA
331
66D
  5
66D
331
565
  5
565
331
508
  5
508
331
527
  5
527
331
4E9
  5
4E9
331
584
  5
584
331
D67
  5
D66
331
D86
  5
D85
331
D31
  5
D30
331
D48
  5
D47
331
CD4
  5
CD3
331
CF3
  5
CF2
331
C9E
  5
C9D
331
CBD
  5
CBC
331
C49
  5
C48
331
C60
  5
C5F
331
C7F
  5
C7E
331
D12
  5
D11
331
DA5
  5
DA4
331
E12
  5
E11
331
DD4
  5
DD3
331
DF3
  5
DF2
331
66E
  5
66E
331
68D
  5
68D
331
64F
  5
64F
331
5BB
  5
5BB
331
5DA
  5
5DA
331
585
  5
585
331
59C
  5
59C
331
528
  5
528
331
547
  5
547
331
4EA
  5
4EA
331
509
  5
509
331
566
  5
566
331
5F9
  5
5F9
331
D87
  5
D86
331
DA6
  5
DA5
331
D49
  5
D48
331
D68
  5
D67
331
CF4
  5
CF3
331
D13
  5
D12
331
CBE
  5
CBD
331
CD5
  5
CD4
331
C80
  5
C7F
331
C9F
  5
C9E
331
D32
  5
D31
331
C4A
  5
C49
331
C61
  5
C60
331
DF4
  5
DF3
331
E13
  5
E12
331
DD5
  5
DD4
331
68E
  5
68E
331
5DB
  5
5DB
331
650
  5
650
331
5BC
  5
5BC
331
66F
  5
66F
331
548
  5
548
331
567
  5
567
331
50A
  5
50A
331
529
  5
529
331
4EB
  5
4EB
331
586
  5
586
331
DA7
  5
DA6
331
D69
  5
D68
331
D88
  5
D87
331
D33
  5
D32
331
D4A
  5
D49
331
CD6
  5
CD5
331
CF5
  5
CF4
331
CA0
  5
C9F
331
CBF
  5
CBE
331
C4B
  5
C4A
331
C62
  5
C61
331
C81
  5
C80
331
D14
  5
D13
331
E14
  5
E13
331
DD6
  5
DD5
331
DF5
  5
DF4
331
68F
  5
68F
331
632
  5
632
331
5BD
  5
5BD
331
5DC
  5
5DC
331
587
  5
587
331
59E
  5
59E
331
651
  5
651
331
549
  5
549
331
4EC
  5
4EC
331
50B
  5
50B
331
568
  5
568
331
D89
  5
D88
331
DA8
  5
DA7
331
D4B
  5
D4A
331
D6A
  5
D69
331
CF6
  5
CF5
331
D15
  5
D14
331
CC0
  5
CBF
331
CD7
  5
CD6
331
C63
  5
C62
331
C82
  5
C81
331
C2D
  5
C29
331
C4C
  5
C4B
331
CA1
  5
CA0
331
D34
  5
D33
331
DD7
  5
DD6
331
DF6
  5
DF5
331
E15
  5
E14
331
5DD
  5
5DD
331
652
  5
652
331
59F
  5
59F
331
5BE
  5
5BE
331
54A
  5
54A
331
569
  5
569
331
50C
  5
50C
331
52B
  5
52B
331
4ED
  5
4ED
331
588
  5
588
331
DA9
  5
DA8
331
D6B
  5
D6A
331
D8A
  5
D89
331
D16
  5
D15
331
D35
  5
D34
331
CD8
  5
CD7
331
CF7
  5
CF6
331
CA2
  5
CA1
331
CC1
  5
CC0
331
D4C
  5
D4B
331
C4D
  5
C4C
331
C64
  5
C63
331
C2E
  5
C2D
331
C83
  5
C82
331
E16
  5
E15
331
DF7
  5
DF6
331
691
  5
691
331
634
  5
634
331
5DE
  5
5DE
331
56A
  5
56A
331
54B
  5
54B
331
4EE
  5
4EE
331
50D
  5
50D
331
5A0
  5
5A0
331
653
  5
653
331
4CF
  5
4CF
331
D8B
  5
D8A
331
DAA
  5
DA9
331
D4D
  5
D4C
331
D6C
  5
D6B
331
CF8
  5
CF7
331
D17
  5
D16
331
CC2
  5
CC1
331
CD9
  5
CD8
331
C65
  5
C64
331
C84
  5
C83
331
C2F
  5
C2E
331
C4E
  5
C4D
331
CA3
  5
CA2
331
D36
  5
D35
331
E17
  5
E16
331
692
  5
692
331
635
  5
635
331
5DF
  5
5DF
331
654
  5
654
331
5A1
  5
5A1
331
54C
  5
54C
331
50E
  5
50E
331
56B
  5
56B
331
5C0
  5
5C0
331
4D0
  5
4D0
331
4EF
  5
4EF
331
DAB
  5
DAA
331
D6D
  5
D6C
331
D8C
  5
D8B
331
D18
  5
D17
331
D37
  5
D36
331
CDA
  5
CD9
331
CF9
  5
CF8
331
C85
  5
C84
331
CA4
  5
CA3
331
C4F
  5
C4E
331
C66
  5
C65
331
CC3
  5
CC2
331
D4E
  5
D4D
331
674
  5
674
331
636
  5
636
331
5C1
  5
5C1
331
5E0
  5
5E0
331
693
  5
693
331
56C
  5
56C
331
4D1
  5
4D1
331
4F0
  5
4F0
331
50F
  5
50F
331
5A2
  5
5A2
331
D8D
  5
D8C
331
DAC
  5
DAB
331
D38
  5
D37
331
D4F
  5
D4E
331
CFA
  5
CF9
331
D19
  5
D18
331
CC4
  5
CC3
331
CDB
  5
CDA
331
D6E
  5
D6D
331
C67
  5
C66
331
C86
  5
C85
331
CA5
  5
CA4
331
694
  5
694
331
637
  5
637
331
5A3
  5
5A3
331
56D
  5
56D
331
52F
  5
52F
331
5C2
  5
5C2
331
675
  5
675
331
4D2
  5
4D2
331
4F1
  5
4F1
331
DAD
  5
DAC
331
D6F
  5
D6E
331
D8E
  5
D8D
331
D1A
  5
D19
331
D39
  5
D38
331
CDC
  5
CDB
331
CFB
  5
CFA
331
C87
  5
C86
331
CA6
  5
CA5
331
C68
  5
C67
331
C32
  5
C2F
331
CC5
  5
CC4
331
D50
  5
D4F
331
9A8
  5
9A8
331
676
  5
676
331
601
  5
601
331
5C3
  5
5C3
331
638
  5
638
331
695
  5
695
331
56E
  5
56E
331
4D3
  5
4D3
331
530
  5
530
331
58D
  5
58D
331
5A4
  5
5A4
331
D8F
  5
D8E
331
DAE
  5
DAD
331
D3A
  5
D39
331
D51
  5
D50
331
CFC
  5
CFB
331
D1B
  5
D1A
331
CA7
  5
CA6
331
CC6
  5
CC5
331
C69
  5
C68
331
C33
  5
C32
331
C88
  5
C87
331
CDD
  5
CDC
331
D70
  5
D6F
331
9D0
  5
9D0
331
696
  5
696
331
639
  5
639
331
658
  5
658
331
5E3
  5
5E3
331
4F3
  5
4F3
331
550
  5
550
331
5A5
  5
5A5
331
4D4
  5
4D4
331
602
  5
602
331
DAF
  5
DAE
331
D52
  5
D51
331
D71
  5
D70
331
D1C
  5
D1B
331
D3B
  5
D3A
331
CDE
  5
CDD
331
CFD
  5
CFC
331
D90
  5
D8F
331
C89
  5
C88
331
CA8
  5
CA7
331
C6A
  5
C69
331
CC7
  5
CC6
331
9D1
  5
9D1
331
659
  5
659
331
5A6
  5
5A6
331
570
  5
570
331
603
  5
603
331
63A
  5
63A
331
4D5
  5
4D5
331
4F4
  5
4F4
331
551
  5
551
331
697
  5
697
331
D91
  5
D90
331
DB0
  5
DAF
331
D3C
  5
D3B
331
D53
  5
D52
331
CFE
  5
CFD
331
D1D
  5
D1C
331
CA9
  5
CA8
331
C6B
  5
C6A
331
C8A
  5
C89
331
CDF
  5
CDE
331
D72
  5
D71
331
679
  5
679
331
698
  5
698
331
65A
  5
65A
331
604
  5
604
331
5A7
  5
5A7
331
4F5
  5
4F5
331
552
  5
552
331
4D6
  5
4D6
331
571
  5
571
331
5C6
  5
5C6
331
A68
  5
A68
331
DB1
  5
DB0
331
D54
  5
D53
331
D73
  5
D72
331
D1E
  5
D1D
331
D3D
  5
D3C
331
CE0
  5
CDF
331
C8B
  5
C8A
331
CAA
  5
CA9
331
C6C
  5
C6B
331
CFF
  5
CFE
331
D92
  5
D91
331
C36
  5
C33
331
9FA
  5
9FA
331
A69
  5
A69
331
920
  5
920
331
65B
  5
65B
331
605
  5
605
331
5A8
  5
5A8
331
572
  5
572
331
5C7
  5
5C7
331
67A
  5
67A
331
4D7
  5
4D7
331
4F6
  5
4F6
331
699
  5
699
331
D74
  5
D73
331
D93
  5
D92
331
D3E
  5
D3D
331
D55
  5
D54
331
D00
  5
CFF
331
D1F
  5
D1E
331
DB2
  5
DB1
331
CAB
  5
CAA
331
C6D
  5
C6C
331
C37
  5
C36
331
C8C
  5
C8B
331
CE1
  5
CE0
331
278
  5
278
331
9D4
  5
9D4
331
67B
  5
67B
331
69A
  5
69A
331
65C
  5
65C
331
5C8
  5
5C8
331
5E7
  5
5E7
331
5A9
  5
5A9
331
4F7
  5
4F7
331
554
  5
554
331
573
  5
573
331
606
  5
606
331
DB3
  5
DB2
331
D56
  5
D55
331
D75
  5
D74
331
D20
  5
D1F
331
D3F
  5
D3E
331
CE2
  5
CE1
331
C8D
  5
C8C
331
CAC
  5
CAB
331
C6E
  5
C6D
331
D01
  5
D00
331
D94
  5
D93
331
298
  5
298
331
279
  5
279
331
65D
  5
65D
331
607
  5
607
331
67C
  5
67C
331
9D5
  5
9D5
331
5AA
  5
5AA
331
5C9
  5
5C9
331
555
  5
555
331
5E8
  5
5E8
331
D76
  5
D75
331
D95
  5
D94
331
D57
  5
D56
331
CE3
  5
CE2
331
CAD
  5
CAC
331
D02
  5
D01
331
C6F
  5
C6E
331
C8E
  5
C8D
331
D21
  5
D20
331
DB4
  5
DB3
331
27A
  5
27A
331
299
  5
299
331
9D6
  5
9D6
331
67D
  5
67D
331
69C
  5
69C
331
5CA
  5
5CA
331
5E9
  5
5E9
331
556
  5
556
331
5AB
  5
5AB
331
65E
  5
65E
331
AE0
  5
AE0
331
D96
  5
D95
331
DB5
  5
DB4
331
D58
  5
D57
331
D22
  5
D21
331
D77
  5
D76
331
CE4
  5
CE3
331
C8F
  5
C8E
331
CAE
  5
CAD
331
D03
  5
D02
331
29A
  5
29A
331
27B
  5
27B
331
AE1
  5
AE1
331
701
  5
701
331
A6D
  5
A6D
331
AF8
  5
AF8
331
718
  5
718
331
69D
  5
69D
331
65F
  5
65F
331
5AC
  5
5AC
331
576
  5
576
331
5CB
  5
5CB
331
67E
  5
67E
331
9D7
  5
9D7
331
557
  5
557
331
D78
  5
D77
331
D97
  5
D96
331
D59
  5
D58
331
CE5
  5
CE4
331
CAF
  5
CAE
331
D04
  5
D03
331
D23
  5
D22
331
DB6
  5
DB5
331
27C
  5
27C
331
29B
  5
29B
331
AF9
  5
AF9
331
719
  5
719
331
B18
  5
B18
331
A6E
  5
A6E
331
9D8
  5
9D8
331
67F
  5
67F
331
69E
  5
69E
331
5CC
  5
5CC
331
641
  5
641
331
5AD
  5
5AD
331
660
  5
660
331
AE2
  5
AE2
331
702
  5
702
331
577
  5
577
331
D98
  5
D97
331
DB7
  5
DB6
331
D5A
  5
D59
331
D05
  5
D04
331
D24
  5
D23
331
CE6
  5
CE5
331
D79
  5
D78
331
29C
  5
29C
331
27D
  5
27D
331
370
  5
370
331
AE3
  5
AE3
331
99B
  5
99B
331
A6F
  5
A6F
331
661
  5
661
331
5AE
  5
5AE
331
5CD
  5
5CD
331
680
  5
680
331
AFA
  5
AFA
331
71A
  5
71A
331
D7A
  5
D79
331
D99
  5
D98
331
D5B
  5
D5A
331
CE7
  5
CE6
331
D06
  5
D05
331
D25
  5
D24
331
27E
  5
27E
331
371
  5
371
331
759
  5
759
331
AFB
  5
AFB
331
71B
  5
71B
331
780
  5
780
331
681
  5
681
331
9DA
  5
9DA
331
5CE
  5
5CE
331
5ED
  5
5ED
331
5AF
  5
5AF
331
662
  5
662
331
AE4
  5
AE4
331
704
  5
704
331
D9A
  5
D99
331
D5C
  5
D5B
331
D07
  5
D06
331
D26
  5
D25
331
D7B
  5
D7A
331
353
  5
353
331
27F
  5
27F
331
781
  5
781
331
7B0
  5
7B0
331
AE5
  5
AE5
331
705
  5
705
331
AFC
  5
AFC
331
71C
  5
71C
331
663
  5
663
331
682
  5
682
331
9DB
  5
9DB
331
5EE
  5
5EE
331
5CF
  5
5CF
331
644
  5
644
331
D7C
  5
D7B
331
D9B
  5
D9A
331
D27
  5
D26
331
D5D
  5
D5C
331
354
  5
354
331
32D
  5
32D
331
280
  5
280
331
29F
  5
29F
331
7B1
  5
7B1
331
AFD
  5
AFD
331
71D
  5
71D
331
782
  5
782
331
9B5
  5
9B5
331
9DC
  5
9DC
331
645
  5
645
331
5EF
  5
5EF
331
AE6
  5
AE6
331
706
  5
706
331
D9C
  5
D9B
331
D5E
  5
D5D
331
D7D
  5
D7C
331
32E
  5
32E
331
281
  5
281
331
2A0
  5
2A0
331
355
  5
355
331
838
  5
838
331
783
  5
783
331
7B2
  5
7B2
331
AE7
  5
AE7
331
707
  5
707
331
AFE
  5
AFE
331
71E
  5
71E
331
684
  5
684
331
9DD
  5
9DD
331
D7E
  5
D7D
331
D9D
  5
D9C
331
D5F
  5
D5E
331
356
  5
356
331
310
  5
310
331
282
  5
282
331
2A1
  5
2A1
331
7B3
  5
7B3
331
802
  5
802
331
708
  5
708
331
AFF
  5
AFF
331
71F
  5
71F
331
784
  5
784
331
685
  5
685
331
9DE
  5
9DE
331
AC9
  5
AC9
331
AE8
  5
AE8
331
D9E
  5
D9D
331
D7F
  5
D7E
331
330
  5
330
331
357
  5
357
331
283
  5
283
331
2A2
  5
2A2
331
311
  5
311
331
878
  5
878
331
785
  5
785
331
73F
  5
73F
331
7B4
  5
7B4
331
861
  5
861
331
ACA
  5
ACA
331
9DF
  5
9DF
331
A06
  5
A06
331
AE9
  5
AE9
331
709
  5
709
331
982
  5
982
331
B00
  5
B00
331
686
  5
686
331
92C
  5
92C
331
720
  5
720
331
D9F
  5
D9E
331
358
  5
358
331
2A3
  5
2A3
331
312
  5
312
331
284
  5
284
331
331
  5
331
331
898
  5
898
331
862
  5
862
331
7B5
  5
7B5
331
804
  5
804
331
AEA
  5
AEA
331
70A
  5
70A
331
B01
  5
B01
331
721
  5
721
331
687
  5
687
331
9E0
  5
9E0
331
ACB
  5
ACB
331
786
  5
786
331
879
  5
879
331
332
  5
332
331
285
  5
285
331
2A4
  5
2A4
331
359
  5
359
331
8B8
  5
8B8
331
87A
  5
87A
331
899
  5
899
331
805
  5
805
331
787
  5
787
331
722
  5
722
331
741
  5
741
331
863
  5
863
331
9E1
  5
9E1
331
ACC
  5
ACC
331
AEB
  5
AEB
331
70B
  5
70B
331
B02
  5
B02
331
2A5
  5
2A5
331
35A
  5
35A
331
286
  5
286
331
89A
  5
89A
331
8B9
  5
8B9
331
7B7
  5
7B7
331
806
  5
806
331
788
  5
788
331
87B
  5
87B
331
70C
  5
70C
331
B03
  5
B03
331
723
  5
723
331
742
  5
742
331
287
  5
287
331
2A6
  5
2A6
331
35B
  5
35B
331
8BA
  5
8BA
331
87C
  5
87C
331
89B
  5
89B
331
789
  5
789
331
B04
  5
B04
331
938
  5
938
331
724
  5
724
331
743
  5
743
331
865
  5
865
331
2A7
  5
2A7
331
35C
  5
35C
331
288
  5
288
331
89C
  5
89C
331
8BB
  5
8BB
331
866
  5
866
331
810
  5
810
331
AEE
  5
AEE
331
B05
  5
B05
331
725
  5
725
331
9C5
  5
9C5
331
ACF
  5
ACF
331
B92
  5
B92
331
78A
  5
78A
331
87D
  5
87D
331
289
  5
289
331
2A8
  5
2A8
331
26A
  5
26A
331
35D
  5
35D
331
8BC
  5
8BC
331
867
  5
867
331
811
  5
811
331
B93
  5
B93
331
78B
  5
78B
331
87E
  5
87E
331
B06
  5
B06
331
726
  5
726
331
745
  5
745
331
AD0
  5
AD0
331
AEF
  5
AEF
331
9C6
  5
9C6
331
89D
  5
89D
331
2A9
  5
2A9
331
26B
  5
26B
331
35E
  5
35E
331
8FC
  5
8FC
331
89E
  5
89E
331
8BD
  5
8BD
331
7E3
  5
7E3
331
AF0
  5
AF0
331
B07
  5
B07
331
727
  5
727
331
9C7
  5
9C7
331
AD1
  5
AD1
331
B94
  5
B94
331
78C
  5
78C
331
87F
  5
87F
331
319
  5
319
331
28B
  5
28B
331
2AA
  5
2AA
331
26C
  5
26C
331
35F
  5
35F
331
8BE
  5
8BE
331
880
  5
880
331
84A
  5
84A
331
B08
  5
B08
331
B95
  5
B95
331
78D
  5
78D
331
AF1
  5
AF1
331
711
  5
711
331
9C8
  5
9C8
331
7E4
  5
7E4
331
89F
  5
89F
331
2AB
  5
2AB
331
360
  5
360
331
28C
  5
28C
331
881
  5
881
331
8A0
  5
8A0
331
7E5
  5
7E5
331
86A
  5
86A
331
8BF
  5
8BF
331
767
  5
767
331
AF2
  5
AF2
331
712
  5
712
331
9C9
  5
9C9
331
B09
  5
B09
331
B96
  5
B96
331
361
  5
361
331
31B
  5
31B
331
342
  5
342
331
28D
  5
28D
331
2AC
  5
2AC
331
8C0
  5
8C0
331
86B
  5
86B
331
B0A
  5
B0A
331
B97
  5
B97
331
882
  5
882
331
AD4
  5
AD4
331
A28
  5
A28
331
AF3
  5
AF3
331
713
  5
713
331
9CA
  5
9CA
331
8A1
  5
8A1
331
2AD
  5
2AD
331
362
  5
362
331
28E
  5
28E
331
883
  5
883
331
8A2
  5
8A2
331
7A8
  5
7A8
331
84D
  5
84D
331
86C
  5
86C
331
8C1
  5
8C1
331
771
  5
771
331
AF4
  5
AF4
331
714
  5
714
331
B0B
  5
B0B
331
9CB
  5
9CB
331
AD5
  5
AD5
331
B98
  5
B98
331
363
  5
363
331
DB8
  5
DB7
331
344
  5
344
331
28F
  5
28F
331
2AE
  5
2AE
331
8A3
  5
8A3
331
8C2
  5
8C2
331
86D
  5
86D
331
772
  5
772
331
B0C
  5
B0C
331
72C
  5
72C
331
B99
  5
B99
331
7A9
  5
7A9
331
884
  5
884
331
909
  5
909
331
9EB
  5
9EB
331
AD6
  5
AD6
331
AF5
  5
AF5
331
715
  5
715
331
98E
  5
98E
331
9CC
  5
9CC
331
DB9
  5
DB8
331
DD8
  5
DD7
331
345
  5
345
331
2AF
  5
2AF
331
364
  5
364
331
290
  5
290
331
885
  5
885
331
8A4
  5
8A4
331
B9A
  5
B9A
331
7AA
  5
7AA
331
773
  5
773
331
86E
  5
86E
331
AF6
  5
AF6
331
716
  5
716
331
B0D
  5
B0D
331
72D
  5
72D
331
9CD
  5
9CD
331
9EC
  5
9EC
331
AD7
  5
AD7
331
8C3
  5
8C3
331
DD9
  5
DD8
331
DF8
  5
DF7
331
365
  5
365
331
DBA
  5
DB9
331
291
  5
291
331
2B0
  5
2B0
331
8A5
  5
8A5
331
8C4
  5
8C4
331
774
  5
774
331
86F
  5
86F
331
B0E
  5
B0E
331
72E
  5
72E
331
886
  5
886
331
9CE
  5
9CE
331
9ED
  5
9ED
331
AD8
  5
AD8
331
AF7
  5
AF7
331
717
  5
717
331
DF9
  5
DF8
331
E18
  5
E17
331
DBB
  5
DBA
331
DDA
  5
DD9
331
292
  5
292
331
347
  5
347
331
273
  5
273
331
366
  5
366
331
8C5
  5
8C5
331
887
  5
887
331
8A6
  5
8A6
331
870
  5
870
331
B9C
  5
B9C
331
7AC
  5
7AC
331
74E
  5
74E
331
775
  5
775
331
AD9
  5
AD9
331
9CF
  5
9CF
331
B0F
  5
B0F
331
82A
  5
82A
  0
LAYOUT
  5
E48
102
{ACAD_REACTORS
330
E46
102
}
330
E46
100
AcDbPlotSettings
  1

  2
A4 EPSON LP-6100.pc3
  4
A4
  6

 40
5.873749732971191
 41
5.873747825622558
 42
5.873748779296875
 43
5.873748779296875
 44
209.9733276367187
 45
297.0106506347656
 46
0.8
 47
25.0
 48
0.0
 49
0.0
140
0.0
141
0.0
142
1.0
143
1.0
 70
 28336
 72
     1
 73
     1
 74
     1
  7
AutoCAD LT 98.ctb
 75
    16
147
1.0
 76
     1
 77
     2
 78
   300
148
0.2063953065465967
149
0.204523286781864
100
AcDbLayout
  1
Model
 70
     1
 71
     0
 10
0.0
 20
0.0
 11
12.0
 21
9.0
 12
0.0
 22
0.0
 32
0.0
 14
0.0
 24
0.0
 34
0.0
 15
0.0
 25
0.0
 35
0.0
146
0.0
 13
0.0
 23
0.0
 33
0.0
 16
1.0
 26
0.0
 36
0.0
 17
0.0
 27
1.0
 37
0.0
 76
     0
330
18
1001
ACAD_PSEXT
1000
A4 EPSON LP-6100.pc3
1000
EPSON LP-6100
1000
\\SATO-MATE2
1000

1070
     0
  0
LAYOUT
  5
E49
102
{ACAD_REACTORS
330
E46
102
}
330
E46
100
AcDbPlotSettings
  1

  2
WIDR Printer
  4

  6

 40
0.0
 41
0.0
 42
0.0
 43
0.0
 44
0.0
 45
0.0
 46
0.0
 47
0.0
 48
0.0
 49
0.0
140
0.0
141
0.0
142
1.0
143
1.0
 70
   688
 72
     0
 73
     0
 74
     5
  7
AutoCad LT 98.ctb
 75
    16
147
1.0
 76
     0
 77
     2
 78
   300
148
0.0
149
0.0
100
AcDbLayout
  1
レイアウト1
 70
     1
 71
     1
 10
0.0
 20
0.0
 11
420.0
 21
297.0
 12
0.0
 22
0.0
 32
0.0
 14
-0.2
 24
-0.2
 34
0.0
 15
255.2
 25
195.2
 35
0.0
146
0.0
 13
0.0
 23
0.0
 33
0.0
 16
1.0
 26
0.0
 36
0.0
 17
0.0
 27
1.0
 37
0.0
 76
     0
330
15
331
177
  0
MLINESTYLE
  5
1C
102
{ACAD_REACTORS
330
1B
102
}
330
1B
100
AcDbMlineStyle
  2
STANDARD
 70
     0
  3

 62
   256
 51
90.0
 52
90.0
 71
     2
 49
0.5
 62
   256
  6
BYLAYER
 49
-0.5
 62
   256
  6
BYLAYER
  0
ACDBPLACEHOLDER
  5
E41
102
{ACAD_REACTORS
330
E40
102
}
330
E40
  0
ACAD_PROXY_OBJECT
  5
E45
102
{ACAD_REACTORS
330
E44
102
}
330
E44
100
AcDbProxyObject
 90
      499
 91
      503
 95
  2555929
 70
     0
 93
     1849
310
4214DD185B99185C992420000000000000F83F0000000000003E0FC00000000000004901028000000C1008070000C3001FDFF8000000C1003FBFF000000182007F7FE00000030400FEFFC00000060801FDFF8000000C1003FBFF000000182000000000000000C2020B0000001820100E000186003FBFF000000182007F7FE0
310
0000030400FEFFC00000060801FDFF8000000C1003FBFF000000182007F7FE0000003040000000000000012404160000003040201C00030C007F7FE00000030400FEFFC00000060801FDFF8000000C1003FBFF000000182007F7FE00000030400FEFFC000000608000
340
F
340
F
340
F
 94
        0
  0
DICTIONARYVAR
  5
E5B
102
{ACAD_REACTORS
330
BA0
102
}
330
BA0
100
DictionaryVariables
280
     0
  1
STANDARD
  0
DICTIONARYVAR
  5
BA1
102
{ACAD_REACTORS
330
BA0
102
}
330
BA0
100
DictionaryVariables
280
     0
  1
96
  0
ENDSEC
  0
EOF
