  0
SECTION
  2
HEADER
  9
$ACADVER
  1
AC1018
  9
$ACADMAINTVER
 70
     0
  9
$DWGCODEPAGE
  3
ANSI_932
  9
$INSBASE
 10
0.0
 20
0.0
 30
0.0
  9
$EXTMIN
 10
-116.894512097356
 20
242.7065214635445
 30
-0.000000000000013
  9
$EXTMAX
 10
261.5900038466998
 20
525.1586406703304
 30
0.0000000000000023
  9
$LIMMIN
 10
0.0
 20
0.0
  9
$LIMMAX
 10
420.0
 20
297.0
  9
$ORTHOMODE
 70
     0
  9
$REGENMODE
 70
     1
  9
$FILLMODE
 70
     1
  9
$QTEXTMODE
 70
     0
  9
$MIRRTEXT
 70
     1
  9
$LTSCALE
 40
1.0
  9
$ATTMODE
 70
     1
  9
$TEXTSIZE
 40
3.0
  9
$TRACEWID
 40
1.0
  9
$TEXTSTYLE
  7
STYLE3
  9
$CLAYER
  8
外形線
  9
$CELTYPE
  6
BYLAYER
  9
$CECOLOR
 62
   256
  9
$CELTSCALE
 40
1.0
  9
$DISPSILH
 70
     0
  9
$DIMSCALE
 40
1.0
  9
$DIMASZ
 40
2.5
  9
$DIMEXO
 40
0.0
  9
$DIMDLI
 40
3.75
  9
$DIMRND
 40
0.0
  9
$DIMDLE
 40
0.0
  9
$DIMEXE
 40
1.25
  9
$DIMTP
 40
0.0
  9
$DIMTM
 40
0.000000001
  9
$DIMTXT
 40
2.5
  9
$DIMCEN
 40
2.5
  9
$DIMTSZ
 40
0.0
  9
$DIMTOL
 70
     0
  9
$DIMLIM
 70
     0
  9
$DIMTIH
 70
     0
  9
$DIMTOH
 70
     0
  9
$DIMSE1
 70
     0
  9
$DIMSE2
 70
     0
  9
$DIMTAD
 70
     1
  9
$DIMZIN
 70
     8
  9
$DIMBLK
  1

  9
$DIMASO
 70
     1
  9
$DIMSHO
 70
     1
  9
$DIMPOST
  1

  9
$DIMAPOST
  1

  9
$DIMALT
 70
     0
  9
$DIMALTD
 70
     4
  9
$DIMALTF
 40
0.0394
  9
$DIMLFAC
 40
1.0
  9
$DIMTOFL
 70
     1
  9
$DIMTVP
 40
0.0
  9
$DIMTIX
 70
     0
  9
$DIMSOXD
 70
     0
  9
$DIMSAH
 70
     1
  9
$DIMBLK1
  1
OPEN
  9
$DIMBLK2
  1
OPEN
  9
$DIMSTYLE
  2
STYLE3
  9
$DIMCLRD
 70
     2
  9
$DIMCLRE
 70
     2
  9
$DIMCLRT
 70
     6
  9
$DIMTFAC
 40
0.6
  9
$DIMGAP
 40
0.625
  9
$DIMJUST
 70
     0
  9
$DIMSD1
 70
     0
  9
$DIMSD2
 70
     0
  9
$DIMTOLJ
 70
     0
  9
$DIMTZIN
 70
     8
  9
$DIMALTZ
 70
     0
  9
$DIMALTTZ
 70
     0
  9
$DIMUPT
 70
     0
  9
$DIMDEC
 70
     2
  9
$DIMTDEC
 70
     2
  9
$DIMALTU
 70
     8
  9
$DIMALTTD
 70
     4
  9
$DIMTXSTY
  7
STYLE3
  9
$DIMAUNIT
 70
     0
  9
$DIMADEC
 70
     2
  9
$DIMALTRND
 40
0.0
  9
$DIMAZIN
 70
     2
  9
$DIMDSEP
 70
    46
  9
$DIMATFIT
 70
     0
  9
$DIMFRAC
 70
     0
  9
$DIMLDRBLK
  1
OPEN
  9
$DIMLUNIT
 70
     2
  9
$DIMLWD
 70
    -2
  9
$DIMLWE
 70
    -2
  9
$DIMTMOVE
 70
     0
  9
$LUNITS
 70
     2
  9
$LUPREC
 70
     4
  9
$SKETCHINC
 40
1.0
  9
$FILLETRAD
 40
0.3
  9
$AUNITS
 70
     0
  9
$AUPREC
 70
     0
  9
$MENU
  1
.
  9
$ELEVATION
 40
0.0
  9
$PELEVATION
 40
0.0
  9
$THICKNESS
 40
0.0
  9
$LIMCHECK
 70
     0
  9
$CHAMFERA
 40
0.2
  9
$CHAMFERB
 40
0.2
  9
$CHAMFERC
 40
20.0
  9
$CHAMFERD
 40
0.0
  9
$SKPOLY
 70
     0
  9
$TDCREATE
 40
2451523.653544676
  9
$TDUCREATE
 40
2451523.278544676
  9
$TDUPDATE
 40
2456332.391188322
  9
$TDUUPDATE
 40
2456332.016188322
  9
$TDINDWG
 40
5.2103726620
  9
$TDUSRTIMER
 40
5.2103726620
  9
$USRTIMER
 70
     1
  9
$ANGBASE
 50
0.0
  9
$ANGDIR
 70
     0
  9
$PDMODE
 70
     0
  9
$PDSIZE
 40
0.0
  9
$PLINEWID
 40
0.0
  9
$SPLFRAME
 70
     0
  9
$SPLINETYPE
 70
     6
  9
$SPLINESEGS
 70
     8
  9
$HANDSEED
  5
10B4F
  9
$SURFTAB1
 70
     6
  9
$SURFTAB2
 70
     6
  9
$SURFTYPE
 70
     6
  9
$SURFU
 70
     6
  9
$SURFV
 70
     6
  9
$UCSBASE
  2

  9
$UCSNAME
  2

  9
$UCSORG
 10
0.0
 20
0.0
 30
0.0
  9
$UCSXDIR
 10
1.0
 20
0.0
 30
0.0
  9
$UCSYDIR
 10
0.0
 20
1.0
 30
0.0
  9
$UCSORTHOREF
  2

  9
$UCSORTHOVIEW
 70
     0
  9
$UCSORGTOP
 10
0.0
 20
0.0
 30
0.0
  9
$UCSORGBOTTOM
 10
0.0
 20
0.0
 30
0.0
  9
$UCSORGLEFT
 10
0.0
 20
0.0
 30
0.0
  9
$UCSORGRIGHT
 10
0.0
 20
0.0
 30
0.0
  9
$UCSORGFRONT
 10
0.0
 20
0.0
 30
0.0
  9
$UCSORGBACK
 10
0.0
 20
0.0
 30
0.0
  9
$PUCSBASE
  2

  9
$PUCSNAME
  2

  9
$PUCSORG
 10
0.0
 20
0.0
 30
0.0
  9
$PUCSXDIR
 10
1.0
 20
0.0
 30
0.0
  9
$PUCSYDIR
 10
0.0
 20
1.0
 30
0.0
  9
$PUCSORTHOREF
  2

  9
$PUCSORTHOVIEW
 70
     0
  9
$PUCSORGTOP
 10
0.0
 20
0.0
 30
0.0
  9
$PUCSORGBOTTOM
 10
0.0
 20
0.0
 30
0.0
  9
$PUCSORGLEFT
 10
0.0
 20
0.0
 30
0.0
  9
$PUCSORGRIGHT
 10
0.0
 20
0.0
 30
0.0
  9
$PUCSORGFRONT
 10
0.0
 20
0.0
 30
0.0
  9
$PUCSORGBACK
 10
0.0
 20
0.0
 30
0.0
  9
$USERI1
 70
     0
  9
$USERI2
 70
     0
  9
$USERI3
 70
     0
  9
$USERI4
 70
     0
  9
$USERI5
 70
     0
  9
$USERR1
 40
0.0
  9
$USERR2
 40
0.0
  9
$USERR3
 40
0.0
  9
$USERR4
 40
0.0
  9
$USERR5
 40
0.0
  9
$WORLDVIEW
 70
     1
  9
$SHADEDGE
 70
     3
  9
$SHADEDIF
 70
    70
  9
$TILEMODE
 70
     1
  9
$MAXACTVP
 70
    48
  9
$PINSBASE
 10
0.0
 20
0.0
 30
0.0
  9
$PLIMCHECK
 70
     0
  9
$PEXTMIN
 10
40.81991586685183
 20
28.52631521224976
 30
0.0
  9
$PEXTMAX
 10
367.3792428016662
 20
256.7368369102478
 30
0.0
  9
$PLIMMIN
 10
-5.873748779296875
 20
-5.873749732971191
  9
$PLIMMAX
 10
414.0729064941406
 20
291.1369009017944
  9
$UNITMODE
 70
     0
  9
$VISRETAIN
 70
     1
  9
$PLINEGEN
 70
     0
  9
$PSLTSCALE
 70
     1
  9
$TREEDEPTH
 70
  3020
  9
$CMLSTYLE
  2
STANDARD
  9
$CMLJUST
 70
     0
  9
$CMLSCALE
 40
20.0
  9
$PROXYGRAPHICS
 70
     1
  9
$MEASUREMENT
 70
     1
  9
$CELWEIGHT
370
    -1
  9
$ENDCAPS
280
     0
  9
$JOINSTYLE
280
     0
  9
$LWDISPLAY
290
     0
  9
$INSUNITS
 70
     0
  9
$HYPERLINKBASE
  1

  9
$STYLESHEET
  1
AutoCad LT 98.ctb
  9
$XEDIT
290
     1
  9
$CEPSNTYPE
380
     0
  9
$PSTYLEMODE
290
     1
  9
$FINGERPRINTGUID
  2
{43ADB1CD-BDA8-45C6-BF05-98464A7AD6FA}
  9
$VERSIONGUID
  2
{691F49D0-5056-4FF3-948D-2EB63D12C211}
  9
$EXTNAMES
290
     1
  9
$PSVPSCALE
 40
0.0
  9
$OLESTARTUP
290
     0
  9
$SORTENTS
280
    96
  9
$INDEXCTL
280
     0
  9
$HIDETEXT
280
     0
  9
$XCLIPFRAME
290
     0
  9
$HALOGAP
280
     0
  9
$OBSCOLOR
 70
   257
  9
$OBSLTYPE
280
     0
  9
$INTERSECTIONDISPLAY
280
     0
  9
$INTERSECTIONCOLOR
 70
   257
  9
$DIMASSOC
280
     1
  9
$PROJECTNAME
  1

  0
ENDSEC
  0
SECTION
  2
CLASSES
  0
CLASS
  1
DICTIONARYVAR
  2
AcDbDictionaryVar
  3
ObjectDBX Classes
 90
        0
 91
        2
280
     0
281
     0
  0
CLASS
  1
HATCH
  2
AcDbHatch
  3
ObjectDBX Classes
 90
        0
 91
       30
280
     0
281
     1
  0
CLASS
  1
LWPOLYLINE
  2
AcDbPolyline
  3
ObjectDBX Classes
 90
        0
 91
       61
280
     0
281
     1
  0
CLASS
  1
ACDBDICTIONARYWDFLT
  2
AcDbDictionaryWithDefault
  3
ObjectDBX Classes
 90
        0
 91
        1
280
     0
281
     0
  0
CLASS
  1
TABLESTYLE
  2
AcDbTableStyle
  3
ObjectDBX Classes
 90
     2047
 91
        1
280
     0
281
     0
  0
CLASS
  1
SORTENTSTABLE
  2
AcDbSortentsTable
  3
ObjectDBX Classes
 90
        0
 91
       12
280
     0
281
     0
  0
ENDSEC
  0
SECTION
  2
TABLES
  0
TABLE
  2
VPORT
  5
8
330
0
100
AcDbSymbolTable
 70
     8
  0
VPORT
  5
D38C
330
8
100
AcDbSymbolTableRecord
100
AcDbViewportTableRecord
  2
v4_2
 70
     0
 10
0.75
 20
0.0
 11
1.0
 21
0.3333333333333333
 12
139.3490770633051
 22
340.8639465968961
 13
0.0
 23
0.0
 14
10.0
 24
10.0
 15
10.0
 25
10.0
 16
0.0
 26
0.0
 36
1.0
 17
0.0
 27
0.0
 37
0.0
 40
251.8840448434876
 41
1.154947512096377
 42
50.0
 43
0.0
 44
0.0
 50
0.0
 51
0.0
 71
     0
 72
   100
 73
     1
 74
     1
 75
     0
 76
     0
 77
     0
 78
     0
281
     0
 65
     1
110
0.0
120
0.0
130
0.0
111
1.0
121
0.0
131
0.0
112
0.0
122
1.0
132
0.0
 79
     0
146
0.0
  0
VPORT
  5
D38D
330
8
100
AcDbSymbolTableRecord
100
AcDbViewportTableRecord
  2
v4_2
 70
     0
 10
0.75
 20
0.3333333333333333
 11
1.0
 21
0.6666666666666668
 12
188.5903271769605
 22
322.6609530959235
 13
0.0
 23
0.0
 14
10.0
 24
10.0
 15
10.0
 25
10.0
 16
0.0
 26
0.0
 36
1.0
 17
0.0
 27
0.0
 37
0.0
 40
71.88607318200839
 41
1.150505406280621
 42
50.0
 43
0.0
 44
0.0
 50
0.0
 51
0.0
 71
     0
 72
   100
 73
     1
 74
     1
 75
     0
 76
     0
 77
     0
 78
     0
281
     0
 65
     1
110
0.0
120
0.0
130
0.0
111
1.0
121
0.0
131
0.0
112
0.0
122
1.0
132
0.0
 79
     0
146
0.0
  0
VPORT
  5
D38E
330
8
100
AcDbSymbolTableRecord
100
AcDbViewportTableRecord
  2
v4_2
 70
     0
 10
0.75
 20
0.6666666666666668
 11
1.0
 21
1.0
 12
187.0837058666867
 22
395.6453499167457
 13
0.0
 23
0.0
 14
10.0
 24
10.0
 15
10.0
 25
10.0
 16
0.0
 26
0.0
 36
1.0
 17
0.0
 27
0.0
 37
0.0
 40
44.30744363238572
 41
1.150505406280621
 42
50.0
 43
0.0
 44
0.0
 50
0.0
 51
0.0
 71
     0
 72
   100
 73
     1
 74
     1
 75
     0
 76
     0
 77
     0
 78
     0
281
     0
 65
     1
110
0.0
120
0.0
130
0.0
111
1.0
121
0.0
131
0.0
112
0.0
122
1.0
132
0.0
 79
     0
146
0.0
  0
VPORT
  5
D38F
330
8
100
AcDbSymbolTableRecord
100
AcDbViewportTableRecord
  2
v4_2
 70
     0
 10
0.0
 20
0.0
 11
0.75
 21
1.0
 12
90.16954697567285
 22
386.7788089930371
 13
0.0
 23
0.0
 14
10.0
 24
10.0
 15
10.0
 25
10.0
 16
0.0
 26
0.0
 36
1.0
 17
0.0
 27
0.0
 37
0.0
 40
116.3120565304616
 41
1.148275127176782
 42
50.0
 43
0.0
 44
0.0
 50
0.0
 51
0.0
 71
     0
 72
   100
 73
     1
 74
     1
 75
     0
 76
     0
 77
     0
 78
     0
281
     0
 65
     1
110
0.0
120
0.0
130
0.0
111
1.0
121
0.0
131
0.0
112
0.0
122
1.0
132
0.0
 79
     0
146
0.0
  0
VPORT
  5
10B4E
330
8
100
AcDbSymbolTableRecord
100
AcDbViewportTableRecord
  2
*Active
 70
     0
 10
0.0
 20
0.0
 11
1.0
 21
1.0
 12
72.34774587467187
 22
383.9325810669375
 13
0.0
 23
0.0
 14
10.0
 24
10.0
 15
10.0
 25
10.0
 16
0.0
 26
0.0
 36
1.0
 17
0.0
 27
0.0
 37
0.0
 40
284.600044067674
 41
1.530456852791878
 42
50.0
 43
0.0
 44
0.0
 50
0.0
 51
0.0
 71
     0
 72
   100
 73
     1
 74
     1
 75
     0
 76
     0
 77
     0
 78
     0
281
     0
 65
     1
110
0.0
120
0.0
130
0.0
111
1.0
121
0.0
131
0.0
112
0.0
122
1.0
132
0.0
 79
     0
146
0.0
  0
ENDTAB
  0
TABLE
  2
LTYPE
  5
5
330
0
100
AcDbSymbolTable
 70
    12
  0
LTYPE
  5
12
330
5
100
AcDbSymbolTableRecord
100
AcDbLinetypeTableRecord
  2
BYBLOCK
 70
     0
  3

 72
    65
 73
     0
 40
0.0
  0
LTYPE
  5
13
330
5
100
AcDbSymbolTableRecord
100
AcDbLinetypeTableRecord
  2
BYLAYER
 70
     0
  3

 72
    65
 73
     0
 40
0.0
  0
LTYPE
  5
14
330
5
100
AcDbSymbolTableRecord
100
AcDbLinetypeTableRecord
  2
CONTINUOUS
 70
     0
  3
Solid line
 72
    65
 73
     0
 40
0.0
  0
LTYPE
  5
22
330
5
100
AcDbSymbolTableRecord
100
AcDbLinetypeTableRecord
  2
CENTER2
 70
     0
  3
Center (.5x) ___ _ ___ _ ___ _ ___ _ ___ _ ___
 72
    65
 73
     4
 40
28.575
 49
19.05
 74
     0
 49
-3.174999999999999
 74
     0
 49
3.174999999999999
 74
     0
 49
-3.174999999999999
 74
     0
  0
LTYPE
  5
23
330
5
100
AcDbSymbolTableRecord
100
AcDbLinetypeTableRecord
  2
HIDDEN2
 70
     0
  3
Hidden (.5x) _ _ _ _ _ _ _ _ _ _ _ _ _ _ _ _ _
 72
    65
 73
     2
 40
4.762499999999999
 49
3.174999999999999
 74
     0
 49
-1.587499999999999
 74
     0
  0
ENDTAB
  0
TABLE
  2
LAYER
  5
2
102
{ACAD_XDICTIONARY
360
C7D2
102
}
330
0
100
AcDbSymbolTable
 70
    17
  0
LAYER
  5
E
330
2
100
AcDbSymbolTableRecord
100
AcDbLayerTableRecord
  2
0
 70
     0
 62
     7
  6
CONTINUOUS
370
    -3
390
249A
  0
LAYER
  5
25
330
2
100
AcDbSymbolTableRecord
100
AcDbLayerTableRecord
  2
外形線
 70
     0
 62
     7
  6
CONTINUOUS
370
    -3
390
249A
  0
LAYER
  5
26
330
2
100
AcDbSymbolTableRecord
100
AcDbLayerTableRecord
  2
寸法線
 70
     0
 62
     2
  6
CONTINUOUS
370
    -3
390
249A
  0
LAYER
  5
27
330
2
100
AcDbSymbolTableRecord
100
AcDbLayerTableRecord
  2
中心線
 70
     0
 62
     4
  6
CENTER2
370
    -3
390
249A
  0
LAYER
  5
2B
330
2
100
AcDbSymbolTableRecord
100
AcDbLayerTableRecord
  2
文字
 70
     0
 62
     6
  6
CONTINUOUS
370
    -3
390
249A
  0
LAYER
  5
53
330
2
100
AcDbSymbolTableRecord
100
AcDbLayerTableRecord
  2
DEFPOINTS
 70
     0
 62
     7
  6
CONTINUOUS
290
     0
370
    -3
390
249A
  0
LAYER
  5
16A
330
2
100
AcDbSymbolTableRecord
100
AcDbLayerTableRecord
  2
隠れ線2
 70
     0
 62
     1
  6
HIDDEN2
370
    -3
390
249A
  0
LAYER
  5
8B57
330
2
100
AcDbSymbolTableRecord
100
AcDbLayerTableRecord
  2
ROGO
 70
     0
 62
     6
  6
CONTINUOUS
370
    -3
390
249A
  0
ENDTAB
  0
TABLE
  2
STYLE
  5
3
330
0
100
AcDbSymbolTable
 70
    10
  0
STYLE
  5
F
330
3
100
AcDbSymbolTableRecord
100
AcDbTextStyleTableRecord
  2
STANDARD
 70
     0
 40
0.0
 41
1.0
 50
0.0
 71
     0
 42
2.5
  3
txt
  4

  0
STYLE
  5
3F
330
3
100
AcDbSymbolTableRecord
100
AcDbTextStyleTableRecord
  2
STYLE3
 70
     0
 40
0.0
 41
1.0
 50
0.0
 71
     0
 42
3.0
  3
romans.shx
  4
bigfont.shx
  0
STYLE
  5
10627
330
3
100
AcDbSymbolTableRecord
100
AcDbTextStyleTableRecord
  2
4
 70
     0
 40
0.0
 41
1.0
 50
0.0
 71
     0
 42
3.0
  3
MS PGothic.ttf
  4

1001
ACAD
1000
MS PGothic
1071
    32818
  0
ENDTAB
  0
TABLE
  2
VIEW
  5
6
330
0
100
AcDbSymbolTable
 70
     1
  0
VIEW
  5
68B5
330
6
100
AcDbSymbolTableRecord
100
AcDbViewTableRecord
  2
OLE1
 70
     0
 40
196.9594340610434
 10
11.80942821190831
 20
320.3345286897214
 41
303.1731602824438
 11
0.0
 21
0.0
 31
1.0
 12
0.0
 22
0.0
 32
0.0
 42
50.0
 43
0.0
 44
0.0
 50
0.0
 71
     0
281
     0
 72
     0
  0
ENDTAB
  0
TABLE
  2
UCS
  5
7
330
0
100
AcDbSymbolTable
 70
     0
  0
ENDTAB
  0
TABLE
  2
APPID
  5
9
330
0
100
AcDbSymbolTable
 70
     5
  0
APPID
  5
10
330
9
100
AcDbSymbolTableRecord
100
AcDbRegAppTableRecord
  2
ACAD
 70
     0
  0
APPID
  5
7A7
330
9
100
AcDbSymbolTableRecord
100
AcDbRegAppTableRecord
  2
DRAWINGVARIABLESXDATA
 70
     0
  0
APPID
  5
2700
330
9
100
AcDbSymbolTableRecord
100
AcDbRegAppTableRecord
  2
ACAD_DSTYLE_DIMTEXT_FILL
 70
     0
  0
APPID
  5
2850
330
9
100
AcDbSymbolTableRecord
100
AcDbRegAppTableRecord
  2
ACAD_PSEXT
 70
     0
  0
APPID
  5
1052A
330
9
100
AcDbSymbolTableRecord
100
AcDbRegAppTableRecord
  2
AcAecLayerStandard
 70
     0
  0
ENDTAB
  0
TABLE
  2
DIMSTYLE
  5
A
330
0
100
AcDbSymbolTable
 70
     9
100
AcDbDimStyleTable
 71
     1
340
8F
  0
DIMSTYLE
105
8F
102
{ACAD_REACTORS
330
8E3
330
902
330
903
330
909
330
933
330
94D
330
9B2
330
E00
330
E01
330
E02
330
E03
330
E04
330
EFF
330
F0D
330
15FA
330
15FE
330
1604
330
1605
330
165B
330
187B
330
18AD
330
18AE
330
18AF
330
18B5
330
1B8B
330
1B8C
330
1BB7
330
1BB8
330
1BFC
330
1C0D
330
2020
330
2023
330
2024
330
20A7
330
20DA
330
20DF
330
185C
330
1C46
330
107E0
330
107E1
330
107E2
330
107E3
330
107F2
330
107F3
330
10801
330
107D2
330
107D3
330
107D4
330
107D5
330
107D6
330
109CE
102
}
330
A
100
AcDbSymbolTableRecord
100
AcDbDimStyleTableRecord
  2
STYLE3
 70
     0
 41
2.5
 42
0.0
 43
3.75
 44
1.25
 48
0.000000001
 73
     0
 74
     0
 77
     1
 78
     8
 79
     2
140
2.5
141
2.5
143
0.0394
146
0.6
147
0.625
171
     4
172
     1
173
     1
176
     2
177
     2
178
     6
179
     2
271
     2
272
     2
273
     8
274
     4
283
     0
284
     8
289
     0
340
3F
341
45
343
45
344
45
  0
ENDTAB
  0
TABLE
  2
BLOCK_RECORD
  5
1
330
0
100
AcDbSymbolTable
 70
    98
  0
BLOCK_RECORD
  5
18
102
{ACAD_XDICTIONARY
360
26F5
102
}
330
1
100
AcDbSymbolTableRecord
100
AcDbBlockTableRecord
  2
*MODEL_SPACE
340
24A1
  0
BLOCK_RECORD
  5
15
330
1
100
AcDbSymbolTableRecord
100
AcDbBlockTableRecord
  2
*PAPER_SPACE
340
24A2
  0
BLOCK_RECORD
  5
45
330
1
100
AcDbSymbolTableRecord
100
AcDbBlockTableRecord
  2
_OPEN
340
0
102
{BLKREFS
331
860
331
861
331
86C
331
86D
331
879
331
87A
331
88F
331
890
331
89A
331
89B
331
8A5
331
8A6
331
8B1
331
8B2
331
8DA
331
8DB
331
911
331
913
331
914
331
91B
331
924
331
92B
331
937
331
93B
331
950
331
9B7
331
DA3
331
DA4
331
DAE
331
DAF
331
DB9
331
DBA
331
DC5
331
DC6
331
DD3
331
DD4
331
DDF
331
DE0
331
DEB
331
DEC
331
E30
331
E36
331
E37
331
E4A
331
E50
331
E51
331
E88
331
E91
331
E99
331
EBC
331
EBD
331
EC7
331
ECA
331
F80
331
F83
331
1572
331
1573
331
157E
331
157F
331
158A
331
158B
331
1597
331
1598
331
15A5
331
15A6
331
161C
331
1620
331
1622
331
162D
331
1643
331
1644
331
1649
331
164B
331
166F
331
1672
331
1678
331
1810
331
1811
331
1820
331
1821
331
182C
331
182D
331
1839
331
183A
331
1845
331
1846
331
187C
331
187E
331
1892
331
18C0
331
18D1
331
18DB
331
18E5
331
18EA
331
1909
331
190B
331
1913
331
1915
331
1B0A
331
1B0B
331
1B16
331
1B17
331
1B22
331
1B23
331
1B2E
331
1B2F
331
1B3A
331
1B3B
331
1B47
331
1B48
331
1BD3
331
1BD4
331
1BD5
331
1BF3
331
1BF4
331
1BF6
331
1BFB
331
1C00
331
1C11
331
1C23
331
1C25
331
1C29
331
1C2A
331
1C41
331
1FD8
331
1FD9
331
1FE4
331
1FE5
331
1FF0
331
1FF1
331
1FFB
331
1FFC
331
2009
331
200A
331
2015
331
2016
331
20EF
331
20F0
331
211A
331
211C
331
212D
331
212F
331
1013A
331
1013B
331
10146
331
10147
331
10152
331
10153
331
10281
331
10282
331
1015E
331
1015F
331
10287
331
10288
331
1016A
331
1016B
331
10176
331
10177
331
10182
331
10183
331
1018D
331
1018E
331
10199
331
1019A
331
101A5
331
101A6
331
101B0
331
101B1
331
101BC
331
101BD
331
101CA
331
101CB
331
109E7
331
109E8
331
109F0
331
109F1
331
109F9
331
109FA
331
10A02
331
10A03
331
10A0B
331
10A0C
331
10A14
331
10A15
331
10A1D
331
10A1E
331
10A25
331
10A26
331
10A2E
331
10A2F
331
10A36
331
10A37
331
10A41
331
10A42
331
10A4A
331
10A4B
331
10A53
331
10A54
102
}
  0
BLOCK_RECORD
  5
105D2
330
1
100
AcDbSymbolTableRecord
100
AcDbBlockTableRecord
  2
ROGO
340
0
102
{BLKREFS
331
1080E
102
}
  0
BLOCK_RECORD
  5
10817
330
1
100
AcDbSymbolTableRecord
100
AcDbBlockTableRecord
  2
*D82
340
0
  0
BLOCK_RECORD
  5
10823
330
1
100
AcDbSymbolTableRecord
100
AcDbBlockTableRecord
  2
*D83
340
0
  0
BLOCK_RECORD
  5
1082F
330
1
100
AcDbSymbolTableRecord
100
AcDbBlockTableRecord
  2
*D84
340
0
  0
BLOCK_RECORD
  5
1083B
330
1
100
AcDbSymbolTableRecord
100
AcDbBlockTableRecord
  2
*D85
340
0
  0
BLOCK_RECORD
  5
10849
330
1
100
AcDbSymbolTableRecord
100
AcDbBlockTableRecord
  2
*D86
340
0
  0
BLOCK_RECORD
  5
10855
330
1
100
AcDbSymbolTableRecord
100
AcDbBlockTableRecord
  2
*D87
340
0
  0
BLOCK_RECORD
  5
10860
330
1
100
AcDbSymbolTableRecord
100
AcDbBlockTableRecord
  2
*D88
340
0
  0
BLOCK_RECORD
  5
1086C
330
1
100
AcDbSymbolTableRecord
100
AcDbBlockTableRecord
  2
*D89
340
0
  0
BLOCK_RECORD
  5
10878
330
1
100
AcDbSymbolTableRecord
100
AcDbBlockTableRecord
  2
*D90
340
0
  0
BLOCK_RECORD
  5
10884
330
1
100
AcDbSymbolTableRecord
100
AcDbBlockTableRecord
  2
*D91
340
0
  0
BLOCK_RECORD
  5
10890
330
1
100
AcDbSymbolTableRecord
100
AcDbBlockTableRecord
  2
*D92
340
0
  0
BLOCK_RECORD
  5
1089B
330
1
100
AcDbSymbolTableRecord
100
AcDbBlockTableRecord
  2
*D93
340
0
  0
BLOCK_RECORD
  5
109CF
330
1
100
AcDbSymbolTableRecord
100
AcDbBlockTableRecord
  2
*D94
340
0
  0
ENDTAB
  0
ENDSEC
  0
SECTION
  2
BLOCKS
  0
BLOCK
  5
19
330
18
100
AcDbEntity
  8
0
100
AcDbBlockBegin
  2
*MODEL_SPACE
 70
     0
 10
0.0
 20
0.0
 30
0.0
  3
*MODEL_SPACE
  1

  0
ENDBLK
  5
1A
330
18
100
AcDbEntity
  8
0
100
AcDbBlockEnd
  0
BLOCK
  5
16
330
15
100
AcDbEntity
 67
     1
  8
0
100
AcDbBlockBegin
  2
*PAPER_SPACE
 70
     0
 10
0.0
 20
0.0
 30
0.0
  3
*PAPER_SPACE
  1

  0
ENDBLK
  5
17
330
15
100
AcDbEntity
 67
     1
  8
0
100
AcDbBlockEnd
  0
BLOCK
  5
46
330
45
100
AcDbEntity
  8
0
100
AcDbBlockBegin
  2
_OPEN
 70
     0
 10
0.0
 20
0.0
 30
0.0
  3
_OPEN
  1

  0
LINE
  5
47
330
45
100
AcDbEntity
  8
0
  6
ByBlock
 62
     0
100
AcDbLine
 10
-1.0
 20
0.1666666666666666
 30
0.0
 11
0.0
 21
0.0
 31
0.0
  0
LINE
  5
48
330
45
100
AcDbEntity
  8
0
  6
ByBlock
 62
     0
100
AcDbLine
 10
0.0
 20
0.0
 30
0.0
 11
-1.0
 21
-0.1666666666666666
 31
0.0
  0
LINE
  5
49
330
45
100
AcDbEntity
  8
0
  6
ByBlock
 62
     0
100
AcDbLine
 10
0.0
 20
0.0
 30
0.0
 11
-1.0
 21
0.0
 31
0.0
  0
ENDBLK
  5
4A
330
45
100
AcDbEntity
  8
0
100
AcDbBlockEnd
  0
BLOCK
  5
105D3
330
105D2
100
AcDbEntity
  8
0
100
AcDbBlockBegin
  2
ROGO
 70
     0
 10
0.0
 20
0.0
 30
0.0
  3
ROGO
  1

  0
HATCH
  5
105D4
330
105D2
100
AcDbEntity
  8
ROGO
 62
     4
100
AcDbHatch
 10
0.0
 20
0.0
 30
0.0
210
0.0
220
0.0
230
1.0
  2
SOLID
 70
     1
 71
     1
 91
        1
 92
        7
 72
     0
 73
     1
 93
       11
 10
38.38165352405156
 20
4.949786840425588
 10
36.55777800832078
 20
4.949786840425588
 10
35.70378540756275
 20
4.409370842614521
 10
35.97325427788326
 20
4.949786840425588
 10
34.14933885635003
 20
4.949786840425645
 10
31.68121527448045
 20
0.0
 10
33.50513069601385
 20
0.0
 10
34.14933885635003
 20
1.291950329371957
 10
34.79354701668632
 20
0.0
 10
36.61742253241704
 20
0.0
 10
35.38336074148237
 20
2.474893420212765
 97
       11
330
10622
330
10625
330
10624
330
10623
330
105D9
330
105D6
330
1061F
330
1061E
330
10620
330
1061D
330
10621
 75
     0
 76
     1
 47
0.0514683685270805
 98
        1
 10
33.99236623130548
 20
2.826231829978155
450
        0
451
        0
460
0.0
461
0.0
452
        0
462
0.0
453
        0
470

  0
HATCH
  5
105D5
330
105D2
100
AcDbEntity
  8
ROGO
 62
     4
100
AcDbHatch
 10
0.0
 20
0.0
 30
0.0
210
0.0
220
0.0
230
1.0
  2
SOLID
 70
     1
 71
     1
 91
        1
 92
        5
 93
        8
 72
     1
 10
33.48588559853425
 20
4.949786840425645
 11
30.31359802057352
 21
4.949786840425645
 72
     4
 94
        3
 73
     0
 74
     0
 95
       26
 96
       22
 40
0.0
 40
0.0
 40
0.0
 40
0.0
 40
0.7089867102952115
 40
1.183598414482279
 40
1.525832104103439
 40
1.781366926528389
 40
2.112809002752968
 40
2.354729406992515
 40
2.791581270399936
 40
3.147172406765291
 40
3.389031356825354
 40
3.626186440486682
 40
4.050410779375985
 40
4.350388020238963
 40
4.511948940797758
 40
4.741441456013356
 40
4.907163150576407
 40
5.147239172635527
 40
5.28310143501293
 40
5.578752957634333
 40
5.713750011164293
 40
5.713750011164293
 40
5.713750011164293
 40
5.713750011164293
 10
30.31359802057318
 20
4.949786840425645
 10
30.11854899911117
 20
4.938149881331241
 10
29.7929297608427
 20
4.91872287919773
 10
29.43540181805798
 20
4.70152849352172
 10
29.17345591634097
 20
4.575261222274434
 10
28.98663641691252
 20
4.403611624277345
 10
28.84969696652098
 20
4.226310128312206
 10
28.67705908163674
 20
4.015056695877603
 10
28.53627781964582
 20
3.769060622409767
 10
28.46458648155834
 20
3.497930064177694
 10
28.40108297470425
 20
3.28183743611737
 10
28.35398771091377
 20
3.041030402807223
 10
28.36597007927202
 20
2.780874095348053
 10
28.38312937914947
 20
2.539254235598093
 10
28.45974148051295
 20
2.366773831190926
 10
28.5469890936244
 20
2.243979668736869
 10
28.65382260102928
 20
2.108735512341411
 10
28.77072182070049
 20
2.019163745498303
 10
28.86740701734601
 20
1.85689847078413
 10
29.03665119246222
 20
1.836192251465718
 10
29.14422952328943
 20
1.794980695042454
 10
29.17795251342483
 20
1.782061951090668
 72
     1
 10
29.1779525134246
 20
1.782061951090668
 11
31.90635566072177
 21
1.782061951090724
 72
     1
 10
31.90635566072177
 20
1.782061951090668
 11
32.49403698331935
 21
2.960648509043437
 72
     1
 10
32.49403698331941
 20
2.960648509043437
 11
30.46845823186379
 21
2.960648509043437
 72
     4
 94
        3
 73
     0
 74
     0
 95
       16
 96
       12
 40
0.0
 40
0.0
 40
0.0
 40
0.0
 40
0.2141121027475241
 40
0.4304326162973471
 40
0.5594580803306056
 40
0.6831669452691567
 40
0.8190286678446897
 40
0.9139043619204622
 40
1.003933161420314
 40
1.186498641432482
 40
1.560280494298353
 40
1.560280494298353
 40
1.560280494298353
 40
1.560280494298353
 10
30.46845823186391
 20
2.960648509043437
 10
30.40735963846879
 20
2.978624611086559
 10
30.2845322640714
 20
3.014762225606943
 10
30.27425260468789
 20
3.189944104912854
 10
30.28825715338957
 20
3.314775529002304
 10
30.34690823463126
 20
3.405660095425673
 10
30.41806216907168
 20
3.471790575521367
 10
30.44455593462857
 20
3.557915185941965
 10
30.52243194464864
 20
3.622950041937542
 10
30.66052697686496
 20
3.732264550099898
 10
30.81323617682881
 20
3.755546097864453
 10
30.9158338246271
 20
3.771187801431096
 72
     1
 10
30.91583382462705
 20
3.77118780143121
 11
32.89819805248612
 21
3.77118780143121
 72
     1
 10
32.89819805248612
 20
3.77118780143121
 11
33.48588559853425
 21
4.949786840425701
 97
        8
330
105D7
330
105FB
330
10607
330
10600
330
1061B
330
1061A
330
1061C
330
105D8
 75
     0
 76
     1
 47
0.0514683685270805
 98
        1
 10
30.86099532083267
 20
4.369765638819899
450
        0
451
        0
460
0.0
461
0.0
452
        0
462
0.0
453
        0
470

  0
LINE
  5
105D6
102
{ACAD_REACTORS
330
105DA
330
105D4
330
105DF
102
}
330
105D2
100
AcDbEntity
  8
ROGO
 62
     4
100
AcDbLine
 10
0.0000000000000568
 20
0.0
 30
0.0
 11
33.50513069601385
 21
0.0
 31
0.0
  0
LINE
  5
105D7
102
{ACAD_REACTORS
330
105D5
102
}
330
105D2
100
AcDbEntity
  8
ROGO
 62
     4
100
AcDbLine
 10
30.31359802057415
 20
4.949786840425645
 30
0.0
 11
33.48588559853425
 21
4.949786840425645
 31
0.0
  0
LINE
  5
105D8
102
{ACAD_REACTORS
330
105D5
102
}
330
105D2
100
AcDbEntity
  8
ROGO
 62
     4
100
AcDbLine
 10
33.48588559853425
 20
4.949786840425645
 30
0.0
 11
32.89819805248607
 21
3.77118780143121
 31
0.0
  0
LINE
  5
105D9
102
{ACAD_REACTORS
330
105DA
330
105D4
102
}
330
105D2
100
AcDbEntity
  8
ROGO
 62
     4
100
AcDbLine
 10
34.14933885635003
 20
4.949786840425645
 30
0.0
 11
31.6812152744804
 21
0.0
 31
0.0
  0
HATCH
  5
105DA
330
105D2
100
AcDbEntity
  8
ROGO
 62
     4
100
AcDbHatch
 10
0.0
 20
0.0
 30
0.0
210
0.0
220
0.0
230
1.0
  2
SOLID
 70
     1
 71
     1
 91
        1
 92
        7
 72
     0
 73
     1
 93
        4
 10
31.9286078056424
 20
0.4961422127159381
 10
2.525341286638024
 20
0.4961422127159381
 10
2.30087247590319
 20
-0.0000000000000568
 10
31.68121527448045
 20
-0.0000000000000568
 97
        4
330
105DE
330
105E8
330
105D6
330
105D9
 75
     0
 76
     1
 47
0.0514683685270805
 98
        1
 10
21.09111831761885
 20
0.3649205710345882
450
        0
451
        0
460
0.0
461
0.0
452
        0
462
0.0
453
        0
470

  0
HATCH
  5
105DB
330
105D2
100
AcDbEntity
  8
ROGO
 62
     4
100
AcDbHatch
 10
0.0
 20
0.0
 30
0.0
210
0.0
220
0.0
230
1.0
  2
SOLID
 70
     1
 71
     1
 91
        2
 92
        7
 72
     0
 73
     1
 93
        8
 10
15.99342784516449
 20
4.949786840425645
 10
14.16260675403379
 20
4.949786840425645
 10
11.87829877231911
 20
1.782061951090668
 10
13.63265136986962
 20
1.782061951090668
 10
14.06756947612285
 20
2.38517717067981
 10
16.08846512307536
 20
2.385177170679696
 10
16.52338322932866
 20
1.782061951090668
 10
18.27773582687916
 20
1.782061951090668
 97
        8
330
105DD
330
105E5
330
105EA
330
105E6
330
105DC
330
105FE
330
10604
330
105FD
 92
       22
 72
     0
 73
     1
 93
        3
 10
15.62974388152605
 20
3.021300979620718
 10
14.52629071767222
 20
3.021300979620718
 10
15.07801729959914
 20
3.786398348131172
 97
        3
330
10609
330
10608
330
1060A
 75
     0
 76
     1
 47
0.0514683685270805
 98
        2
 10
16.20617981601185
 20
3.326837253266262
 10
16.20617981601185
 20
3.326837253266262
450
        0
451
        0
460
0.0
461
0.0
452
        0
462
0.0
453
        0
470

  0
LINE
  5
105DC
102
{ACAD_REACTORS
330
105DB
102
}
330
105D2
100
AcDbEntity
  8
ROGO
 62
     4
100
AcDbLine
 10
14.06756947612285
 20
2.385177170679753
 30
0.0
 11
16.08846512307542
 21
2.385177170679753
 31
0.0
  0
LINE
  5
105DD
102
{ACAD_REACTORS
330
105DB
102
}
330
105D2
100
AcDbEntity
  8
ROGO
 62
     4
100
AcDbLine
 10
14.16260675403379
 20
4.949786840425645
 30
0.0
 11
15.99342784516443
 21
4.949786840425645
 31
0.0
  0
LINE
  5
105DE
102
{ACAD_REACTORS
330
105DA
102
}
330
105D2
100
AcDbEntity
  8
ROGO
 62
     4
100
AcDbLine
 10
2.490933298034235
 20
0.4961422127159381
 30
0.0
 11
31.92860780564246
 21
0.4961422127159381
 31
0.0
  0
HATCH
  5
105DF
330
105D2
100
AcDbEntity
  8
ROGO
 62
     4
100
AcDbHatch
 10
0.0
 20
0.0
 30
0.0
210
0.0
220
0.0
230
1.0
  2
SOLID
 70
     1
 71
     1
 91
        2
 92
        5
 93
        6
 72
     4
 94
        3
 73
     0
 74
     0
 95
       18
 96
       14
 40
0.108740278791501
 40
0.108740278791501
 40
0.108740278791501
 40
0.108740278791501
 40
0.6623149649549278
 40
1.384304701649787
 40
2.097394834876493
 40
2.774073369849618
 40
3.428974823686337
 40
4.005208313035923
 40
4.455173659284313
 40
4.720999734343524
 40
5.086034088486724
 40
5.569973738255373
 40
6.060470601257719
 40
6.060470601257719
 40
6.060470601257719
 40
6.060470601257719
 10
5.257971706506339
 20
1.782061951090668
 10
5.409344543521854
 20
1.783189178773909
 10
5.758142655701249
 20
1.785786572703102
 10
6.246108485316483
 20
2.046468641233957
 10
6.708839512865949
 20
2.378558603499755
 10
7.081537876611037
 20
2.793470364329778
 10
7.313740186156906
 20
3.267850878540173
 10
7.349707589953482
 20
3.722501028309523
 10
7.327750373593119
 20
4.082123644518105
 10
7.170855034099304
 20
4.33278953599904
 10
7.007743182975218
 20
4.587189781908875
 10
6.708651203549891
 20
4.807560723981168
 10
6.463588634008544
 20
4.904115955004613
 10
6.338969333173452
 20
4.949786840425758
 72
     1
 10
6.338969333173679
 20
4.949786840425645
 11
2.449108495127859
 21
4.949786840425645
 72
     1
 10
2.449108495127859
 20
4.949786840425645
 11
0.0
 21
-0.0000000000000568
 72
     1
 10
-0.0000000000000568
 20
0.0
 11
2.300872475903247
 21
0.0
 72
     1
 10
2.300872475903304
 20
0.0
 11
3.107127853020472
 21
1.782061951090724
 72
     1
 10
3.107127853020472
 20
1.782061951090668
 11
5.257971706506168
 21
1.782061951090668
 97
        6
330
105E1
330
105EB
330
105E2
330
105D6
330
105E8
330
105E7
 92
       20
 93
        4
 72
     1
 10
3.604944905315051
 20
2.882384321244217
 11
3.98608604239348
 21
3.724818539558043
 72
     1
 10
3.98608604239348
 20
3.724818539557986
 11
4.965456325034381
 21
3.724818539557986
 72
     4
 94
        3
 73
     0
 74
     0
 95
       15
 96
       11
 40
0.0
 40
0.0
 40
0.0
 40
0.0
 40
0.458245544397197
 40
0.6671803073175111
 40
0.9043351724393449
 40
1.065896092998139
 40
1.321406364485703
 40
1.474450037341961
 40
1.737022829061231
 40
1.824547148828933
 40
1.824547148828933
 40
1.824547148828933
 40
1.824547148828933
 10
4.965456325033528
 20
3.724818539557986
 10
5.104956735089615
 20
3.72545752589923
 10
5.308061659054601
 20
3.726387854865265
 10
5.419126665259284
 20
3.475146476562713
 10
5.369342033880457
 20
3.313386222112512
 10
5.306758694724408
 20
3.147308857819552
 10
5.196159760245848
 20
3.034456783979635
 10
5.047719790425048
 20
2.925761212639713
 10
4.907436925306626
 20
2.912603127013085
 10
4.816198668830168
 20
2.888428084712359
 10
4.793389093792598
 20
2.88238432124416
 72
     1
 10
4.793389093792541
 20
2.882384321244217
 11
3.604944905315051
 21
2.882384321244217
 97
        4
330
105EE
330
105EC
330
105F0
330
105ED
 75
     0
 76
     1
 47
0.0514683685270805
 98
        2
 10
2.469899197802817
 20
3.410271770727717
 10
2.469899197802817
 20
3.410271770727717
450
        0
451
        0
460
0.0
461
0.0
452
        0
462
0.0
453
        0
470

  0
HATCH
  5
105E0
330
105D2
100
AcDbEntity
  8
ROGO
 62
     4
100
AcDbHatch
 10
0.0
 20
0.0
 30
0.0
210
0.0
220
0.0
230
1.0
  2
SOLID
 70
     1
 71
     1
 91
        1
 92
        1
 93
       12
 72
     1
 10
8.637002599138838
 20
4.949786840425645
 11
12.92148229673961
 21
4.949786840425701
 72
     1
 10
12.92148229673961
 20
4.949786840425645
 11
12.56244669050807
 21
4.224155565819216
 72
     1
 10
12.56244669050812
 20
4.224155565819273
 11
10.31063242784853
 21
4.224155565819273
 72
     1
 10
10.31063242784847
 20
4.224155565819273
 11
10.02991119959222
 21
3.656802080167153
 72
     1
 10
10.02991119959228
 20
3.656802080167153
 11
12.28172546225187
 21
3.656802080167153
 72
     1
 10
12.28172546225181
 20
3.656802080167153
 11
11.99387214064069
 21
3.075034230307551
 72
     1
 10
11.99387214064069
 20
3.075034230307551
 11
9.742057877981153
 21
3.075034230307494
 72
     1
 10
9.742057877981153
 20
3.075034230307551
 11
9.461324765337508
 21
2.507656725636252
 72
     1
 10
9.461324765337565
 20
2.507656725636138
 11
11.71313902799716
 21
2.507656725636138
 72
     1
 10
11.71313902799716
 20
2.507656725636138
 11
11.3541214816563
 21
1.782061951090668
 72
     1
 10
11.35412148165636
 20
1.782061951090668
 11
7.06964178405559
 21
1.782061951090668
 72
     1
 10
7.06964178405559
 20
1.782061951090668
 11
8.637002599138838
 21
4.949786840425645
 97
       12
330
105EF
330
105F1
330
105F3
330
105F2
330
105F4
330
105F7
330
105F6
330
105F8
330
105F5
330
105E4
330
105E9
330
105E3
 75
     0
 76
     1
 98
        1
 10
-166.6183073243049
 20
-214.0842147101267
450
        0
451
        0
460
0.0
461
0.0
452
        0
462
0.0
453
        0
470

  0
SPLINE
  5
105E1
102
{ACAD_REACTORS
330
105DF
102
}
330
105D2
100
AcDbEntity
  8
ROGO
 62
     4
100
AcDbSpline
210
0.0
220
0.0
230
1.0
 70
     8
 71
     3
 72
    18
 73
    14
 74
     0
 42
0.0000000001
 43
0.0000000001
 40
0.1087402787915014
 40
0.1087402787915014
 40
0.1087402787915014
 40
0.1087402787915014
 40
0.5992371417938475
 40
1.083176791562496
 40
1.448211145705696
 40
1.714037220764907
 40
2.164002567013297
 40
2.740236056362883
 40
3.395137510199602
 40
4.071816045172726
 40
4.784906178399433
 40
5.506895915094292
 40
6.060470601257719
 40
6.060470601257719
 40
6.060470601257719
 40
6.060470601257719
 10
6.338969333173452
 20
4.949786840425758
 30
0.0
 10
6.463588634008544
 20
4.904115955004613
 30
0.0
 10
6.708651203549891
 20
4.807560723981168
 30
0.0
 10
7.007743182975218
 20
4.587189781908875
 30
0.0
 10
7.170855034099304
 20
4.33278953599904
 30
0.0
 10
7.327750373593119
 20
4.082123644518105
 30
0.0
 10
7.349707589953482
 20
3.722501028309523
 30
0.0
 10
7.313740186156906
 20
3.267850878540173
 30
0.0
 10
7.081537876611037
 20
2.793470364329778
 30
0.0
 10
6.708839512865949
 20
2.378558603499755
 30
0.0
 10
6.246108485316483
 20
2.046468641233957
 30
0.0
 10
5.758142655701249
 20
1.785786572703102
 30
0.0
 10
5.409344543521854
 20
1.783189178773909
 30
0.0
 10
5.257971706506339
 20
1.782061951090668
 30
0.0
  0
LINE
  5
105E2
102
{ACAD_REACTORS
330
105DF
102
}
330
105D2
100
AcDbEntity
  8
ROGO
 62
     4
100
AcDbLine
 10
2.449108495127859
 20
4.949786840425645
 30
0.0
 11
0.0
 21
0.0
 31
0.0
  0
LINE
  5
105E3
102
{ACAD_REACTORS
330
105E0
102
}
330
105D2
100
AcDbEntity
  8
ROGO
 62
     4
100
AcDbLine
 10
8.637002599138952
 20
4.949786840425645
 30
0.0
 11
7.06964178405559
 21
1.782061951090668
 31
0.0
  0
LINE
  5
105E4
102
{ACAD_REACTORS
330
105E0
102
}
330
105D2
100
AcDbEntity
  8
ROGO
 62
     4
100
AcDbLine
 10
11.71313902799716
 20
2.507656725636195
 30
0.0
 11
11.35412148165636
 21
1.782061951090668
 31
0.0
  0
LINE
  5
105E5
102
{ACAD_REACTORS
330
105DB
102
}
330
105D2
100
AcDbEntity
  8
ROGO
 62
     4
100
AcDbLine
 10
14.16260675403384
 20
4.949786840425645
 30
0.0
 11
11.87829877231911
 21
1.782061951090668
 31
0.0
  0
LINE
  5
105E6
102
{ACAD_REACTORS
330
105DB
102
}
330
105D2
100
AcDbEntity
  8
ROGO
 62
     4
100
AcDbLine
 10
14.06756947612285
 20
2.385177170679753
 30
0.0
 11
13.63265136986962
 21
1.782061951090781
 31
0.0
  0
LINE
  5
105E7
102
{ACAD_REACTORS
330
105DF
102
}
330
105D2
100
AcDbEntity
  8
ROGO
 62
     4
100
AcDbLine
 10
5.257971707251897
 20
1.782061951090668
 30
0.0
 11
3.107127853020358
 21
1.782061951090668
 31
0.0
  0
LINE
  5
105E8
102
{ACAD_REACTORS
330
105DA
330
105DF
102
}
330
105D2
100
AcDbEntity
  8
ROGO
 62
     4
100
AcDbLine
 10
3.107127853020472
 20
1.782061951090668
 30
0.0
 11
2.300872475903304
 21
0.0
 31
0.0
  0
LINE
  5
105E9
102
{ACAD_REACTORS
330
105E0
102
}
330
105D2
100
AcDbEntity
  8
ROGO
 62
     4
100
AcDbLine
 10
7.06964178405559
 20
1.782061951090668
 30
0.0
 11
11.35412148165636
 21
1.782061951090668
 31
0.0
  0
LINE
  5
105EA
102
{ACAD_REACTORS
330
105DB
102
}
330
105D2
100
AcDbEntity
  8
ROGO
 62
     4
100
AcDbLine
 10
11.87829877231917
 20
1.782061951090668
 30
0.0
 11
13.63265136986962
 21
1.782061951090668
 31
0.0
  0
LINE
  5
105EB
102
{ACAD_REACTORS
330
105DF
102
}
330
105D2
100
AcDbEntity
  8
ROGO
 62
     4
100
AcDbLine
 10
2.449108495127859
 20
4.949786840425645
 30
0.0
 11
6.338969333173452
 21
4.949786840425645
 31
0.0
  0
LINE
  5
105EC
102
{ACAD_REACTORS
330
105DF
102
}
330
105D2
100
AcDbEntity
  8
ROGO
 62
     4
100
AcDbLine
 10
4.965456325033528
 20
3.724818539557986
 30
0.0
 11
3.986086042393537
 21
3.724818539557986
 31
0.0
  0
LINE
  5
105ED
102
{ACAD_REACTORS
330
105DF
102
}
330
105D2
100
AcDbEntity
  8
ROGO
 62
     4
100
AcDbLine
 10
4.793389093792598
 20
2.88238432124416
 30
0.0
 11
3.604944905315107
 21
2.882384321244217
 31
0.0
  0
LINE
  5
105EE
102
{ACAD_REACTORS
330
105DF
102
}
330
105D2
100
AcDbEntity
  8
ROGO
 62
     4
100
AcDbLine
 10
3.986086042393537
 20
3.724818539557986
 30
0.0
 11
3.604944905315051
 21
2.882384321244217
 31
0.0
  0
LINE
  5
105EF
102
{ACAD_REACTORS
330
105E0
102
}
330
105D2
100
AcDbEntity
  8
ROGO
 62
     4
100
AcDbLine
 10
8.637002599138838
 20
4.949786840425645
 30
0.0
 11
12.92148229673961
 21
4.949786840425758
 31
0.0
  0
SPLINE
  5
105F0
102
{ACAD_REACTORS
330
105DF
102
}
330
105D2
100
AcDbEntity
  8
ROGO
 62
     4
100
AcDbSpline
210
0.0
220
0.0
230
1.0
 70
     8
 71
     3
 72
    15
 73
    11
 74
     9
 42
0.0000000001
 43
0.0000000001
 44
0.0000000001
 40
0.0
 40
0.0
 40
0.0
 40
0.0
 40
0.3714260192954959
 40
0.5407758541881006
 40
0.7329991907503102
 40
0.8639506649775173
 40
1.071051779626874
 40
1.195099689928134
 40
1.407925254728536
 40
1.478867154939799
 40
1.478867154939799
 40
1.478867154939799
 40
1.478867154939799
 10
4.965456325033528
 20
3.724818539557986
 30
0.0
 10
5.104956735089532
 20
3.725457525899206
 30
0.0
 10
5.308061659054509
 20
3.726387854865235
 30
0.0
 10
5.419126665259303
 20
3.475146476562761
 30
0.0
 10
5.369342033880415
 20
3.31338622211255
 30
0.0
 10
5.306758694724477
 20
3.147308857819524
 30
0.0
 10
5.19615976024584
 20
3.034456783979611
 30
0.0
 10
5.047719790425087
 20
2.925761212639771
 30
0.0
 10
4.907436925306584
 20
2.912603127013052
 30
0.0
 10
4.816198668830153
 20
2.888428084712352
 30
0.0
 10
4.793389093792598
 20
2.88238432124416
 30
0.0
 11
4.965456325033528
 21
3.724818539557986
 31
0.0
 11
5.326797807465993
 21
3.63885563544693
 31
0.0
 11
5.395624897846573
 21
3.484122968540759
 31
0.0
 11
5.361211847366689
 21
3.295005139989939
 31
0.0
 11
5.309591776936599
 21
3.174657074234517
 31
0.0
 11
5.171937596175325
 21
3.019924407328176
 31
0.0
 11
5.068697455314975
 21
2.951154084039387
 31
0.0
 11
4.862216184173178
 21
2.899576902066371
 31
0.0
 11
4.793389093792598
 21
2.88238432124416
 31
0.0
  0
LINE
  5
105F1
102
{ACAD_REACTORS
330
105E0
102
}
330
105D2
100
AcDbEntity
  8
ROGO
 62
     4
100
AcDbLine
 10
12.92148229673961
 20
4.949786840425645
 30
0.0
 11
12.56244669050807
 21
4.224155565819273
 31
0.0
  0
LINE
  5
105F2
102
{ACAD_REACTORS
330
105E0
102
}
330
105D2
100
AcDbEntity
  8
ROGO
 62
     4
100
AcDbLine
 10
10.31063242784847
 20
4.224155565819273
 30
0.0
 11
10.02991119959222
 21
3.656802080167153
 31
0.0
  0
LINE
  5
105F3
102
{ACAD_REACTORS
330
105E0
102
}
330
105D2
100
AcDbEntity
  8
ROGO
 62
     4
100
AcDbLine
 10
10.31063242784847
 20
4.224155565819273
 30
0.0
 11
12.56244669050807
 21
4.224155565819273
 31
0.0
  0
LINE
  5
105F4
102
{ACAD_REACTORS
330
105E0
102
}
330
105D2
100
AcDbEntity
  8
ROGO
 62
     4
100
AcDbLine
 10
10.02991119959222
 20
3.656802080167153
 30
0.0
 11
12.28172546225187
 21
3.656802080167153
 31
0.0
  0
LINE
  5
105F5
102
{ACAD_REACTORS
330
105E0
102
}
330
105D2
100
AcDbEntity
  8
ROGO
 62
     4
100
AcDbLine
 10
9.461324765337565
 20
2.507656725636195
 30
0.0
 11
11.71313902799716
 21
2.507656725636195
 31
0.0
  0
LINE
  5
105F6
102
{ACAD_REACTORS
330
105E0
102
}
330
105D2
100
AcDbEntity
  8
ROGO
 62
     4
100
AcDbLine
 10
9.742057877981153
 20
3.075034230307551
 30
0.0
 11
11.99387214064069
 21
3.075034230307608
 31
0.0
  0
LINE
  5
105F7
102
{ACAD_REACTORS
330
105E0
102
}
330
105D2
100
AcDbEntity
  8
ROGO
 62
     4
100
AcDbLine
 10
12.28172546225187
 20
3.656802080167153
 30
0.0
 11
11.99387214064069
 21
3.075034230307551
 31
0.0
  0
LINE
  5
105F8
102
{ACAD_REACTORS
330
105E0
102
}
330
105D2
100
AcDbEntity
  8
ROGO
 62
     4
100
AcDbLine
 10
9.742057877981153
 20
3.075034230307551
 30
0.0
 11
9.461324765337508
 21
2.507656725636195
 31
0.0
  0
HATCH
  5
105F9
330
105D2
100
AcDbEntity
  8
ROGO
 62
     4
100
AcDbHatch
 10
0.0
 20
0.0
 30
0.0
210
0.0
220
0.0
230
1.0
  2
SOLID
 70
     1
 71
     1
 91
        2
 92
        7
 72
     1
 73
     1
 93
        4
 10
26.16568830176476
 20
4.949786840425645
 42
0.0
 10
24.88477496917216
 20
4.949786840425645
 42
0.9597396185052668
 10
24.88477496917204
 20
1.782061951090668
 42
0.0
 10
26.25774038752116
 20
1.782061951090668
 42
0.9713627655772736
 97
        4
330
10619
330
10601
330
10606
330
10602
 92
       22
 72
     1
 73
     1
 93
        8
 10
25.9709322672415
 20
3.347576112203057
 42
0.0
 10
25.92877650574593
 20
3.045974519724552
 42
-0.3696060376523694
 10
25.58588379175427
 20
2.870057733155022
 42
0.0
 10
25.47108749766136
 20
2.886103156372541
 42
-0.3541938351274232
 10
25.17427477727125
 20
3.157453445413239
 42
0.0
 10
25.21643053876682
 20
3.459055037891914
 42
-0.3439742752229287
 10
25.58698051573322
 20
3.668449396631842
 42
0.0
 10
25.69536003945933
 20
3.653300864703851
 42
-0.3460733018205655
 97
        8
330
10611
330
10617
330
10613
330
10616
330
10612
330
10615
330
10610
330
10614
 75
     0
 76
     1
 47
0.0514683685270805
 98
        2
 10
26.4770758482868
 20
3.660574202124962
 10
26.4770758482868
 20
3.660574202124962
450
        0
451
        0
460
0.0
461
0.0
452
        0
462
0.0
453
        0
470

  0
HATCH
  5
105FA
330
105D2
100
AcDbEntity
  8
ROGO
 62
     4
100
AcDbHatch
 10
0.0
 20
0.0
 30
0.0
210
0.0
220
0.0
230
1.0
  2
SOLID
 70
     1
 71
     1
 91
        1
 92
        5
 93
        8
 72
     1
 10
23.27919423493069
 20
4.949786840425645
 11
20.10690665697018
 21
4.949786840425701
 72
     4
 94
        3
 73
     0
 74
     0
 95
       26
 96
       22
 40
0.0
 40
0.0
 40
0.0
 40
0.0
 40
0.7089867102952115
 40
1.183598414482279
 40
1.525832104103439
 40
1.781366926528389
 40
2.112809002752968
 40
2.354729406992515
 40
2.791581270399936
 40
3.147172406765291
 40
3.389031356825354
 40
3.626186440486682
 40
4.050410779375985
 40
4.350388020238963
 40
4.511948940797758
 40
4.741441456013356
 40
4.907163150576407
 40
5.147239172635527
 40
5.28310143501293
 40
5.578752957634333
 40
5.713750011164293
 40
5.713750011164293
 40
5.713750011164293
 40
5.713750011164293
 10
20.10690665696961
 20
4.949786840425645
 10
19.9118576355076
 20
4.938149881331241
 10
19.58623839723913
 20
4.91872287919773
 10
19.22871045445441
 20
4.701528493521777
 10
18.9667645527374
 20
4.575261222274434
 10
18.77994505330895
 20
4.403611624277402
 10
18.64300560291741
 20
4.226310128312206
 10
18.47036771803317
 20
4.01505669587766
 10
18.32958645604225
 20
3.769060622409824
 10
18.25789511795477
 20
3.497930064177751
 10
18.19439161110068
 20
3.281837436117484
 10
18.14729634731026
 20
3.041030402807223
 10
18.15927871566845
 20
2.780874095348053
 10
18.1764380155459
 20
2.53925423559815
 10
18.25305011690938
 20
2.366773831190926
 10
18.34029773002083
 20
2.243979668736869
 10
18.44713123742571
 20
2.108735512341468
 10
18.56403045709697
 20
2.019163745498303
 10
18.66071565374244
 20
1.85689847078413
 10
18.82995982885865
 20
1.836192251465718
 10
18.93753815968586
 20
1.794980695042511
 10
18.97126114982126
 20
1.782061951090668
 72
     1
 10
18.97126114982103
 20
1.782061951090668
 11
21.6996642971182
 21
1.782061951090724
 72
     1
 10
21.6996642971182
 20
1.782061951090781
 11
22.28734561971584
 21
2.960648509043551
 72
     1
 10
22.28734561971584
 20
2.960648509043494
 11
20.26176686826005
 21
2.960648509043494
 72
     4
 94
        3
 73
     0
 74
     0
 95
       16
 96
       12
 40
0.0
 40
0.0
 40
0.0
 40
0.0
 40
0.2141121027475241
 40
0.4304326162973471
 40
0.5594580803306056
 40
0.6831669452691567
 40
0.8190286678446897
 40
0.9139043619204622
 40
1.003933161420314
 40
1.186498641432482
 40
1.560280494298353
 40
1.560280494298353
 40
1.560280494298353
 40
1.560280494298353
 10
20.26176686826034
 20
2.960648509043494
 10
20.20066827486522
 20
2.978624611086615
 10
20.07784090046783
 20
3.014762225607
 10
20.06756124108432
 20
3.18994410491291
 10
20.081565789786
 20
3.314775529002361
 10
20.14021687102769
 20
3.40566009542573
 10
20.21137080546811
 20
3.471790575521481
 10
20.237864571025
 20
3.557915185942079
 10
20.31574058104508
 20
3.622950041937542
 10
20.45383561326139
 20
3.732264550099955
 10
20.60654481322524
 20
3.755546097864453
 10
20.70914246102353
 20
3.77118780143121
 72
     1
 10
20.70914246102353
 20
3.77118780143121
 11
22.69150668888256
 21
3.771187801431267
 72
     1
 10
22.69150668888256
 20
3.77118780143121
 11
23.27919423493069
 21
4.949786840425645
 97
        8
330
1060F
330
105FC
330
10603
330
105FF
330
1060E
330
1060B
330
1060D
330
1060C
 75
     0
 76
     1
 47
0.0514683685270805
 98
        1
 10
21.21637307488407
 20
4.244614142874524
450
        0
451
        0
460
0.0
461
0.0
452
        0
462
0.0
453
        0
470

  0
SPLINE
  5
105FB
102
{ACAD_REACTORS
330
105D5
102
}
330
105D2
100
AcDbEntity
  8
ROGO
 62
     4
100
AcDbSpline
210
0.0
220
0.0
230
1.0
 70
     8
 71
     3
 72
    26
 73
    22
 74
    20
 42
0.0000000001
 43
0.0000000001
 44
0.0000000001
 40
0.0
 40
0.0
 40
0.0
 40
0.0
 40
0.5746615864749196
 40
0.9593530213456462
 40
1.236746873962384
 40
1.443867888111121
 40
1.712514714041724
 40
1.90860070730817
 40
2.262686307552686
 40
2.55090689560158
 40
2.746943077840944
 40
2.939166591537864
 40
3.283017086994854
 40
3.526160427536374
 40
3.657111901763582
 40
3.843124602654698
 40
3.97744854769916
 40
4.172039596738211
 40
4.282161298747791
 40
4.521798474686698
 40
4.631218890929293
 40
4.631218890929293
 40
4.631218890929293
 40
4.631218890929293
 10
30.31359802057318
 20
4.949786840425645
 30
0.0
 10
30.11854899911117
 20
4.938149881331216
 30
0.0
 10
29.79292976084273
 20
4.918722879197668
 30
0.0
 10
29.43540181805795
 20
4.701528493521752
 30
0.0
 10
29.17345591634098
 20
4.575261222274342
 30
0.0
 10
28.98663641691248
 20
4.403611624277403
 30
0.0
 10
28.84969696652104
 20
4.226310128312151
 30
0.0
 10
28.67705908163667
 20
4.015056695877607
 30
0.0
 10
28.53627781964588
 20
3.769060622409776
 30
0.0
 10
28.46458648155826
 20
3.49793006417775
 30
0.0
 10
28.40108297470428
 20
3.28183743611741
 30
0.0
 10
28.35398771091379
 20
3.041030402807234
 30
0.0
 10
28.36597007927193
 20
2.780874095348088
 30
0.0
 10
28.38312937914937
 20
2.539254235598058
 30
0.0
 10
28.45974148051292
 20
2.366773831190866
 30
0.0
 10
28.54698909362438
 20
2.243979668736892
 30
0.0
 10
28.65382260102934
 20
2.108735512341419
 30
0.0
 10
28.77072182070049
 20
2.019163745498228
 30
0.0
 10
28.86740701734603
 20
1.85689847078413
 30
0.0
 10
29.03665119246222
 20
1.836192251465618
 30
0.0
 10
29.14422952328949
 20
1.794980695042471
 30
0.0
 10
29.17795251342483
 20
1.782061951090668
 30
0.0
 11
30.31359802057318
 21
4.949786840425645
 31
0.0
 11
29.74577526699892
 21
4.861394196539322
 31
0.0
 11
29.40163981509602
 21
4.689468948810883
 31
0.0
 11
29.1607454934744
 21
4.551928862726811
 31
0.0
 11
29.00588528218367
 21
4.414388216149177
 31
0.0
 11
28.83381805094274
 21
4.208077806776145
 31
0.0
 11
28.7133708901319
 21
4.053345139869975
 31
0.0
 11
28.54130266946999
 21
3.743879245563732
 31
0.0
 11
28.45526954855979
 21
3.468798512902026
 31
0.0
 11
28.4036494781297
 21
3.279680684351205
 31
0.0
 11
28.36923543822883
 21
3.090562855800612
 31
0.0
 11
28.36923543822883
 21
2.746712360343622
 31
0.0
 11
28.4036494781297
 21
2.506016789326224
 31
0.0
 11
28.45526954855979
 21
2.385668723570802
 31
0.0
 11
28.55850968942019
 21
2.230936056664518
 31
0.0
 11
28.64454379975138
 21
2.127780571731193
 31
0.0
 11
28.78219699109144
 21
1.99024048564712
 31
0.0
 11
28.85102408147219
 21
1.904277581536064
 31
0.0
 11
29.07471237256442
 21
1.818315237918568
 31
0.0
 11
29.17795251342483
 21
1.782061951090668
 31
0.0
  0
SPLINE
  5
105FC
102
{ACAD_REACTORS
330
105FA
102
}
330
105D2
100
AcDbEntity
  8
ROGO
 62
     4
100
AcDbSpline
210
0.0
220
0.0
230
1.0
 70
     8
 71
     3
 72
    26
 73
    22
 74
    20
 42
0.0000000001
 43
0.0000000001
 44
0.0000000001
 40
0.0
 40
0.0
 40
0.0
 40
0.0
 40
0.5746615864749109
 40
0.9593530213456375
 40
1.236746873962375
 40
1.44386788811115
 40
1.71251471404171
 40
1.9086007073082
 40
2.262686307552666
 40
2.550906895601598
 40
2.746943077840867
 40
2.939166591537899
 40
3.28301708699489
 40
3.526160427536353
 40
3.657111901763635
 40
3.843124602654719
 40
3.977448547699138
 40
4.172039596738189
 40
4.282161298747769
 40
4.521798474686655
 40
4.631218890929288
 40
4.631218890929288
 40
4.631218890929288
 40
4.631218890929288
 10
20.10690665696961
 20
4.949786840425645
 30
0.0
 10
19.91185763550759
 20
4.938149881331241
 30
0.0
 10
19.58623839723914
 20
4.918722879197736
 30
0.0
 10
19.22871045445439
 20
4.701528493521801
 30
0.0
 10
18.96676455273739
 20
4.575261222274411
 30
0.0
 10
18.77994505330897
 20
4.4036116242774
 30
0.0
 10
18.64300560291743
 20
4.226310128312206
 30
0.0
 10
18.47036771803315
 20
4.015056695877609
 30
0.0
 10
18.32958645604223
 20
3.769060622409829
 30
0.0
 10
18.25789511795483
 20
3.497930064177774
 30
0.0
 10
18.19439161110065
 20
3.281837436117467
 30
0.0
 10
18.14729634731024
 20
3.041030402807263
 30
0.0
 10
18.15927871566836
 20
2.780874095348114
 30
0.0
 10
18.17643801554578
 20
2.539254235598062
 30
0.0
 10
18.25305011690943
 20
2.366773831190911
 30
0.0
 10
18.3402977300208
 20
2.243979668736876
 30
0.0
 10
18.44713123742579
 20
2.10873551234148
 30
0.0
 10
18.56403045709692
 20
2.019163745498289
 30
0.0
 10
18.66071565374245
 20
1.856898470784175
 30
0.0
 10
18.82995982885869
 20
1.836192251465799
 30
0.0
 10
18.93753815968592
 20
1.794980695042517
 30
0.0
 10
18.97126114982126
 20
1.782061951090668
 30
0.0
 11
20.10690665696961
 21
4.949786840425645
 31
0.0
 11
19.53908390339535
 21
4.861394196539379
 31
0.0
 11
19.19494845149245
 21
4.68946894881094
 31
0.0
 11
18.95405412987082
 21
4.551928862726867
 31
0.0
 11
18.7991939185801
 21
4.414388216149177
 31
0.0
 11
18.62712668733917
 21
4.208077806776202
 31
0.0
 11
18.50667952652833
 21
4.053345139869975
 31
0.0
 11
18.33461130586641
 21
3.743879245563789
 31
0.0
 11
18.24857818495627
 21
3.468798512902026
 31
0.0
 11
18.19695811452612
 21
3.279680684351319
 31
0.0
 11
18.16254407462526
 21
3.090562855800612
 31
0.0
 11
18.16254407462526
 21
2.746712360343622
 31
0.0
 11
18.19695811452612
 21
2.506016789326281
 31
0.0
 11
18.24857818495627
 21
2.385668723570802
 31
0.0
 11
18.35181832581662
 21
2.230936056664518
 31
0.0
 11
18.43785243614781
 21
2.12778057173125
 31
0.0
 11
18.57550562748787
 21
1.990240485647177
 31
0.0
 11
18.64433271786862
 21
1.904277581536121
 31
0.0
 11
18.86802100896085
 21
1.818315237918682
 31
0.0
 11
18.97126114982126
 21
1.782061951090668
 31
0.0
  0
LINE
  5
105FD
102
{ACAD_REACTORS
330
105DB
102
}
330
105D2
100
AcDbEntity
  8
ROGO
 62
     4
100
AcDbLine
 10
15.99342784516443
 20
4.949786840425645
 30
0.0
 11
18.27773582687916
 21
1.782061951090668
 31
0.0
  0
LINE
  5
105FE
102
{ACAD_REACTORS
330
105DB
102
}
330
105D2
100
AcDbEntity
  8
ROGO
 62
     4
100
AcDbLine
 10
16.08846512307542
 20
2.385177170679753
 30
0.0
 11
16.52338322932866
 21
1.782061951090781
 31
0.0
  0
LINE
  5
105FF
102
{ACAD_REACTORS
330
105FA
102
}
330
105D2
100
AcDbEntity
  8
ROGO
 62
     4
100
AcDbLine
 10
22.28734561971584
 20
2.960648509043494
 30
0.0
 11
21.69966429711815
 21
1.782061951090668
 31
0.0
  0
LINE
  5
10600
102
{ACAD_REACTORS
330
105D5
102
}
330
105D2
100
AcDbEntity
  8
ROGO
 62
     4
100
AcDbLine
 10
32.49403698331935
 20
2.960648509043494
 30
0.0
 11
31.90635566072177
 21
1.782061951090611
 31
0.0
  0
ARC
  5
10601
102
{ACAD_REACTORS
330
105F9
102
}
330
105D2
100
AcDbEntity
  8
ROGO
 62
     4
100
AcDbCircle
 10
24.94987936318324
 20
3.365924395758156
 30
0.0
 40
1.585199932421021
100
AcDbArc
 50
92.3538081120337
 51
270.0
  0
ARC
  5
10602
102
{ACAD_REACTORS
330
105F9
102
}
330
105D2
100
AcDbEntity
  8
ROGO
 62
     4
100
AcDbCircle
 10
26.16568830176476
 20
3.364586908004639
 30
0.0
 40
1.585199932421021
100
AcDbArc
 50
273.3290215232082
 51
90.0000000000006
  0
LINE
  5
10603
102
{ACAD_REACTORS
330
105FA
102
}
330
105D2
100
AcDbEntity
  8
ROGO
 62
     4
100
AcDbLine
 10
18.97126114982109
 20
1.782061951090668
 30
0.0
 11
21.6996642971182
 21
1.782061951090668
 31
0.0
  0
LINE
  5
10604
102
{ACAD_REACTORS
330
105DB
102
}
330
105D2
100
AcDbEntity
  8
ROGO
 62
     4
100
AcDbLine
 10
18.27773582687911
 20
1.782061951090668
 30
0.0
 11
16.52338322932866
 21
1.782061951090668
 31
0.0
  0
LINE
  5
10605
330
105D2
100
AcDbEntity
  8
ROGO
 62
     4
100
AcDbLine
 10
24.8847749691733
 20
1.782061951090668
 30
0.0
 11
26.25774038752019
 21
1.782061951090668
 31
0.0
  0
LINE
  5
10606
102
{ACAD_REACTORS
330
105F9
102
}
330
105D2
100
AcDbEntity
  8
ROGO
 62
     4
100
AcDbLine
 10
24.8847749691721
 20
1.782061951090668
 30
0.0
 11
26.25774038752121
 21
1.782061951090668
 31
0.0
  0
LINE
  5
10607
102
{ACAD_REACTORS
330
105D5
102
}
330
105D2
100
AcDbEntity
  8
ROGO
 62
     4
100
AcDbLine
 10
29.1779525134246
 20
1.782061951090668
 30
0.0
 11
31.90635566072177
 21
1.782061951090668
 31
0.0
  0
LINE
  5
10608
102
{ACAD_REACTORS
330
105DB
102
}
330
105D2
100
AcDbEntity
  8
ROGO
 62
     4
100
AcDbLine
 10
15.07801729959914
 20
3.786398348131228
 30
0.0
 11
14.52629071767222
 21
3.021300979620718
 31
0.0
  0
LINE
  5
10609
102
{ACAD_REACTORS
330
105DB
102
}
330
105D2
100
AcDbEntity
  8
ROGO
 62
     4
100
AcDbLine
 10
14.52629071767222
 20
3.021300979620775
 30
0.0
 11
15.62974388152599
 21
3.021300979620775
 31
0.0
  0
LINE
  5
1060A
102
{ACAD_REACTORS
330
105DB
102
}
330
105D2
100
AcDbEntity
  8
ROGO
 62
     4
100
AcDbLine
 10
15.07801729959914
 20
3.786398348131228
 30
0.0
 11
15.62974388152599
 21
3.021300979620718
 31
0.0
  0
SPLINE
  5
1060B
102
{ACAD_REACTORS
330
105FA
102
}
330
105D2
100
AcDbEntity
  8
ROGO
 62
     4
100
AcDbSpline
210
0.0
220
0.0
230
1.0
 70
     8
 71
     3
 72
    16
 73
    12
 74
    10
 42
0.0000000001
 43
0.0000000001
 44
0.0000000001
 40
0.0
 40
0.0
 40
0.0
 40
0.0
 40
0.3029648785292891
 40
0.4509413735127203
 40
0.5239132529538693
 40
0.6008137308948465
 40
0.7109349953737907
 40
0.8112058912231434
 40
0.9157860995406091
 40
1.091122375522293
 40
1.264668647774888
 40
1.264668647774888
 40
1.264668647774888
 40
1.264668647774888
 10
20.70914246102353
 20
3.77118780143121
 30
0.0
 10
20.60654481322523
 20
3.75554609786451
 30
0.0
 10
20.45383561326141
 20
3.732264550100005
 30
0.0
 10
20.31574058104511
 20
3.622950041937553
 30
0.0
 10
20.237864571025
 20
3.557915185941986
 30
0.0
 10
20.21137080546809
 20
3.471790575521536
 30
0.0
 10
20.14021687102763
 20
3.405660095425645
 30
0.0
 10
20.08156578978607
 20
3.314775529002434
 30
0.0
 10
20.06756124108431
 20
3.189944104912836
 30
0.0
 10
20.07784090046788
 20
3.014762225607029
 30
0.0
 10
20.2006682748652
 20
2.978624611086606
 30
0.0
 10
20.26176686826034
 20
2.960648509043494
 30
0.0
 11
20.70914246102353
 21
3.77118780143121
 31
0.0
 11
20.41662806897176
 21
3.692301503097155
 31
0.0
 11
20.29618090816098
 21
3.606339159479716
 31
0.0
 11
20.24456083773083
 21
3.554761417013025
 31
0.0
 11
20.21014679782997
 21
3.48599109372418
 31
0.0
 11
20.14131970744944
 21
3.400028750106798
 31
0.0
 11
20.08969963701918
 21
3.314065845995742
 31
0.0
 11
20.07249261706875
 21
3.210910921556092
 31
0.0
 11
20.10690665696961
 21
3.038985113333978
 31
0.0
 11
20.26176686826034
 21
2.960648509043494
 31
0.0
  0
LINE
  5
1060C
102
{ACAD_REACTORS
330
105FA
102
}
330
105D2
100
AcDbEntity
  8
ROGO
 62
     4
100
AcDbLine
 10
23.27919423493069
 20
4.949786840425645
 30
0.0
 11
22.69150668888256
 21
3.77118780143121
 31
0.0
  0
LINE
  5
1060D
102
{ACAD_REACTORS
330
105FA
102
}
330
105D2
100
AcDbEntity
  8
ROGO
 62
     4
100
AcDbLine
 10
20.70914246102342
 20
3.77118780143121
 30
0.0
 11
22.69150668888256
 21
3.771187801431267
 31
0.0
  0
LINE
  5
1060E
102
{ACAD_REACTORS
330
105FA
102
}
330
105D2
100
AcDbEntity
  8
ROGO
 62
     4
100
AcDbLine
 10
20.26176686826017
 20
2.960648509043494
 30
0.0
 11
22.28734561971584
 21
2.960648509043494
 31
0.0
  0
LINE
  5
1060F
102
{ACAD_REACTORS
330
105FA
102
}
330
105D2
100
AcDbEntity
  8
ROGO
 62
     4
100
AcDbLine
 10
20.10690665697052
 20
4.949786840425758
 30
0.0
 11
23.27919423493069
 21
4.949786840425758
 31
0.0
  0
LINE
  5
10610
102
{ACAD_REACTORS
330
105F9
102
}
330
105D2
100
AcDbEntity
  8
ROGO
 62
     4
100
AcDbLine
 10
25.58056374536529
 20
3.669346287921371
 30
0.0
 11
25.69536003945927
 21
3.653300864703908
 31
0.0
  0
LINE
  5
10611
102
{ACAD_REACTORS
330
105F9
102
}
330
105D2
100
AcDbEntity
  8
ROGO
 62
     4
100
AcDbLine
 10
25.97093226724161
 20
3.347576112203455
 30
0.0
 11
25.92877650574604
 21
3.04597451972495
 31
0.0
  0
LINE
  5
10612
102
{ACAD_REACTORS
330
105F9
102
}
330
105D2
100
AcDbEntity
  8
ROGO
 62
     4
100
AcDbLine
 10
25.17427477727125
 20
3.157453445413295
 30
0.0
 11
25.21643053876682
 21
3.45905503789163
 31
0.0
  0
LINE
  5
10613
102
{ACAD_REACTORS
330
105F9
102
}
330
105D2
100
AcDbEntity
  8
ROGO
 62
     4
100
AcDbLine
 10
25.4710874976596
 20
2.886103156372769
 30
0.0
 11
25.58588379175365
 21
2.870057733155078
 31
0.0
  0
ARC
  5
10614
102
{ACAD_REACTORS
330
105F9
102
}
330
105D2
100
AcDbEntity
  8
ROGO
 62
     4
100
AcDbCircle
 10
25.6387443480632
 20
3.325209828916854
 30
0.0
 40
0.3329400310507254
100
AcDbArc
 50
3.851923331663601
 51
80.20940670206341
  0
ARC
  5
10615
102
{ACAD_REACTORS
330
105F9
102
}
330
105D2
100
AcDbEntity
  8
ROGO
 62
     4
100
AcDbCircle
 10
25.53588647264388
 20
3.326301951055086
 30
0.0
 40
0.3459414339941871
100
AcDbArc
 50
82.57970078354313
 51
157.4341870372611
  0
ARC
  5
10616
102
{ACAD_REACTORS
330
105F9
102
}
330
105D2
100
AcDbEntity
  8
ROGO
 62
     4
100
AcDbCircle
 10
25.49018017588719
 20
3.204994782556525
 30
0.0
 40
0.3194626732688521
100
AcDbArc
 50
188.5583509056651
 51
266.5736774635929
  0
ARC
  5
10617
102
{ACAD_REACTORS
330
105F9
102
}
330
105D2
100
AcDbEntity
  8
ROGO
 62
     4
100
AcDbCircle
 10
25.6545957362211
 20
3.158263540113921
 30
0.0
 40
0.2962835103026008
100
AcDbArc
 50
256.5902863289752
 51
337.7287536965499
  0
LINE
  5
10618
330
105D2
100
AcDbEntity
  8
ROGO
 62
     4
100
AcDbLine
 10
24.88477496917261
 20
4.949786840425645
 30
0.0
 11
25.78248633299404
 21
4.949786840425645
 31
0.0
  0
LINE
  5
10619
102
{ACAD_REACTORS
330
105F9
102
}
330
105D2
100
AcDbEntity
  8
ROGO
 62
     4
100
AcDbLine
 10
24.88477496917216
 20
4.949786840425645
 30
0.0
 11
26.16568830176476
 21
4.949786840425645
 31
0.0
  0
SPLINE
  5
1061A
102
{ACAD_REACTORS
330
105D5
102
}
330
105D2
100
AcDbEntity
  8
ROGO
 62
     4
100
AcDbSpline
210
0.0
220
0.0
230
1.0
 70
     8
 71
     3
 72
    16
 73
    12
 74
    10
 42
0.0000000001
 43
0.0000000001
 44
0.0000000001
 40
0.0
 40
0.0
 40
0.0
 40
0.0
 40
0.3029648785292594
 40
0.4509413735127369
 40
0.5239132529538859
 40
0.6008137308948632
 40
0.710934995373763
 40
0.811205891223145
 40
0.9157860995407135
 40
1.091122375522274
 40
1.264668647774946
 40
1.264668647774946
 40
1.264668647774946
 40
1.264668647774946
 10
30.9158338246271
 20
3.771187801431096
 30
0.0
 10
30.81323617682881
 20
3.755546097864422
 30
0.0
 10
30.660526976865
 20
3.732264550099954
 30
0.0
 10
30.5224319446486
 20
3.62295004193761
 30
0.0
 10
30.44455593462858
 20
3.557915185941908
 30
0.0
 10
30.41806216907167
 20
3.4717905755215
 30
0.0
 10
30.34690823463119
 20
3.405660095425618
 30
0.0
 10
30.28825715338954
 20
3.314775529002425
 30
0.0
 10
30.27425260468793
 20
3.189944104912787
 30
0.0
 10
30.28453226407141
 20
3.014762225606994
 30
0.0
 10
30.40735963846873
 20
2.978624611086564
 30
0.0
 10
30.46845823186391
 20
2.960648509043437
 30
0.0
 11
30.9158338246271
 21
3.771187801431096
 31
0.0
 11
30.62331943257533
 21
3.692301503097155
 31
0.0
 11
30.50287227176449
 21
3.606339159479716
 31
0.0
 11
30.4512522013344
 21
3.554761417012969
 31
0.0
 11
30.41683816143353
 21
3.485991093724123
 31
0.0
 11
30.34801107105301
 21
3.400028750106798
 31
0.0
 11
30.29639100062269
 21
3.314065845995742
 31
0.0
 11
30.27918398067232
 21
3.210910921555978
 31
0.0
 11
30.31359802057313
 21
3.038985113333978
 31
0.0
 11
30.46845823186391
 21
2.960648509043437
 31
0.0
  0
LINE
  5
1061B
102
{ACAD_REACTORS
330
105D5
102
}
330
105D2
100
AcDbEntity
  8
ROGO
 62
     4
100
AcDbLine
 10
30.46845823186379
 20
2.960648509043494
 30
0.0
 11
32.49403698331941
 21
2.960648509043494
 31
0.0
  0
LINE
  5
1061C
102
{ACAD_REACTORS
330
105D5
102
}
330
105D2
100
AcDbEntity
  8
ROGO
 62
     4
100
AcDbLine
 10
30.91583382462699
 20
3.77118780143121
 30
0.0
 11
32.89819805248607
 21
3.77118780143121
 31
0.0
  0
LINE
  5
1061D
102
{ACAD_REACTORS
330
105D4
102
}
330
105D2
100
AcDbEntity
  8
ROGO
 62
     4
100
AcDbLine
 10
35.38336074148231
 20
2.474893420212765
 30
0.0
 11
36.6174225324171
 21
0.0
 31
0.0
  0
LINE
  5
1061E
102
{ACAD_REACTORS
330
105D4
102
}
330
105D2
100
AcDbEntity
  8
ROGO
 62
     4
100
AcDbLine
 10
34.14933885635003
 20
1.291950329372127
 30
0.0
 11
34.79354701668626
 21
0.0
 31
0.0
  0
LINE
  5
1061F
102
{ACAD_REACTORS
330
105D4
102
}
330
105D2
100
AcDbEntity
  8
ROGO
 62
     4
100
AcDbLine
 10
34.14933885635008
 20
1.29195032937207
 30
0.0
 11
33.50513069601385
 21
0.0
 31
0.0
  0
LINE
  5
10620
102
{ACAD_REACTORS
330
105D4
102
}
330
105D2
100
AcDbEntity
  8
ROGO
 62
     4
100
AcDbLine
 10
34.79354701668626
 20
0.0
 30
0.0
 11
36.6174225324171
 21
0.0
 31
0.0
  0
LINE
  5
10621
102
{ACAD_REACTORS
330
105D4
102
}
330
105D2
100
AcDbEntity
  8
ROGO
 62
     4
100
AcDbLine
 10
35.38336074148231
 20
2.474893420212765
 30
0.0
 11
38.38165352405161
 21
4.949786840425645
 31
0.0
  0
LINE
  5
10622
102
{ACAD_REACTORS
330
105D4
102
}
330
105D2
100
AcDbEntity
  8
ROGO
 62
     4
100
AcDbLine
 10
36.55777800832078
 20
4.949786840425645
 30
0.0
 11
38.38165352405156
 21
4.949786840425645
 31
0.0
  0
LINE
  5
10623
102
{ACAD_REACTORS
330
105D4
102
}
330
105D2
100
AcDbEntity
  8
ROGO
 62
     4
100
AcDbLine
 10
34.14933885635003
 20
4.949786840425645
 30
0.0
 11
35.97325427788326
 21
4.949786840425588
 31
0.0
  0
LINE
  5
10624
102
{ACAD_REACTORS
330
105D4
102
}
330
105D2
100
AcDbEntity
  8
ROGO
 62
     4
100
AcDbLine
 10
35.97325427788326
 20
4.949786840425588
 30
0.0
 11
35.70378540756269
 21
4.409370842614521
 31
0.0
  0
LINE
  5
10625
102
{ACAD_REACTORS
330
105D4
102
}
330
105D2
100
AcDbEntity
  8
ROGO
 62
     4
100
AcDbLine
 10
35.70378540756269
 20
4.409370842614521
 30
0.0
 11
36.55777800832078
 21
4.949786840425645
 31
0.0
  0
ENDBLK
  5
10626
330
105D2
100
AcDbEntity
  8
0
100
AcDbBlockEnd
  0
BLOCK
  5
10821
330
10817
100
AcDbEntity
  8
0
100
AcDbBlockBegin
  2
*D82
 70
     1
 10
0.0
 20
0.0
 30
0.0
  3
*D82
  1

  0
LINE
  5
10A1A
330
10817
100
AcDbEntity
  8
外形線
 62
     2
370
    -2
100
AcDbLine
 10
88.64297944267722
 20
413.8121220024554
 30
0.0
 11
69.61522320053636
 21
413.8121220024554
 31
0.0
  0
LINE
  5
10A1B
330
10817
100
AcDbEntity
  8
外形線
 62
     2
370
    -2
100
AcDbLine
 10
88.64297944267718
 20
431.8121220024555
 30
0.0
 11
69.61522320053638
 21
431.8121220024555
 31
0.0
  0
LINE
  5
10A1C
330
10817
100
AcDbEntity
  8
外形線
 62
     2
370
    -2
100
AcDbLine
 10
70.86522320053638
 20
416.3121220024555
 30
0.0
 11
70.86522320053638
 21
429.3121220024555
 31
0.0
  0
INSERT
  5
10A1D
330
10817
100
AcDbEntity
  8
外形線
 62
     2
370
    -2
100
AcDbBlockReference
  2
_OPEN
 10
70.86522320053636
 20
413.8121220024554
 30
0.0
 41
2.5
 42
2.5
 43
2.5
 50
270.0
  0
INSERT
  5
10A1E
330
10817
100
AcDbEntity
  8
外形線
 62
     2
370
    -2
100
AcDbBlockReference
  2
_OPEN
 10
70.86522320053638
 20
431.8121220024555
 30
0.0
 41
2.5
 42
2.5
 43
2.5
 50
90.0
  0
MTEXT
  5
10A1F
330
10817
100
AcDbEntity
  8
外形線
 62
     6
100
AcDbMText
 10
68.99022320053631
 20
422.8121220024554
 30
0.0
 40
2.5
 41
0.0
 71
     5
 72
     1
  1
18
  7
STYLE3
 11
0.0000000000000001
 21
1.0
 31
0.0
 73
     1
 44
1.0
  0
POINT
  5
10A20
330
10817
100
AcDbEntity
  8
DEFPOINTS
 62
     0
100
AcDbPoint
 10
88.64297944267722
 20
413.8121220024554
 30
0.0
  0
POINT
  5
10A21
330
10817
100
AcDbEntity
  8
DEFPOINTS
 62
     0
100
AcDbPoint
 10
88.64297944267718
 20
431.8121220024555
 30
0.0
  0
POINT
  5
10A22
330
10817
100
AcDbEntity
  8
DEFPOINTS
 62
     0
100
AcDbPoint
 10
70.86522320053638
 20
431.8121220024555
 30
0.0
  0
ENDBLK
  5
10822
330
10817
100
AcDbEntity
  8
0
100
AcDbBlockEnd
  0
BLOCK
  5
1082D
330
10823
100
AcDbEntity
  8
0
100
AcDbBlockBegin
  2
*D83
 70
     1
 10
0.0
 20
0.0
 30
0.0
  3
*D83
  1

  0
LINE
  5
10A50
330
10823
100
AcDbEntity
  8
外形線
 62
     2
370
    -2
100
AcDbLine
 10
159.6429794426772
 20
371.6129420990983
 30
0.0
 11
159.6429794426772
 21
373.9764847146474
 31
0.0
  0
LINE
  5
10A51
330
10823
100
AcDbEntity
  8
外形線
 62
     2
370
    -2
100
AcDbLine
 10
184.6429794426772
 20
371.8356503553958
 30
0.0
 11
184.6429794426772
 21
373.9764847146474
 31
0.0
  0
LINE
  5
10A52
330
10823
100
AcDbEntity
  8
外形線
 62
     2
370
    -2
100
AcDbLine
 10
162.1429794426772
 20
372.7264847146474
 30
0.0
 11
182.1429794426772
 21
372.7264847146474
 31
0.0
  0
INSERT
  5
10A53
330
10823
100
AcDbEntity
  8
外形線
 62
     2
370
    -2
100
AcDbBlockReference
  2
_OPEN
 10
159.6429794426772
 20
372.7264847146474
 30
0.0
 41
2.5
 42
2.5
 43
2.5
 50
180.0
  0
INSERT
  5
10A54
330
10823
100
AcDbEntity
  8
外形線
 62
     2
370
    -2
100
AcDbBlockReference
  2
_OPEN
 10
184.6429794426772
 20
372.7264847146474
 30
0.0
 41
2.5
 42
2.5
 43
2.5
  0
MTEXT
  5
10A55
330
10823
100
AcDbEntity
  8
外形線
 62
     6
100
AcDbMText
 10
172.1429794426772
 20
374.6014847146474
 30
0.0
 40
2.5
 41
0.0
 71
     5
 72
     1
  1
φ25
  7
STYLE3
 73
     1
 44
1.0
  0
POINT
  5
10A56
330
10823
100
AcDbEntity
  8
DEFPOINTS
 62
     0
100
AcDbPoint
 10
159.6429794426772
 20
371.6129420990983
 30
0.0
  0
POINT
  5
10A57
330
10823
100
AcDbEntity
  8
DEFPOINTS
 62
     0
100
AcDbPoint
 10
184.6429794426772
 20
371.8356503553958
 30
0.0
  0
POINT
  5
10A58
330
10823
100
AcDbEntity
  8
DEFPOINTS
 62
     0
100
AcDbPoint
 10
184.6429794426772
 20
372.7264847146474
 30
0.0
  0
ENDBLK
  5
1082E
330
10823
100
AcDbEntity
  8
0
100
AcDbBlockEnd
  0
BLOCK
  5
10839
330
1082F
100
AcDbEntity
  8
0
100
AcDbBlockBegin
  2
*D84
 70
     1
 10
0.0
 20
0.0
 30
0.0
  3
*D84
  1

  0
LINE
  5
109E4
330
1082F
100
AcDbEntity
  8
外形線
 62
     2
370
    -2
100
AcDbLine
 10
97.1429794426772
 20
375.6216967157304
 30
0.0
 11
97.1429794426772
 21
371.4764847146474
 31
0.0
  0
LINE
  5
109E5
330
1082F
100
AcDbEntity
  8
外形線
 62
     2
370
    -2
100
AcDbLine
 10
159.6429794426772
 20
378.2941997934852
 30
0.0
 11
159.6429794426772
 21
371.4764847146474
 31
0.0
  0
LINE
  5
109E6
330
1082F
100
AcDbEntity
  8
外形線
 62
     2
370
    -2
100
AcDbLine
 10
99.6429794426772
 20
372.7264847146474
 30
0.0
 11
157.1429794426772
 21
372.7264847146474
 31
0.0
  0
INSERT
  5
109E7
330
1082F
100
AcDbEntity
  8
外形線
 62
     2
370
    -2
100
AcDbBlockReference
  2
_OPEN
 10
97.1429794426772
 20
372.7264847146474
 30
0.0
 41
2.5
 42
2.5
 43
2.5
 50
180.0
  0
INSERT
  5
109E8
330
1082F
100
AcDbEntity
  8
外形線
 62
     2
370
    -2
100
AcDbBlockReference
  2
_OPEN
 10
159.6429794426772
 20
372.7264847146474
 30
0.0
 41
2.5
 42
2.5
 43
2.5
  0
MTEXT
  5
109E9
330
1082F
100
AcDbEntity
  8
外形線
 62
     6
100
AcDbMText
 10
128.3929794426772
 20
374.6014847146474
 30
0.0
 40
2.5
 41
0.0
 71
     5
 72
     1
  1
62.5
  7
STYLE3
 73
     1
 44
1.0
  0
POINT
  5
109EA
330
1082F
100
AcDbEntity
  8
DEFPOINTS
 62
     0
100
AcDbPoint
 10
97.1429794426772
 20
375.6216967157304
 30
0.0
  0
POINT
  5
109EB
330
1082F
100
AcDbEntity
  8
DEFPOINTS
 62
     0
100
AcDbPoint
 10
159.6429794426772
 20
378.2941997934852
 30
0.0
  0
POINT
  5
109EC
330
1082F
100
AcDbEntity
  8
DEFPOINTS
 62
     0
100
AcDbPoint
 10
159.6429794426772
 20
372.7264847146474
 30
0.0
  0
ENDBLK
  5
1083A
330
1082F
100
AcDbEntity
  8
0
100
AcDbBlockEnd
  0
BLOCK
  5
10847
330
1083B
100
AcDbEntity
  8
0
100
AcDbBlockBegin
  2
*D85
 70
     1
 10
0.0
 20
0.0
 30
0.0
  3
*D85
  1

  0
LINE
  5
10A3C
330
1083B
100
AcDbEntity
  8
外形線
 62
     2
370
    -2
100
AcDbLine
 10
215.0185361584272
 20
340.1879677085079
 30
0.0
 11
223.75132333318
 21
340.1879677085079
 31
0.0
  0
LINE
  5
10A3D
330
1083B
100
AcDbEntity
  8
外形線
 62
     2
370
    -2
100
AcDbLine
 10
198.3363201670027
 20
335.1879677085079
 30
0.0
 11
223.75132333318
 21
335.1879677085079
 31
0.0
  0
LINE
  5
10A3E
330
1083B
100
AcDbEntity
  8
外形線
 62
     2
370
    -2
100
AcDbLine
 10
222.50132333318
 20
342.6879677085079
 30
0.0
 11
222.50132333318
 21
345.1879677085079
 31
0.0
  0
LINE
  5
10A3F
330
1083B
100
AcDbEntity
  8
外形線
 62
     2
370
    -2
100
AcDbLine
 10
222.50132333318
 20
332.6879677085079
 30
0.0
 11
222.50132333318
 21
327.2713010418412
 31
0.0
  0
LINE
  5
10A40
330
1083B
100
AcDbEntity
  8
外形線
 62
     2
370
    -2
100
AcDbLine
 10
222.50132333318
 20
340.1879677085079
 30
0.0
 11
222.50132333318
 21
335.1879677085079
 31
0.0
  0
INSERT
  5
10A41
330
1083B
100
AcDbEntity
  8
外形線
 62
     2
370
    -2
100
AcDbBlockReference
  2
_OPEN
 10
222.50132333318
 20
340.1879677085079
 30
0.0
 41
2.5
 42
2.5
 43
2.5
 50
270.0
  0
INSERT
  5
10A42
330
1083B
100
AcDbEntity
  8
外形線
 62
     2
370
    -2
100
AcDbBlockReference
  2
_OPEN
 10
222.50132333318
 20
335.1879677085079
 30
0.0
 41
2.5
 42
2.5
 43
2.5
 50
90.0
  0
MTEXT
  5
10A43
330
1083B
100
AcDbEntity
  8
外形線
 62
     6
100
AcDbMText
 10
220.6263233331799
 20
328.7296343751747
 30
0.0
 40
2.5
 41
0.0
 71
     5
 72
     1
  1
5
  7
STYLE3
 11
0.0000000000000001
 21
1.0
 31
0.0
 73
     1
 44
1.0
  0
POINT
  5
10A44
330
1083B
100
AcDbEntity
  8
DEFPOINTS
 62
     0
100
AcDbPoint
 10
215.0185361584272
 20
340.1879677085079
 30
0.0
  0
POINT
  5
10A45
330
1083B
100
AcDbEntity
  8
DEFPOINTS
 62
     0
100
AcDbPoint
 10
198.3363201670027
 20
335.1879677085079
 30
0.0
  0
POINT
  5
10A46
330
1083B
100
AcDbEntity
  8
DEFPOINTS
 62
     0
100
AcDbPoint
 10
222.50132333318
 20
335.1879677085079
 30
0.0
  0
ENDBLK
  5
10848
330
1083B
100
AcDbEntity
  8
0
100
AcDbBlockEnd
  0
BLOCK
  5
10853
330
10849
100
AcDbEntity
  8
0
100
AcDbBlockBegin
  2
*D86
 70
     1
 10
0.0
 20
0.0
 30
0.0
  3
*D86
  1

  0
LINE
  5
10A08
330
10849
100
AcDbEntity
  8
外形線
 62
     2
370
    -2
100
AcDbLine
 10
64.14297944267727
 20
290.1879677085079
 30
0.0
 11
47.16344597288075
 21
290.1879677085079
 31
0.0
  0
LINE
  5
10A09
330
10849
100
AcDbEntity
  8
外形線
 62
     2
370
    -2
100
AcDbLine
 10
73.14297944267725
 20
350.1879677085079
 30
0.0
 11
47.16344597288077
 21
350.1879677085079
 31
0.0
  0
LINE
  5
10A0A
330
10849
100
AcDbEntity
  8
外形線
 62
     2
370
    -2
100
AcDbLine
 10
48.41344597288075
 20
292.6879677085079
 30
0.0
 11
48.41344597288077
 21
347.6879677085079
 31
0.0
  0
INSERT
  5
10A0B
330
10849
100
AcDbEntity
  8
外形線
 62
     2
370
    -2
100
AcDbBlockReference
  2
_OPEN
 10
48.41344597288075
 20
290.1879677085079
 30
0.0
 41
2.5
 42
2.5
 43
2.5
 50
270.0
  0
INSERT
  5
10A0C
330
10849
100
AcDbEntity
  8
外形線
 62
     2
370
    -2
100
AcDbBlockReference
  2
_OPEN
 10
48.41344597288077
 20
350.1879677085079
 30
0.0
 41
2.5
 42
2.5
 43
2.5
 50
90.0
  0
MTEXT
  5
10A0D
330
10849
100
AcDbEntity
  8
外形線
 62
     6
100
AcDbMText
 10
46.5384459728807
 20
320.1879677085079
 30
0.0
 40
2.5
 41
0.0
 71
     5
 72
     1
  1
60
  7
STYLE3
 11
0.0000000000000001
 21
1.0
 31
0.0
 73
     1
 44
1.0
  0
POINT
  5
10A0E
330
10849
100
AcDbEntity
  8
DEFPOINTS
 62
     0
100
AcDbPoint
 10
64.14297944267727
 20
290.1879677085079
 30
0.0
  0
POINT
  5
10A0F
330
10849
100
AcDbEntity
  8
DEFPOINTS
 62
     0
100
AcDbPoint
 10
73.14297944267725
 20
350.1879677085079
 30
0.0
  0
POINT
  5
10A10
330
10849
100
AcDbEntity
  8
DEFPOINTS
 62
     0
100
AcDbPoint
 10
48.41344597288077
 20
350.1879677085079
 30
0.0
  0
ENDBLK
  5
10854
330
10849
100
AcDbEntity
  8
0
100
AcDbBlockEnd
  0
BLOCK
  5
1085E
330
10855
100
AcDbEntity
  8
0
100
AcDbBlockBegin
  2
*D87
 70
     1
 10
0.0
 20
0.0
 30
0.0
  3
*D87
  1

  0
LINE
  5
10A23
330
10855
100
AcDbEntity
  8
外形線
 62
     2
370
    -2
100
AcDbLine
 10
69.61522320053638
 20
413.8121220024554
 30
0.0
 11
47.16344597288077
 21
413.8121220024554
 31
0.0
  0
LINE
  5
10A24
330
10855
100
AcDbEntity
  8
外形線
 62
     2
370
    -2
100
AcDbLine
 10
48.41344597288075
 20
352.6879677085079
 30
0.0
 11
48.41344597288077
 21
411.3121220024555
 31
0.0
  0
INSERT
  5
10A25
330
10855
100
AcDbEntity
  8
外形線
 62
     2
370
    -2
100
AcDbBlockReference
  2
_OPEN
 10
48.41344597288075
 20
350.1879677085079
 30
0.0
 41
2.5
 42
2.5
 43
2.5
 50
270.0
  0
INSERT
  5
10A26
330
10855
100
AcDbEntity
  8
外形線
 62
     2
370
    -2
100
AcDbBlockReference
  2
_OPEN
 10
48.41344597288077
 20
413.8121220024554
 30
0.0
 41
2.5
 42
2.5
 43
2.5
 50
90.0
  0
MTEXT
  5
10A27
330
10855
100
AcDbEntity
  8
外形線
 62
     6
100
AcDbMText
 10
46.53844597288069
 20
382.0000448554818
 30
0.0
 40
2.5
 41
0.0
 71
     5
 72
     1
  1
MAX110
  7
STYLE3
 11
0.0000000000000001
 21
1.0
 31
0.0
 73
     1
 44
1.0
  0
POINT
  5
10A28
330
10855
100
AcDbEntity
  8
DEFPOINTS
 62
     0
100
AcDbPoint
 10
73.14297944267725
 20
350.1879677085079
 30
0.0
  0
POINT
  5
10A29
330
10855
100
AcDbEntity
  8
DEFPOINTS
 62
     0
100
AcDbPoint
 10
69.61522320053638
 20
413.8121220024554
 30
0.0
  0
POINT
  5
10A2A
330
10855
100
AcDbEntity
  8
DEFPOINTS
 62
     0
100
AcDbPoint
 10
48.41344597288077
 20
413.8121220024554
 30
0.0
  0
ENDBLK
  5
1085F
330
10855
100
AcDbEntity
  8
0
100
AcDbBlockEnd
  0
BLOCK
  5
1086A
330
10860
100
AcDbEntity
  8
0
100
AcDbBlockBegin
  2
*D88
 70
     1
 10
0.0
 20
0.0
 30
0.0
  3
*D88
  1

  0
LINE
  5
109FF
330
10860
100
AcDbEntity
  8
外形線
 62
     2
370
    -2
100
AcDbLine
 10
-44.89144454008846
 20
431.8121220024554
 30
0.0
 11
-44.89144454008846
 21
441.0722183018032
 31
0.0
  0
LINE
  5
10A00
330
10860
100
AcDbEntity
  8
外形線
 62
     2
370
    -2
100
AcDbLine
 10
-36.89144454008846
 20
431.8121220024554
 30
0.0
 11
-36.89144454008846
 21
441.0722183018032
 31
0.0
  0
LINE
  5
10A01
330
10860
100
AcDbEntity
  8
外形線
 62
     2
370
    -2
100
AcDbLine
 10
-42.39144454008846
 20
439.8222183018032
 30
0.0
 11
-39.39144454008846
 21
439.8222183018032
 31
0.0
  0
INSERT
  5
10A02
330
10860
100
AcDbEntity
  8
外形線
 62
     2
370
    -2
100
AcDbBlockReference
  2
_OPEN
 10
-44.89144454008846
 20
439.8222183018032
 30
0.0
 41
2.5
 42
2.5
 43
2.5
 50
180.0
  0
INSERT
  5
10A03
330
10860
100
AcDbEntity
  8
外形線
 62
     2
370
    -2
100
AcDbBlockReference
  2
_OPEN
 10
-36.89144454008846
 20
439.8222183018032
 30
0.0
 41
2.5
 42
2.5
 43
2.5
  0
MTEXT
  5
10A04
330
10860
100
AcDbEntity
  8
外形線
 62
     6
100
AcDbMText
 10
-40.89144454008845
 20
441.6972183018032
 30
0.0
 40
2.5
 41
0.0
 71
     5
 72
     1
  1
φ8
  7
STYLE3
 73
     1
 44
1.0
  0
POINT
  5
10A05
330
10860
100
AcDbEntity
  8
DEFPOINTS
 62
     0
100
AcDbPoint
 10
-44.89144454008846
 20
431.8121220024554
 30
0.0
  0
POINT
  5
10A06
330
10860
100
AcDbEntity
  8
DEFPOINTS
 62
     0
100
AcDbPoint
 10
-36.89144454008846
 20
431.8121220024554
 30
0.0
  0
POINT
  5
10A07
330
10860
100
AcDbEntity
  8
DEFPOINTS
 62
     0
100
AcDbPoint
 10
-36.89144454008846
 20
439.8222183018032
 30
0.0
  0
ENDBLK
  5
1086B
330
10860
100
AcDbEntity
  8
0
100
AcDbBlockEnd
  0
BLOCK
  5
10876
330
1086C
100
AcDbEntity
  8
0
100
AcDbBlockBegin
  2
*D89
 70
     1
 10
0.0
 20
0.0
 30
0.0
  3
*D89
  1

  0
LINE
  5
109F6
330
1086C
100
AcDbEntity
  8
外形線
 62
     2
370
    -2
100
AcDbLine
 10
-90.89144454008845
 20
290.1879677085079
 30
0.0
 11
-90.89144454008845
 21
279.3709209965947
 31
0.0
  0
LINE
  5
109F7
330
1086C
100
AcDbEntity
  8
外形線
 62
     2
370
    -2
100
AcDbLine
 10
9.108555459911542
 20
290.1879677085079
 30
0.0
 11
9.108555459911542
 21
279.3709209965947
 31
0.0
  0
LINE
  5
109F8
330
1086C
100
AcDbEntity
  8
外形線
 62
     2
370
    -2
100
AcDbLine
 10
-88.39144454008845
 20
280.6209209965947
 30
0.0
 11
6.608555459911542
 21
280.6209209965947
 31
0.0
  0
INSERT
  5
109F9
330
1086C
100
AcDbEntity
  8
外形線
 62
     2
370
    -2
100
AcDbBlockReference
  2
_OPEN
 10
-90.89144454008845
 20
280.6209209965947
 30
0.0
 41
2.5
 42
2.5
 43
2.5
 50
180.0
  0
INSERT
  5
109FA
330
1086C
100
AcDbEntity
  8
外形線
 62
     2
370
    -2
100
AcDbBlockReference
  2
_OPEN
 10
9.108555459911542
 20
280.6209209965947
 30
0.0
 41
2.5
 42
2.5
 43
2.5
  0
MTEXT
  5
109FB
330
1086C
100
AcDbEntity
  8
外形線
 62
     6
100
AcDbMText
 10
-40.89144454008845
 20
282.4959209965947
 30
0.0
 40
2.5
 41
0.0
 71
     5
 72
     1
  1
100
  7
STYLE3
 73
     1
 44
1.0
  0
POINT
  5
109FC
330
1086C
100
AcDbEntity
  8
DEFPOINTS
 62
     0
100
AcDbPoint
 10
-90.89144454008845
 20
290.1879677085079
 30
0.0
  0
POINT
  5
109FD
330
1086C
100
AcDbEntity
  8
DEFPOINTS
 62
     0
100
AcDbPoint
 10
9.108555459911542
 20
290.1879677085079
 30
0.0
  0
POINT
  5
109FE
330
1086C
100
AcDbEntity
  8
DEFPOINTS
 62
     0
100
AcDbPoint
 10
9.108555459911542
 20
280.6209209965947
 30
0.0
  0
ENDBLK
  5
10877
330
1086C
100
AcDbEntity
  8
0
100
AcDbBlockEnd
  0
BLOCK
  5
10882
330
10878
100
AcDbEntity
  8
0
100
AcDbBlockBegin
  2
*D90
 70
     1
 10
0.0
 20
0.0
 30
0.0
  3
*D90
  1

  0
LINE
  5
109ED
330
10878
100
AcDbEntity
  8
外形線
 62
     2
370
    -2
100
AcDbLine
 10
64.14297944267727
 20
290.1879677085079
 30
0.0
 11
64.14297944267727
 21
279.3709209965947
 31
0.0
  0
LINE
  5
109EE
330
10878
100
AcDbEntity
  8
外形線
 62
     2
370
    -2
100
AcDbLine
 10
204.1429794426772
 20
290.1879677085079
 30
0.0
 11
204.1429794426772
 21
279.3709209965947
 31
0.0
  0
LINE
  5
109EF
330
10878
100
AcDbEntity
  8
外形線
 62
     2
370
    -2
100
AcDbLine
 10
66.64297944267727
 20
280.6209209965947
 30
0.0
 11
201.6429794426772
 21
280.6209209965947
 31
0.0
  0
INSERT
  5
109F0
330
10878
100
AcDbEntity
  8
外形線
 62
     2
370
    -2
100
AcDbBlockReference
  2
_OPEN
 10
64.14297944267727
 20
280.6209209965947
 30
0.0
 41
2.5
 42
2.5
 43
2.5
 50
180.0
  0
INSERT
  5
109F1
330
10878
100
AcDbEntity
  8
外形線
 62
     2
370
    -2
100
AcDbBlockReference
  2
_OPEN
 10
204.1429794426772
 20
280.6209209965947
 30
0.0
 41
2.5
 42
2.5
 43
2.5
  0
MTEXT
  5
109F2
330
10878
100
AcDbEntity
  8
外形線
 62
     6
100
AcDbMText
 10
134.1429794426772
 20
282.4959209965947
 30
0.0
 40
2.5
 41
0.0
 71
     5
 72
     1
  1
140
  7
STYLE3
 73
     1
 44
1.0
  0
POINT
  5
109F3
330
10878
100
AcDbEntity
  8
DEFPOINTS
 62
     0
100
AcDbPoint
 10
64.14297944267727
 20
290.1879677085079
 30
0.0
  0
POINT
  5
109F4
330
10878
100
AcDbEntity
  8
DEFPOINTS
 62
     0
100
AcDbPoint
 10
204.1429794426772
 20
290.1879677085079
 30
0.0
  0
POINT
  5
109F5
330
10878
100
AcDbEntity
  8
DEFPOINTS
 62
     0
100
AcDbPoint
 10
204.1429794426772
 20
280.6209209965947
 30
0.0
  0
ENDBLK
  5
10883
330
10878
100
AcDbEntity
  8
0
100
AcDbBlockEnd
  0
BLOCK
  5
1088E
330
10884
100
AcDbEntity
  8
0
100
AcDbBlockBegin
  2
*D91
 70
     1
 10
0.0
 20
0.0
 30
0.0
  3
*D91
  1

  0
LINE
  5
10A47
330
10884
100
AcDbEntity
  8
外形線
 62
     2
370
    -2
100
AcDbLine
 10
204.1429794426772
 20
290.1879677085079
 30
0.0
 11
231.4140180543691
 21
290.1879677085079
 31
0.0
  0
LINE
  5
10A48
330
10884
100
AcDbEntity
  8
外形線
 62
     2
370
    -2
100
AcDbLine
 10
189.1429794426772
 20
340.1879677085079
 30
0.0
 11
231.4140180543692
 21
340.1879677085079
 31
0.0
  0
LINE
  5
10A49
330
10884
100
AcDbEntity
  8
外形線
 62
     2
370
    -2
100
AcDbLine
 10
230.1640180543691
 20
292.6879677085079
 30
0.0
 11
230.1640180543691
 21
337.6879677085079
 31
0.0
  0
INSERT
  5
10A4A
330
10884
100
AcDbEntity
  8
外形線
 62
     2
370
    -2
100
AcDbBlockReference
  2
_OPEN
 10
230.1640180543691
 20
290.1879677085079
 30
0.0
 41
2.5
 42
2.5
 43
2.5
 50
270.0
  0
INSERT
  5
10A4B
330
10884
100
AcDbEntity
  8
外形線
 62
     2
370
    -2
100
AcDbBlockReference
  2
_OPEN
 10
230.1640180543691
 20
340.1879677085079
 30
0.0
 41
2.5
 42
2.5
 43
2.5
 50
90.0
  0
MTEXT
  5
10A4C
330
10884
100
AcDbEntity
  8
外形線
 62
     6
100
AcDbMText
 10
228.2890180543691
 20
315.187967708508
 30
0.0
 40
2.5
 41
0.0
 71
     5
 72
     1
  1
50
  7
STYLE3
 11
0.0000000000000001
 21
1.0
 31
0.0
 73
     1
 44
1.0
  0
POINT
  5
10A4D
330
10884
100
AcDbEntity
  8
DEFPOINTS
 62
     0
100
AcDbPoint
 10
204.1429794426772
 20
290.1879677085079
 30
0.0
  0
POINT
  5
10A4E
330
10884
100
AcDbEntity
  8
DEFPOINTS
 62
     0
100
AcDbPoint
 10
189.1429794426772
 20
340.1879677085079
 30
0.0
  0
POINT
  5
10A4F
330
10884
100
AcDbEntity
  8
DEFPOINTS
 62
     0
100
AcDbPoint
 10
230.1640180543691
 20
340.1879677085079
 30
0.0
  0
ENDBLK
  5
1088F
330
10884
100
AcDbEntity
  8
0
100
AcDbBlockEnd
  0
BLOCK
  5
10899
330
10890
100
AcDbEntity
  8
0
100
AcDbBlockBegin
  2
*D92
 70
     1
 10
0.0
 20
0.0
 30
0.0
  3
*D92
  1

  0
LINE
  5
10A34
330
10890
100
AcDbEntity
  8
外形線
 62
     2
370
    -2
100
AcDbLine
 10
183.1429794426772
 20
510.1879677085078
 30
0.0
 11
231.4140180543692
 21
510.1879677085078
 31
0.0
  0
LINE
  5
10A35
330
10890
100
AcDbEntity
  8
外形線
 62
     2
370
    -2
100
AcDbLine
 10
230.1640180543691
 20
342.6879677085079
 30
0.0
 11
230.1640180543691
 21
507.6879677085079
 31
0.0
  0
INSERT
  5
10A36
330
10890
100
AcDbEntity
  8
外形線
 62
     2
370
    -2
100
AcDbBlockReference
  2
_OPEN
 10
230.1640180543691
 20
340.1879677085079
 30
0.0
 41
2.5
 42
2.5
 43
2.5
 50
270.0
  0
INSERT
  5
10A37
330
10890
100
AcDbEntity
  8
外形線
 62
     2
370
    -2
100
AcDbBlockReference
  2
_OPEN
 10
230.1640180543691
 20
510.1879677085078
 30
0.0
 41
2.5
 42
2.5
 43
2.5
 50
90.0
  0
MTEXT
  5
10A38
330
10890
100
AcDbEntity
  8
外形線
 62
     6
100
AcDbMText
 10
228.2890180543691
 20
425.187967708508
 30
0.0
 40
2.5
 41
0.0
 71
     5
 72
     1
  1
170
  7
STYLE3
 11
0.0000000000000001
 21
1.0
 31
0.0
 73
     1
 44
1.0
  0
POINT
  5
10A39
330
10890
100
AcDbEntity
  8
DEFPOINTS
 62
     0
100
AcDbPoint
 10
189.1429794426772
 20
340.1879677085079
 30
0.0
  0
POINT
  5
10A3A
330
10890
100
AcDbEntity
  8
DEFPOINTS
 62
     0
100
AcDbPoint
 10
183.1429794426772
 20
510.1879677085078
 30
0.0
  0
POINT
  5
10A3B
330
10890
100
AcDbEntity
  8
DEFPOINTS
 62
     0
100
AcDbPoint
 10
230.1640180543691
 20
510.1879677085078
 30
0.0
  0
ENDBLK
  5
1089A
330
10890
100
AcDbEntity
  8
0
100
AcDbBlockEnd
  0
BLOCK
  5
108A5
330
1089B
100
AcDbEntity
  8
0
100
AcDbBlockBegin
  2
*D93
 70
     1
 10
0.0
 20
0.0
 30
0.0
  3
*D93
  1

  0
LINE
  5
10A2B
330
1089B
100
AcDbEntity
  8
外形線
 62
     2
370
    -2
100
AcDbLine
 10
231.4140180543692
 20
510.1879677085078
 30
0.0
 11
239.990003145201
 21
510.1879677085078
 31
0.0
  0
LINE
  5
10A2C
330
1089B
100
AcDbEntity
  8
外形線
 62
     2
370
    -2
100
AcDbLine
 10
231.4140180543692
 20
290.1879677085079
 30
0.0
 11
239.990003145201
 21
290.1879677085079
 31
0.0
  0
LINE
  5
10A2D
330
1089B
100
AcDbEntity
  8
外形線
 62
     2
370
    -2
100
AcDbLine
 10
238.7400031452011
 20
507.6879677085079
 30
0.0
 11
238.740003145201
 21
292.6879677085079
 31
0.0
  0
INSERT
  5
10A2E
330
1089B
100
AcDbEntity
  8
外形線
 62
     2
370
    -2
100
AcDbBlockReference
  2
_OPEN
 10
238.7400031452011
 20
510.1879677085078
 30
0.0
 41
2.5
 42
2.5
 43
2.5
 50
90.0
  0
INSERT
  5
10A2F
330
1089B
100
AcDbEntity
  8
外形線
 62
     2
370
    -2
100
AcDbBlockReference
  2
_OPEN
 10
238.740003145201
 20
290.1879677085079
 30
0.0
 41
2.5
 42
2.5
 43
2.5
 50
270.0
  0
MTEXT
  5
10A30
330
1089B
100
AcDbEntity
  8
外形線
 62
     6
100
AcDbMText
 10
236.865003145201
 20
400.187967708508
 30
0.0
 40
2.5
 41
0.0
 71
     5
 72
     1
  1
220
  7
STYLE3
 11
0.0000000000000001
 21
1.0
 31
0.0
 73
     1
 44
1.0
  0
POINT
  5
10A31
330
1089B
100
AcDbEntity
  8
DEFPOINTS
 62
     0
100
AcDbPoint
 10
231.4140180543692
 20
510.1879677085078
 30
0.0
  0
POINT
  5
10A32
330
1089B
100
AcDbEntity
  8
DEFPOINTS
 62
     0
100
AcDbPoint
 10
231.4140180543692
 20
290.1879677085079
 30
0.0
  0
POINT
  5
10A33
330
1089B
100
AcDbEntity
  8
DEFPOINTS
 62
     0
100
AcDbPoint
 10
238.740003145201
 20
290.1879677085079
 30
0.0
  0
ENDBLK
  5
108A6
330
1089B
100
AcDbEntity
  8
0
100
AcDbBlockEnd
  0
BLOCK
  5
109D9
330
109CF
100
AcDbEntity
  8
0
100
AcDbBlockBegin
  2
*D94
 70
     1
 10
0.0
 20
0.0
 30
0.0
  3
*D94
  1

  0
LINE
  5
10A11
330
109CF
100
AcDbEntity
  8
外形線
 62
     2
370
    -2
100
AcDbLine
 10
122.1429794426775
 20
349.6879677085077
 30
0.0
 11
122.1429794426775
 21
361.4385008157088
 31
0.0
  0
LINE
  5
10A12
330
109CF
100
AcDbEntity
  8
外形線
 62
     2
370
    -2
100
AcDbLine
 10
72.1429794426772
 20
349.6879677085077
 30
0.0
 11
72.1429794426772
 21
361.4385008157088
 31
0.0
  0
LINE
  5
10A13
330
109CF
100
AcDbEntity
  8
外形線
 62
     2
370
    -2
100
AcDbLine
 10
119.6429794426775
 20
360.1885008157088
 30
0.0
 11
74.6429794426772
 21
360.1885008157088
 31
0.0
  0
INSERT
  5
10A14
330
109CF
100
AcDbEntity
  8
外形線
 62
     2
370
    -2
100
AcDbBlockReference
  2
_OPEN
 10
122.1429794426775
 20
360.1885008157088
 30
0.0
 41
2.5
 42
2.5
 43
2.5
  0
INSERT
  5
10A15
330
109CF
100
AcDbEntity
  8
外形線
 62
     2
370
    -2
100
AcDbBlockReference
  2
_OPEN
 10
72.1429794426772
 20
360.1885008157088
 30
0.0
 41
2.5
 42
2.5
 43
2.5
 50
180.0
  0
MTEXT
  5
10A16
330
109CF
100
AcDbEntity
  8
外形線
 62
     6
100
AcDbMText
 10
97.14297944267736
 20
362.0635008157088
 30
0.0
 40
2.5
 41
0.0
 71
     5
 72
     1
  1
φ50
  7
STYLE3
 73
     1
 44
1.0
  0
POINT
  5
10A17
330
109CF
100
AcDbEntity
  8
DEFPOINTS
 62
     0
100
AcDbPoint
 10
122.1429794426775
 20
349.6879677085077
 30
0.0
  0
POINT
  5
10A18
330
109CF
100
AcDbEntity
  8
DEFPOINTS
 62
     0
100
AcDbPoint
 10
72.1429794426772
 20
349.6879677085077
 30
0.0
  0
POINT
  5
10A19
330
109CF
100
AcDbEntity
  8
DEFPOINTS
 62
     0
100
AcDbPoint
 10
72.1429794426772
 20
360.1885008157088
 30
0.0
  0
ENDBLK
  5
109DA
330
109CF
100
AcDbEntity
  8
0
100
AcDbBlockEnd
  0
ENDSEC
  0
SECTION
  2
ENTITIES
  0
TEXT
  5
9C20
330
18
100
AcDbEntity
  8
文字
100
AcDbText
 10
74.09305716758581
 20
255.9674804902871
 30
0.0
 40
3.0
  1

  7
STYLE3
100
AcDbText
  0
MTEXT
  5
C17A
330
18
100
AcDbEntity
  8
寸法線
 62
     6
100
AcDbMText
 10
64.12043077539419
 20
409.863683698069
 30
0.0
 40
2.5
 41
0.0
 71
     7
 72
     1
  1
\A1;
  7
STYLE3
 73
     1
 44
1.0
  0
LWPOLYLINE
  5
F5A1
330
18
100
AcDbEntity
  8
外形線
100
AcDbPolyline
 90
        4
 70
     1
 43
0.4
 10
261.3468420062388
 20
242.9382862785077
 10
-116.6531579937611
 20
242.9382862785077
 10
-116.6531579937611
 20
524.9382862785076
 10
261.3468420062388
 20
524.9382862785076
  0
LINE
  5
10723
330
18
100
AcDbEntity
  8
中心線
100
AcDbLine
 10
172.1429794426772
 20
514.9880274696872
 30
0.0
 11
172.1429794426772
 21
321.6268207168997
 31
0.0
  0
LINE
  5
10724
330
18
100
AcDbEntity
  8
外形線
100
AcDbLine
 10
74.14297944267722
 20
290.1879677085079
 30
0.0
 11
64.14297944267727
 21
290.1879677085079
 31
0.0
  0
LINE
  5
10726
330
18
100
AcDbEntity
  8
外形線
100
AcDbLine
 10
75.14297944267733
 20
335.1879677085079
 30
0.0
 11
69.94963871835179
 21
335.1879677085079
 31
0.0
  0
LINE
  5
10727
330
18
100
AcDbEntity
  8
外形線
100
AcDbLine
 10
64.14297944267727
 20
290.1879677085079
 30
0.0
 11
66.95628324478196
 21
332.3875247400792
 31
0.0
  0
ARC
  5
10728
330
18
100
AcDbEntity
  8
外形線
100
AcDbCircle
 10
69.94963871835179
 20
332.1879677085079
 30
0.0
 40
3.0
100
AcDbArc
 50
90.0
 51
176.1859251657102
  0
LINE
  5
10729
330
18
100
AcDbEntity
  8
外形線
100
AcDbLine
 10
77.1429794426773
 20
338.1879677085079
 30
0.0
 11
77.14297944267733
 21
337.1879677085079
 31
0.0
  0
ARC
  5
1072A
330
18
100
AcDbEntity
  8
外形線
100
AcDbCircle
 10
79.1429794426773
 20
338.1879677085079
 30
0.0
 40
2.0
100
AcDbArc
 50
90.0
 51
180.0
  0
ARC
  5
1072B
330
18
100
AcDbEntity
  8
外形線
100
AcDbCircle
 10
75.14297944267733
 20
337.1879677085079
 30
0.0
 40
2.0
100
AcDbArc
 50
270.0
 51
0.0
  0
ARC
  5
1072C
330
18
100
AcDbEntity
  8
外形線
100
AcDbCircle
 10
119.1429794426771
 20
337.1879677085079
 30
0.0
 40
2.0
100
AcDbArc
 50
180.0
 51
270.0
  0
ARC
  5
1072D
330
18
100
AcDbEntity
  8
外形線
100
AcDbCircle
 10
115.1429794426772
 20
338.1879677085079
 30
0.0
 40
2.0
100
AcDbArc
 50
0.0
 51
90.0
  0
LINE
  5
1072E
330
18
100
AcDbEntity
  8
外形線
100
AcDbLine
 10
117.1429794426772
 20
338.1879677085079
 30
0.0
 11
117.1429794426771
 21
337.1879677085079
 31
0.0
  0
LINE
  5
1072F
330
18
100
AcDbEntity
  8
外形線
100
AcDbLine
 10
75.14297944267733
 20
335.1879677085079
 30
0.0
 11
149.1429794426773
 21
335.1879677085079
 31
0.0
  0
ARC
  5
10730
330
18
100
AcDbEntity
  8
外形線
100
AcDbCircle
 10
193.1429794426772
 20
337.1879677085079
 30
0.0
 40
2.0
100
AcDbArc
 50
180.0
 51
270.0
  0
ARC
  5
10731
330
18
100
AcDbEntity
  8
外形線
100
AcDbCircle
 10
189.1429794426772
 20
338.1879677085079
 30
0.0
 40
2.0
100
AcDbArc
 50
0.0
 51
90.0
  0
LINE
  5
10732
330
18
100
AcDbEntity
  8
外形線
100
AcDbLine
 10
151.1429794426773
 20
338.1879677085079
 30
0.0
 11
151.1429794426773
 21
337.1879677085079
 31
0.0
  0
ARC
  5
10733
330
18
100
AcDbEntity
  8
外形線
100
AcDbCircle
 10
149.1429794426773
 20
337.1879677085079
 30
0.0
 40
2.0
100
AcDbArc
 50
270.0
 51
0.0
  0
LINE
  5
10734
330
18
100
AcDbEntity
  8
外形線
100
AcDbLine
 10
153.1429794426773
 20
340.1879677085079
 30
0.0
 11
189.1429794426772
 21
340.1879677085079
 31
0.0
  0
ARC
  5
10735
330
18
100
AcDbEntity
  8
外形線
100
AcDbCircle
 10
153.1429794426773
 20
338.1879677085079
 30
0.0
 40
2.0
100
AcDbArc
 50
90.0
 51
180.0
  0
LINE
  5
10736
330
18
100
AcDbEntity
  8
外形線
100
AcDbLine
 10
191.1429794426772
 20
338.1879677085079
 30
0.0
 11
191.1429794426772
 21
337.1879677085079
 31
0.0
  0
ARC
  5
10737
330
18
100
AcDbEntity
  8
外形線
100
AcDbCircle
 10
198.3363201670027
 20
332.1879677085079
 30
0.0
 40
3.0
100
AcDbArc
 50
3.814074834289812
 51
90.0
  0
LINE
  5
10738
330
18
100
AcDbEntity
  8
外形線
100
AcDbLine
 10
149.1429794426773
 20
335.1879677085078
 30
0.0
 11
198.3363201670027
 21
335.1879677085079
 31
0.0
  0
LINE
  5
10739
330
18
100
AcDbEntity
  8
外形線
100
AcDbLine
 10
193.1429794426773
 20
292.1879677085079
 30
0.0
 11
75.14297944267724
 21
292.1879677085079
 31
0.0
  0
LINE
  5
1073A
330
18
100
AcDbEntity
  8
外形線
100
AcDbLine
 10
74.14297944267724
 20
291.1879677085079
 30
0.0
 11
74.14297944267722
 21
290.1879677085079
 31
0.0
  0
ARC
  5
1073B
330
18
100
AcDbEntity
  8
外形線
100
AcDbCircle
 10
75.14297944267724
 20
291.1879677085079
 30
0.0
 40
1.0
100
AcDbArc
 50
90.0
 51
180.0
  0
ARC
  5
1073C
330
18
100
AcDbEntity
  8
外形線
100
AcDbCircle
 10
193.1429794426773
 20
291.1879677085079
 30
0.0
 40
1.0
100
AcDbArc
 50
0.0
 51
90.0
  0
LINE
  5
1073D
330
18
100
AcDbEntity
  8
外形線
100
AcDbLine
 10
194.1429794426773
 20
290.1879677085079
 30
0.0
 11
204.1429794426772
 21
290.1879677085079
 31
0.0
  0
LINE
  5
1073E
330
18
100
AcDbEntity
  8
外形線
100
AcDbLine
 10
194.1429794426773
 20
291.1879677085079
 30
0.0
 11
194.1429794426773
 21
290.1879677085079
 31
0.0
  0
LINE
  5
1073F
330
18
100
AcDbEntity
  8
外形線
100
AcDbLine
 10
204.1429794426772
 20
290.1879677085079
 30
0.0
 11
201.3296756405726
 21
332.3875247400792
 31
0.0
  0
LINE
  5
10740
330
18
100
AcDbEntity
  8
外形線
100
AcDbLine
 10
161.1429794426772
 20
510.1879677085078
 30
0.0
 11
183.1429794426772
 21
510.1879677085078
 31
0.0
  0
LINE
  5
10741
330
18
100
AcDbEntity
  8
外形線
100
AcDbLine
 10
159.6429794426772
 20
508.6879677085079
 30
0.0
 11
159.6429794426772
 21
459.8121220024554
 31
0.0
  0
LINE
  5
10742
330
18
100
AcDbEntity
  8
外形線
100
AcDbLine
 10
184.6429794426772
 20
508.6879677085079
 30
0.0
 11
184.6429794426772
 21
459.8121220024554
 31
0.0
  0
ARC
  5
10743
330
18
100
AcDbEntity
  8
外形線
100
AcDbCircle
 10
183.1429794426772
 20
508.6879677085079
 30
0.0
 40
1.5
100
AcDbArc
 50
0.0
 51
90.0
  0
ARC
  5
10744
330
18
100
AcDbEntity
  8
外形線
100
AcDbCircle
 10
161.1429794426772
 20
508.6879677085079
 30
0.0
 40
1.5
100
AcDbArc
 50
90.0
 51
180.0
  0
LINE
  5
10745
330
18
100
AcDbEntity
  8
外形線
100
AcDbLine
 10
185.3450204715445
 20
413.8121220024554
 30
0.0
 11
88.64297944267722
 21
413.8121220024554
 31
0.0
  0
LINE
  5
10746
330
18
100
AcDbEntity
  8
外形線
100
AcDbLine
 10
185.3450204715444
 20
459.8121220024554
 30
0.0
 11
158.6429794426772
 21
459.8121220024554
 31
0.0
  0
LINE
  5
10747
330
18
100
AcDbEntity
  8
外形線
100
AcDbLine
 10
157.1429794426772
 20
458.3121220024554
 30
0.0
 11
157.1429794426772
 21
415.3121220024554
 31
0.0
  0
ARC
  5
10748
330
18
100
AcDbEntity
  8
外形線
100
AcDbCircle
 10
158.6429794426772
 20
458.3121220024554
 30
0.0
 40
1.5
100
AcDbArc
 50
90.0
 51
180.0
  0
ARC
  5
10749
330
18
100
AcDbEntity
  8
外形線
100
AcDbCircle
 10
158.6429794426772
 20
415.3121220024554
 30
0.0
 40
1.5
100
AcDbArc
 50
180.0
 51
270.0
  0
LINE
  5
1074A
330
18
100
AcDbEntity
  8
外形線
100
AcDbLine
 10
184.6429794426772
 20
413.8121220024554
 30
0.0
 11
184.6429794426772
 21
340.1879677085079
 31
0.0
  0
LINE
  5
1074B
330
18
100
AcDbEntity
  8
外形線
100
AcDbLine
 10
159.6429794426772
 20
413.8121220024554
 30
0.0
 11
159.6429794426772
 21
340.1879677085079
 31
0.0
  0
ARC
  5
1074C
330
18
100
AcDbEntity
  8
外形線
100
AcDbCircle
 10
183.6429794426772
 20
458.3121220024554
 30
0.0
 40
1.5
100
AcDbArc
 50
50.86035623555632
 51
90.0
  0
ARC
  5
1074D
330
18
100
AcDbEntity
  8
外形線
100
AcDbCircle
 10
183.6429794426772
 20
415.3121220024554
 30
0.0
 40
1.5
100
AcDbArc
 50
270.0
 51
309.1396437644401
  0
LINE
  5
1074F
330
18
100
AcDbEntity
  8
外形線
100
AcDbLine
 10
107.1429794426772
 20
431.8121220024555
 30
0.0
 11
107.1429794426772
 21
413.8121220024554
 31
0.0
  0
LINE
  5
10750
330
18
100
AcDbEntity
  8
外形線
100
AcDbLine
 10
87.14297944267718
 20
430.3121220024554
 30
0.0
 11
87.14297944267721
 21
415.3121220024555
 31
0.0
  0
ARC
  5
10751
330
18
100
AcDbEntity
  8
外形線
100
AcDbCircle
 10
88.64297944267722
 20
415.3121220024555
 30
0.0
 40
1.5
100
AcDbArc
 50
180.0
 51
270.0
  0
LINE
  5
10752
330
18
100
AcDbEntity
  8
外形線
100
AcDbLine
 10
122.1429794426772
 20
431.8121220024554
 30
0.0
 11
102.4344820648063
 21
431.8121220024555
 31
0.0
  0
ARC
  5
10753
330
18
100
AcDbEntity
  8
外形線
100
AcDbCircle
 10
88.64297944267718
 20
430.3121220024554
 30
0.0
 40
1.5
100
AcDbArc
 50
90.0
 51
180.0
  0
LINE
  5
10754
330
18
100
AcDbEntity
  8
外形線
100
AcDbLine
 10
156.2740361537803
 20
455.2162751757832
 30
0.0
 11
122.1429794426772
 21
431.8121220024554
 31
0.0
  0
ARC
  5
10755
330
18
100
AcDbEntity
  8
外形線
100
AcDbCircle
 10
155.1429794426772
 20
456.8657328794753
 30
0.0
 40
2.0
100
AcDbArc
 50
304.4389893088034
 51
0.0
  0
LINE
  5
10756
330
18
100
AcDbEntity
  8
中心線
 48
0.9
100
AcDbLine
 10
97.1429794426772
 20
438.1450151877205
 30
0.0
 11
97.14297944267721
 21
321.6268207168997
 31
0.0
  0
LINE
  5
10757
330
18
100
AcDbEntity
  8
隠れ線2
100
AcDbLine
 10
90.89297944267721
 20
431.8121220024555
 30
0.0
 11
90.89297944267721
 21
430.8121220024554
 31
0.0
  0
LINE
  5
10758
330
18
100
AcDbEntity
  8
隠れ線2
100
AcDbLine
 10
103.3929794426772
 20
431.8121220024554
 30
0.0
 11
103.3929794426772
 21
430.8121220024554
 31
0.0
  0
LINE
  5
10759
330
18
100
AcDbEntity
  8
隠れ線2
100
AcDbLine
 10
103.3929794426772
 20
430.8121220024554
 30
0.0
 11
103.3879774410755
 21
430.8121220024555
 31
0.0
  0
LINE
  5
1075A
330
18
100
AcDbEntity
  8
隠れ線2
100
AcDbLine
 10
90.89798144427879
 20
430.8121220024554
 30
0.0
 11
90.89297944267721
 21
430.8121220024554
 31
0.0
  0
LINE
  5
10762
330
18
100
AcDbEntity
  8
中心線
100
AcDbLine
 10
-40.89144454008845
 20
514.9880276325143
 30
0.0
 11
-40.89144454008845
 21
321.6268207168997
 31
0.0
  0
LINE
  5
10763
330
18
100
AcDbEntity
  8
外形線
100
AcDbLine
 10
-40.89144454008845
 20
292.1879677085079
 30
0.0
 11
-1.8914445400884
 21
292.1879677085079
 31
0.0
  0
LINE
  5
10764
330
18
100
AcDbEntity
  8
外形線
100
AcDbLine
 10
9.108555459911542
 20
290.1879677085079
 30
0.0
 11
6.295251657806829
 21
332.3875247400792
 31
0.0
  0
LINE
  5
10765
330
18
100
AcDbEntity
  8
外形線
100
AcDbLine
 10
-0.8914445400884005
 20
290.1879677085079
 30
0.0
 11
9.108555459911542
 21
290.1879677085079
 31
0.0
  0
ARC
  5
10766
330
18
100
AcDbEntity
  8
外形線
100
AcDbCircle
 10
-1.8914445400884
 20
291.1879677085079
 30
0.0
 40
1.0
100
AcDbArc
 50
0.0
 51
90.0
  0
LINE
  5
10767
330
18
100
AcDbEntity
  8
外形線
100
AcDbLine
 10
-0.8914445400884005
 20
291.1879677085079
 30
0.0
 11
-0.8914445400884005
 21
290.1879677085079
 31
0.0
  0
LINE
  5
1076B
330
18
100
AcDbEntity
  8
外形線
100
AcDbLine
 10
-18.89144454008857
 20
335.1879677085079
 30
0.0
 11
-40.89144454008851
 21
335.1879677085079
 31
0.0
  0
LINE
  5
1076D
330
18
100
AcDbEntity
  8
外形線
100
AcDbLine
 10
-60.89144454008845
 20
338.1879677085079
 30
0.0
 11
-60.8914445400884
 21
337.1879677085079
 31
0.0
  0
ARC
  5
1076E
330
18
100
AcDbEntity
  8
外形線
100
AcDbCircle
 10
-62.8914445400884
 20
337.1879677085079
 30
0.0
 40
2.0
100
AcDbArc
 50
270.0
 51
0.0
  0
ARC
  5
10771
330
18
100
AcDbEntity
  8
外形線
100
AcDbCircle
 10
3.301896184237023
 20
332.1879677085079
 30
0.0
 40
3.0
100
AcDbArc
 50
3.814074834289812
 51
90.0
  0
LINE
  5
10773
330
18
100
AcDbEntity
  8
外形線
100
AcDbLine
 10
-18.89144454008857
 20
335.1879677085079
 30
0.0
 11
3.301896184237023
 21
335.187967708508
 31
0.0
  0
LINE
  5
10774
330
18
100
AcDbEntity
  8
外形線
100
AcDbLine
 10
-20.89144454008857
 20
338.1879677085079
 30
0.0
 11
-20.89144454008857
 21
337.1879677085079
 31
0.0
  0
ARC
  5
10775
330
18
100
AcDbEntity
  8
外形線
100
AcDbCircle
 10
-18.89144454008857
 20
337.1879677085079
 30
0.0
 40
2.0
100
AcDbArc
 50
180.0
 51
270.0
  0
ARC
  5
10776
330
18
100
AcDbEntity
  8
外形線
100
AcDbCircle
 10
-22.89144454008857
 20
338.1879677085079
 30
0.0
 40
2.0
100
AcDbArc
 50
0.0
 51
90.0
  0
LINE
  5
10778
330
18
100
AcDbEntity
  8
外形線
100
AcDbLine
 10
-90.89144454008845
 20
290.1879677085079
 30
0.0
 11
-88.07814073798374
 21
332.3875247400792
 31
0.0
  0
LINE
  5
10779
330
18
100
AcDbEntity
  8
外形線
100
AcDbLine
 10
-40.89144454008845
 20
292.1879677085079
 30
0.0
 11
-79.89144454008851
 21
292.1879677085079
 31
0.0
  0
LINE
  5
1077A
330
18
100
AcDbEntity
  8
外形線
100
AcDbLine
 10
-80.89144454008851
 20
290.1879677085079
 30
0.0
 11
-90.89144454008845
 21
290.1879677085079
 31
0.0
  0
ARC
  5
1077B
330
18
100
AcDbEntity
  8
外形線
100
AcDbCircle
 10
-79.89144454008851
 20
291.1879677085079
 30
0.0
 40
1.0
100
AcDbArc
 50
90.0
 51
180.0
  0
LINE
  5
1077C
330
18
100
AcDbEntity
  8
外形線
100
AcDbLine
 10
-80.89144454008851
 20
291.1879677085079
 30
0.0
 11
-80.89144454008851
 21
290.1879677085079
 31
0.0
  0
LINE
  5
1077D
330
18
100
AcDbEntity
  8
外形線
100
AcDbLine
 10
-62.89144454008834
 20
335.1879677085079
 30
0.0
 11
-85.08478526441393
 21
335.187967708508
 31
0.0
  0
LINE
  5
1077E
330
18
100
AcDbEntity
  8
外形線
100
AcDbLine
 10
-62.89144454008834
 20
335.1879677085079
 30
0.0
 11
-40.8914445400884
 21
335.1879677085079
 31
0.0
  0
ARC
  5
1077F
330
18
100
AcDbEntity
  8
外形線
100
AcDbCircle
 10
-85.08478526441393
 20
332.1879677085079
 30
0.0
 40
3.0
100
AcDbArc
 50
90.0
 51
176.1859251657102
  0
LINE
  5
10780
330
18
100
AcDbEntity
  8
外形線
100
AcDbLine
 10
-28.3914445400884
 20
508.6879677085079
 30
0.0
 11
-28.3914445400884
 21
459.8121220024555
 31
0.0
  0
LINE
  5
10781
330
18
100
AcDbEntity
  8
外形線
100
AcDbLine
 10
-53.39144454008845
 20
508.6879677085079
 30
0.0
 11
-53.39144454008845
 21
459.8121220024555
 31
0.0
  0
LINE
  5
10782
330
18
100
AcDbEntity
  8
外形線
100
AcDbLine
 10
-51.89144454008846
 20
510.1879677085078
 30
0.0
 11
-29.8914445400884
 21
510.1879677085078
 31
0.0
  0
ARC
  5
10783
330
18
100
AcDbEntity
  8
外形線
100
AcDbCircle
 10
-51.89144454008846
 20
508.6879677085079
 30
0.0
 40
1.5
100
AcDbArc
 50
90.0
 51
180.0
  0
ARC
  5
10784
330
18
100
AcDbEntity
  8
外形線
100
AcDbCircle
 10
-29.8914445400884
 20
508.6879677085079
 30
0.0
 40
1.5
100
AcDbArc
 50
0.0
 51
90.0
  0
LINE
  5
10785
330
18
100
AcDbEntity
  8
外形線
100
AcDbLine
 10
-57.39144454008846
 20
459.8121220024555
 30
0.0
 11
-24.39144454008846
 21
459.8121220024555
 31
0.0
  0
LINE
  5
10786
330
18
100
AcDbEntity
  8
外形線
100
AcDbLine
 10
-57.39144454008846
 20
413.8121220024554
 30
0.0
 11
-24.3914445400884
 21
413.8121220024555
 31
0.0
  0
LINE
  5
10787
330
18
100
AcDbEntity
  8
外形線
100
AcDbLine
 10
-22.89144454008846
 20
458.3121220024556
 30
0.0
 11
-22.8914445400884
 21
415.3121220024555
 31
0.0
  0
LINE
  5
10788
330
18
100
AcDbEntity
  8
外形線
100
AcDbLine
 10
-58.89144454008846
 20
458.3121220024556
 30
0.0
 11
-58.89144454008846
 21
415.3121220024554
 31
0.0
  0
LINE
  5
10789
330
18
100
AcDbEntity
  8
外形線
100
AcDbLine
 10
-28.39144454008846
 20
413.8121220024554
 30
0.0
 11
-28.39144454008846
 21
350.1879677085079
 31
0.0
  0
LINE
  5
1078A
330
18
100
AcDbEntity
  8
外形線
100
AcDbLine
 10
-53.39144454008845
 20
413.8121220024554
 30
0.0
 11
-53.39144454008845
 21
350.1879677085079
 31
0.0
  0
LINE
  5
1078B
330
18
100
AcDbEntity
  8
外形線
100
AcDbLine
 10
-49.39144454008846
 20
431.8121220024555
 30
0.0
 11
-32.39144454008846
 21
431.8121220024555
 31
0.0
  0
LINE
  5
1078C
330
18
100
AcDbEntity
  8
外形線
100
AcDbLine
 10
-30.89144454008846
 20
430.3121220024554
 30
0.0
 11
-30.89144454008846
 21
415.3121220024555
 31
0.0
  0
LINE
  5
1078D
330
18
100
AcDbEntity
  8
外形線
100
AcDbLine
 10
-50.89144454008845
 20
430.3121220024554
 30
0.0
 11
-50.89144454008845
 21
415.3121220024555
 31
0.0
  0
LINE
  5
1078E
330
18
100
AcDbEntity
  8
外形線
100
AcDbLine
 10
-58.89144454008846
 20
455.8121220024554
 30
0.0
 11
-22.89144454008846
 21
455.8121220024555
 31
0.0
  0
ARC
  5
1078F
330
18
100
AcDbEntity
  8
外形線
100
AcDbCircle
 10
-49.39144454008846
 20
430.3121220024554
 30
0.0
 40
1.5
100
AcDbArc
 50
90.0
 51
180.0
  0
ARC
  5
10790
330
18
100
AcDbEntity
  8
外形線
100
AcDbCircle
 10
-32.39144454008846
 20
430.3121220024554
 30
0.0
 40
1.5
100
AcDbArc
 50
0.0
 51
90.0
  0
ARC
  5
10791
330
18
100
AcDbEntity
  8
外形線
100
AcDbCircle
 10
-32.39144454008846
 20
415.3121220024555
 30
0.0
 40
1.5
100
AcDbArc
 50
270.0
 51
0.0
  0
ARC
  5
10792
330
18
100
AcDbEntity
  8
外形線
100
AcDbCircle
 10
-49.39144454008846
 20
415.3121220024555
 30
0.0
 40
1.5
100
AcDbArc
 50
180.0
 51
270.0
  0
LINE
  5
10793
330
18
100
AcDbEntity
  8
外形線
100
AcDbLine
 10
-22.89144454008846
 20
455.8121220024555
 30
0.0
 11
-31.33078436830863
 21
431.3727821742353
 31
0.0
  0
LINE
  5
10794
330
18
100
AcDbEntity
  8
外形線
100
AcDbLine
 10
-58.89144454008846
 20
455.8121220024555
 30
0.0
 11
-50.45210471186829
 21
431.3727821742353
 31
0.0
  0
LINE
  5
10795
330
18
100
AcDbEntity
  8
中心線
100
AcDbLine
 10
-31.0480306916117
 20
436.8121220024554
 30
0.0
 11
18.93568125788155
 21
436.8121220024554
 31
0.0
  0
ARC
  5
10796
330
18
100
AcDbEntity
  8
外形線
100
AcDbCircle
 10
-57.39144454008846
 20
458.3121220024556
 30
0.0
 40
1.5
100
AcDbArc
 50
90.0
 51
180.0
  0
ARC
  5
10797
330
18
100
AcDbEntity
  8
外形線
100
AcDbCircle
 10
-24.39144454008846
 20
458.3121220024556
 30
0.0
 40
1.5
100
AcDbArc
 50
0.0
 51
90.0
  0
ARC
  5
10798
330
18
100
AcDbEntity
  8
外形線
100
AcDbCircle
 10
-24.3914445400884
 20
415.3121220024555
 30
0.0
 40
1.5
100
AcDbArc
 50
270.0
 51
0.0
  0
ARC
  5
10799
330
18
100
AcDbEntity
  8
外形線
100
AcDbCircle
 10
-57.39144454008846
 20
415.3121220024554
 30
0.0
 40
1.5
100
AcDbArc
 50
180.0
 51
270.0
  0
LINE
  5
1079B
330
18
100
AcDbEntity
  8
外形線
100
AcDbLine
 10
-2.8914445400884
 20
300.1879677085079
 30
0.0
 11
-78.89144454008846
 21
300.1879677085079
 31
0.0
  0
LINE
  5
1079C
330
18
100
AcDbEntity
  8
外形線
100
AcDbLine
 10
-2.8914445400884
 20
314.187967708508
 30
0.0
 11
-78.89144454008846
 21
314.1879677085079
 31
0.0
  0
LINE
  5
1079D
330
18
100
AcDbEntity
  8
外形線
100
AcDbLine
 10
-1.8914445400884
 20
313.187967708508
 30
0.0
 11
-1.8914445400884
 21
301.1879677085079
 31
0.0
  0
LINE
  5
1079E
330
18
100
AcDbEntity
  8
外形線
100
AcDbLine
 10
-79.89144454008846
 20
313.1879677085079
 30
0.0
 11
-79.89144454008846
 21
301.1879677085079
 31
0.0
  0
CIRCLE
  5
1079F
330
18
100
AcDbEntity
  8
外形線
100
AcDbCircle
 10
195.1429794426772
 20
436.8121220024554
 30
0.0
 40
25.0
  0
CIRCLE
  5
107A1
330
18
100
AcDbEntity
  8
外形線
100
AcDbCircle
 10
195.1429794426772
 20
436.8121220024554
 30
0.0
 40
11.5
  0
LINE
  5
107A2
330
18
100
AcDbEntity
  8
外形線
100
AcDbLine
 10
-1.391444540088428
 20
461.8121220024554
 30
0.0
 11
13.10855545991154
 21
461.8121220024554
 31
0.0
  0
LINE
  5
107A3
330
18
100
AcDbEntity
  8
外形線
100
AcDbLine
 10
-1.391444540088428
 20
411.8121220024554
 30
0.0
 11
13.1085554599116
 21
411.8121220024554
 31
0.0
  0
LINE
  5
107A4
330
18
100
AcDbEntity
  8
外形線
100
AcDbLine
 10
-15.89144454008845
 20
446.8121220024555
 30
0.0
 11
-15.8914445400884
 21
426.8121220024554
 31
0.0
  0
LINE
  5
107A5
330
18
100
AcDbEntity
  8
外形線
100
AcDbLine
 10
-2.391444540088428
 20
460.8121220024554
 30
0.0
 11
-2.391444540088428
 21
412.8121220024554
 31
0.0
  0
LINE
  5
107A6
330
18
100
AcDbEntity
  8
外形線
100
AcDbLine
 10
14.10855545991154
 20
460.8121220024554
 30
0.0
 11
14.1085554599116
 21
412.8121220024554
 31
0.0
  0
LINE
  5
107A7
330
18
100
AcDbEntity
  8
外形線
100
AcDbLine
 10
-2.391444540088428
 20
460.8121220024554
 30
0.0
 11
-1.391444540088428
 21
461.8121220024554
 31
0.0
  0
LINE
  5
107A8
330
18
100
AcDbEntity
  8
外形線
100
AcDbLine
 10
13.10855545991154
 20
461.8121220024554
 30
0.0
 11
14.10855545991154
 21
460.8121220024554
 31
0.0
  0
LINE
  5
107A9
330
18
100
AcDbEntity
  8
外形線
100
AcDbLine
 10
14.1085554599116
 20
412.8121220024554
 30
0.0
 11
13.1085554599116
 21
411.8121220024554
 31
0.0
  0
LINE
  5
107AA
330
18
100
AcDbEntity
  8
外形線
100
AcDbLine
 10
-1.391444540088428
 20
411.8121220024554
 30
0.0
 11
-2.391444540088428
 21
412.8121220024554
 31
0.0
  0
LINE
  5
107AB
330
18
100
AcDbEntity
  8
外形線
100
AcDbLine
 10
13.10855545991154
 20
461.8121220024554
 30
0.0
 11
13.1085554599116
 21
411.8121220024554
 31
0.0
  0
LINE
  5
107AC
330
18
100
AcDbEntity
  8
外形線
100
AcDbLine
 10
-1.391444540088428
 20
461.8121220024554
 30
0.0
 11
-1.391444540088428
 21
411.8121220024554
 31
0.0
  0
LINE
  5
107AD
330
18
100
AcDbEntity
  8
外形線
100
AcDbLine
 10
-15.89144454008845
 20
446.8121220024555
 30
0.0
 11
-2.3914445400884
 21
446.8121220024555
 31
0.0
  0
LINE
  5
107AE
330
18
100
AcDbEntity
  8
外形線
100
AcDbLine
 10
-15.8914445400884
 20
426.8121220024554
 30
0.0
 11
-2.391444540088428
 21
426.8121220024554
 31
0.0
  0
LINE
  5
107AF
330
18
100
AcDbEntity
  8
外形線
100
AcDbLine
 10
-22.8914445400884
 20
442.8121220024554
 30
0.0
 11
-15.89144454008845
 21
442.8121220024554
 31
0.0
  0
LINE
  5
107B0
330
18
100
AcDbEntity
  8
外形線
100
AcDbLine
 10
-22.8914445400884
 20
430.8121220024554
 30
0.0
 11
-15.89144454008845
 21
430.8121220024554
 31
0.0
  0
LINE
  5
107B1
330
18
100
AcDbEntity
  8
外形線
100
AcDbLine
 10
0.3762642709737634
 20
459.3847366847007
 30
0.0
 11
11.34084664884932
 21
459.3847366847007
 31
0.0
  0
LINE
  5
107B2
330
18
100
AcDbEntity
  8
外形線
100
AcDbLine
 10
0.6262642709737634
 20
452.6930089019225
 30
0.0
 11
11.09084664884932
 21
452.6930089019225
 31
0.0
  0
LINE
  5
107B3
330
18
100
AcDbEntity
  8
外形線
100
AcDbLine
 10
0.6262642709737634
 20
454.6930089019225
 30
0.0
 11
11.09084664884932
 21
454.6930089019225
 31
0.0
  0
ARC
  5
107B4
330
18
100
AcDbEntity
  8
外形線
100
AcDbCircle
 10
0.6262642709737634
 20
453.6930089019225
 30
0.0
 40
1.0
100
AcDbArc
 50
90.0
 51
270.0
  0
ARC
  5
107B5
330
18
100
AcDbEntity
  8
外形線
100
AcDbCircle
 10
11.09084664884932
 20
453.6930089019225
 30
0.0
 40
1.0
100
AcDbArc
 50
270.0
 51
90.0
  0
LINE
  5
107B6
330
18
100
AcDbEntity
  8
外形線
100
AcDbLine
 10
0.3762642709737634
 20
457.8847366847006
 30
0.0
 11
11.34084664884932
 21
457.8847366847006
 31
0.0
  0
ARC
  5
107B7
330
18
100
AcDbEntity
  8
外形線
100
AcDbCircle
 10
11.34084664884932
 20
458.6347366847006
 30
0.0
 40
0.75
100
AcDbArc
 50
270.0
 51
90.0
  0
ARC
  5
107B8
330
18
100
AcDbEntity
  8
外形線
100
AcDbCircle
 10
11.34084664884932
 20
458.6347366847006
 30
0.0
 40
0.75
100
AcDbArc
 50
270.0
 51
90.0
  0
ARC
  5
107B9
330
18
100
AcDbEntity
  8
外形線
100
AcDbCircle
 10
0.3762642709737634
 20
458.6347366847006
 30
0.0
 40
0.75
100
AcDbArc
 50
90.0
 51
270.0
  0
LINE
  5
107BA
330
18
100
AcDbEntity
  8
外形線
100
AcDbLine
 10
0.3762642709737634
 20
415.7395073202102
 30
0.0
 11
11.34084664884932
 21
415.7395073202102
 31
0.0
  0
LINE
  5
107BB
330
18
100
AcDbEntity
  8
外形線
100
AcDbLine
 10
0.3762642709737634
 20
414.2395073202102
 30
0.0
 11
11.34084664884932
 21
414.2395073202102
 31
0.0
  0
LINE
  5
107BC
330
18
100
AcDbEntity
  8
外形線
100
AcDbLine
 10
0.6262642709737634
 20
418.9312351029883
 30
0.0
 11
11.09084664884932
 21
418.9312351029883
 31
0.0
  0
LINE
  5
107BD
330
18
100
AcDbEntity
  8
外形線
100
AcDbLine
 10
0.6262642709737634
 20
420.9312351029883
 30
0.0
 11
11.09084664884932
 21
420.9312351029883
 31
0.0
  0
ARC
  5
107BE
330
18
100
AcDbEntity
  8
外形線
100
AcDbCircle
 10
0.6262642709737634
 20
419.9312351029883
 30
0.0
 40
1.0
100
AcDbArc
 50
90.0
 51
270.0
  0
ARC
  5
107BF
330
18
100
AcDbEntity
  8
外形線
100
AcDbCircle
 10
0.3762642709737634
 20
414.9895073202102
 30
0.0
 40
0.75
100
AcDbArc
 50
90.0
 51
270.0
  0
ARC
  5
107C0
330
18
100
AcDbEntity
  8
外形線
100
AcDbCircle
 10
11.34084664884932
 20
414.9895073202102
 30
0.0
 40
0.75
100
AcDbArc
 50
270.0
 51
90.0
  0
ARC
  5
107C1
330
18
100
AcDbEntity
  8
外形線
100
AcDbCircle
 10
11.34084664884932
 20
414.9895073202102
 30
0.0
 40
0.75
100
AcDbArc
 50
270.0
 51
90.0
  0
ARC
  5
107C2
330
18
100
AcDbEntity
  8
外形線
100
AcDbCircle
 10
11.09084664884932
 20
419.9312351029883
 30
0.0
 40
1.0
100
AcDbArc
 50
270.0
 51
90.0
  0
LINE
  5
107C4
330
18
100
AcDbEntity
  8
外形線
100
AcDbLine
 10
-26.89144454008846
 20
433.8121220024554
 30
0.0
 11
-23.89144454008846
 21
433.8121220024555
 31
0.0
  0
LINE
  5
107C5
330
18
100
AcDbEntity
  8
外形線
100
AcDbLine
 10
-26.89144454008846
 20
417.8121220024555
 30
0.0
 11
-23.89144454008846
 21
417.8121220024555
 31
0.0
  0
LINE
  5
107C6
330
18
100
AcDbEntity
  8
外形線
100
AcDbLine
 10
-27.39144454008846
 20
433.3121220024554
 30
0.0
 11
-27.39144454008846
 21
418.3121220024555
 31
0.0
  0
LINE
  5
107C7
330
18
100
AcDbEntity
  8
外形線
100
AcDbLine
 10
-23.39144454008846
 20
433.3121220024555
 30
0.0
 11
-23.39144454008846
 21
418.3121220024555
 31
0.0
  0
LINE
  5
107C8
330
18
100
AcDbEntity
  8
外形線
100
AcDbLine
 10
-27.39144454008846
 20
433.3121220024554
 30
0.0
 11
-26.89144454008846
 21
433.8121220024554
 31
0.0
  0
LINE
  5
107C9
330
18
100
AcDbEntity
  8
外形線
100
AcDbLine
 10
-23.89144454008846
 20
433.8121220024555
 30
0.0
 11
-23.39144454008846
 21
433.3121220024555
 31
0.0
  0
LINE
  5
107CA
330
18
100
AcDbEntity
  8
外形線
100
AcDbLine
 10
-23.39144454008846
 20
418.3121220024555
 30
0.0
 11
-23.89144454008846
 21
417.8121220024555
 31
0.0
  0
LINE
  5
107CB
330
18
100
AcDbEntity
  8
外形線
100
AcDbLine
 10
-26.89144454008846
 20
417.8121220024555
 30
0.0
 11
-27.39144454008846
 21
418.3121220024555
 31
0.0
  0
LINE
  5
107CC
330
18
100
AcDbEntity
  8
外形線
100
AcDbLine
 10
-23.89144454008846
 20
433.8121220024555
 30
0.0
 11
-23.89144454008846
 21
417.8121220024555
 31
0.0
  0
LINE
  5
107CD
330
18
100
AcDbEntity
  8
外形線
100
AcDbLine
 10
-26.89144454008846
 20
433.8121220024554
 30
0.0
 11
-26.89144454008846
 21
417.8121220024555
 31
0.0
  0
LINE
  5
107CE
330
18
100
AcDbEntity
  8
外形線
100
AcDbLine
 10
-30.89144454008846
 20
427.8121220024554
 30
0.0
 11
-27.39144454008846
 21
427.8121220024554
 31
0.0
  0
LINE
  5
107CF
330
18
100
AcDbEntity
  8
外形線
100
AcDbLine
 10
-30.89144454008846
 20
423.8121220024555
 30
0.0
 11
-27.39144454008846
 21
423.8121220024555
 31
0.0
  0
DIMENSION
  5
107D2
330
18
100
AcDbEntity
  8
外形線
100
AcDbDimension
  2
*D89
 10
9.108555459911542
 20
280.6209209965947
 30
0.0
 11
-40.89144454008845
 21
282.4959209965947
 31
0.0
 70
    32
 71
     5
 42
100.0
  3
STYLE3
100
AcDbAlignedDimension
 13
-90.89144454008845
 23
290.1879677085079
 33
0.0
 14
9.108555459911542
 24
290.1879677085079
 34
0.0
100
AcDbRotatedDimension
1001
ACAD
1000
DSTYLE
1002
{
1070
   271
1070
     2
1002
}
  0
DIMENSION
  5
107D3
330
18
100
AcDbEntity
  8
外形線
100
AcDbDimension
  2
*D90
 10
204.1429794426772
 20
280.6209209965947
 30
0.0
 11
134.1429794426772
 21
282.4959209965947
 31
0.0
 70
    32
 71
     5
 42
139.9999999999999
  3
STYLE3
100
AcDbAlignedDimension
 13
64.14297944267727
 23
290.1879677085079
 33
0.0
 14
204.1429794426772
 24
290.1879677085079
 34
0.0
100
AcDbRotatedDimension
1001
ACAD
1000
DSTYLE
1002
{
1070
   271
1070
     2
1002
}
  0
DIMENSION
  5
107D4
330
18
100
AcDbEntity
  8
外形線
100
AcDbDimension
  2
*D91
 10
230.1640180543691
 20
340.1879677085079
 30
0.0
 11
228.2890180543691
 21
315.187967708508
 31
0.0
 70
    32
 71
     5
 42
50.0
  3
STYLE3
100
AcDbAlignedDimension
 13
204.1429794426772
 23
290.1879677085079
 33
0.0
 14
189.1429794426772
 24
340.1879677085079
 34
0.0
 50
90.0
100
AcDbRotatedDimension
1001
ACAD
1000
DSTYLE
1002
{
1070
   271
1070
     2
1002
}
  0
DIMENSION
  5
107D5
330
18
100
AcDbEntity
  8
外形線
100
AcDbDimension
  2
*D92
 10
230.1640180543691
 20
510.1879677085078
 30
0.0
 11
228.2890180543691
 21
425.187967708508
 31
0.0
 70
    32
 71
     5
 42
170.0
  3
STYLE3
100
AcDbAlignedDimension
 13
189.1429794426772
 23
340.1879677085079
 33
0.0
 14
183.1429794426772
 24
510.1879677085078
 34
0.0
 50
90.0
100
AcDbRotatedDimension
1001
ACAD
1000
DSTYLE
1002
{
1070
    75
1070
     1
1070
   271
1070
     2
1070
   279
1070
     1
1002
}
  0
DIMENSION
  5
107D6
330
18
100
AcDbEntity
  8
外形線
100
AcDbDimension
  2
*D93
 10
238.740003145201
 20
290.1879677085079
 30
0.0
 11
236.865003145201
 21
400.187967708508
 31
0.0
 70
    32
 71
     5
 42
220.0
  3
STYLE3
100
AcDbAlignedDimension
 13
231.4140180543692
 23
510.1879677085078
 33
0.0
 14
231.4140180543692
 24
290.1879677085079
 34
0.0
 50
90.0
100
AcDbRotatedDimension
1001
ACAD
1000
DSTYLE
1002
{
1070
   271
1070
     2
1002
}
  0
DIMENSION
  5
107E0
330
18
100
AcDbEntity
  8
外形線
100
AcDbDimension
  2
*D82
 10
70.86522320053638
 20
431.8121220024555
 30
0.0
 11
68.99022320053631
 21
422.8121220024554
 31
0.0
 70
    32
 71
     5
 42
18.0
  3
STYLE3
100
AcDbAlignedDimension
 13
88.64297944267722
 23
413.8121220024554
 33
0.0
 14
88.64297944267718
 24
431.8121220024555
 34
0.0
 50
90.0
100
AcDbRotatedDimension
1001
ACAD
1000
DSTYLE
1002
{
1070
   271
1070
     2
1002
}
  0
DIMENSION
  5
107E1
330
18
100
AcDbEntity
  8
外形線
100
AcDbDimension
  2
*D83
 10
184.6429794426772
 20
372.7264847146474
 30
0.0
 11
172.1429794426772
 21
374.6014847146474
 31
0.0
 70
    32
  1
φ25
 71
     5
 42
25.0
  3
STYLE3
100
AcDbAlignedDimension
 13
159.6429794426772
 23
371.6129420990983
 33
0.0
 14
184.6429794426772
 24
371.8356503553958
 34
0.0
100
AcDbRotatedDimension
1001
ACAD
1000
DSTYLE
1002
{
1070
   271
1070
     2
1002
}
  0
DIMENSION
  5
107E2
330
18
100
AcDbEntity
  8
外形線
100
AcDbDimension
  2
*D84
 10
159.6429794426772
 20
372.7264847146474
 30
0.0
 11
128.3929794426772
 21
374.6014847146474
 31
0.0
 70
    32
 71
     5
 42
62.50000000000006
  3
STYLE3
100
AcDbAlignedDimension
 13
97.1429794426772
 23
375.6216967157304
 33
0.0
 14
159.6429794426772
 24
378.2941997934852
 34
0.0
100
AcDbRotatedDimension
1001
ACAD
1000
DSTYLE
1002
{
1070
   271
1070
     2
1002
}
  0
DIMENSION
  5
107E3
330
18
100
AcDbEntity
  8
外形線
100
AcDbDimension
  2
*D85
 10
222.50132333318
 20
335.1879677085079
 30
0.0
 11
220.6263233331799
 21
328.7296343751747
 31
0.0
 70
    32
 71
     5
 42
5.0
  3
STYLE3
100
AcDbAlignedDimension
 13
215.0185361584272
 23
340.1879677085079
 33
0.0
 14
198.3363201670027
 24
335.1879677085079
 34
0.0
 50
90.0
100
AcDbRotatedDimension
1001
ACAD
1000
DSTYLE
1002
{
1070
   271
1070
     2
1002
}
  0
CIRCLE
  5
107E4
330
18
100
AcDbEntity
  8
外形線
100
AcDbCircle
 10
97.1429794426772
 20
425.8121220024555
 30
0.0
 40
8.0
  0
CIRCLE
  5
107E5
330
18
100
AcDbEntity
  8
外形線
100
AcDbCircle
 10
97.1429794426772
 20
425.8121220024555
 30
0.0
 40
7.5
  0
LINE
  5
107E6
330
18
100
AcDbEntity
  8
外形線
100
AcDbLine
 10
91.85147682054804
 20
431.8121220024555
 30
0.0
 11
88.64297944267718
 21
431.8121220024555
 31
0.0
  0
DIMENSION
  5
107F2
330
18
100
AcDbEntity
  8
外形線
100
AcDbDimension
  2
*D86
 10
48.41344597288077
 20
350.1879677085079
 30
0.0
 11
46.5384459728807
 21
320.1879677085079
 31
0.0
 70
    32
 71
     5
 42
60.0
  3
STYLE3
100
AcDbAlignedDimension
 13
64.14297944267727
 23
290.1879677085079
 33
0.0
 14
73.14297944267725
 24
350.1879677085079
 34
0.0
 50
90.0
100
AcDbRotatedDimension
1001
ACAD
1000
DSTYLE
1002
{
1070
   271
1070
     2
1002
}
  0
DIMENSION
  5
107F3
330
18
100
AcDbEntity
  8
外形線
100
AcDbDimension
  2
*D87
 10
48.41344597288077
 20
413.8121220024554
 30
0.0
 11
46.53844597288069
 21
382.0000448554818
 31
0.0
 70
    32
  1
MAX110
 71
     5
 42
63.62415429394758
  3
STYLE3
100
AcDbAlignedDimension
 13
73.14297944267725
 23
350.1879677085079
 33
0.0
 14
69.61522320053638
 24
413.8121220024554
 34
0.0
 50
90.0
100
AcDbRotatedDimension
1001
ACAD
1000
DSTYLE
1002
{
1070
    75
1070
     1
1070
   271
1070
     2
1070
   279
1070
     1
1002
}
  0
LINE
  5
107F4
330
18
100
AcDbEntity
  8
外形線
100
AcDbLine
 10
174.1429794426772
 20
294.1610284973926
 30
0.0
 11
174.1429794426772
 21
333.488666872385
 31
0.0
  0
LINE
  5
107F5
330
18
100
AcDbEntity
  8
隠れ線2
100
AcDbLine
 10
-35.89144454008846
 20
430.8121220024554
 30
0.0
 11
-35.89144454008846
 21
413.8121220024555
 31
0.0
  0
LINE
  5
107F6
330
18
100
AcDbEntity
  8
隠れ線2
100
AcDbLine
 10
-45.89144454008845
 20
430.8121220024554
 30
0.0
 11
-45.89144454008845
 21
413.8121220024555
 31
0.0
  0
LINE
  5
107F7
330
18
100
AcDbEntity
  8
隠れ線2
100
AcDbLine
 10
-47.14144454008845
 20
431.8121220024554
 30
0.0
 11
-47.14144454008845
 21
430.8121220024554
 31
0.0
  0
LINE
  5
107F8
330
18
100
AcDbEntity
  8
隠れ線2
100
AcDbLine
 10
-47.14144454008845
 20
430.8121220024554
 30
0.0
 11
-45.89144454008845
 21
430.8121220024554
 31
0.0
  0
LINE
  5
107F9
330
18
100
AcDbEntity
  8
隠れ線2
100
AcDbLine
 10
-34.64144454008846
 20
431.8121220024554
 30
0.0
 11
-34.64144454008846
 21
430.8121220024554
 31
0.0
  0
LINE
  5
107FA
330
18
100
AcDbEntity
  8
隠れ線2
100
AcDbLine
 10
-34.64144454008846
 20
430.8121220024554
 30
0.0
 11
-35.89144454008846
 21
430.8121220024554
 31
0.0
  0
LINE
  5
107FB
330
18
100
AcDbEntity
  8
隠れ線2
100
AcDbLine
 10
101.1429794426772
 20
418.8839187721799
 30
0.0
 11
101.1429794426772
 21
413.8121220024555
 31
0.0
  0
LINE
  5
107FC
330
18
100
AcDbEntity
  8
隠れ線2
100
AcDbLine
 10
93.14297944267721
 20
418.8839187721799
 30
0.0
 11
93.14297944267719
 21
413.8121220024554
 31
0.0
  0
LINE
  5
107FD
330
18
100
AcDbEntity
  8
隠れ線2
100
AcDbLine
 10
102.1429794426772
 20
419.5671240040572
 30
0.0
 11
102.1429794426772
 21
413.8121220024554
 31
0.0
  0
LINE
  5
107FE
330
18
100
AcDbEntity
  8
隠れ線2
100
AcDbLine
 10
92.14297944267718
 20
419.567124004057
 30
0.0
 11
92.14297944267721
 21
413.8121220024554
 31
0.0
  0
LINE
  5
107FF
330
18
100
AcDbEntity
  8
隠れ線2
100
AcDbLine
 10
-36.89144454008846
 20
431.8121220024554
 30
0.0
 11
-36.89144454008846
 21
413.8121220024555
 31
0.0
  0
LINE
  5
10800
330
18
100
AcDbEntity
  8
隠れ線2
100
AcDbLine
 10
-44.89144454008846
 20
431.8121220024554
 30
0.0
 11
-44.89144454008846
 21
413.8121220024555
 31
0.0
  0
DIMENSION
  5
10801
330
18
100
AcDbEntity
  8
外形線
100
AcDbDimension
  2
*D88
 10
-36.89144454008846
 20
439.8222183018032
 30
0.0
 11
-40.89144454008845
 21
441.6972183018032
 31
0.0
 70
    32
  1
φ8
 71
     5
 42
8.0
  3
STYLE3
100
AcDbAlignedDimension
 13
-44.89144454008846
 23
431.8121220024554
 33
0.0
 14
-36.89144454008846
 24
431.8121220024554
 34
0.0
100
AcDbRotatedDimension
1001
ACAD
1000
DSTYLE
1002
{
1070
   271
1070
     2
1002
}
  0
ARC
  5
10802
330
18
100
AcDbEntity
  8
外形線
100
AcDbCircle
 10
-78.89144454008846
 20
313.1879677085079
 30
0.0
 40
1.0
100
AcDbArc
 50
90.0
 51
180.0
  0
ARC
  5
10803
330
18
100
AcDbEntity
  8
外形線
100
AcDbCircle
 10
-2.8914445400884
 20
313.187967708508
 30
0.0
 40
1.0
100
AcDbArc
 50
0.0
 51
90.0
  0
ARC
  5
10804
330
18
100
AcDbEntity
  8
外形線
100
AcDbCircle
 10
-2.8914445400884
 20
301.1879677085079
 30
0.0
 40
1.0
100
AcDbArc
 50
270.0
 51
0.0
  0
ARC
  5
10805
330
18
100
AcDbEntity
  8
外形線
100
AcDbCircle
 10
-78.89144454008846
 20
301.1879677085079
 30
0.0
 40
1.0
100
AcDbArc
 50
180.0
 51
270.0
  0
LINE
  5
10806
330
18
100
AcDbEntity
  8
外形線
100
AcDbLine
 10
-59.89144454008846
 20
307.1879677085079
 30
0.0
 11
-2.8914445400884
 21
307.1879677085079
 31
0.0
  0
LINE
  5
10807
330
18
100
AcDbEntity
  8
外形線
100
AcDbLine
 10
-60.89144454008845
 20
313.1879677085079
 30
0.0
 11
-78.89144454008846
 21
313.1879677085079
 31
0.0
  0
LINE
  5
10808
330
18
100
AcDbEntity
  8
外形線
100
AcDbLine
 10
-2.8914445400884
 20
313.1879677085079
 30
0.0
 11
-2.8914445400884
 21
307.1879677085079
 31
0.0
  0
LINE
  5
10809
330
18
100
AcDbEntity
  8
外形線
100
AcDbLine
 10
-78.89144454008846
 20
313.1879677085079
 30
0.0
 11
-78.89144454008846
 21
301.1879677085079
 31
0.0
  0
LINE
  5
1080A
330
18
100
AcDbEntity
  8
外形線
100
AcDbLine
 10
-60.89144454008845
 20
313.1879677085079
 30
0.0
 11
-60.8914445400884
 21
301.1879677085079
 31
0.0
  0
LINE
  5
1080B
330
18
100
AcDbEntity
  8
外形線
100
AcDbLine
 10
-60.8914445400884
 20
301.1879677085079
 30
0.0
 11
-78.89144454008846
 21
301.1879677085079
 31
0.0
  0
LINE
  5
1080C
330
18
100
AcDbEntity
  8
外形線
100
AcDbLine
 10
-59.89144454008846
 20
313.1879677085079
 30
0.0
 11
-59.89144454008846
 21
307.1879677085079
 31
0.0
  0
LINE
  5
1080D
330
18
100
AcDbEntity
  8
外形線
100
AcDbLine
 10
-2.8914445400884
 20
313.1879677085079
 30
0.0
 11
-59.89144454008846
 21
313.1879677085079
 31
0.0
  0
INSERT
  5
1080E
330
18
100
AcDbEntity
  8
外形線
100
AcDbBlockReference
  2
ROGO
 10
-77.6560942900009
 20
306.29740144848
 30
0.0
 41
0.3999999999999772
 42
0.4000000000000057
 43
0.4
  0
TEXT
  5
1080F
330
18
100
AcDbEntity
  8
文字
100
AcDbText
 10
-57.69254062012163
 20
308.5137101668487
 30
0.0
 40
3.0
  1
DIAL GAUGE STAND
 41
1.35
  7
4
100
AcDbText
  0
TEXT
  5
10810
330
18
100
AcDbEntity
  8
文字
100
AcDbText
 10
-58.68160735453187
 20
302.4662216882742
 30
0.0
 40
2.5
  1
TYPE SIS-6C
 41
1.199999999999999
  7
4
100
AcDbText
  0
TEXT
  5
10811
330
18
100
AcDbEntity
  8
文字
100
AcDbText
 10
-31.08608273943736
 20
302.9891079384247
 30
0.0
 40
2.299999999999999
  1
NO.
 41
1.3
  7
4
100
AcDbText
  0
LINE
  5
10812
330
18
100
AcDbEntity
  8
文字
100
AcDbLine
 10
-31.16769524415162
 20
302.418250163124
 30
0.0
 11
-2.8914445400884
 21
302.418250163124
 31
0.0
  0
LINE
  5
10813
330
18
100
AcDbEntity
  8
文字
100
AcDbLine
 10
-31.16769524415162
 20
302.118250163124
 30
0.0
 11
-2.8914445400884
 21
302.118250163124
 31
0.0
  0
LINE
  5
10814
330
18
100
AcDbEntity
  8
文字
100
AcDbLine
 10
-2.8914445400884
 20
302.418250163124
 30
0.0
 11
-2.8914445400884
 21
302.118250163124
 31
0.0
  0
LINE
  5
10815
330
18
100
AcDbEntity
  8
文字
100
AcDbLine
 10
-31.16769524415162
 20
302.418250163124
 30
0.0
 11
-31.16769524415162
 21
302.118250163124
 31
0.0
  0
HATCH
  5
10816
330
18
100
AcDbEntity
  8
文字
100
AcDbHatch
 10
0.0
 20
0.0
 30
0.0
210
0.0
220
0.0
230
1.0
  2
SOLID
 70
     1
 71
     0
 91
        1
 92
        7
 72
     0
 73
     1
 93
        4
 10
-2.891444540088428
 20
302.118250163124
 10
-2.8914445400884
 20
302.418250163124
 10
-31.16769524415162
 20
302.418250163124
 10
-31.16769524415162
 20
302.118250163124
 97
        0
 75
     0
 76
     1
 47
0.0312835946974617
 98
        1
 10
-12.82818985715715
 20
302.2401180961017
450
        0
451
        0
460
0.0
461
0.0
452
        0
462
0.0
453
        0
470

  0
CIRCLE
  5
10915
330
18
100
AcDbEntity
  8
外形線
100
AcDbCircle
 10
195.1429794426772
 20
436.8121220024554
 30
0.0
 40
24.0
  0
LINE
  5
1091E
330
18
100
AcDbEntity
  8
中心線
100
AcDbLine
 10
164.7127275467733
 20
436.8121220024554
 30
0.0
 11
225.5732313385812
 21
436.8121220024554
 31
0.0
  0
LINE
  5
1091F
330
18
100
AcDbEntity
  8
中心線
100
AcDbLine
 10
195.1429794426772
 20
406.3818701065515
 30
0.0
 11
195.1429794426772
 21
467.2423738983593
 31
0.0
  0
LINE
  5
10927
330
18
100
AcDbEntity
  8
中心線
 48
0.5
100
AcDbLine
 10
84.81008625741219
 20
425.8121220024555
 30
0.0
 11
109.4758726279422
 21
425.8121220024555
 31
0.0
  0
LINE
  5
10944
330
18
100
AcDbEntity
  8
中心線
 48
0.5
100
AcDbLine
 10
-38.88883213848584
 20
425.8121220024555
 30
0.0
 11
-20.76611482308243
 21
425.8121220024555
 31
0.0
  0
LINE
  5
10945
330
18
100
AcDbEntity
  8
外形線
100
AcDbLine
 10
-26.89144454008846
 20
433.8121220024554
 30
0.0
 11
-23.89144454008846
 21
433.8121220024556
 31
0.0
  0
LINE
  5
10946
330
18
100
AcDbEntity
  8
外形線
100
AcDbLine
 10
-27.39144454008846
 20
433.3121220024554
 30
0.0
 11
-26.89144454008846
 21
433.8121220024554
 31
0.0
  0
LINE
  5
10947
330
18
100
AcDbEntity
  8
寸法線
100
AcDbLine
 10
-30.89144454008846
 20
427.3121220024553
 30
0.0
 11
-27.39144454008846
 21
427.3121220024553
 31
0.0
  0
LINE
  5
10948
330
18
100
AcDbEntity
  8
寸法線
100
AcDbLine
 10
-30.89144454008846
 20
424.3121220024556
 30
0.0
 11
-27.39144454008846
 21
424.3121220024556
 31
0.0
  0
LINE
  5
10949
330
18
100
AcDbEntity
  8
寸法線
100
AcDbLine
 10
-23.89144454008846
 20
426.5121498022972
 30
0.0
 11
-26.8914445400884
 21
426.5121498022972
 31
0.0
  0
LINE
  5
1094A
330
18
100
AcDbEntity
  8
寸法線
100
AcDbLine
 10
-23.89144454008846
 20
427.2068072889005
 30
0.0
 11
-26.8914445400884
 21
427.2068072889005
 31
0.0
  0
LINE
  5
1094B
330
18
100
AcDbEntity
  8
寸法線
100
AcDbLine
 10
-23.89144454008846
 20
427.8907653477687
 30
0.0
 11
-26.8914445400884
 21
427.8907653477687
 31
0.0
  0
LINE
  5
1094C
330
18
100
AcDbEntity
  8
寸法線
100
AcDbLine
 10
-23.89144454008846
 20
428.5587769458282
 30
0.0
 11
-26.8914445400884
 21
428.5587769458282
 31
0.0
  0
LINE
  5
1094D
330
18
100
AcDbEntity
  8
寸法線
100
AcDbLine
 10
-23.89144454008846
 20
429.2057173844185
 30
0.0
 11
-26.8914445400884
 21
429.2057173844185
 31
0.0
  0
LINE
  5
1094E
330
18
100
AcDbEntity
  8
寸法線
100
AcDbLine
 10
-23.89144454008846
 20
429.8266236137824
 30
0.0
 11
-26.8914445400884
 21
429.8266236137824
 31
0.0
  0
LINE
  5
1094F
330
18
100
AcDbEntity
  8
寸法線
100
AcDbLine
 10
-23.89144454008846
 20
430.4167323074579
 30
0.0
 11
-26.8914445400884
 21
430.4167323074579
 31
0.0
  0
LINE
  5
10950
330
18
100
AcDbEntity
  8
寸法線
100
AcDbLine
 10
-23.89144454008846
 20
430.9715164044761
 30
0.0
 11
-26.8914445400884
 21
430.9715164044761
 31
0.0
  0
LINE
  5
10951
330
18
100
AcDbEntity
  8
寸法線
100
AcDbLine
 10
-23.89144454008846
 20
431.4867198390334
 30
0.0
 11
-26.8914445400884
 21
431.4867198390334
 31
0.0
  0
LINE
  5
10952
330
18
100
AcDbEntity
  8
寸法線
100
AcDbLine
 10
-23.89144454008846
 20
431.9583901912033
 30
0.0
 11
-26.8914445400884
 21
431.9583901912033
 31
0.0
  0
LINE
  5
10953
330
18
100
AcDbEntity
  8
寸法線
100
AcDbLine
 10
-23.89144454008846
 20
432.3829090082091
 30
0.0
 11
-26.8914445400884
 21
432.3829090082091
 31
0.0
  0
LINE
  5
10954
330
18
100
AcDbEntity
  8
寸法線
100
AcDbLine
 10
-23.89144454008846
 20
432.757019563641
 30
0.0
 11
-26.8914445400884
 21
432.757019563641
 31
0.0
  0
LINE
  5
10955
330
18
100
AcDbEntity
  8
寸法線
100
AcDbLine
 10
-23.89144454008846
 20
433.0778518416676
 30
0.0
 11
-26.8914445400884
 21
433.0778518416677
 31
0.0
  0
LINE
  5
10956
330
18
100
AcDbEntity
  8
寸法線
100
AcDbLine
 10
-23.89144454008846
 20
433.3429445545649
 30
0.0
 11
-26.8914445400884
 21
433.3429445545649
 31
0.0
  0
LINE
  5
10957
330
18
100
AcDbEntity
  8
寸法線
100
AcDbLine
 10
-23.89144454008846
 20
433.5502640246623
 30
0.0
 11
-26.8914445400884
 21
433.5502640246623
 31
0.0
  0
LINE
  5
10958
330
18
100
AcDbEntity
  8
寸法線
100
AcDbLine
 10
-23.89144454008846
 20
433.6982197858452
 30
0.0
 11
-26.8914445400884
 21
433.6982197858452
 31
0.0
  0
LINE
  5
10970
330
18
100
AcDbEntity
  8
外形線
100
AcDbLine
 10
77.14297944267719
 20
344.6879677085079
 30
0.0
 11
77.14297944267719
 21
340.6879677085079
 31
0.0
  0
LINE
  5
10971
330
18
100
AcDbEntity
  8
外形線
100
AcDbLine
 10
77.14297944267719
 20
344.6879677085079
 30
0.0
 11
77.64297944267719
 21
345.1879677085079
 31
0.0
  0
LINE
  5
10972
330
18
100
AcDbEntity
  8
外形線
100
AcDbLine
 10
77.64297944267719
 20
340.1879677085079
 30
0.0
 11
116.6429794426773
 21
340.1879677085079
 31
0.0
  0
LINE
  5
10973
330
18
100
AcDbEntity
  8
外形線
100
AcDbLine
 10
77.64297944267719
 20
340.1879677085079
 30
0.0
 11
77.14297944267719
 21
340.6879677085079
 31
0.0
  0
LINE
  5
10974
330
18
100
AcDbEntity
  8
外形線
100
AcDbLine
 10
117.1429794426772
 20
344.6879677085078
 30
0.0
 11
117.1429794426772
 21
340.6879677085078
 31
0.0
  0
LINE
  5
10975
330
18
100
AcDbEntity
  8
外形線
100
AcDbLine
 10
117.1429794426772
 20
344.6879677085078
 30
0.0
 11
116.6429794426772
 21
345.1879677085078
 31
0.0
  0
LINE
  5
10976
330
18
100
AcDbEntity
  8
外形線
100
AcDbLine
 10
116.6429794426772
 20
340.1879677085078
 30
0.0
 11
117.1429794426772
 21
340.6879677085078
 31
0.0
  0
LINE
  5
10977
330
18
100
AcDbEntity
  8
外形線
100
AcDbLine
 10
72.64297944267719
 20
350.1879677085077
 30
0.0
 11
121.6429794426772
 21
350.1879677085081
 31
0.0
  0
LINE
  5
10978
330
18
100
AcDbEntity
  8
外形線
100
AcDbLine
 10
72.14297944267719
 20
349.6879677085077
 30
0.0
 11
72.14297944267719
 21
345.1879677085077
 31
0.0
  0
LINE
  5
10979
330
18
100
AcDbEntity
  8
外形線
100
AcDbLine
 10
122.1429794426772
 20
349.687967708508
 30
0.0
 11
122.1429794426772
 21
345.187967708508
 31
0.0
  0
LINE
  5
1097A
330
18
100
AcDbEntity
  8
外形線
100
AcDbLine
 10
122.1429794426772
 20
349.687967708508
 30
0.0
 11
121.6429794426772
 21
350.1879677085081
 31
0.0
  0
LINE
  5
1097B
330
18
100
AcDbEntity
  8
外形線
100
AcDbLine
 10
72.14297944267719
 20
349.6879677085077
 30
0.0
 11
122.1429794426775
 21
349.6879677085077
 31
0.0
  0
LINE
  5
1097C
330
18
100
AcDbEntity
  8
外形線
100
AcDbLine
 10
72.14297944267719
 20
345.1879677085077
 30
0.0
 11
122.1429794426772
 21
345.187967708508
 31
0.0
  0
LINE
  5
1097D
330
18
100
AcDbEntity
  8
外形線
100
AcDbLine
 10
77.14297944267719
 20
344.6879677085079
 30
0.0
 11
117.1429794426772
 21
344.6879677085078
 31
0.0
  0
LINE
  5
1097E
330
18
100
AcDbEntity
  8
外形線
100
AcDbLine
 10
77.14297944267719
 20
340.6879677085079
 30
0.0
 11
117.1429794426772
 21
340.6879677085079
 31
0.0
  0
LINE
  5
1097F
330
18
100
AcDbEntity
  8
外形線
100
AcDbLine
 10
72.14297944267724
 20
349.6879677085079
 30
0.0
 11
72.64297944267724
 21
350.1879677085079
 31
0.0
  0
LINE
  5
10998
330
18
100
AcDbEntity
  8
外形線
100
AcDbLine
 10
-60.89144454008852
 20
344.6879677085079
 30
0.0
 11
-60.89144454008852
 21
340.6879677085079
 31
0.0
  0
LINE
  5
10999
330
18
100
AcDbEntity
  8
外形線
100
AcDbLine
 10
-60.89144454008852
 20
344.6879677085079
 30
0.0
 11
-60.39144454008853
 21
345.1879677085079
 31
0.0
  0
LINE
  5
1099A
330
18
100
AcDbEntity
  8
外形線
100
AcDbLine
 10
-60.39144454008853
 20
340.1879677085079
 30
0.0
 11
-21.39144454008842
 21
340.1879677085079
 31
0.0
  0
LINE
  5
1099B
330
18
100
AcDbEntity
  8
外形線
100
AcDbLine
 10
-60.39144454008853
 20
340.1879677085079
 30
0.0
 11
-60.89144454008852
 21
340.6879677085079
 31
0.0
  0
LINE
  5
1099C
330
18
100
AcDbEntity
  8
外形線
100
AcDbLine
 10
-20.89144454008853
 20
344.6879677085078
 30
0.0
 11
-20.89144454008853
 21
340.6879677085078
 31
0.0
  0
LINE
  5
1099D
330
18
100
AcDbEntity
  8
外形線
100
AcDbLine
 10
-20.89144454008853
 20
344.6879677085078
 30
0.0
 11
-21.39144454008853
 21
345.1879677085078
 31
0.0
  0
LINE
  5
1099E
330
18
100
AcDbEntity
  8
外形線
100
AcDbLine
 10
-21.39144454008853
 20
340.1879677085078
 30
0.0
 11
-20.89144454008853
 21
340.6879677085078
 31
0.0
  0
LINE
  5
1099F
330
18
100
AcDbEntity
  8
外形線
100
AcDbLine
 10
-65.39144454008853
 20
350.1879677085077
 30
0.0
 11
-16.39144454008854
 21
350.1879677085081
 31
0.0
  0
LINE
  5
109A0
330
18
100
AcDbEntity
  8
外形線
100
AcDbLine
 10
-65.89144454008852
 20
349.6879677085077
 30
0.0
 11
-65.89144454008852
 21
345.1879677085077
 31
0.0
  0
LINE
  5
109A1
330
18
100
AcDbEntity
  8
外形線
100
AcDbLine
 10
-15.89144454008854
 20
349.687967708508
 30
0.0
 11
-15.89144454008854
 21
345.187967708508
 31
0.0
  0
LINE
  5
109A2
330
18
100
AcDbEntity
  8
外形線
100
AcDbLine
 10
-15.89144454008854
 20
349.687967708508
 30
0.0
 11
-16.39144454008854
 21
350.1879677085081
 31
0.0
  0
LINE
  5
109A3
330
18
100
AcDbEntity
  8
外形線
100
AcDbLine
 10
-65.89144454008852
 20
349.6879677085077
 30
0.0
 11
-15.8914445400882
 21
349.6879677085077
 31
0.0
  0
LINE
  5
109A4
330
18
100
AcDbEntity
  8
外形線
100
AcDbLine
 10
-65.89144454008852
 20
345.1879677085077
 30
0.0
 11
-15.89144454008854
 21
345.187967708508
 31
0.0
  0
LINE
  5
109A5
330
18
100
AcDbEntity
  8
外形線
100
AcDbLine
 10
-60.89144454008852
 20
344.6879677085079
 30
0.0
 11
-20.89144454008853
 21
344.6879677085078
 31
0.0
  0
LINE
  5
109A6
330
18
100
AcDbEntity
  8
外形線
100
AcDbLine
 10
-60.89144454008852
 20
340.6879677085079
 30
0.0
 11
-20.89144454008853
 21
340.6879677085079
 31
0.0
  0
LINE
  5
109A7
330
18
100
AcDbEntity
  8
外形線
100
AcDbLine
 10
-65.89144454008849
 20
349.6879677085079
 30
0.0
 11
-65.39144454008848
 21
350.1879677085079
 31
0.0
  0
ARC
  5
109A8
330
18
100
AcDbEntity
  8
外形線
100
AcDbCircle
 10
-58.89144454008821
 20
338.187967708508
 30
0.0
 40
2.0
100
AcDbArc
 50
89.99999999999971
 51
179.9999999999997
  0
DIMENSION
  5
109CE
330
18
100
AcDbEntity
  8
外形線
100
AcDbDimension
  2
*D94
 10
72.1429794426772
 20
360.1885008157088
 30
0.0
 11
97.14297944267736
 21
362.0635008157088
 31
0.0
 70
    32
  1
φ<>
 71
     5
 42
50.00000000000032
  3
STYLE3
100
AcDbAlignedDimension
 13
122.1429794426775
 23
349.6879677085077
 33
0.0
 14
72.1429794426772
 24
349.6879677085077
 34
0.0
100
AcDbRotatedDimension
  0
LINE
  5
10B1C
330
18
100
AcDbEntity
  8
外形線
100
AcDbLine
 10
15.60451202870439
 20
511.0994330012577
 30
0.0
 11
120.7711454862488
 21
510.919077674049
 31
0.0
  0
TEXT
  5
10B1D
330
18
100
AcDbEntity
  8
文字
  6
Continuous
100
AcDbText
 10
16.02342702870439
 20
513.6117460012577
 30
0.0
 40
4.0
  1
Model No.SIS-6C Dial Gauge Stand
  7
STYLE3
100
AcDbText
  0
TEXT
  5
10B1E
330
18
100
AcDbEntity
  8
0
  6
Continuous
100
AcDbText
 10
223.460306476177
 20
248.8998282889882
 30
0.0
 40
3.0
  1
株式会社　尾崎製作所
  7
STYLE3
100
AcDbText
  0
TEXT
  5
10B1F
330
18
100
AcDbEntity
  8
0
  6
Continuous
100
AcDbText
 10
121.837537476177
 20
258.8059642889882
 30
0.0
 40
3.5
  1
仕様及び外観は予告なく変更される場合がございますのでご了承下さい。
  7
STYLE3
100
AcDbText
  0
TEXT
  5
10B20
330
18
100
AcDbEntity
  8
0
  6
Continuous
100
AcDbText
 10
121.5460434761769
 20
254.8768162889882
 30
0.0
 40
2.1
  1
Design and specifications are subject to change without notice for future improvement.
  7
STYLE3
100
AcDbText
  0
LINE
  5
10B21
330
18
100
AcDbEntity
  8
外形線
100
AcDbLine
 10
120.0885764761768
 20
252.9788252889883
 30
0.0
 11
260.879994476177
 21
252.9788252889883
 31
0.0
  0
LINE
  5
10B22
330
18
100
AcDbEntity
  8
外形線
100
AcDbLine
 10
120.0885764761768
 20
263.7590312889882
 30
0.0
 11
260.879994476177
 21
263.7590312889882
 31
0.0
  0
TEXT
  5
10B23
330
18
100
AcDbEntity
  8
0
  6
Continuous
100
AcDbText
 10
156.988494476177
 20
245.1121892889883
 30
0.0
 40
2.1
  1
Unit
  7
STYLE3
100
AcDbText
  0
TEXT
  5
10B24
330
18
100
AcDbEntity
  8
0
  6
Continuous
100
AcDbText
 10
156.816773476177
 20
248.6144252889882
 30
0.0
 40
3.0
  1
単位
  7
STYLE3
100
AcDbText
  0
LINE
  5
10B25
330
18
100
AcDbEntity
  8
外形線
100
AcDbLine
 10
155.3593034761768
 20
252.9788252889883
 30
0.0
 11
155.3593034761768
 21
243.3640472889882
 31
0.0
  0
LINE
  5
10B26
330
18
100
AcDbEntity
  8
外形線
100
AcDbLine
 10
120.0885764761768
 20
243.3640472889882
 30
0.0
 11
120.0885764761768
 21
263.7590312889882
 31
0.0
  0
TEXT
  5
10B27
330
18
100
AcDbEntity
  8
0
  6
Continuous
100
AcDbText
 10
123.8779944761768
 20
248.6084712889882
 30
0.0
 40
3.0
  1
三　　角　　法
  7
STYLE3
100
AcDbText
  0
TEXT
  5
10B28
330
18
100
AcDbEntity
  8
0
  6
Continuous
100
AcDbText
 10
121.254552476177
 20
245.1121882889883
 30
0.0
 40
2.1
  1
3RD Angle Projection
  7
STYLE3
100
AcDbText
  0
LINE
  5
10B29
330
18
100
AcDbEntity
  8
外形線
100
AcDbLine
 10
172.8489214761768
 20
252.9788252889883
 30
0.0
 11
172.8489214761768
 21
243.3640472889882
 31
0.0
  0
LINE
  5
10B2A
330
18
100
AcDbEntity
  8
外形線
100
AcDbLine
 10
192.3789934761769
 20
252.9788252889883
 30
0.0
 11
192.3789934761769
 21
243.3640472889882
 31
0.0
  0
LINE
  5
10B2B
330
18
100
AcDbEntity
  8
外形線
100
AcDbLine
 10
222.111343476177
 20
252.9788252889883
 30
0.0
 11
222.111343476177
 21
243.3640472889882
 31
0.0
  0
TEXT
  5
10B2C
330
18
100
AcDbEntity
  8
0
  6
Continuous
100
AcDbText
 10
174.5978844761768
 20
245.4035462889882
 30
0.0
 40
2.1
  1
Scale
  7
STYLE3
100
AcDbText
  0
TEXT
  5
10B2D
330
18
100
AcDbEntity
  8
0
  6
Continuous
100
AcDbText
 10
174.1346694761769
 20
248.3230682889882
 30
0.0
 40
3.0
  1
尺 度
  7
STYLE3
100
AcDbText
  0
TEXT
  5
10B2E
330
18
100
AcDbEntity
  8
0
  6
Continuous
100
AcDbText
 10
164.8588204761769
 20
246.8603312889882
 30
0.0
 40
2.399999999999999
  1
mm
  7
STYLE3
100
AcDbText
  0
TEXT
  5
10B2F
330
18
100
AcDbEntity
  8
0
  6
Continuous
100
AcDbText
 10
184.217173476177
 20
247.1516882889882
 30
0.0
 40
2.399999999999999
  1
1/1
  7
STYLE3
100
AcDbText
  0
TEXT
  5
10B30
330
18
100
AcDbEntity
  8
0
  6
Continuous
100
AcDbText
 10
203.055751476177
 20
246.8603302889882
 30
0.0
 40
2.1
  1
2012.04.22
  7
STYLE3
100
AcDbText
  0
TEXT
  5
10B31
330
18
100
AcDbEntity
  8
0
  6
Continuous
100
AcDbText
 10
193.9275834761769
 20
248.4452732889882
 30
0.0
 40
3.0
  1
日 付
  7
STYLE3
100
AcDbText
  0
TEXT
  5
10B32
330
18
100
AcDbEntity
  8
0
  6
Continuous
100
AcDbText
 10
194.310944476177
 20
245.1121902889882
 30
0.0
 40
2.1
  1
Date
  7
STYLE3
100
AcDbText
  0
TEXT
  5
10B33
330
18
100
AcDbEntity
  8
0
  6
Continuous
100
AcDbText
 10
224.334785476177
 20
245.1121882889883
 30
0.0
 40
2.1
  1
OZAKI MFG. CO., LTD.
  7
STYLE3
100
AcDbText
  0
LINE
  5
10B4C
330
18
100
AcDbEntity
  8
外形線
100
AcDbLine
 10
15.69141591119791
 20
510.0006624568043
 30
0.0
 11
120.8580493687424
 21
509.8203071295955
 31
0.0
  0
VIEWPORT
  5
177
330
15
100
AcDbEntity
 67
     1
  8
0
100
AcDbViewport
 10
148.7981095588714
 20
159.2824826196904
 30
0.0
 40
1006.643174802244
 41
634.8428062195056
 68
     2
 69
     1
 12
148.7981095588714
 22
159.2824826196904
 13
0.0
 23
0.0
 14
10.0
 24
10.0
 15
10.0
 25
10.0
 16
0.0
 26
0.0
 36
1.0
 17
0.0
 27
0.0
 37
0.0
 42
50.0
 43
0.0
 44
0.0
 45
634.8428062195056
 50
0.0
 51
0.0
 72
   100
 90
    32800
  1

281
     0
 71
     1
 74
     0
110
0.0
120
0.0
130
0.0
111
1.0
121
0.0
131
0.0
112
0.0
122
1.0
132
0.0
 79
     0
146
0.0
170
     0
  0
VIEWPORT
  5
D33B
330
15
100
AcDbEntity
 67
     1
  8
外形線
100
AcDbViewport
 10
204.099579334259
 20
142.6315760612488
 30
0.0
 40
326.5593269348144
 41
228.2105216979981
 68
     1
 69
     2
 12
139.2268420062388
 22
345.898025609359
 13
0.0
 23
0.0
 14
10.0
 24
10.0
 15
10.0
 25
10.0
 16
0.0
 26
0.0
 36
1.0
 17
0.0
 27
0.0
 37
0.0
 42
50.0
 43
0.0
 44
0.0
 45
45.64210433959961
 50
0.0
 51
0.0
 72
   100
 90
    32800
  1

281
     0
 71
     1
 74
     0
110
0.0
120
0.0
130
0.0
111
1.0
121
0.0
131
0.0
112
0.0
122
1.0
132
0.0
 79
     0
146
0.0
170
     0
  0
ENDSEC
  0
SECTION
  2
OBJECTS
  0
DICTIONARY
  5
C
330
0
100
AcDbDictionary
281
     1
  3
ACAD_COLOR
350
249C
  3
ACAD_GROUP
350
D
  3
ACAD_LAYOUT
350
249F
  3
ACAD_MATERIAL
350
249B
  3
ACAD_MLINESTYLE
350
1B
  3
ACAD_PLOTSETTINGS
350
24A0
  3
ACAD_PLOTSTYLENAME
350
2499
  3
ACAD_TABLESTYLE
350
249D
  3
AcadDim
350
D902
  3
ACDBVARIABLEDICTIONARY
350
458
  3
DRAWINGVARIABLESDICT
350
7A6
  0
DICTIONARY
  5
C7D2
330
2
100
AcDbDictionary
280
     1
281
     1
  3
ACAD_LAYERFILTERS
360
D936
  3
ACAD_LAYERSTATES
360
C7D3
  0
DICTIONARY
  5
26F5
330
18
100
AcDbDictionary
280
     1
281
     1
  3
ACAD_SORTENTS
360
26F6
  0
DICTIONARY
  5
249C
102
{ACAD_REACTORS
330
C
102
}
330
C
100
AcDbDictionary
281
     1
  0
DICTIONARY
  5
D
102
{ACAD_REACTORS
330
C
102
}
330
C
100
AcDbDictionary
281
     1
  3
*A1
350
EBCC
  3
*A10
350
F6CE
  3
*A11
350
F830
  3
*A12
350
F3AB
  3
*A13
350
F8CB
  3
*A14
350
F87C
  3
*A15
350
F87A
  3
*A16
350
10A5C
  3
*A17
350
F820
  3
*A18
350
F6CF
  3
*A19
350
EFEA
  3
*A2
350
F713
  3
*A20
350
EFE1
  3
*A21
350
F850
  3
*A22
350
F68F
  3
*A23
350
F230
  3
*A24
350
1051D
  3
*A25
350
10A5F
  3
*A26
350
EF3E
  3
*A27
350
F229
  3
*A28
350
F22E
  3
*A29
350
F22F
  3
*A3
350
F68E
  3
*A30
350
F851
  3
*A31
350
EF71
  3
*A32
350
10A83
  3
*A33
350
10A87
  3
*A34
350
F44B
  3
*A35
350
F87B
  3
*A4
350
EE48
  3
*A5
350
EC7A
  3
*A6
350
EF3D
  3
*A7
350
1051C
  3
*A9
350
F84F
  0
DICTIONARY
  5
249F
102
{ACAD_REACTORS
330
C
102
}
330
C
100
AcDbDictionary
281
     1
  3
Model
350
24A1
  3
レイアウト1
350
24A2
  0
DICTIONARY
  5
249B
102
{ACAD_REACTORS
330
C
102
}
330
C
100
AcDbDictionary
281
     1
  0
DICTIONARY
  5
1B
102
{ACAD_REACTORS
330
C
102
}
330
C
100
AcDbDictionary
281
     1
  3
STANDARD
350
1C
  0
DICTIONARY
  5
24A0
102
{ACAD_REACTORS
330
C
102
}
330
C
100
AcDbDictionary
281
     1
  0
ACDBDICTIONARYWDFLT
  5
2499
102
{ACAD_REACTORS
330
C
102
}
330
C
100
AcDbDictionary
281
     1
  3
Normal
350
249A
100
AcDbDictionaryWithDefault
340
249A
  0
DICTIONARY
  5
249D
102
{ACAD_REACTORS
330
C
102
}
330
C
100
AcDbDictionary
281
     1
  3
Standard
350
249E
  0
XRECORD
  5
D902
102
{ACAD_REACTORS
330
C
102
}
330
C
100
AcDbXrecord
280
     1
 90
   990106
  3
OPEN
 60
     0
 61
     0
 62
     4
 63
     4
 64
     1
 65
     0
 66
     0
 67
     3
 68
     1
 69
     0
 70
     0
 71
     1
 72
     0
 40
1.0
170
     2
  0
DICTIONARY
  5
458
102
{ACAD_REACTORS
330
C
102
}
330
C
100
AcDbDictionary
281
     1
  3
CTABLESTYLE
350
24A9
  3
SORTENTS
350
459
  0
DICTIONARY
  5
7A6
102
{ACAD_REACTORS
330
C
102
}
330
C
100
AcDbDictionary
281
     1
1001
DRAWINGVARIABLESXDATA
1000
POLARANG
1000
0.261799387799149410000000
1000
POLARMODE
1000
1
  0
DICTIONARY
  5
D936
102
{ACAD_REACTORS
330
C7D2
102
}
330
C7D2
100
AcDbDictionary
281
     1
  0
DICTIONARY
  5
C7D3
102
{ACAD_REACTORS
330
C7D2
102
}
330
C7D2
100
AcDbDictionary
281
     1
  0
SORTENTSTABLE
  5
26F6
102
{ACAD_REACTORS
330
26F5
102
}
330
26F5
100
AcDbSortentsTable
330
18
331
9C20
  5
9C20
331
C17A
  5
C18B
  0
GROUP
  5
EBCC
102
{ACAD_REACTORS
330
D
102
}
330
D
100
AcDbGroup
300

 70
     1
 71
     1
  0
GROUP
  5
F6CE
102
{ACAD_REACTORS
330
D
102
}
330
D
100
AcDbGroup
300

 70
     1
 71
     1
  0
GROUP
  5
F830
102
{ACAD_REACTORS
330
D
102
}
330
D
100
AcDbGroup
300

 70
     1
 71
     1
  0
GROUP
  5
F3AB
102
{ACAD_REACTORS
330
D
102
}
330
D
100
AcDbGroup
300

 70
     1
 71
     1
  0
GROUP
  5
F8CB
102
{ACAD_REACTORS
330
D
102
}
330
D
100
AcDbGroup
300

 70
     1
 71
     1
  0
GROUP
  5
F87C
102
{ACAD_REACTORS
330
D
102
}
330
D
100
AcDbGroup
300

 70
     1
 71
     1
  0
GROUP
  5
F87A
102
{ACAD_REACTORS
330
D
102
}
330
D
100
AcDbGroup
300

 70
     1
 71
     1
  0
GROUP
  5
10A5C
102
{ACAD_REACTORS
330
D
102
}
330
D
100
AcDbGroup
300

 70
     1
 71
     1
  0
GROUP
  5
F820
102
{ACAD_REACTORS
330
D
102
}
330
D
100
AcDbGroup
300

 70
     1
 71
     1
  0
GROUP
  5
F6CF
102
{ACAD_REACTORS
330
D
102
}
330
D
100
AcDbGroup
300

 70
     1
 71
     1
  0
GROUP
  5
EFEA
102
{ACAD_REACTORS
330
D
102
}
330
D
100
AcDbGroup
300

 70
     1
 71
     1
  0
GROUP
  5
F713
102
{ACAD_REACTORS
330
D
102
}
330
D
100
AcDbGroup
300

 70
     1
 71
     1
  0
GROUP
  5
EFE1
102
{ACAD_REACTORS
330
D
102
}
330
D
100
AcDbGroup
300

 70
     1
 71
     1
  0
GROUP
  5
F850
102
{ACAD_REACTORS
330
D
102
}
330
D
100
AcDbGroup
300

 70
     1
 71
     1
  0
GROUP
  5
F68F
102
{ACAD_REACTORS
330
D
102
}
330
D
100
AcDbGroup
300

 70
     1
 71
     1
  0
GROUP
  5
F230
102
{ACAD_REACTORS
330
D
102
}
330
D
100
AcDbGroup
300

 70
     1
 71
     1
  0
GROUP
  5
1051D
102
{ACAD_REACTORS
330
D
102
}
330
D
100
AcDbGroup
300

 70
     1
 71
     1
  0
GROUP
  5
10A5F
102
{ACAD_REACTORS
330
D
102
}
330
D
100
AcDbGroup
300

 70
     1
 71
     1
  0
GROUP
  5
EF3E
102
{ACAD_REACTORS
330
D
102
}
330
D
100
AcDbGroup
300

 70
     1
 71
     1
  0
GROUP
  5
F229
102
{ACAD_REACTORS
330
D
102
}
330
D
100
AcDbGroup
300

 70
     1
 71
     1
  0
GROUP
  5
F22E
102
{ACAD_REACTORS
330
D
102
}
330
D
100
AcDbGroup
300

 70
     1
 71
     1
  0
GROUP
  5
F22F
102
{ACAD_REACTORS
330
D
102
}
330
D
100
AcDbGroup
300

 70
     1
 71
     1
  0
GROUP
  5
F68E
102
{ACAD_REACTORS
330
D
102
}
330
D
100
AcDbGroup
300

 70
     1
 71
     1
  0
GROUP
  5
F851
102
{ACAD_REACTORS
330
D
102
}
330
D
100
AcDbGroup
300

 70
     1
 71
     1
  0
GROUP
  5
EF71
102
{ACAD_REACTORS
330
D
102
}
330
D
100
AcDbGroup
300

 70
     1
 71
     1
  0
GROUP
  5
10A83
102
{ACAD_REACTORS
330
D
102
}
330
D
100
AcDbGroup
300

 70
     1
 71
     1
  0
GROUP
  5
10A87
102
{ACAD_REACTORS
330
D
102
}
330
D
100
AcDbGroup
300

 70
     1
 71
     1
  0
GROUP
  5
F44B
102
{ACAD_REACTORS
330
D
102
}
330
D
100
AcDbGroup
300

 70
     1
 71
     1
  0
GROUP
  5
F87B
102
{ACAD_REACTORS
330
D
102
}
330
D
100
AcDbGroup
300

 70
     1
 71
     1
  0
GROUP
  5
EE48
102
{ACAD_REACTORS
330
D
102
}
330
D
100
AcDbGroup
300

 70
     1
 71
     1
  0
GROUP
  5
EC7A
102
{ACAD_REACTORS
330
D
102
}
330
D
100
AcDbGroup
300

 70
     1
 71
     1
  0
GROUP
  5
EF3D
102
{ACAD_REACTORS
330
D
102
}
330
D
100
AcDbGroup
300

 70
     1
 71
     1
  0
GROUP
  5
1051C
102
{ACAD_REACTORS
330
D
102
}
330
D
100
AcDbGroup
300

 70
     1
 71
     1
  0
GROUP
  5
F84F
102
{ACAD_REACTORS
330
D
102
}
330
D
100
AcDbGroup
300

 70
     1
 71
     1
  0
LAYOUT
  5
24A1
102
{ACAD_REACTORS
330
249F
102
}
330
249F
100
AcDbPlotSettings
  1

  2
A3 EPSON LP-6100.pc3
  4
A3
  6
OLE1
 40
5.873749732971191
 41
5.873747825622558
 42
5.873748779296875
 43
5.873748779296875
 44
297.0106506347656
 45
419.9466552734374
 46
0.5113545093128665
 47
3.116068673722054
 48
0.0
 49
0.0
140
0.0
141
0.0
142
1.0
143
1.044999999999999
 70
 28324
 72
     1
 73
     1
 74
     1
  7
AutoCad LT 98.ctb
 75
     0
147
0.9603809013217468
 76
     1
 77
     2
 78
   300
148
147.6791370132646
149
-235.4314005405151
100
AcDbLayout
  1
Model
 70
     1
 71
     0
 10
0.0
 20
0.0
 11
12.0
 21
9.0
 12
0.0
 22
0.0
 32
0.0
 14
0.0
 24
0.0
 34
0.0
 15
0.0
 25
0.0
 35
0.0
146
0.0
 13
0.0
 23
0.0
 33
0.0
 16
1.0
 26
0.0
 36
0.0
 17
0.0
 27
1.0
 37
0.0
 76
     0
330
18
1001
ACAD_PSEXT
1000
A3 EPSON LP-6100.pc3
1000
EPSON LP-6100
1000
\\SATO-MATE2
1000

1070
     0
  0
LAYOUT
  5
24A2
102
{ACAD_REACTORS
330
249F
102
}
330
249F
100
AcDbPlotSettings
  1

  2
C:\Documents and Settings\Tikara Sato\Application Data\Autodesk\AutoCAD LT 2004\R9\jpn\plotters\A3 EPSON LP-6100.pc3
  4
A3
  6

 40
5.873749732971191
 41
5.873747825622558
 42
5.873748779296875
 43
5.873748779296875
 44
297.0106506347656
 45
419.9466552734374
 46
0.0
 47
0.0
 48
0.0
 49
0.0
140
0.0
141
0.0
142
1.0
143
1.0
 70
   688
 72
     1
 73
     1
 74
     5
  7
AutoCAD LT 98.ctb
 75
    16
147
1.0
 76
     0
 77
     2
 78
   300
148
0.0
149
0.0
100
AcDbLayout
  1
レイアウト1
 70
     1
 71
     1
 10
-5.873748779296875
 20
-5.873749732971191
 11
414.0729064941406
 21
291.1369009017944
 12
0.0
 22
0.0
 32
0.0
 14
40.81991586685183
 24
28.52631521224976
 34
0.0
 15
367.3792428016662
 25
256.7368369102478
 35
0.0
146
0.0
 13
0.0
 23
0.0
 33
0.0
 16
1.0
 26
0.0
 36
0.0
 17
0.0
 27
1.0
 37
0.0
 76
     0
330
15
331
D33B
  0
MLINESTYLE
  5
1C
102
{ACAD_REACTORS
330
1B
102
}
330
1B
100
AcDbMlineStyle
  2
STANDARD
 70
     0
  3

 62
   256
 51
90.0
 52
90.0
 71
     2
 49
0.5
 62
   256
  6
BYLAYER
 49
-0.5
 62
   256
  6
BYLAYER
  0
ACDBPLACEHOLDER
  5
249A
102
{ACAD_REACTORS
330
2499
102
}
330
2499
  0
ACAD_PROXY_OBJECT
  5
249E
102
{ACAD_REACTORS
330
249D
102
}
330
249D
100
AcDbProxyObject
 90
      499
 91
      504
 95
  2555929
 70
     0
 93
     1849
310
4214DD185B99185C992420000000000000F83F0000000000003E0FC00000000000004901028000000C1008070000C3001FDFF8000000C1003FBFF000000182007F7FE00000030400FEFFC00000060801FDFF8000000C1003FBFF000000182000000000000000C2020B0000001820100E000186003FBFF000000182007F7FE0
310
0000030400FEFFC00000060801FDFF8000000C1003FBFF000000182007F7FE0000003040000000000000012404160000003040201C00030C007F7FE00000030400FEFFC00000060801FDFF8000000C1003FBFF000000182007F7FE00000030400FEFFC000000608000
340
F
340
F
340
F
 94
        0
  0
DICTIONARYVAR
  5
24A9
102
{ACAD_REACTORS
330
458
102
}
330
458
100
DictionaryVariables
280
     0
  1
STANDARD
  0
DICTIONARYVAR
  5
459
102
{ACAD_REACTORS
330
458
102
}
330
458
100
DictionaryVariables
280
     0
  1
96
  0
ENDSEC
  0
EOF
