  0
SECTION
  2
HEADER
  9
$ACADVER
  1
AC1018
  9
$ACADMAINTVER
 70
   104
  9
$DWGCODEPAGE
  3
ANSI_932
  9
$LASTSAVEDBY
  1
Kudo
  9
$INSBASE
 10
0.0
 20
0.0
 30
0.0
  9
$EXTMIN
 10
255.829404545424
 20
176.0716024202789
 30
-0.000000000464407
  9
$EXTMAX
 10
634.1352708537767
 20
459.3717758080568
 30
0.000000005356359
  9
$LIMMIN
 10
0.0
 20
0.0
  9
$LIMMAX
 10
420.0
 20
297.0
  9
$ORTHOMODE
 70
     1
  9
$REGENMODE
 70
     1
  9
$FILLMODE
 70
     1
  9
$QTEXTMODE
 70
     0
  9
$MIRRTEXT
 70
     1
  9
$LTSCALE
 40
1.0
  9
$ATTMODE
 70
     1
  9
$TEXTSIZE
 40
2.0
  9
$TRACEWID
 40
1.0
  9
$TEXTSTYLE
  7
STYLE3
  9
$CLAYER
  8
寸法線
  9
$CELTYPE
  6
BYLAYER
  9
$CECOLOR
 62
   256
  9
$CELTSCALE
 40
1.0
  9
$DISPSILH
 70
     0
  9
$DIMSCALE
 40
1.0
  9
$DIMASZ
 40
2.5
  9
$DIMEXO
 40
0.0
  9
$DIMDLI
 40
3.75
  9
$DIMRND
 40
0.0
  9
$DIMDLE
 40
0.0
  9
$DIMEXE
 40
1.25
  9
$DIMTP
 40
0.0
  9
$DIMTM
 40
0.0
  9
$DIMTXT
 40
2.5
  9
$DIMCEN
 40
2.5
  9
$DIMTSZ
 40
0.0
  9
$DIMTOL
 70
     0
  9
$DIMLIM
 70
     0
  9
$DIMTIH
 70
     0
  9
$DIMTOH
 70
     0
  9
$DIMSE1
 70
     0
  9
$DIMSE2
 70
     0
  9
$DIMTAD
 70
     1
  9
$DIMZIN
 70
     8
  9
$DIMBLK
  1

  9
$DIMASO
 70
     1
  9
$DIMSHO
 70
     1
  9
$DIMPOST
  1

  9
$DIMAPOST
  1

  9
$DIMALT
 70
     0
  9
$DIMALTD
 70
     4
  9
$DIMALTF
 40
0.0394
  9
$DIMLFAC
 40
1.0
  9
$DIMTOFL
 70
     1
  9
$DIMTVP
 40
0.0
  9
$DIMTIX
 70
     0
  9
$DIMSOXD
 70
     0
  9
$DIMSAH
 70
     1
  9
$DIMBLK1
  1
OPEN
  9
$DIMBLK2
  1
OPEN
  9
$DIMSTYLE
  2
STYLE3
  9
$DIMCLRD
 70
     2
  9
$DIMCLRE
 70
     2
  9
$DIMCLRT
 70
     6
  9
$DIMTFAC
 40
1.0
  9
$DIMGAP
 40
0.625
  9
$DIMJUST
 70
     0
  9
$DIMSD1
 70
     0
  9
$DIMSD2
 70
     0
  9
$DIMTOLJ
 70
     1
  9
$DIMTZIN
 70
     0
  9
$DIMALTZ
 70
     0
  9
$DIMALTTZ
 70
     0
  9
$DIMUPT
 70
     0
  9
$DIMDEC
 70
     2
  9
$DIMTDEC
 70
     4
  9
$DIMALTU
 70
     8
  9
$DIMALTTD
 70
     4
  9
$DIMTXSTY
  7
STYLE3
  9
$DIMAUNIT
 70
     0
  9
$DIMADEC
 70
     0
  9
$DIMALTRND
 40
0.0
  9
$DIMAZIN
 70
     0
  9
$DIMDSEP
 70
    46
  9
$DIMATFIT
 70
     3
  9
$DIMFRAC
 70
     0
  9
$DIMLDRBLK
  1

  9
$DIMLUNIT
 70
     2
  9
$DIMLWD
 70
    -2
  9
$DIMLWE
 70
    -2
  9
$DIMTMOVE
 70
     0
  9
$LUNITS
 70
     2
  9
$LUPREC
 70
     4
  9
$SKETCHINC
 40
1.0
  9
$FILLETRAD
 40
3.0
  9
$AUNITS
 70
     0
  9
$AUPREC
 70
     0
  9
$MENU
  1
.
  9
$ELEVATION
 40
0.0
  9
$PELEVATION
 40
0.0
  9
$THICKNESS
 40
0.0
  9
$LIMCHECK
 70
     0
  9
$CHAMFERA
 40
2.0
  9
$CHAMFERB
 40
2.0
  9
$CHAMFERC
 40
20.0
  9
$CHAMFERD
 40
0.0
  9
$SKPOLY
 70
     0
  9
$TDCREATE
 40
2451095.675120023
  9
$TDUCREATE
 40
2451095.300120023
  9
$TDUPDATE
 40
2457830.469027963
  9
$TDUUPDATE
 40
2457830.094027963
  9
$TDINDWG
 40
0.6646471181
  9
$TDUSRTIMER
 40
0.6646471065
  9
$USRTIMER
 70
     1
  9
$ANGBASE
 50
0.0
  9
$ANGDIR
 70
     0
  9
$PDMODE
 70
     0
  9
$PDSIZE
 40
0.0
  9
$PLINEWID
 40
0.0
  9
$SPLFRAME
 70
     0
  9
$SPLINETYPE
 70
     6
  9
$SPLINESEGS
 70
     8
  9
$HANDSEED
  5
B7F
  9
$SURFTAB1
 70
     6
  9
$SURFTAB2
 70
     6
  9
$SURFTYPE
 70
     6
  9
$SURFU
 70
     6
  9
$SURFV
 70
     6
  9
$UCSBASE
  2

  9
$UCSNAME
  2

  9
$UCSORG
 10
0.0
 20
0.0
 30
0.0
  9
$UCSXDIR
 10
1.0
 20
0.0
 30
0.0
  9
$UCSYDIR
 10
0.0
 20
1.0
 30
0.0
  9
$UCSORTHOREF
  2

  9
$UCSORTHOVIEW
 70
     0
  9
$UCSORGTOP
 10
0.0
 20
0.0
 30
0.0
  9
$UCSORGBOTTOM
 10
0.0
 20
0.0
 30
0.0
  9
$UCSORGLEFT
 10
0.0
 20
0.0
 30
0.0
  9
$UCSORGRIGHT
 10
0.0
 20
0.0
 30
0.0
  9
$UCSORGFRONT
 10
0.0
 20
0.0
 30
0.0
  9
$UCSORGBACK
 10
0.0
 20
0.0
 30
0.0
  9
$PUCSBASE
  2

  9
$PUCSNAME
  2

  9
$PUCSORG
 10
0.0
 20
0.0
 30
0.0
  9
$PUCSXDIR
 10
1.0
 20
0.0
 30
0.0
  9
$PUCSYDIR
 10
0.0
 20
1.0
 30
0.0
  9
$PUCSORTHOREF
  2

  9
$PUCSORTHOVIEW
 70
     0
  9
$PUCSORGTOP
 10
0.0
 20
0.0
 30
0.0
  9
$PUCSORGBOTTOM
 10
0.0
 20
0.0
 30
0.0
  9
$PUCSORGLEFT
 10
0.0
 20
0.0
 30
0.0
  9
$PUCSORGRIGHT
 10
0.0
 20
0.0
 30
0.0
  9
$PUCSORGFRONT
 10
0.0
 20
0.0
 30
0.0
  9
$PUCSORGBACK
 10
0.0
 20
0.0
 30
0.0
  9
$USERI1
 70
     0
  9
$USERI2
 70
     0
  9
$USERI3
 70
     0
  9
$USERI4
 70
     0
  9
$USERI5
 70
     0
  9
$USERR1
 40
0.0
  9
$USERR2
 40
0.0
  9
$USERR3
 40
0.0
  9
$USERR4
 40
0.0
  9
$USERR5
 40
0.0
  9
$WORLDVIEW
 70
     1
  9
$SHADEDGE
 70
     3
  9
$SHADEDIF
 70
    70
  9
$TILEMODE
 70
     1
  9
$MAXACTVP
 70
    48
  9
$PINSBASE
 10
0.0
 20
0.0
 30
0.0
  9
$PLIMCHECK
 70
     0
  9
$PEXTMIN
 10
1.000000000000000E+20
 20
1.000000000000000E+20
 30
1.000000000000000E+20
  9
$PEXTMAX
 10
-1.000000000000000E+20
 20
-1.000000000000000E+20
 30
-1.000000000000000E+20
  9
$PLIMMIN
 10
0.0
 20
0.0
  9
$PLIMMAX
 10
420.0
 20
297.0
  9
$UNITMODE
 70
     0
  9
$VISRETAIN
 70
     1
  9
$PLINEGEN
 70
     0
  9
$PSLTSCALE
 70
     1
  9
$TREEDEPTH
 70
  3020
  9
$CMLSTYLE
  2
STANDARD
  9
$CMLJUST
 70
     0
  9
$CMLSCALE
 40
20.0
  9
$PROXYGRAPHICS
 70
     1
  9
$MEASUREMENT
 70
     1
  9
$CELWEIGHT
370
    -1
  9
$ENDCAPS
280
     0
  9
$JOINSTYLE
280
     0
  9
$LWDISPLAY
290
     0
  9
$INSUNITS
 70
     0
  9
$HYPERLINKBASE
  1

  9
$STYLESHEET
  1

  9
$XEDIT
290
     1
  9
$CEPSNTYPE
380
     0
  9
$PSTYLEMODE
290
     1
  9
$FINGERPRINTGUID
  2
{261535E8-1874-4650-BBFE-2769F09783CE}
  9
$VERSIONGUID
  2
{7FAE4DB6-B866-495B-9E4A-946A1CD801E0}
  9
$EXTNAMES
290
     1
  9
$PSVPSCALE
 40
0.0
  9
$OLESTARTUP
290
     0
  9
$SORTENTS
280
    96
  9
$INDEXCTL
280
     0
  9
$HIDETEXT
280
     0
  9
$XCLIPFRAME
290
     0
  9
$HALOGAP
280
     0
  9
$OBSCOLOR
 70
   257
  9
$OBSLTYPE
280
     0
  9
$INTERSECTIONDISPLAY
280
     0
  9
$INTERSECTIONCOLOR
 70
   257
  9
$DIMASSOC
280
     1
  9
$PROJECTNAME
  1

  0
ENDSEC
  0
SECTION
  2
CLASSES
  0
CLASS
  1
DICTIONARYVAR
  2
AcDbDictionaryVar
  3
ObjectDBX Classes
 90
        0
 91
       15
280
     0
281
     0
  0
CLASS
  1
ACDBDICTIONARYWDFLT
  2
AcDbDictionaryWithDefault
  3
ObjectDBX Classes
 90
        0
 91
        1
280
     0
281
     0
  0
CLASS
  1
MATERIAL
  2
AcDbMaterial
  3
ObjectDBX Classes
 90
     1153
 91
        3
280
     0
281
     0
  0
CLASS
  1
VISUALSTYLE
  2
AcDbVisualStyle
  3
ObjectDBX Classes
 90
     4095
 91
       24
280
     0
281
     0
  0
CLASS
  1
TABLESTYLE
  2
AcDbTableStyle
  3
ObjectDBX Classes
 90
     4095
 91
        1
280
     0
281
     0
  0
CLASS
  1
SCALE
  2
AcDbScale
  3
ObjectDBX Classes
 90
     1153
 91
       17
280
     0
281
     0
  0
CLASS
  1
MLEADERSTYLE
  2
AcDbMLeaderStyle
  3
ACDB_MLEADERSTYLE_CLASS
 90
     4095
 91
        1
280
     0
281
     0
  0
CLASS
  1
ACDBSECTIONVIEWSTYLE
  2
AcDbSectionViewStyle
  3
ObjectDBX Classes
 90
     1025
 91
        1
280
     0
281
     0
  0
CLASS
  1
ACDBDETAILVIEWSTYLE
  2
AcDbDetailViewStyle
  3
ObjectDBX Classes
 90
     1025
 91
        1
280
     0
281
     0
  0
CLASS
  1
CELLSTYLEMAP
  2
AcDbCellStyleMap
  3
ObjectDBX Classes
 90
     1152
 91
        1
280
     0
281
     0
  0
ENDSEC
  0
SECTION
  2
TABLES
  0
TABLE
  2
VPORT
  5
8
330
0
100
AcDbSymbolTable
 70
     1
  0
VPORT
  5
A8D
330
8
100
AcDbSymbolTableRecord
100
AcDbViewportTableRecord
  2
*Active
 70
     0
 10
0.0
 20
0.0
 11
1.0
 21
1.0
 12
444.9823376996005
 22
317.7216891141679
 13
0.0
 23
0.0
 14
10.0
 24
10.0
 15
10.0
 25
10.0
 16
0.0
 26
0.0
 36
1.0
 17
0.0
 27
0.0
 37
0.0
 40
285.5485427840128
 41
2.541721854304635
 42
50.0
 43
0.0
 44
0.0
 50
0.0
 51
0.0
 71
     0
 72
   100
 73
     1
 74
     1
 75
     0
 76
     0
 77
     0
 78
     0
281
     0
 65
     1
110
0.0
120
0.0
130
0.0
111
1.0
121
0.0
131
0.0
112
0.0
122
1.0
132
0.0
 79
     0
146
0.0
1001
ACAD_NAV_VCDISPLAY
1070
     3
  0
ENDTAB
  0
TABLE
  2
LTYPE
  5
5
330
0
100
AcDbSymbolTable
 70
     3
  0
LTYPE
  5
12
330
5
100
AcDbSymbolTableRecord
100
AcDbLinetypeTableRecord
  2
BYBLOCK
 70
     0
  3

 72
    65
 73
     0
 40
0.0
  0
LTYPE
  5
13
330
5
100
AcDbSymbolTableRecord
100
AcDbLinetypeTableRecord
  2
BYLAYER
 70
     0
  3

 72
    65
 73
     0
 40
0.0
  0
LTYPE
  5
14
330
5
100
AcDbSymbolTableRecord
100
AcDbLinetypeTableRecord
  2
CONTINUOUS
 70
     0
  3
Solid line
 72
    65
 73
     0
 40
0.0
  0
LTYPE
  5
22
330
5
100
AcDbSymbolTableRecord
100
AcDbLinetypeTableRecord
  2
CENTER2
 70
     0
  3
Center (.5x) ___ _ ___ _ ___ _ ___ _ ___ _ ___
 72
    65
 73
     4
 40
28.575
 49
19.05
 74
     0
 49
-3.174999999999998
 74
     0
 49
3.174999999999998
 74
     0
 49
-3.174999999999998
 74
     0
  0
LTYPE
  5
23
330
5
100
AcDbSymbolTableRecord
100
AcDbLinetypeTableRecord
  2
HIDDEN2
 70
     0
  3
Hidden (.5x) _ _ _ _ _ _ _ _ _ _ _ _ _ _ _ _ _
 72
    65
 73
     2
 40
4.762499999999998
 49
3.174999999999998
 74
     0
 49
-1.587499999999999
 74
     0
  0
ENDTAB
  0
TABLE
  2
LAYER
  5
2
330
0
100
AcDbSymbolTable
 70
    10
  0
LAYER
  5
E
102
{ACAD_XDICTIONARY
360
B2C
102
}
330
2
100
AcDbSymbolTableRecord
100
AcDbLayerTableRecord
  2
0
 70
     0
 62
     7
  6
CONTINUOUS
370
    -3
390
A46
  0
LAYER
  5
25
102
{ACAD_XDICTIONARY
360
B2E
102
}
330
2
100
AcDbSymbolTableRecord
100
AcDbLayerTableRecord
  2
外形線
 70
     0
 62
     7
  6
CONTINUOUS
370
    -3
390
A46
  0
LAYER
  5
26
102
{ACAD_XDICTIONARY
360
B30
102
}
330
2
100
AcDbSymbolTableRecord
100
AcDbLayerTableRecord
  2
寸法線
 70
     0
 62
     2
  6
CONTINUOUS
370
    -3
390
A46
  0
LAYER
  5
27
102
{ACAD_XDICTIONARY
360
B32
102
}
330
2
100
AcDbSymbolTableRecord
100
AcDbLayerTableRecord
  2
中心線
 70
     0
 62
     4
  6
CENTER2
370
    -3
390
A46
  0
LAYER
  5
2A
102
{ACAD_XDICTIONARY
360
B34
102
}
330
2
100
AcDbSymbolTableRecord
100
AcDbLayerTableRecord
  2
ﾊｯﾁﾝｸ
 70
     0
 62
     6
  6
CONTINUOUS
370
    -3
390
A46
  0
LAYER
  5
2B
102
{ACAD_XDICTIONARY
360
B36
102
}
330
2
100
AcDbSymbolTableRecord
100
AcDbLayerTableRecord
  2
文字
 70
     0
 62
     6
  6
CONTINUOUS
370
    -3
390
A46
  0
LAYER
  5
53
330
2
100
AcDbSymbolTableRecord
100
AcDbLayerTableRecord
  2
DEFPOINTS
 70
     0
 62
     7
  6
CONTINUOUS
290
     0
370
    -3
390
A46
  0
LAYER
  5
A5
102
{ACAD_XDICTIONARY
360
B38
102
}
330
2
100
AcDbSymbolTableRecord
100
AcDbLayerTableRecord
  2
C
 70
     0
 62
     7
  6
CONTINUOUS
370
    -3
390
A46
  0
LAYER
  5
1FE
102
{ACAD_XDICTIONARY
360
B3A
102
}
330
2
100
AcDbSymbolTableRecord
100
AcDbLayerTableRecord
  2
隠れ線2
 70
     0
 62
     1
  6
HIDDEN2
370
    -3
390
A46
  0
LAYER
  5
2FA
102
{ACAD_XDICTIONARY
360
B3C
102
}
330
2
100
AcDbSymbolTableRecord
100
AcDbLayerTableRecord
  2
ROGO
 70
     0
 62
     6
  6
CONTINUOUS
370
    -3
390
A46
  0
ENDTAB
  0
TABLE
  2
STYLE
  5
3
330
0
100
AcDbSymbolTable
 70
     3
  0
STYLE
  5
F
330
3
100
AcDbSymbolTableRecord
100
AcDbTextStyleTableRecord
  2
STANDARD
 70
     0
 40
0.0
 41
1.0
 50
0.0
 71
     0
 42
2.5
  3
txt
  4

  0
STYLE
  5
3F
330
3
100
AcDbSymbolTableRecord
100
AcDbTextStyleTableRecord
  2
STYLE3
 70
     0
 40
0.0
 41
1.0
 50
0.0
 71
     0
 42
2.0
  3
romans.shx
  4
bigfont.shx
  0
STYLE
  5
7EA
330
3
100
AcDbSymbolTableRecord
100
AcDbTextStyleTableRecord
  2
4
 70
     0
 40
0.0
 41
1.0
 50
0.0
 71
     0
 42
3.0
  3
MS PGothic.ttf
  4

1001
ACAD
1000
MS PGothic
1071
    32818
  0
ENDTAB
  0
TABLE
  2
VIEW
  5
6
330
0
100
AcDbSymbolTable
 70
     0
  0
ENDTAB
  0
TABLE
  2
UCS
  5
7
330
0
100
AcDbSymbolTable
 70
     0
  0
ENDTAB
  0
TABLE
  2
APPID
  5
9
330
0
100
AcDbSymbolTable
 70
     3
  0
APPID
  5
10
330
9
100
AcDbSymbolTableRecord
100
AcDbRegAppTableRecord
  2
ACAD
 70
     0
  0
APPID
  5
B1D
330
9
100
AcDbSymbolTableRecord
100
AcDbRegAppTableRecord
  2
ACAD_NAV_VCDISPLAY
 70
     0
  0
APPID
  5
B7A
330
9
100
AcDbSymbolTableRecord
100
AcDbRegAppTableRecord
  2
ACAD_MLEADERVER
 70
     0
  0
ENDTAB
  0
TABLE
  2
DIMSTYLE
  5
A
330
0
100
AcDbSymbolTable
 70
     2
100
AcDbDimStyleTable
 71
     0
  0
DIMSTYLE
105
1D
330
A
100
AcDbSymbolTableRecord
100
AcDbDimStyleTableRecord
  2
STANDARD
 70
     0
 41
2.5
 42
0.625
 43
3.75
 44
1.25
 73
     0
 74
     0
 77
     1
 78
     8
140
2.5
141
2.5
143
0.0394
147
0.625
171
     4
172
     1
273
     8
274
     4
277
     6
340
F
  0
DIMSTYLE
105
8F
102
{ACAD_REACTORS
330
656
330
66D
330
7CA
330
917
330
924
330
931
330
93D
330
94A
330
957
330
964
330
970
330
97D
330
98A
330
9A5
330
A26
102
}
330
A
100
AcDbSymbolTableRecord
100
AcDbDimStyleTableRecord
  2
STYLE3
 70
     0
 41
2.5
 42
0.0
 43
3.75
 44
1.25
 73
     0
 74
     0
 77
     1
 78
     8
140
2.5
141
2.5
143
0.0394
147
0.625
171
     4
172
     1
173
     1
176
     2
177
     2
178
     6
271
     1
273
     8
274
     4
340
3F
341
45
343
45
344
45
  0
ENDTAB
  0
TABLE
  2
BLOCK_RECORD
  5
1
330
0
100
AcDbSymbolTable
 70
    18
  0
BLOCK_RECORD
  5
18
330
1
100
AcDbSymbolTableRecord
100
AcDbBlockTableRecord
  2
*MODEL_SPACE
340
A4B
  0
BLOCK_RECORD
  5
15
330
1
100
AcDbSymbolTableRecord
100
AcDbBlockTableRecord
  2
*PAPER_SPACE
340
A4C
  0
BLOCK_RECORD
  5
45
330
1
100
AcDbSymbolTableRecord
100
AcDbBlockTableRecord
  2
_OPEN
340
0
102
{BLKREFS
331
936
331
937
331
950
331
951
331
976
331
977
331
A20
331
8BF
331
8C0
331
65A
331
65B
331
67D
331
67E
331
92A
331
92B
331
943
331
944
331
95D
331
95E
331
969
331
96A
331
99E
331
99F
331
A1F
331
B17
331
B18
331
AF3
331
AF4
331
AFC
331
AFD
331
B05
331
B06
102
}
  0
BLOCK_RECORD
  5
2FB
330
1
100
AcDbSymbolTableRecord
100
AcDbBlockTableRecord
  2
ROGO
340
0
102
{BLKREFS
331
81D
102
}
  0
BLOCK_RECORD
  5
64B
330
1
100
AcDbSymbolTableRecord
100
AcDbBlockTableRecord
  2
*D2
340
0
  0
BLOCK_RECORD
  5
661
330
1
100
AcDbSymbolTableRecord
100
AcDbBlockTableRecord
  2
*D3
340
0
  0
BLOCK_RECORD
  5
7BE
330
1
100
AcDbSymbolTableRecord
100
AcDbBlockTableRecord
  2
*D4
340
0
  0
BLOCK_RECORD
  5
90B
330
1
100
AcDbSymbolTableRecord
100
AcDbBlockTableRecord
  2
*D5
340
0
  0
BLOCK_RECORD
  5
918
330
1
100
AcDbSymbolTableRecord
100
AcDbBlockTableRecord
  2
*D6
340
0
  0
BLOCK_RECORD
  5
925
330
1
100
AcDbSymbolTableRecord
100
AcDbBlockTableRecord
  2
*D7
340
0
  0
BLOCK_RECORD
  5
932
330
1
100
AcDbSymbolTableRecord
100
AcDbBlockTableRecord
  2
*D8
340
0
  0
BLOCK_RECORD
  5
93E
330
1
100
AcDbSymbolTableRecord
100
AcDbBlockTableRecord
  2
*D9
340
0
  0
BLOCK_RECORD
  5
94B
330
1
100
AcDbSymbolTableRecord
100
AcDbBlockTableRecord
  2
*D10
340
0
  0
BLOCK_RECORD
  5
958
330
1
100
AcDbSymbolTableRecord
100
AcDbBlockTableRecord
  2
*D11
340
0
  0
BLOCK_RECORD
  5
965
330
1
100
AcDbSymbolTableRecord
100
AcDbBlockTableRecord
  2
*D12
340
0
  0
BLOCK_RECORD
  5
971
330
1
100
AcDbSymbolTableRecord
100
AcDbBlockTableRecord
  2
*D13
340
0
  0
BLOCK_RECORD
  5
97E
330
1
100
AcDbSymbolTableRecord
100
AcDbBlockTableRecord
  2
*D14
340
0
  0
BLOCK_RECORD
  5
997
330
1
100
AcDbSymbolTableRecord
100
AcDbBlockTableRecord
  2
*D15
340
0
  0
BLOCK_RECORD
  5
A1A
330
1
100
AcDbSymbolTableRecord
100
AcDbBlockTableRecord
  2
*D16
340
0
  0
BLOCK_RECORD
  5
A53
330
1
100
AcDbSymbolTableRecord
100
AcDbBlockTableRecord
  2
A$C792C231F
340
0
102
{BLKREFS
331
A75
102
}
  0
ENDTAB
  0
ENDSEC
  0
SECTION
  2
BLOCKS
  0
BLOCK
  5
19
330
18
100
AcDbEntity
  8
0
100
AcDbBlockBegin
  2
*MODEL_SPACE
 70
     0
 10
0.0
 20
0.0
 30
0.0
  3
*MODEL_SPACE
  1

  0
ENDBLK
  5
1A
330
18
100
AcDbEntity
  8
0
100
AcDbBlockEnd
  0
BLOCK
  5
16
330
15
100
AcDbEntity
 67
     1
  8
0
100
AcDbBlockBegin
  2
*PAPER_SPACE
 70
     0
 10
0.0
 20
0.0
 30
0.0
  3
*PAPER_SPACE
  1

  0
ENDBLK
  5
17
330
15
100
AcDbEntity
 67
     1
  8
0
100
AcDbBlockEnd
  0
BLOCK
  5
46
330
45
100
AcDbEntity
  8
0
100
AcDbBlockBegin
  2
_OPEN
 70
     0
 10
0.0
 20
0.0
 30
0.0
  3
_OPEN
  1

  0
LINE
  5
47
330
45
100
AcDbEntity
  8
0
  6
ByBlock
 62
     0
100
AcDbLine
 10
-1.0
 20
0.1666666666666666
 30
0.0
 11
0.0
 21
0.0
 31
0.0
  0
LINE
  5
48
330
45
100
AcDbEntity
  8
0
  6
ByBlock
 62
     0
100
AcDbLine
 10
0.0
 20
0.0
 30
0.0
 11
-1.0
 21
-0.1666666666666666
 31
0.0
  0
LINE
  5
49
330
45
100
AcDbEntity
  8
0
  6
ByBlock
 62
     0
100
AcDbLine
 10
0.0
 20
0.0
 30
0.0
 11
-1.0
 21
0.0
 31
0.0
  0
ENDBLK
  5
4A
330
45
100
AcDbEntity
  8
0
100
AcDbBlockEnd
  0
BLOCK
  5
34E
330
2FB
100
AcDbEntity
  8
0
100
AcDbBlockBegin
  2
ROGO
 70
     0
 10
0.0
 20
0.0
 30
0.0
  3
ROGO
  1

  0
HATCH
  5
2FC
330
2FB
100
AcDbEntity
  8
ROGO
 62
     4
100
AcDbHatch
 10
0.0
 20
0.0
 30
0.0
210
0.0
220
0.0
230
1.0
  2
SOLID
 70
     1
 71
     1
 91
        1
 92
        7
 72
     0
 73
     1
 93
       11
 10
31.6812152744804
 20
0.0
 10
33.50513069601385
 20
0.0
 10
34.14933885635007
 20
1.291950329372048
 10
34.79354701668626
 20
0.0000000000000004
 10
36.6174225324171
 20
-0.0000000000000004
 10
35.38336074148232
 20
2.474893420212764
 10
38.38165352405161
 20
4.949786840425644
 10
36.55777800832078
 20
4.949786840425644
 10
35.70378540756269
 20
4.409370842614521
 10
35.97325427788326
 20
4.949786840425588
 10
34.14933885635003
 20
4.949786840425644
 97
       11
330
34A
330
34D
330
34C
330
34B
330
301
330
2FE
330
347
330
346
330
348
330
345
330
349
 75
     0
 76
     1
 47
0.0514683685270805
 98
        1
 10
33.99236623130548
 20
2.826231829978155
450
        0
451
        0
460
0.0
461
0.0
452
        0
462
0.0
453
        0
470

  0
HATCH
  5
2FD
330
2FB
100
AcDbEntity
  8
ROGO
 62
     4
100
AcDbHatch
 10
0.0
 20
0.0
 30
0.0
210
0.0
220
0.0
230
1.0
  2
SOLID
 70
     1
 71
     1
 91
        1
 92
        5
 93
        8
 72
     4
 94
        3
 73
     0
 74
     0
 95
       26
 96
       22
 40
0.0
 40
0.0
 40
0.0
 40
0.0
 40
0.574661586474916
 40
0.9593530213456398
 40
1.236746873962377
 40
1.443867888111118
 40
1.712514714041721
 40
1.908600707308166
 40
2.262686307552683
 40
2.550906895601574
 40
2.746943077840939
 40
2.93916659153786
 40
3.28301708699485
 40
3.52616042753637
 40
3.657111901763579
 40
3.843124602654691
 40
3.977448547699155
 40
4.172039596738207
 40
4.282161298747786
 40
4.52179847468669
 40
4.631218890929289
 40
4.631218890929289
 40
4.631218890929289
 40
4.631218890929289
 10
30.31359802057318
 20
4.949786840425644
 10
30.11854899911116
 20
4.938149881331216
 10
29.79292976084273
 20
4.91872287919767
 10
29.43540181805795
 20
4.701528493521749
 10
29.17345591634099
 20
4.575261222274344
 10
28.98663641691249
 20
4.403611624277404
 10
28.84969696652105
 20
4.226310128312151
 10
28.67705908163667
 20
4.015056695877605
 10
28.53627781964588
 20
3.769060622409776
 10
28.46458648155828
 20
3.49793006417775
 10
28.40108297470428
 20
3.281837436117409
 10
28.35398771091379
 20
3.041030402807234
 10
28.36597007927193
 20
2.780874095348088
 10
28.38312937914935
 20
2.539254235598057
 10
28.45974148051294
 20
2.366773831190869
 10
28.5469890936244
 20
2.243979668736888
 10
28.65382260102933
 20
2.10873551234142
 10
28.7707218207005
 20
2.019163745498227
 10
28.86740701734604
 20
1.856898470784131
 10
29.03665119246223
 20
1.836192251465616
 10
29.14422952328949
 20
1.794980695042471
 10
29.17795251342483
 20
1.782061951090668
 72
     1
 10
29.17795251342483
 20
1.782061951090668
 11
31.9063556607218
 21
1.782061951090668
 72
     1
 10
31.9063556607218
 20
1.782061951090668
 11
32.49403698331935
 21
2.960648509043493
 72
     1
 10
32.49403698331935
 20
2.960648509043493
 11
30.46845823186388
 21
2.960648509043494
 72
     4
 94
        3
 73
     0
 74
     0
 95
       16
 96
       12
 40
0.0
 40
0.0
 40
0.0
 40
0.0
 40
0.1735462722526713
 40
0.3488825482342324
 40
0.4534627565517994
 40
0.5537336524011855
 40
0.6638549168800786
 40
0.740755394821059
 40
0.8137272742622055
 40
0.9617037692456799
 40
1.264668647774946
 40
1.264668647774946
 40
1.264668647774946
 40
1.264668647774946
 10
30.46845823186391
 20
2.960648509043437
 10
30.40735963846873
 20
2.978624611086564
 10
30.28453226407142
 20
3.014762225606994
 10
30.27425260468795
 20
3.189944104912784
 10
30.28825715338953
 20
3.314775529002427
 10
30.3469082346312
 20
3.405660095425612
 10
30.41806216907166
 20
3.471790575521505
 10
30.44455593462858
 20
3.557915185941905
 10
30.52243194464859
 20
3.62295004193761
 10
30.66052697686501
 20
3.732264550099956
 10
30.81323617682881
 20
3.755546097864422
 10
30.9158338246271
 20
3.771187801431095
 72
     1
 10
30.91583382462741
 20
3.77118780143121
 11
32.89819805248607
 21
3.77118780143121
 72
     1
 10
32.89819805248607
 20
3.77118780143121
 11
33.48588559853425
 21
4.949786840425644
 72
     1
 10
33.48588559853425
 20
4.949786840425644
 11
30.31359802057318
 21
4.949786840425644
 97
        8
330
2FF
330
323
330
32F
330
328
330
343
330
342
330
344
330
300
 75
     0
 76
     1
 47
0.0514683685270805
 98
        1
 10
30.86099532083267
 20
4.369765638819899
450
        0
451
        0
460
0.0
461
0.0
452
        0
462
0.0
453
        0
470

  0
LINE
  5
2FE
102
{ACAD_REACTORS
330
2FC
330
307
102
}
330
2FB
100
AcDbEntity
  8
ROGO
 62
     4
100
AcDbLine
 10
0.0000000000000568
 20
0.0
 30
0.0
 11
33.50513069601385
 21
0.0
 31
0.0
  0
LINE
  5
2FF
102
{ACAD_REACTORS
330
2FD
102
}
330
2FB
100
AcDbEntity
  8
ROGO
 62
     4
100
AcDbLine
 10
30.31359802057415
 20
4.949786840425644
 30
0.0
 11
33.48588559853425
 21
4.949786840425644
 31
0.0
  0
LINE
  5
300
102
{ACAD_REACTORS
330
2FD
102
}
330
2FB
100
AcDbEntity
  8
ROGO
 62
     4
100
AcDbLine
 10
33.48588559853425
 20
4.949786840425644
 30
0.0
 11
32.89819805248607
 21
3.77118780143121
 31
0.0
  0
LINE
  5
301
102
{ACAD_REACTORS
330
2FC
102
}
330
2FB
100
AcDbEntity
  8
ROGO
 62
     4
100
AcDbLine
 10
34.14933885635003
 20
4.949786840425644
 30
0.0
 11
31.6812152744804
 21
0.0
 31
0.0
  0
HATCH
  5
302
330
2FB
100
AcDbEntity
  8
ROGO
 62
     4
100
AcDbHatch
 10
0.0
 20
0.0
 30
0.0
210
0.0
220
0.0
230
1.0
  2
SOLID
 70
     1
 71
     0
 91
        1
 92
        7
 72
     0
 73
     1
 93
        4
 10
31.9286078056424
 20
0.4961422127159382
 10
2.525341286638024
 20
0.4961422127159382
 10
2.30087247590319
 20
-0.0000000000000568
 10
31.68121527448045
 20
-0.0000000000000568
 97
        0
 75
     0
 76
     1
 47
0.0514683685270805
 98
        1
 10
21.09111831761885
 20
0.3649205710345882
450
        0
451
        0
460
0.0
461
0.0
452
        0
462
0.0
453
        0
470

  0
HATCH
  5
303
330
2FB
100
AcDbEntity
  8
ROGO
 62
     4
100
AcDbHatch
 10
0.0
 20
0.0
 30
0.0
210
0.0
220
0.0
230
1.0
  2
SOLID
 70
     1
 71
     1
 91
        2
 92
        7
 72
     0
 73
     1
 93
        8
 10
15.99342784516443
 20
4.949786840425644
 10
14.16260675403384
 20
4.949786840425644
 10
11.87829877231911
 20
1.782061951090668
 10
13.63265136986953
 20
1.782061951090668
 10
14.06756947612285
 20
2.385177170679752
 10
16.08846512307542
 20
2.385177170679752
 10
16.52338322932874
 20
1.782061951090667
 10
18.27773582687916
 20
1.782061951090667
 97
        8
330
305
330
30D
330
312
330
30E
330
304
330
326
330
32C
330
325
 92
       22
 72
     0
 73
     1
 93
        3
 10
15.62974388152599
 20
3.021300979620774
 10
14.52629071767226
 20
3.021300979620774
 10
15.07801729959914
 20
3.786398348131227
 97
        3
330
331
330
330
330
332
 75
     0
 76
     1
 47
0.0514683685270805
 98
        2
 10
16.20617981601184
 20
3.326837253266262
 10
16.20617981601184
 20
3.326837253266262
450
        0
451
        0
460
0.0
461
0.0
452
        0
462
0.0
453
        0
470

  0
LINE
  5
304
102
{ACAD_REACTORS
330
303
102
}
330
2FB
100
AcDbEntity
  8
ROGO
 62
     4
100
AcDbLine
 10
14.06756947612285
 20
2.385177170679752
 30
0.0
 11
16.08846512307542
 21
2.385177170679752
 31
0.0
  0
LINE
  5
305
102
{ACAD_REACTORS
330
303
102
}
330
2FB
100
AcDbEntity
  8
ROGO
 62
     4
100
AcDbLine
 10
14.16260675403379
 20
4.949786840425644
 30
0.0
 11
15.99342784516443
 21
4.949786840425644
 31
0.0
  0
LINE
  5
306
330
2FB
100
AcDbEntity
  8
ROGO
 62
     4
100
AcDbLine
 10
2.490933298034235
 20
0.4961422127159382
 30
0.0
 11
31.92860780564246
 21
0.4961422127159382
 31
0.0
  0
HATCH
  5
307
330
2FB
100
AcDbEntity
  8
ROGO
 62
     4
100
AcDbHatch
 10
0.0
 20
0.0
 30
0.0
210
0.0
220
0.0
230
1.0
  2
SOLID
 70
     1
 71
     1
 91
        2
 92
        5
 93
        6
 72
     1
 10
0.0
 20
-0.0000000000000004
 11
2.300872475903304
 21
-0.0000000000000004
 72
     1
 10
2.300872475903304
 20
-0.0000000000000004
 11
3.107127853020471
 21
1.782061951090667
 72
     1
 10
3.107127853020471
 20
1.782061951090667
 11
5.257971706506338
 21
1.782061951090668
 72
     4
 94
        3
 73
     0
 74
     0
 95
       18
 96
       14
 40
0.108740278791501
 40
0.108740278791501
 40
0.108740278791501
 40
0.108740278791501
 40
0.6623149649549278
 40
1.384304701649786
 40
2.097394834876493
 40
2.774073369849617
 40
3.428974823686336
 40
4.005208313035923
 40
4.455173659284312
 40
4.720999734343523
 40
5.086034088486723
 40
5.569973738255372
 40
6.060470601257718
 40
6.060470601257718
 40
6.060470601257718
 40
6.060470601257718
 10
5.257971706506338
 20
1.782061951090668
 10
5.409344543521854
 20
1.783189178773909
 10
5.758142655701248
 20
1.785786572703101
 10
6.246108485316482
 20
2.046468641233956
 10
6.708839512865949
 20
2.378558603499755
 10
7.081537876611037
 20
2.793470364329778
 10
7.313740186156906
 20
3.267850878540173
 10
7.349707589953482
 20
3.722501028309523
 10
7.327750373593119
 20
4.082123644518104
 10
7.170855034099303
 20
4.332789535999039
 10
7.007743182975218
 20
4.587189781908874
 10
6.708651203549891
 20
4.807560723981167
 10
6.463588634008543
 20
4.904115955004613
 10
6.338969333173452
 20
4.949786840425757
 72
     1
 10
6.338969333173617
 20
4.949786840425644
 11
2.449108495127858
 21
4.949786840425644
 72
     1
 10
2.449108495127858
 20
4.949786840425644
 11
0.0
 21
-0.0000000000000009
 97
        6
330
309
330
313
330
30A
330
2FE
330
310
330
30F
 92
       20
 93
        4
 72
     1
 10
3.604944905315051
 20
2.882384321244216
 11
3.986086042393536
 21
3.724818539557986
 72
     1
 10
3.986086042393536
 20
3.724818539557986
 11
5.31759595030306
 21
3.724818539557986
 72
     4
 94
        3
 73
     0
 74
     0
 95
       15
 96
       11
 40
0.0
 40
0.0
 40
0.0
 40
0.0
 40
0.371426019295495
 40
0.5407758541881007
 40
0.7329991907503103
 40
0.8639506649775167
 40
1.071051779626873
 40
1.195099689928134
 40
1.407925254728536
 40
1.478867154939798
 40
1.478867154939798
 40
1.478867154939798
 40
1.478867154939798
 10
4.965456325033528
 20
3.724818539557986
 10
5.104956735089531
 20
3.725457525899205
 10
5.308061659054509
 20
3.726387854865234
 10
5.419126665259304
 20
3.475146476562761
 10
5.369342033880412
 20
3.31338622211255
 10
5.306758694724475
 20
3.147308857819524
 10
5.196159760245839
 20
3.034456783979612
 10
5.047719790425087
 20
2.925761212639769
 10
4.907436925306583
 20
2.91260312701305
 10
4.816198668830153
 20
2.888428084712352
 10
4.793389093792598
 20
2.882384321244159
 72
     1
 10
4.793389093792598
 20
2.882384321244159
 11
3.604944905315051
 21
2.882384321244216
 97
        4
330
316
330
314
330
318
330
315
 75
     0
 76
     1
 47
0.0514683685270805
 98
        2
 10
2.469899197802817
 20
3.410271770727716
 10
2.469899197802817
 20
3.410271770727716
450
        0
451
        0
460
0.0
461
0.0
452
        0
462
0.0
453
        0
470

  0
HATCH
  5
308
330
2FB
100
AcDbEntity
  8
ROGO
 62
     4
100
AcDbHatch
 10
0.0
 20
0.0
 30
0.0
210
0.0
220
0.0
230
1.0
  2
SOLID
 70
     1
 71
     1
 91
        1
 92
        1
 93
       12
 72
     1
 10
8.637002599138838
 20
4.949786840425644
 11
12.92148229673961
 21
4.949786840425757
 72
     1
 10
12.92148229673961
 20
4.949786840425644
 11
12.56244669050807
 21
4.224155565819272
 72
     1
 10
12.56244669050807
 20
4.224155565819272
 11
10.31063242784847
 21
4.224155565819272
 72
     1
 10
10.31063242784847
 20
4.224155565819272
 11
10.02991119959222
 21
3.656802080167153
 72
     1
 10
10.02991119959222
 20
3.656802080167153
 11
12.28172546225187
 21
3.656802080167153
 72
     1
 10
12.28172546225187
 20
3.656802080167153
 11
11.99387214064069
 21
3.07503423030755
 72
     1
 10
11.99387214064069
 20
3.075034230307607
 11
9.742057877981151
 21
3.07503423030755
 72
     1
 10
9.742057877981151
 20
3.07503423030755
 11
9.461324765337508
 21
2.507656725636195
 72
     1
 10
9.461324765337565
 20
2.507656725636195
 11
11.71313902799716
 21
2.507656725636195
 72
     1
 10
11.71313902799716
 20
2.507656725636195
 11
11.35412148165636
 21
1.782061951090668
 72
     1
 10
11.35412148165636
 20
1.782061951090668
 11
7.069641784055589
 21
1.782061951090668
 72
     1
 10
7.069641784055589
 20
1.782061951090668
 11
8.637002599138952
 21
4.949786840425644
 97
       12
330
317
330
319
330
31B
330
31A
330
31C
330
31F
330
31E
330
320
330
31D
330
30C
330
311
330
30B
 75
     0
 76
     1
 98
        1
 10
-166.6183073243049
 20
-214.0842147101267
450
        0
451
        0
460
0.0
461
0.0
452
        0
462
0.0
453
        0
470

  0
SPLINE
  5
309
102
{ACAD_REACTORS
330
307
102
}
330
2FB
100
AcDbEntity
  8
ROGO
 62
     4
100
AcDbSpline
210
0.0
220
0.0
230
1.0
 70
     8
 71
     3
 72
    18
 73
    14
 74
     0
 42
0.000000001
 43
0.0000000001
 40
0.1087402787915014
 40
0.1087402787915014
 40
0.1087402787915014
 40
0.1087402787915014
 40
0.5992371417938475
 40
1.083176791562495
 40
1.448211145705696
 40
1.714037220764907
 40
2.164002567013296
 40
2.740236056362883
 40
3.395137510199602
 40
4.071816045172726
 40
4.784906178399433
 40
5.506895915094291
 40
6.060470601257718
 40
6.060470601257718
 40
6.060470601257718
 40
6.060470601257718
 10
6.338969333173452
 20
4.949786840425757
 30
0.0
 10
6.463588634008543
 20
4.904115955004613
 30
0.0
 10
6.708651203549891
 20
4.807560723981167
 30
0.0
 10
7.007743182975218
 20
4.587189781908874
 30
0.0
 10
7.170855034099303
 20
4.332789535999039
 30
0.0
 10
7.327750373593119
 20
4.082123644518104
 30
0.0
 10
7.349707589953482
 20
3.722501028309523
 30
0.0
 10
7.313740186156906
 20
3.267850878540173
 30
0.0
 10
7.081537876611037
 20
2.793470364329778
 30
0.0
 10
6.708839512865949
 20
2.378558603499755
 30
0.0
 10
6.246108485316482
 20
2.046468641233956
 30
0.0
 10
5.758142655701248
 20
1.785786572703101
 30
0.0
 10
5.409344543521854
 20
1.783189178773909
 30
0.0
 10
5.257971706506338
 20
1.782061951090668
 30
0.0
  0
LINE
  5
30A
102
{ACAD_REACTORS
330
307
102
}
330
2FB
100
AcDbEntity
  8
ROGO
 62
     4
100
AcDbLine
 10
2.449108495127858
 20
4.949786840425644
 30
0.0
 11
0.0
 21
0.0
 31
0.0
  0
LINE
  5
30B
102
{ACAD_REACTORS
330
308
102
}
330
2FB
100
AcDbEntity
  8
ROGO
 62
     4
100
AcDbLine
 10
8.637002599138952
 20
4.949786840425644
 30
0.0
 11
7.069641784055589
 21
1.782061951090668
 31
0.0
  0
LINE
  5
30C
102
{ACAD_REACTORS
330
308
102
}
330
2FB
100
AcDbEntity
  8
ROGO
 62
     4
100
AcDbLine
 10
11.71313902799716
 20
2.507656725636195
 30
0.0
 11
11.35412148165636
 21
1.782061951090668
 31
0.0
  0
LINE
  5
30D
102
{ACAD_REACTORS
330
303
102
}
330
2FB
100
AcDbEntity
  8
ROGO
 62
     4
100
AcDbLine
 10
14.16260675403384
 20
4.949786840425644
 30
0.0
 11
11.87829877231911
 21
1.782061951090668
 31
0.0
  0
LINE
  5
30E
102
{ACAD_REACTORS
330
303
102
}
330
2FB
100
AcDbEntity
  8
ROGO
 62
     4
100
AcDbLine
 10
14.06756947612285
 20
2.385177170679752
 30
0.0
 11
13.63265136986962
 21
1.782061951090781
 31
0.0
  0
LINE
  5
30F
102
{ACAD_REACTORS
330
307
102
}
330
2FB
100
AcDbEntity
  8
ROGO
 62
     4
100
AcDbLine
 10
5.257971707251896
 20
1.782061951090668
 30
0.0
 11
3.107127853020358
 21
1.782061951090668
 31
0.0
  0
LINE
  5
310
102
{ACAD_REACTORS
330
307
102
}
330
2FB
100
AcDbEntity
  8
ROGO
 62
     4
100
AcDbLine
 10
3.107127853020471
 20
1.782061951090668
 30
0.0
 11
2.300872475903304
 21
0.0
 31
0.0
  0
LINE
  5
311
102
{ACAD_REACTORS
330
308
102
}
330
2FB
100
AcDbEntity
  8
ROGO
 62
     4
100
AcDbLine
 10
7.069641784055589
 20
1.782061951090668
 30
0.0
 11
11.35412148165636
 21
1.782061951090668
 31
0.0
  0
LINE
  5
312
102
{ACAD_REACTORS
330
303
102
}
330
2FB
100
AcDbEntity
  8
ROGO
 62
     4
100
AcDbLine
 10
11.87829877231917
 20
1.782061951090668
 30
0.0
 11
13.63265136986962
 21
1.782061951090668
 31
0.0
  0
LINE
  5
313
102
{ACAD_REACTORS
330
307
102
}
330
2FB
100
AcDbEntity
  8
ROGO
 62
     4
100
AcDbLine
 10
2.449108495127858
 20
4.949786840425644
 30
0.0
 11
6.338969333173452
 21
4.949786840425644
 31
0.0
  0
LINE
  5
314
102
{ACAD_REACTORS
330
307
102
}
330
2FB
100
AcDbEntity
  8
ROGO
 62
     4
100
AcDbLine
 10
4.965456325033528
 20
3.724818539557986
 30
0.0
 11
3.986086042393537
 21
3.724818539557986
 31
0.0
  0
LINE
  5
315
102
{ACAD_REACTORS
330
307
102
}
330
2FB
100
AcDbEntity
  8
ROGO
 62
     4
100
AcDbLine
 10
4.793389093792598
 20
2.882384321244159
 30
0.0
 11
3.604944905315107
 21
2.882384321244216
 31
0.0
  0
LINE
  5
316
102
{ACAD_REACTORS
330
307
102
}
330
2FB
100
AcDbEntity
  8
ROGO
 62
     4
100
AcDbLine
 10
3.986086042393537
 20
3.724818539557986
 30
0.0
 11
3.604944905315051
 21
2.882384321244216
 31
0.0
  0
LINE
  5
317
102
{ACAD_REACTORS
330
308
102
}
330
2FB
100
AcDbEntity
  8
ROGO
 62
     4
100
AcDbLine
 10
8.637002599138838
 20
4.949786840425644
 30
0.0
 11
12.92148229673961
 21
4.949786840425757
 31
0.0
  0
SPLINE
  5
318
102
{ACAD_REACTORS
330
307
102
}
330
2FB
100
AcDbEntity
  8
ROGO
 62
     4
100
AcDbSpline
210
0.0
220
0.0
230
1.0
 70
  1064
 71
     3
 72
    15
 73
    11
 74
     9
 42
0.000000001
 43
0.0000000001
 44
0.0000000001
 40
0.0
 40
0.0
 40
0.0
 40
0.0
 40
0.371426019295495
 40
0.5407758541881007
 40
0.7329991907503103
 40
0.8639506649775167
 40
1.071051779626873
 40
1.195099689928134
 40
1.407925254728536
 40
1.478867154939798
 40
1.478867154939798
 40
1.478867154939798
 40
1.478867154939798
 10
4.965456325033528
 20
3.724818539557986
 30
0.0
 10
5.104956735089531
 20
3.725457525899205
 30
0.0
 10
5.308061659054509
 20
3.726387854865234
 30
0.0
 10
5.419126665259304
 20
3.475146476562761
 30
0.0
 10
5.369342033880412
 20
3.31338622211255
 30
0.0
 10
5.306758694724475
 20
3.147308857819524
 30
0.0
 10
5.196159760245839
 20
3.034456783979612
 30
0.0
 10
5.047719790425087
 20
2.925761212639769
 30
0.0
 10
4.907436925306583
 20
2.91260312701305
 30
0.0
 10
4.816198668830153
 20
2.888428084712352
 30
0.0
 10
4.793389093792598
 20
2.882384321244159
 30
0.0
 11
4.965456325033528
 21
3.724818539557986
 31
0.0
 11
5.326797807465992
 21
3.63885563544693
 31
0.0
 11
5.395624897846573
 21
3.484122968540758
 31
0.0
 11
5.361211847366687
 21
3.295005139989938
 31
0.0
 11
5.309591776936598
 21
3.174657074234517
 31
0.0
 11
5.171937596175324
 21
3.019924407328176
 31
0.0
 11
5.068697455314974
 21
2.951154084039386
 31
0.0
 11
4.862216184173177
 21
2.89957690206637
 31
0.0
 11
4.793389093792598
 21
2.882384321244159
 31
0.0
  0
LINE
  5
319
102
{ACAD_REACTORS
330
308
102
}
330
2FB
100
AcDbEntity
  8
ROGO
 62
     4
100
AcDbLine
 10
12.92148229673961
 20
4.949786840425644
 30
0.0
 11
12.56244669050807
 21
4.224155565819272
 31
0.0
  0
LINE
  5
31A
102
{ACAD_REACTORS
330
308
102
}
330
2FB
100
AcDbEntity
  8
ROGO
 62
     4
100
AcDbLine
 10
10.31063242784847
 20
4.224155565819272
 30
0.0
 11
10.02991119959222
 21
3.656802080167153
 31
0.0
  0
LINE
  5
31B
102
{ACAD_REACTORS
330
308
102
}
330
2FB
100
AcDbEntity
  8
ROGO
 62
     4
100
AcDbLine
 10
10.31063242784847
 20
4.224155565819272
 30
0.0
 11
12.56244669050807
 21
4.224155565819272
 31
0.0
  0
LINE
  5
31C
102
{ACAD_REACTORS
330
308
102
}
330
2FB
100
AcDbEntity
  8
ROGO
 62
     4
100
AcDbLine
 10
10.02991119959222
 20
3.656802080167153
 30
0.0
 11
12.28172546225187
 21
3.656802080167153
 31
0.0
  0
LINE
  5
31D
102
{ACAD_REACTORS
330
308
102
}
330
2FB
100
AcDbEntity
  8
ROGO
 62
     4
100
AcDbLine
 10
9.461324765337565
 20
2.507656725636195
 30
0.0
 11
11.71313902799716
 21
2.507656725636195
 31
0.0
  0
LINE
  5
31E
102
{ACAD_REACTORS
330
308
102
}
330
2FB
100
AcDbEntity
  8
ROGO
 62
     4
100
AcDbLine
 10
9.742057877981151
 20
3.07503423030755
 30
0.0
 11
11.99387214064069
 21
3.075034230307607
 31
0.0
  0
LINE
  5
31F
102
{ACAD_REACTORS
330
308
102
}
330
2FB
100
AcDbEntity
  8
ROGO
 62
     4
100
AcDbLine
 10
12.28172546225187
 20
3.656802080167153
 30
0.0
 11
11.99387214064069
 21
3.07503423030755
 31
0.0
  0
LINE
  5
320
102
{ACAD_REACTORS
330
308
102
}
330
2FB
100
AcDbEntity
  8
ROGO
 62
     4
100
AcDbLine
 10
9.742057877981151
 20
3.07503423030755
 30
0.0
 11
9.461324765337508
 21
2.507656725636195
 31
0.0
  0
HATCH
  5
321
330
2FB
100
AcDbEntity
  8
ROGO
 62
     4
100
AcDbHatch
 10
0.0
 20
0.0
 30
0.0
210
0.0
220
0.0
230
1.0
  2
SOLID
 70
     1
 71
     1
 91
        2
 92
        7
 72
     1
 73
     1
 93
        4
 10
26.16568830176476
 20
4.949786840425659
 42
0.0
 10
24.88477496917224
 20
4.949786840425644
 42
1.0
 10
25.01498375719422
 20
1.782061951090668
 42
0.0
 10
26.25774038752084
 20
1.782061951090668
 42
0.9713627655772244
 97
        4
330
341
330
329
330
32E
330
32A
 92
       22
 72
     1
 73
     1
 93
        7
 10
25.97093226724161
 20
3.347576112203455
 42
0.0
 10
25.94905717893633
 20
3.191071728593316
 42
-0.5192769690510721
 10
25.58588379175371
 20
2.870057733155177
 42
-0.4854337128372938
 10
25.17427477727123
 20
3.157453445413173
 42
0.0
 10
25.19227397459666
 20
3.286227932792578
 42
-0.4881237214608163
 10
25.58056374534963
 20
3.66934628792356
 42
0.0
 10
25.67425746819457
 20
3.656250434544913
 42
-0.3640935823543175
 97
        8
330
339
330
33F
330
33B
330
33E
330
33A
330
33D
330
338
330
33C
 75
     0
 76
     1
 47
0.0514683685270805
 98
        2
 10
26.4770758482868
 20
3.660574202124962
 10
26.4770758482868
 20
3.660574202124962
450
        0
451
        0
460
0.0
461
0.0
452
        0
462
0.0
453
        0
470

  0
HATCH
  5
322
330
2FB
100
AcDbEntity
  8
ROGO
 62
     4
100
AcDbHatch
 10
0.0
 20
0.0
 30
0.0
210
0.0
220
0.0
230
1.0
  2
SOLID
 70
     1
 71
     1
 91
        1
 92
        5
 93
        8
 72
     1
 10
22.69150668888259
 20
3.771187801431267
 11
23.27919423493075
 21
4.949786840425757
 72
     1
 10
23.27919423493075
 20
4.949786840425757
 11
20.10690665697002
 21
4.949786840425757
 72
     4
 94
        3
 73
     0
 74
     0
 95
       26
 96
       22
 40
0.0
 40
0.0
 40
0.0
 40
0.0
 40
0.5746615864749075
 40
0.9593530213456336
 40
1.236746873962378
 40
1.443867888111148
 40
1.712514714041707
 40
1.908600707308199
 40
2.262686307552668
 40
2.550906895601598
 40
2.746943077840867
 40
2.939166591537898
 40
3.283017086994888
 40
3.526160427536352
 40
3.657111901763634
 40
3.84312460265472
 40
3.977448547699141
 40
4.17203959673819
 40
4.282161298747769
 40
4.521798474686656
 40
4.631218890929292
 40
4.631218890929292
 40
4.631218890929292
 40
4.631218890929292
 10
20.10690665696961
 20
4.949786840425644
 10
19.91185763550759
 20
4.93814988133124
 10
19.58623839723915
 20
4.918722879197735
 10
19.22871045445438
 20
4.701528493521797
 10
18.96676455273739
 20
4.575261222274416
 10
18.77994505330896
 20
4.403611624277395
 10
18.64300560291743
 20
4.226310128312204
 10
18.47036771803314
 20
4.015056695877609
 10
18.32958645604223
 20
3.769060622409831
 10
18.25789511795482
 20
3.497930064177773
 10
18.19439161110065
 20
3.281837436117467
 10
18.14729634731025
 20
3.041030402807261
 10
18.15927871566836
 20
2.780874095348114
 10
18.17643801554577
 20
2.539254235598061
 10
18.25305011690941
 20
2.36677383119091
 10
18.34029773002079
 20
2.243979668736874
 10
18.4471312374258
 20
2.108735512341483
 10
18.56403045709692
 20
2.019163745498286
 10
18.66071565374245
 20
1.856898470784176
 10
18.82995982885871
 20
1.836192251465798
 10
18.93753815968592
 20
1.794980695042517
 10
18.97126114982126
 20
1.782061951090668
 72
     1
 10
18.97126114982126
 20
1.782061951090668
 11
21.69966429711815
 21
1.782061951090668
 72
     1
 10
21.69966429711815
 20
1.782061951090668
 11
22.28734561971584
 21
2.960648509043494
 72
     1
 10
22.28734561971584
 20
2.960648509043494
 11
20.26176686826034
 21
2.960648509043494
 72
     4
 94
        3
 73
     0
 74
     0
 95
       16
 96
       12
 40
0.0
 40
0.0
 40
0.0
 40
0.0
 40
0.1735462722526012
 40
0.3488825482342847
 40
0.453462756551749
 40
0.5537336524011022
 40
0.6638549168800485
 40
0.7407553948210217
 40
0.8137272742621764
 40
0.9617037692456044
 40
1.264668647774893
 40
1.264668647774893
 40
1.264668647774893
 40
1.264668647774893
 10
20.26176686826034
 20
2.960648509043494
 10
20.2006682748652
 20
2.978624611086606
 10
20.07784090046787
 20
3.014762225607025
 10
20.06756124108431
 20
3.189944104912835
 10
20.08156578978608
 20
3.314775529002434
 10
20.14021687102763
 20
3.405660095425646
 10
20.21137080546809
 20
3.471790575521532
 10
20.23786457102499
 20
3.55791518594199
 10
20.31574058104512
 20
3.622950041937547
 10
20.45383561326142
 20
3.732264550100008
 10
20.60654481322523
 20
3.75554609786451
 10
20.70914246102353
 20
3.77118780143121
 72
     1
 10
20.70914246102353
 20
3.77118780143121
 11
22.69150668888259
 21
3.771187801431267
 97
        8
330
337
330
324
330
32B
330
327
330
336
330
333
330
335
330
334
 75
     0
 76
     1
 47
0.0514683685270805
 98
        1
 10
21.21637307488407
 20
4.244614142874524
450
        0
451
        0
460
0.0
461
0.0
452
        0
462
0.0
453
        0
470

  0
SPLINE
  5
323
102
{ACAD_REACTORS
330
2FD
102
}
330
2FB
100
AcDbEntity
  8
ROGO
 62
     4
100
AcDbSpline
210
0.0
220
0.0
230
1.0
 70
  1064
 71
     3
 72
    26
 73
    22
 74
    20
 42
0.000000001
 43
0.0000000001
 44
0.0000000001
 40
0.0
 40
0.0
 40
0.0
 40
0.0
 40
0.574661586474916
 40
0.9593530213456398
 40
1.236746873962377
 40
1.443867888111118
 40
1.712514714041721
 40
1.908600707308166
 40
2.262686307552683
 40
2.550906895601574
 40
2.746943077840939
 40
2.93916659153786
 40
3.28301708699485
 40
3.52616042753637
 40
3.657111901763579
 40
3.843124602654691
 40
3.977448547699155
 40
4.172039596738207
 40
4.282161298747786
 40
4.52179847468669
 40
4.631218890929289
 40
4.631218890929289
 40
4.631218890929289
 40
4.631218890929289
 10
30.31359802057318
 20
4.949786840425644
 30
0.0
 10
30.11854899911116
 20
4.938149881331216
 30
0.0
 10
29.79292976084273
 20
4.91872287919767
 30
0.0
 10
29.43540181805795
 20
4.701528493521749
 30
0.0
 10
29.17345591634099
 20
4.575261222274344
 30
0.0
 10
28.98663641691249
 20
4.403611624277404
 30
0.0
 10
28.84969696652105
 20
4.226310128312151
 30
0.0
 10
28.67705908163667
 20
4.015056695877605
 30
0.0
 10
28.53627781964588
 20
3.769060622409776
 30
0.0
 10
28.46458648155828
 20
3.49793006417775
 30
0.0
 10
28.40108297470428
 20
3.281837436117409
 30
0.0
 10
28.35398771091379
 20
3.041030402807234
 30
0.0
 10
28.36597007927193
 20
2.780874095348088
 30
0.0
 10
28.38312937914935
 20
2.539254235598057
 30
0.0
 10
28.45974148051294
 20
2.366773831190869
 30
0.0
 10
28.5469890936244
 20
2.243979668736888
 30
0.0
 10
28.65382260102933
 20
2.10873551234142
 30
0.0
 10
28.7707218207005
 20
2.019163745498227
 30
0.0
 10
28.86740701734604
 20
1.856898470784131
 30
0.0
 10
29.03665119246223
 20
1.836192251465616
 30
0.0
 10
29.14422952328949
 20
1.794980695042471
 30
0.0
 10
29.17795251342483
 20
1.782061951090668
 30
0.0
 11
30.31359802057318
 21
4.949786840425644
 31
0.0
 11
29.74577526699892
 21
4.861394196539322
 31
0.0
 11
29.40163981509602
 21
4.689468948810882
 31
0.0
 11
29.1607454934744
 21
4.551928862726811
 31
0.0
 11
29.00588528218367
 21
4.414388216149176
 31
0.0
 11
28.83381805094274
 21
4.208077806776144
 31
0.0
 11
28.7133708901319
 21
4.053345139869974
 31
0.0
 11
28.54130266946999
 21
3.743879245563731
 31
0.0
 11
28.45526954855979
 21
3.468798512902026
 31
0.0
 11
28.4036494781297
 21
3.279680684351205
 31
0.0
 11
28.36923543822883
 21
3.090562855800611
 31
0.0
 11
28.36923543822883
 21
2.746712360343622
 31
0.0
 11
28.4036494781297
 21
2.506016789326224
 31
0.0
 11
28.45526954855979
 21
2.385668723570801
 31
0.0
 11
28.55850968942019
 21
2.230936056664518
 31
0.0
 11
28.64454379975138
 21
2.127780571731193
 31
0.0
 11
28.78219699109144
 21
1.99024048564712
 31
0.0
 11
28.85102408147219
 21
1.904277581536063
 31
0.0
 11
29.07471237256442
 21
1.818315237918568
 31
0.0
 11
29.17795251342483
 21
1.782061951090668
 31
0.0
  0
SPLINE
  5
324
102
{ACAD_REACTORS
330
322
102
}
330
2FB
100
AcDbEntity
  8
ROGO
 62
     4
100
AcDbSpline
210
0.0
220
0.0
230
1.0
 70
  1064
 71
     3
 72
    26
 73
    22
 74
    20
 42
0.000000001
 43
0.0000000001
 44
0.0000000001
 40
0.0
 40
0.0
 40
0.0
 40
0.0
 40
0.5746615864749075
 40
0.9593530213456336
 40
1.236746873962378
 40
1.443867888111148
 40
1.712514714041707
 40
1.908600707308199
 40
2.262686307552668
 40
2.550906895601598
 40
2.746943077840867
 40
2.939166591537898
 40
3.283017086994888
 40
3.526160427536352
 40
3.657111901763634
 40
3.84312460265472
 40
3.977448547699141
 40
4.17203959673819
 40
4.282161298747769
 40
4.521798474686656
 40
4.631218890929292
 40
4.631218890929292
 40
4.631218890929292
 40
4.631218890929292
 10
20.10690665696961
 20
4.949786840425644
 30
0.0
 10
19.91185763550759
 20
4.93814988133124
 30
0.0
 10
19.58623839723915
 20
4.918722879197735
 30
0.0
 10
19.22871045445438
 20
4.701528493521797
 30
0.0
 10
18.96676455273739
 20
4.575261222274416
 30
0.0
 10
18.77994505330896
 20
4.403611624277395
 30
0.0
 10
18.64300560291743
 20
4.226310128312204
 30
0.0
 10
18.47036771803314
 20
4.015056695877609
 30
0.0
 10
18.32958645604223
 20
3.769060622409831
 30
0.0
 10
18.25789511795482
 20
3.497930064177773
 30
0.0
 10
18.19439161110065
 20
3.281837436117467
 30
0.0
 10
18.14729634731025
 20
3.041030402807261
 30
0.0
 10
18.15927871566836
 20
2.780874095348114
 30
0.0
 10
18.17643801554577
 20
2.539254235598061
 30
0.0
 10
18.25305011690941
 20
2.36677383119091
 30
0.0
 10
18.34029773002079
 20
2.243979668736874
 30
0.0
 10
18.4471312374258
 20
2.108735512341483
 30
0.0
 10
18.56403045709692
 20
2.019163745498286
 30
0.0
 10
18.66071565374245
 20
1.856898470784176
 30
0.0
 10
18.82995982885871
 20
1.836192251465798
 30
0.0
 10
18.93753815968592
 20
1.794980695042517
 30
0.0
 10
18.97126114982126
 20
1.782061951090668
 30
0.0
 11
20.10690665696961
 21
4.949786840425644
 31
0.0
 11
19.53908390339535
 21
4.861394196539378
 31
0.0
 11
19.19494845149245
 21
4.68946894881094
 31
0.0
 11
18.95405412987082
 21
4.551928862726867
 31
0.0
 11
18.7991939185801
 21
4.414388216149176
 31
0.0
 11
18.62712668733917
 21
4.208077806776201
 31
0.0
 11
18.50667952652832
 21
4.053345139869974
 31
0.0
 11
18.33461130586641
 21
3.743879245563788
 31
0.0
 11
18.24857818495627
 21
3.468798512902026
 31
0.0
 11
18.19695811452612
 21
3.279680684351319
 31
0.0
 11
18.16254407462526
 21
3.090562855800611
 31
0.0
 11
18.16254407462526
 21
2.746712360343622
 31
0.0
 11
18.19695811452612
 21
2.50601678932628
 31
0.0
 11
18.24857818495627
 21
2.385668723570801
 31
0.0
 11
18.35181832581662
 21
2.230936056664518
 31
0.0
 11
18.43785243614781
 21
2.127780571731249
 31
0.0
 11
18.57550562748787
 21
1.990240485647176
 31
0.0
 11
18.64433271786862
 21
1.90427758153612
 31
0.0
 11
18.86802100896085
 21
1.818315237918681
 31
0.0
 11
18.97126114982126
 21
1.782061951090668
 31
0.0
  0
LINE
  5
325
102
{ACAD_REACTORS
330
303
102
}
330
2FB
100
AcDbEntity
  8
ROGO
 62
     4
100
AcDbLine
 10
15.99342784516443
 20
4.949786840425644
 30
0.0
 11
18.27773582687916
 21
1.782061951090668
 31
0.0
  0
LINE
  5
326
102
{ACAD_REACTORS
330
303
102
}
330
2FB
100
AcDbEntity
  8
ROGO
 62
     4
100
AcDbLine
 10
16.08846512307542
 20
2.385177170679752
 30
0.0
 11
16.52338322932866
 21
1.782061951090781
 31
0.0
  0
LINE
  5
327
102
{ACAD_REACTORS
330
322
102
}
330
2FB
100
AcDbEntity
  8
ROGO
 62
     4
100
AcDbLine
 10
22.28734561971584
 20
2.960648509043494
 30
0.0
 11
21.69966429711815
 21
1.782061951090668
 31
0.0
  0
LINE
  5
328
102
{ACAD_REACTORS
330
2FD
102
}
330
2FB
100
AcDbEntity
  8
ROGO
 62
     4
100
AcDbLine
 10
32.49403698331935
 20
2.960648509043494
 30
0.0
 11
31.90635566072177
 21
1.78206195109061
 31
0.0
  0
ARC
  5
329
102
{ACAD_REACTORS
330
321
102
}
330
2FB
100
AcDbEntity
  8
ROGO
 62
     4
100
AcDbCircle
 10
24.94987936318324
 20
3.365924395758156
 30
0.0
 40
1.58519993242102
100
AcDbArc
 50
92.3538081120337
 51
270.0
  0
ARC
  5
32A
102
{ACAD_REACTORS
330
321
102
}
330
2FB
100
AcDbEntity
  8
ROGO
 62
     4
100
AcDbCircle
 10
26.16568830176476
 20
3.364586908004638
 30
0.0
 40
1.58519993242102
100
AcDbArc
 50
273.3290215232082
 51
90.0000000000006
  0
LINE
  5
32B
102
{ACAD_REACTORS
330
322
102
}
330
2FB
100
AcDbEntity
  8
ROGO
 62
     4
100
AcDbLine
 10
18.97126114982109
 20
1.782061951090668
 30
0.0
 11
21.6996642971182
 21
1.782061951090668
 31
0.0
  0
LINE
  5
32C
102
{ACAD_REACTORS
330
303
102
}
330
2FB
100
AcDbEntity
  8
ROGO
 62
     4
100
AcDbLine
 10
18.27773582687911
 20
1.782061951090668
 30
0.0
 11
16.52338322932866
 21
1.782061951090668
 31
0.0
  0
LINE
  5
32D
330
2FB
100
AcDbEntity
  8
ROGO
 62
     4
100
AcDbLine
 10
24.8847749691733
 20
1.782061951090668
 30
0.0
 11
26.25774038752019
 21
1.782061951090668
 31
0.0
  0
LINE
  5
32E
102
{ACAD_REACTORS
330
321
102
}
330
2FB
100
AcDbEntity
  8
ROGO
 62
     4
100
AcDbLine
 10
24.8847749691721
 20
1.782061951090668
 30
0.0
 11
26.25774038752121
 21
1.782061951090668
 31
0.0
  0
LINE
  5
32F
102
{ACAD_REACTORS
330
2FD
102
}
330
2FB
100
AcDbEntity
  8
ROGO
 62
     4
100
AcDbLine
 10
29.1779525134246
 20
1.782061951090668
 30
0.0
 11
31.90635566072177
 21
1.782061951090668
 31
0.0
  0
LINE
  5
330
102
{ACAD_REACTORS
330
303
102
}
330
2FB
100
AcDbEntity
  8
ROGO
 62
     4
100
AcDbLine
 10
15.07801729959914
 20
3.786398348131227
 30
0.0
 11
14.52629071767222
 21
3.021300979620718
 31
0.0
  0
LINE
  5
331
102
{ACAD_REACTORS
330
303
102
}
330
2FB
100
AcDbEntity
  8
ROGO
 62
     4
100
AcDbLine
 10
14.52629071767222
 20
3.021300979620774
 30
0.0
 11
15.62974388152599
 21
3.021300979620774
 31
0.0
  0
LINE
  5
332
102
{ACAD_REACTORS
330
303
102
}
330
2FB
100
AcDbEntity
  8
ROGO
 62
     4
100
AcDbLine
 10
15.07801729959914
 20
3.786398348131227
 30
0.0
 11
15.62974388152599
 21
3.021300979620718
 31
0.0
  0
SPLINE
  5
333
102
{ACAD_REACTORS
330
322
102
}
330
2FB
100
AcDbEntity
  8
ROGO
 62
     4
100
AcDbSpline
210
0.0
220
0.0
230
1.0
 70
  1064
 71
     3
 72
    16
 73
    12
 74
    10
 42
0.000000001
 43
0.0000000001
 44
0.0000000001
 40
0.0
 40
0.0
 40
0.0
 40
0.0
 40
0.3029648785292891
 40
0.4509413735127172
 40
0.523913252953872
 40
0.6008137308948452
 40
0.7109349953737916
 40
0.8112058912231447
 40
0.9157860995406091
 40
1.091122375522292
 40
1.264668647774893
 40
1.264668647774893
 40
1.264668647774893
 40
1.264668647774893
 10
20.70914246102353
 20
3.77118780143121
 30
0.0
 10
20.60654481322523
 20
3.75554609786451
 30
0.0
 10
20.45383561326141
 20
3.732264550100007
 30
0.0
 10
20.31574058104512
 20
3.622950041937548
 30
0.0
 10
20.23786457102499
 20
3.557915185941989
 30
0.0
 10
20.21137080546809
 20
3.471790575521533
 30
0.0
 10
20.14021687102763
 20
3.405660095425646
 30
0.0
 10
20.08156578978608
 20
3.314775529002434
 30
0.0
 10
20.0675612410843
 20
3.189944104912835
 30
0.0
 10
20.07784090046788
 20
3.014762225607026
 30
0.0
 10
20.2006682748652
 20
2.978624611086605
 30
0.0
 10
20.26176686826034
 20
2.960648509043494
 30
0.0
 11
20.70914246102353
 21
3.77118780143121
 31
0.0
 11
20.41662806897176
 21
3.692301503097154
 31
0.0
 11
20.29618090816098
 21
3.606339159479716
 31
0.0
 11
20.24456083773083
 21
3.554761417013024
 31
0.0
 11
20.21014679782997
 21
3.48599109372418
 31
0.0
 11
20.14131970744944
 21
3.400028750106798
 31
0.0
 11
20.08969963701918
 21
3.314065845995741
 31
0.0
 11
20.07249261706875
 21
3.210910921556092
 31
0.0
 11
20.10690665696961
 21
3.038985113333978
 31
0.0
 11
20.26176686826034
 21
2.960648509043494
 31
0.0
  0
LINE
  5
334
102
{ACAD_REACTORS
330
322
102
}
330
2FB
100
AcDbEntity
  8
ROGO
 62
     4
100
AcDbLine
 10
23.27919423493069
 20
4.949786840425644
 30
0.0
 11
22.69150668888256
 21
3.77118780143121
 31
0.0
  0
LINE
  5
335
102
{ACAD_REACTORS
330
322
102
}
330
2FB
100
AcDbEntity
  8
ROGO
 62
     4
100
AcDbLine
 10
20.70914246102342
 20
3.77118780143121
 30
0.0
 11
22.69150668888256
 21
3.771187801431267
 31
0.0
  0
LINE
  5
336
102
{ACAD_REACTORS
330
322
102
}
330
2FB
100
AcDbEntity
  8
ROGO
 62
     4
100
AcDbLine
 10
20.26176686826017
 20
2.960648509043494
 30
0.0
 11
22.28734561971584
 21
2.960648509043494
 31
0.0
  0
LINE
  5
337
102
{ACAD_REACTORS
330
322
102
}
330
2FB
100
AcDbEntity
  8
ROGO
 62
     4
100
AcDbLine
 10
20.10690665697052
 20
4.949786840425757
 30
0.0
 11
23.27919423493069
 21
4.949786840425757
 31
0.0
  0
LINE
  5
338
102
{ACAD_REACTORS
330
321
102
}
330
2FB
100
AcDbEntity
  8
ROGO
 62
     4
100
AcDbLine
 10
25.58056374536529
 20
3.66934628792137
 30
0.0
 11
25.69536003945927
 21
3.653300864703907
 31
0.0
  0
LINE
  5
339
102
{ACAD_REACTORS
330
321
102
}
330
2FB
100
AcDbEntity
  8
ROGO
 62
     4
100
AcDbLine
 10
25.97093226724161
 20
3.347576112203455
 30
0.0
 11
25.92877650574604
 21
3.04597451972495
 31
0.0
  0
LINE
  5
33A
102
{ACAD_REACTORS
330
321
102
}
330
2FB
100
AcDbEntity
  8
ROGO
 62
     4
100
AcDbLine
 10
25.17427477727125
 20
3.157453445413294
 30
0.0
 11
25.21643053876682
 21
3.45905503789163
 31
0.0
  0
LINE
  5
33B
102
{ACAD_REACTORS
330
321
102
}
330
2FB
100
AcDbEntity
  8
ROGO
 62
     4
100
AcDbLine
 10
25.47108749765961
 20
2.886103156372768
 30
0.0
 11
25.58588379175365
 21
2.870057733155078
 31
0.0
  0
ARC
  5
33C
102
{ACAD_REACTORS
330
321
102
}
330
2FB
100
AcDbEntity
  8
ROGO
 62
     4
100
AcDbCircle
 10
25.6387443480632
 20
3.325209828916853
 30
0.0
 40
0.3329400310507254
100
AcDbArc
 50
3.8519233316636
 51
80.20940670206341
  0
ARC
  5
33D
102
{ACAD_REACTORS
330
321
102
}
330
2FB
100
AcDbEntity
  8
ROGO
 62
     4
100
AcDbCircle
 10
25.53588647264388
 20
3.326301951055086
 30
0.0
 40
0.3459414339941871
100
AcDbArc
 50
82.57970078354313
 51
157.4341870372611
  0
ARC
  5
33E
102
{ACAD_REACTORS
330
321
102
}
330
2FB
100
AcDbEntity
  8
ROGO
 62
     4
100
AcDbCircle
 10
25.4901801758872
 20
3.204994782556525
 30
0.0
 40
0.3194626732688521
100
AcDbArc
 50
188.5583509056651
 51
266.5736774635929
  0
ARC
  5
33F
102
{ACAD_REACTORS
330
321
102
}
330
2FB
100
AcDbEntity
  8
ROGO
 62
     4
100
AcDbCircle
 10
25.6545957362211
 20
3.15826354011392
 30
0.0
 40
0.2962835103026008
100
AcDbArc
 50
256.5902863289752
 51
337.7287536965499
  0
LINE
  5
340
330
2FB
100
AcDbEntity
  8
ROGO
 62
     4
100
AcDbLine
 10
24.88477496917261
 20
4.949786840425644
 30
0.0
 11
25.78248633299404
 21
4.949786840425644
 31
0.0
  0
LINE
  5
341
102
{ACAD_REACTORS
330
321
102
}
330
2FB
100
AcDbEntity
  8
ROGO
 62
     4
100
AcDbLine
 10
24.88477496917216
 20
4.949786840425644
 30
0.0
 11
26.16568830176476
 21
4.949786840425644
 31
0.0
  0
SPLINE
  5
342
102
{ACAD_REACTORS
330
2FD
102
}
330
2FB
100
AcDbEntity
  8
ROGO
 62
     4
100
AcDbSpline
210
0.0
220
0.0
230
1.0
 70
  1064
 71
     3
 72
    16
 73
    12
 74
    10
 42
0.000000001
 43
0.0000000001
 44
0.0000000001
 40
0.0
 40
0.0
 40
0.0
 40
0.0
 40
0.3029648785292662
 40
0.4509413735127406
 40
0.5239132529538871
 40
0.6008137308948676
 40
0.7109349953737607
 40
0.8112058912231468
 40
0.9157860995407137
 40
1.091122375522274
 40
1.264668647774946
 40
1.264668647774946
 40
1.264668647774946
 40
1.264668647774946
 10
30.9158338246271
 20
3.771187801431095
 30
0.0
 10
30.81323617682881
 20
3.755546097864423
 30
0.0
 10
30.66052697686501
 20
3.732264550099957
 30
0.0
 10
30.52243194464859
 20
3.622950041937609
 30
0.0
 10
30.44455593462859
 20
3.557915185941906
 30
0.0
 10
30.41806216907164
 20
3.471790575521504
 30
0.0
 10
30.34690823463121
 20
3.405660095425613
 30
0.0
 10
30.28825715338953
 20
3.314775529002428
 30
0.0
 10
30.27425260468794
 20
3.189944104912785
 30
0.0
 10
30.28453226407141
 20
3.014762225606993
 30
0.0
 10
30.40735963846873
 20
2.978624611086564
 30
0.0
 10
30.46845823186391
 20
2.960648509043437
 30
0.0
 11
30.9158338246271
 21
3.771187801431095
 31
0.0
 11
30.62331943257533
 21
3.692301503097154
 31
0.0
 11
30.50287227176449
 21
3.606339159479716
 31
0.0
 11
30.4512522013344
 21
3.554761417012968
 31
0.0
 11
30.41683816143353
 21
3.485991093724123
 31
0.0
 11
30.34801107105302
 21
3.400028750106798
 31
0.0
 11
30.29639100062269
 21
3.314065845995741
 31
0.0
 11
30.27918398067232
 21
3.210910921555977
 31
0.0
 11
30.31359802057313
 21
3.038985113333978
 31
0.0
 11
30.46845823186391
 21
2.960648509043437
 31
0.0
  0
LINE
  5
343
102
{ACAD_REACTORS
330
2FD
102
}
330
2FB
100
AcDbEntity
  8
ROGO
 62
     4
100
AcDbLine
 10
30.46845823186379
 20
2.960648509043494
 30
0.0
 11
32.49403698331941
 21
2.960648509043494
 31
0.0
  0
LINE
  5
344
102
{ACAD_REACTORS
330
2FD
102
}
330
2FB
100
AcDbEntity
  8
ROGO
 62
     4
100
AcDbLine
 10
30.91583382462699
 20
3.77118780143121
 30
0.0
 11
32.89819805248607
 21
3.77118780143121
 31
0.0
  0
LINE
  5
345
102
{ACAD_REACTORS
330
2FC
102
}
330
2FB
100
AcDbEntity
  8
ROGO
 62
     4
100
AcDbLine
 10
35.38336074148232
 20
2.474893420212764
 30
0.0
 11
36.6174225324171
 21
0.0
 31
0.0
  0
LINE
  5
346
102
{ACAD_REACTORS
330
2FC
102
}
330
2FB
100
AcDbEntity
  8
ROGO
 62
     4
100
AcDbLine
 10
34.14933885635003
 20
1.291950329372126
 30
0.0
 11
34.79354701668626
 21
0.0
 31
0.0
  0
LINE
  5
347
102
{ACAD_REACTORS
330
2FC
102
}
330
2FB
100
AcDbEntity
  8
ROGO
 62
     4
100
AcDbLine
 10
34.14933885635008
 20
1.29195032937207
 30
0.0
 11
33.50513069601385
 21
0.0
 31
0.0
  0
LINE
  5
348
102
{ACAD_REACTORS
330
2FC
102
}
330
2FB
100
AcDbEntity
  8
ROGO
 62
     4
100
AcDbLine
 10
34.79354701668626
 20
0.0
 30
0.0
 11
36.6174225324171
 21
0.0
 31
0.0
  0
LINE
  5
349
102
{ACAD_REACTORS
330
2FC
102
}
330
2FB
100
AcDbEntity
  8
ROGO
 62
     4
100
AcDbLine
 10
35.38336074148232
 20
2.474893420212764
 30
0.0
 11
38.38165352405161
 21
4.949786840425644
 31
0.0
  0
LINE
  5
34A
102
{ACAD_REACTORS
330
2FC
102
}
330
2FB
100
AcDbEntity
  8
ROGO
 62
     4
100
AcDbLine
 10
36.55777800832078
 20
4.949786840425644
 30
0.0
 11
38.38165352405157
 21
4.949786840425644
 31
0.0
  0
LINE
  5
34B
102
{ACAD_REACTORS
330
2FC
102
}
330
2FB
100
AcDbEntity
  8
ROGO
 62
     4
100
AcDbLine
 10
34.14933885635003
 20
4.949786840425644
 30
0.0
 11
35.97325427788326
 21
4.949786840425588
 31
0.0
  0
LINE
  5
34C
102
{ACAD_REACTORS
330
2FC
102
}
330
2FB
100
AcDbEntity
  8
ROGO
 62
     4
100
AcDbLine
 10
35.97325427788326
 20
4.949786840425588
 30
0.0
 11
35.70378540756269
 21
4.409370842614521
 31
0.0
  0
LINE
  5
34D
102
{ACAD_REACTORS
330
2FC
102
}
330
2FB
100
AcDbEntity
  8
ROGO
 62
     4
100
AcDbLine
 10
35.70378540756269
 20
4.409370842614521
 30
0.0
 11
36.55777800832078
 21
4.949786840425644
 31
0.0
  0
ENDBLK
  5
34F
330
2FB
100
AcDbEntity
  8
0
100
AcDbBlockEnd
  0
BLOCK
  5
657
330
64B
100
AcDbEntity
  8
0
100
AcDbBlockBegin
  2
*D2
 70
     1
 10
0.0
 20
0.0
 30
0.0
  3
*D2
  1

  0
LINE
  5
658
330
64B
100
AcDbEntity
  8
0
  6
ByBlock
 62
     2
440
 16777216
100
AcDbLine
 10
570.2336415051153
 20
402.7451430566973
 30
0.0
 11
570.2336415051153
 21
405.154040167339
 31
0.0
  0
LINE
  5
659
330
64B
100
AcDbEntity
  8
0
  6
ByBlock
 62
     2
440
 16777216
100
AcDbLine
 10
547.7336415051153
 20
403.904040167339
 30
0.0
 11
567.7336415051152
 21
403.904040167339
 31
0.0
  0
INSERT
  5
65A
330
64B
100
AcDbEntity
  8
0
  6
ByBlock
 62
     2
440
 16777216
100
AcDbBlockReference
  2
_OPEN
 10
545.2336415051153
 20
403.904040167339
 30
0.0
 41
2.5
 42
2.5
 43
2.5
 50
180.0
  0
INSERT
  5
65B
330
64B
100
AcDbEntity
  8
0
  6
ByBlock
 62
     2
440
 16777216
100
AcDbBlockReference
  2
_OPEN
 10
570.2336415051153
 20
403.904040167339
 30
0.0
 41
2.5
 42
2.5
 43
2.5
  0
MTEXT
  5
65C
330
64B
100
AcDbEntity
  8
0
  6
ByBlock
 62
     6
440
 16777216
100
AcDbMText
 10
557.7336415051153
 20
405.7790401673391
 30
0.0
 40
2.5
 41
0.0
 71
     5
 72
     1
  1
\A1;\U+03C625
  7
STYLE3
 73
     1
 44
1.0
  0
POINT
  5
65D
330
64B
100
AcDbEntity
  8
DEFPOINTS
  6
ByBlock
 62
     0
440
 16777216
100
AcDbPoint
 10
545.2336415051153
 20
396.9506561842697
 30
0.0
  0
POINT
  5
65E
330
64B
100
AcDbEntity
  8
DEFPOINTS
  6
ByBlock
 62
     0
440
 16777216
100
AcDbPoint
 10
570.2336415051153
 20
402.7451430566973
 30
0.0
  0
POINT
  5
65F
330
64B
100
AcDbEntity
  8
DEFPOINTS
  6
ByBlock
 62
     0
440
 16777216
100
AcDbPoint
 10
570.2336415051153
 20
403.904040167339
 30
0.0
  0
ENDBLK
  5
660
330
64B
100
AcDbEntity
  8
0
100
AcDbBlockEnd
  0
BLOCK
  5
679
330
661
100
AcDbEntity
  8
0
100
AcDbBlockBegin
  2
*D3
 70
     1
 10
0.0
 20
0.0
 30
0.0
  3
*D3
  1

  0
LINE
  5
67A
330
661
100
AcDbEntity
  8
0
  6
ByBlock
 62
     2
440
 16777216
100
AcDbLine
 10
488.7336415051156
 20
349.2415490669031
 30
0.0
 11
488.7336415051156
 21
334.0830127777782
 31
0.0
  0
LINE
  5
67B
330
661
100
AcDbEntity
  8
0
  6
ByBlock
 62
     2
440
 16777216
100
AcDbLine
 10
496.7336415051156
 20
349.2415490669031
 30
0.0
 11
496.7336415051156
 21
334.0830127777782
 31
0.0
  0
LINE
  5
67C
330
661
100
AcDbEntity
  8
0
  6
ByBlock
 62
     2
440
 16777216
100
AcDbLine
 10
491.2336415051155
 20
335.3330127777783
 30
0.0
 11
494.2336415051157
 21
335.3330127777783
 31
0.0
  0
INSERT
  5
67D
330
661
100
AcDbEntity
  8
0
  6
ByBlock
 62
     2
440
 16777216
100
AcDbBlockReference
  2
_OPEN
 10
488.7336415051156
 20
335.3330127777783
 30
0.0
 41
2.5
 42
2.5
 43
2.5
 50
180.0
  0
INSERT
  5
67E
330
661
100
AcDbEntity
  8
0
  6
ByBlock
 62
     2
440
 16777216
100
AcDbBlockReference
  2
_OPEN
 10
496.7336415051156
 20
335.3330127777783
 30
0.0
 41
2.5
 42
2.5
 43
2.5
  0
MTEXT
  5
67F
330
661
100
AcDbEntity
  8
0
  6
ByBlock
 62
     6
440
 16777216
100
AcDbMText
 10
492.7336415051156
 20
337.2080127777782
 30
0.0
 40
2.5
 41
0.0
 71
     5
 72
     1
  1
\A1;\U+03C68
  7
STYLE3
 73
     1
 44
1.0
  0
POINT
  5
680
330
661
100
AcDbEntity
  8
DEFPOINTS
  6
ByBlock
 62
     0
440
 16777216
100
AcDbPoint
 10
488.7336415051156
 20
349.2415490669031
 30
0.0
  0
POINT
  5
681
330
661
100
AcDbEntity
  8
DEFPOINTS
  6
ByBlock
 62
     0
440
 16777216
100
AcDbPoint
 10
496.7336415051156
 20
349.2415490669031
 30
0.0
  0
POINT
  5
682
330
661
100
AcDbEntity
  8
DEFPOINTS
  6
ByBlock
 62
     0
440
 16777216
100
AcDbPoint
 10
496.7336415051156
 20
335.3330127777783
 30
0.0
  0
ENDBLK
  5
683
330
661
100
AcDbEntity
  8
0
100
AcDbBlockEnd
  0
BLOCK
  5
8E7
330
7BE
100
AcDbEntity
  8
0
100
AcDbBlockBegin
  2
*D4
 70
     1
 10
0.0
 20
0.0
 30
0.0
  3
*D4
  1

  0
LINE
  5
B14
330
7BE
100
AcDbEntity
  8
文字
 62
     2
440
 16777216
370
    -2
100
AcDbLine
 10
372.1690282762641
 20
279.6894286868406
 30
0.0
 11
372.1690282762641
 21
294.2931268039597
 31
0.0
  0
LINE
  5
B15
330
7BE
100
AcDbEntity
  8
文字
 62
     2
440
 16777216
370
    -2
100
AcDbLine
 10
298.169028276264
 20
279.6894286868405
 30
0.0
 11
298.169028276264
 21
294.2931268039597
 31
0.0
  0
LINE
  5
B16
330
7BE
100
AcDbEntity
  8
文字
 62
     2
440
 16777216
370
    -2
100
AcDbLine
 10
369.6690282762641
 20
293.0431268039596
 30
0.0
 11
300.669028276264
 21
293.0431268039596
 31
0.0
  0
INSERT
  5
B17
330
7BE
100
AcDbEntity
  8
文字
 62
     2
440
 16777216
370
    -2
100
AcDbBlockReference
  2
_OPEN
 10
372.1690282762641
 20
293.0431268039596
 30
0.0
 41
2.5
 42
2.5
 43
2.5
  0
INSERT
  5
B18
330
7BE
100
AcDbEntity
  8
文字
 62
     2
440
 16777216
370
    -2
100
AcDbBlockReference
  2
_OPEN
 10
298.169028276264
 20
293.0431268039596
 30
0.0
 41
2.5
 42
2.5
 43
2.5
 50
180.0
  0
MTEXT
  5
B19
330
7BE
100
AcDbEntity
  8
文字
 62
     6
440
 16777216
100
AcDbMText
 10
335.169028276264
 20
294.9181268039597
 30
0.0
 40
2.5
 41
0.0
 71
     5
 72
     1
  1
\A1;74
  7
STYLE3
 73
     1
 44
1.0
  0
POINT
  5
B1A
330
7BE
100
AcDbEntity
  8
DEFPOINTS
 62
     0
440
 16777216
100
AcDbPoint
 10
372.1690282762641
 20
279.6894286868406
 30
0.0
  0
POINT
  5
B1B
330
7BE
100
AcDbEntity
  8
DEFPOINTS
 62
     0
440
 16777216
100
AcDbPoint
 10
298.169028276264
 20
279.6894286868405
 30
0.0
  0
POINT
  5
B1C
330
7BE
100
AcDbEntity
  8
DEFPOINTS
 62
     0
440
 16777216
100
AcDbPoint
 10
298.169028276264
 20
293.0431268039596
 30
0.0
  0
ENDBLK
  5
8F1
330
7BE
100
AcDbEntity
  8
0
100
AcDbBlockEnd
  0
BLOCK
  5
90C
330
90B
100
AcDbEntity
  8
0
100
AcDbBlockBegin
  2
*D5
 70
     1
 10
0.0
 20
0.0
 30
0.0
  3
*D5
  1

  0
LINE
  5
AF0
330
90B
100
AcDbEntity
  8
寸法線
 62
     2
440
 16777216
370
    -2
100
AcDbLine
 10
445.8450226049479
 20
279.6894286868406
 30
0.0
 11
445.8450226049479
 21
293.0464340895526
 31
0.0
  0
LINE
  5
AF1
330
90B
100
AcDbEntity
  8
寸法線
 62
     2
440
 16777216
370
    -2
100
AcDbLine
 10
477.8450226049478
 20
291.4151362645134
 30
0.0
 11
477.8450226049478
 21
293.0464340895526
 31
0.0
  0
LINE
  5
AF2
330
90B
100
AcDbEntity
  8
寸法線
 62
     2
440
 16777216
370
    -2
100
AcDbLine
 10
448.3450226049479
 20
291.7964340895526
 30
0.0
 11
475.3450226049478
 21
291.7964340895526
 31
0.0
  0
INSERT
  5
AF3
330
90B
100
AcDbEntity
  8
寸法線
 62
     2
440
 16777216
370
    -2
100
AcDbBlockReference
  2
_OPEN
 10
445.8450226049479
 20
291.7964340895526
 30
0.0
 41
2.5
 42
2.5
 43
2.5
 50
180.0
  0
INSERT
  5
AF4
330
90B
100
AcDbEntity
  8
寸法線
 62
     2
440
 16777216
370
    -2
100
AcDbBlockReference
  2
_OPEN
 10
477.8450226049478
 20
291.7964340895526
 30
0.0
 41
2.5
 42
2.5
 43
2.5
  0
MTEXT
  5
AF5
330
90B
100
AcDbEntity
  8
寸法線
 62
     6
440
 16777216
100
AcDbMText
 10
461.8450226049478
 20
293.6714340895526
 30
0.0
 40
2.5
 41
0.0
 71
     5
 72
     1
  1
\A1;32
  7
STYLE3
 73
     1
 44
1.0
  0
POINT
  5
AF6
330
90B
100
AcDbEntity
  8
DEFPOINTS
 62
     0
440
 16777216
100
AcDbPoint
 10
445.8450226049479
 20
279.6894286868406
 30
0.0
  0
POINT
  5
AF7
330
90B
100
AcDbEntity
  8
DEFPOINTS
 62
     0
440
 16777216
100
AcDbPoint
 10
477.8450226049478
 20
291.4151362645134
 30
0.0
  0
POINT
  5
AF8
330
90B
100
AcDbEntity
  8
DEFPOINTS
 62
     0
440
 16777216
100
AcDbPoint
 10
477.8450226049478
 20
291.7964340895526
 30
0.0
  0
ENDBLK
  5
916
330
90B
100
AcDbEntity
  8
0
100
AcDbBlockEnd
  0
BLOCK
  5
919
330
918
100
AcDbEntity
  8
0
100
AcDbBlockBegin
  2
*D6
 70
     1
 10
0.0
 20
0.0
 30
0.0
  3
*D6
  1

  0
LINE
  5
B02
330
918
100
AcDbEntity
  8
寸法線
 62
     2
440
 16777216
370
    -2
100
AcDbLine
 10
445.8450226049479
 20
279.6894286868406
 30
0.0
 11
445.8450226049479
 21
300.6723846062963
 31
0.0
  0
LINE
  5
B03
330
918
100
AcDbEntity
  8
寸法線
 62
     2
440
 16777216
370
    -2
100
AcDbLine
 10
519.8450226049479
 20
279.6894286868405
 30
0.0
 11
519.8450226049479
 21
300.6723846062963
 31
0.0
  0
LINE
  5
B04
330
918
100
AcDbEntity
  8
寸法線
 62
     2
440
 16777216
370
    -2
100
AcDbLine
 10
448.3450226049479
 20
299.4223846062963
 30
0.0
 11
517.345022604948
 21
299.4223846062963
 31
0.0
  0
INSERT
  5
B05
330
918
100
AcDbEntity
  8
寸法線
 62
     2
440
 16777216
370
    -2
100
AcDbBlockReference
  2
_OPEN
 10
445.8450226049479
 20
299.4223846062963
 30
0.0
 41
2.5
 42
2.5
 43
2.5
 50
180.0
  0
INSERT
  5
B06
330
918
100
AcDbEntity
  8
寸法線
 62
     2
440
 16777216
370
    -2
100
AcDbBlockReference
  2
_OPEN
 10
519.8450226049479
 20
299.4223846062963
 30
0.0
 41
2.5
 42
2.5
 43
2.5
  0
MTEXT
  5
B07
330
918
100
AcDbEntity
  8
寸法線
 62
     6
440
 16777216
100
AcDbMText
 10
482.8450226049479
 20
301.2973846062963
 30
0.0
 40
2.5
 41
0.0
 71
     5
 72
     1
  1
\A1;74
  7
STYLE3
 73
     1
 44
1.0
  0
POINT
  5
B08
330
918
100
AcDbEntity
  8
DEFPOINTS
 62
     0
440
 16777216
100
AcDbPoint
 10
445.8450226049479
 20
279.6894286868406
 30
0.0
  0
POINT
  5
B09
330
918
100
AcDbEntity
  8
DEFPOINTS
 62
     0
440
 16777216
100
AcDbPoint
 10
519.8450226049479
 20
279.6894286868405
 30
0.0
  0
POINT
  5
B0A
330
918
100
AcDbEntity
  8
DEFPOINTS
 62
     0
440
 16777216
100
AcDbPoint
 10
519.8450226049479
 20
299.4223846062963
 30
0.0
  0
ENDBLK
  5
923
330
918
100
AcDbEntity
  8
0
100
AcDbBlockEnd
  0
BLOCK
  5
926
330
925
100
AcDbEntity
  8
0
100
AcDbBlockBegin
  2
*D7
 70
     1
 10
0.0
 20
0.0
 30
0.0
  3
*D7
  1

  0
LINE
  5
927
330
925
100
AcDbEntity
  8
0
  6
ByBlock
 62
     2
440
 16777216
100
AcDbLine
 10
566.8336963608186
 20
239.6894286868405
 30
0.0
 11
566.8336963608186
 21
228.7762329757385
 31
0.0
  0
LINE
  5
928
330
925
100
AcDbEntity
  8
0
  6
ByBlock
 62
     2
440
 16777216
100
AcDbLine
 10
534.8336963608185
 20
237.4519648114336
 30
0.0
 11
534.8336963608185
 21
228.7762329757385
 31
0.0
  0
LINE
  5
929
330
925
100
AcDbEntity
  8
0
  6
ByBlock
 62
     2
440
 16777216
100
AcDbLine
 10
564.3336963608186
 20
230.0262329757385
 30
0.0
 11
537.3336963608185
 21
230.0262329757385
 31
0.0
  0
INSERT
  5
92A
330
925
100
AcDbEntity
  8
0
  6
ByBlock
 62
     2
440
 16777216
100
AcDbBlockReference
  2
_OPEN
 10
566.8336963608186
 20
230.0262329757385
 30
0.0
 41
2.5
 42
2.5
 43
2.5
  0
INSERT
  5
92B
330
925
100
AcDbEntity
  8
0
  6
ByBlock
 62
     2
440
 16777216
100
AcDbBlockReference
  2
_OPEN
 10
534.8336963608185
 20
230.0262329757385
 30
0.0
 41
2.5
 42
2.5
 43
2.5
 50
180.0
  0
MTEXT
  5
92C
330
925
100
AcDbEntity
  8
0
  6
ByBlock
 62
     6
440
 16777216
100
AcDbMText
 10
550.8336963608185
 20
231.9012329757385
 30
0.0
 40
2.5
 41
0.0
 71
     5
 72
     1
  1
\A1;32
  7
STYLE3
 73
     1
 44
1.0
  0
POINT
  5
92D
330
925
100
AcDbEntity
  8
DEFPOINTS
  6
ByBlock
 62
     0
440
 16777216
100
AcDbPoint
 10
566.8336963608186
 20
239.6894286868405
 30
0.0
  0
POINT
  5
92E
330
925
100
AcDbEntity
  8
DEFPOINTS
  6
ByBlock
 62
     0
440
 16777216
100
AcDbPoint
 10
534.8336963608185
 20
237.4519648114336
 30
0.0
  0
POINT
  5
92F
330
925
100
AcDbEntity
  8
DEFPOINTS
  6
ByBlock
 62
     0
440
 16777216
100
AcDbPoint
 10
534.8336963608185
 20
230.0262329757385
 30
0.0
  0
ENDBLK
  5
930
330
925
100
AcDbEntity
  8
0
100
AcDbBlockEnd
  0
BLOCK
  5
933
330
932
100
AcDbEntity
  8
0
100
AcDbBlockBegin
  2
*D8
 70
     1
 10
0.0
 20
0.0
 30
0.0
  3
*D8
  1

  0
LINE
  5
934
330
932
100
AcDbEntity
  8
0
  6
ByBlock
 62
     2
440
 16777216
100
AcDbLine
 10
469.8336963608184
 20
236.6894286868406
 30
0.0
 11
469.8336963608184
 21
228.7762329757385
 31
0.0
  0
LINE
  5
935
330
932
100
AcDbEntity
  8
0
  6
ByBlock
 62
     2
440
 16777216
100
AcDbLine
 10
532.3336963608185
 20
230.0262329757385
 30
0.0
 11
472.3336963608185
 21
230.0262329757385
 31
0.0
  0
INSERT
  5
936
330
932
100
AcDbEntity
  8
0
  6
ByBlock
 62
     2
440
 16777216
100
AcDbBlockReference
  2
_OPEN
 10
534.8336963608185
 20
230.0262329757385
 30
0.0
 41
2.5
 42
2.5
 43
2.5
  0
INSERT
  5
937
330
932
100
AcDbEntity
  8
0
  6
ByBlock
 62
     2
440
 16777216
100
AcDbBlockReference
  2
_OPEN
 10
469.8336963608184
 20
230.0262329757385
 30
0.0
 41
2.5
 42
2.5
 43
2.5
 50
180.0
  0
MTEXT
  5
938
330
932
100
AcDbEntity
  8
0
  6
ByBlock
 62
     6
440
 16777216
100
AcDbMText
 10
502.3336963608184
 20
231.9012329757385
 30
0.0
 40
2.5
 41
0.0
 71
     5
 72
     1
  1
\A1;65
  7
STYLE3
 73
     1
 44
1.0
  0
POINT
  5
939
330
932
100
AcDbEntity
  8
DEFPOINTS
  6
ByBlock
 62
     0
440
 16777216
100
AcDbPoint
 10
534.8336963608185
 20
237.4519648114336
 30
0.0
  0
POINT
  5
93A
330
932
100
AcDbEntity
  8
DEFPOINTS
  6
ByBlock
 62
     0
440
 16777216
100
AcDbPoint
 10
469.8336963608184
 20
236.6894286868406
 30
0.0
  0
POINT
  5
93B
330
932
100
AcDbEntity
  8
DEFPOINTS
  6
ByBlock
 62
     0
440
 16777216
100
AcDbPoint
 10
469.8336963608184
 20
230.0262329757385
 30
0.0
  0
ENDBLK
  5
93C
330
932
100
AcDbEntity
  8
0
100
AcDbBlockEnd
  0
BLOCK
  5
93F
330
93E
100
AcDbEntity
  8
0
100
AcDbBlockBegin
  2
*D9
 70
     1
 10
0.0
 20
0.0
 30
0.0
  3
*D9
  1

  0
LINE
  5
940
330
93E
100
AcDbEntity
  8
0
  6
ByBlock
 62
     2
440
 16777216
100
AcDbLine
 10
566.8336963608186
 20
228.7762329757385
 30
0.0
 11
566.8336963608186
 21
219.6250918237315
 31
0.0
  0
LINE
  5
941
330
93E
100
AcDbEntity
  8
0
  6
ByBlock
 62
     2
440
 16777216
100
AcDbLine
 10
426.8336963608184
 20
239.6894286868405
 30
0.0
 11
426.8336963608184
 21
219.6250918237315
 31
0.0
  0
LINE
  5
942
330
93E
100
AcDbEntity
  8
0
  6
ByBlock
 62
     2
440
 16777216
100
AcDbLine
 10
564.3336963608186
 20
220.8750918237314
 30
0.0
 11
429.3336963608184
 21
220.8750918237314
 31
0.0
  0
INSERT
  5
943
330
93E
100
AcDbEntity
  8
0
  6
ByBlock
 62
     2
440
 16777216
100
AcDbBlockReference
  2
_OPEN
 10
566.8336963608186
 20
220.8750918237314
 30
0.0
 41
2.5
 42
2.5
 43
2.5
  0
INSERT
  5
944
330
93E
100
AcDbEntity
  8
0
  6
ByBlock
 62
     2
440
 16777216
100
AcDbBlockReference
  2
_OPEN
 10
426.8336963608184
 20
220.8750918237314
 30
0.0
 41
2.5
 42
2.5
 43
2.5
 50
180.0
  0
MTEXT
  5
945
330
93E
100
AcDbEntity
  8
0
  6
ByBlock
 62
     6
440
 16777216
100
AcDbMText
 10
496.8336963608185
 20
222.7500918237315
 30
0.0
 40
2.5
 41
0.0
 71
     5
 72
     1
  1
\A1;140
  7
STYLE3
 73
     1
 44
1.0
  0
POINT
  5
946
330
93E
100
AcDbEntity
  8
DEFPOINTS
  6
ByBlock
 62
     0
440
 16777216
100
AcDbPoint
 10
566.8336963608186
 20
228.7762329757385
 30
0.0
  0
POINT
  5
947
330
93E
100
AcDbEntity
  8
DEFPOINTS
  6
ByBlock
 62
     0
440
 16777216
100
AcDbPoint
 10
426.8336963608184
 20
239.6894286868405
 30
0.0
  0
POINT
  5
948
330
93E
100
AcDbEntity
  8
DEFPOINTS
  6
ByBlock
 62
     0
440
 16777216
100
AcDbPoint
 10
426.8336963608184
 20
220.8750918237314
 30
0.0
  0
ENDBLK
  5
949
330
93E
100
AcDbEntity
  8
0
100
AcDbBlockEnd
  0
BLOCK
  5
94C
330
94B
100
AcDbEntity
  8
0
100
AcDbBlockBegin
  2
*D10
 70
     1
 10
0.0
 20
0.0
 30
0.0
  3
*D10
  1

  0
LINE
  5
94D
330
94B
100
AcDbEntity
  8
0
  6
ByBlock
 62
     2
440
 16777216
100
AcDbLine
 10
387.4579790759579
 20
239.6894286868407
 30
0.0
 11
387.4579790759579
 21
228.0136379905536
 31
0.0
  0
LINE
  5
94E
330
94B
100
AcDbEntity
  8
0
  6
ByBlock
 62
     2
440
 16777216
100
AcDbLine
 10
287.4579790759579
 20
239.6894286868404
 30
0.0
 11
287.4579790759579
 21
228.0136379905536
 31
0.0
  0
LINE
  5
94F
330
94B
100
AcDbEntity
  8
0
  6
ByBlock
 62
     2
440
 16777216
100
AcDbLine
 10
384.9579790759579
 20
229.2636379905536
 30
0.0
 11
289.9579790759578
 21
229.2636379905536
 31
0.0
  0
INSERT
  5
950
330
94B
100
AcDbEntity
  8
0
  6
ByBlock
 62
     2
440
 16777216
100
AcDbBlockReference
  2
_OPEN
 10
387.4579790759579
 20
229.2636379905536
 30
0.0
 41
2.5
 42
2.5
 43
2.5
  0
INSERT
  5
951
330
94B
100
AcDbEntity
  8
0
  6
ByBlock
 62
     2
440
 16777216
100
AcDbBlockReference
  2
_OPEN
 10
287.4579790759579
 20
229.2636379905536
 30
0.0
 41
2.5
 42
2.5
 43
2.5
 50
180.0
  0
MTEXT
  5
952
330
94B
100
AcDbEntity
  8
0
  6
ByBlock
 62
     6
440
 16777216
100
AcDbMText
 10
337.4579790759578
 20
231.1386379905536
 30
0.0
 40
2.5
 41
0.0
 71
     5
 72
     1
  1
\A1;100
  7
STYLE3
 73
     1
 44
1.0
  0
POINT
  5
953
330
94B
100
AcDbEntity
  8
DEFPOINTS
  6
ByBlock
 62
     0
440
 16777216
100
AcDbPoint
 10
387.4579790759579
 20
239.6894286868407
 30
0.0
  0
POINT
  5
954
330
94B
100
AcDbEntity
  8
DEFPOINTS
  6
ByBlock
 62
     0
440
 16777216
100
AcDbPoint
 10
287.4579790759579
 20
239.6894286868404
 30
0.0
  0
POINT
  5
955
330
94B
100
AcDbEntity
  8
DEFPOINTS
  6
ByBlock
 62
     0
440
 16777216
100
AcDbPoint
 10
287.4579790759579
 20
229.2636379905536
 30
0.0
  0
ENDBLK
  5
956
330
94B
100
AcDbEntity
  8
0
100
AcDbBlockEnd
  0
BLOCK
  5
959
330
958
100
AcDbEntity
  8
0
100
AcDbBlockBegin
  2
*D11
 70
     1
 10
0.0
 20
0.0
 30
0.0
  3
*D11
  1

  0
LINE
  5
95A
330
958
100
AcDbEntity
  8
0
  6
ByBlock
 62
     2
440
 16777216
100
AcDbLine
 10
566.8336963608186
 20
239.6894286868405
 30
0.0
 11
591.7331338329764
 21
239.6894286868405
 31
0.0
  0
LINE
  5
95B
330
958
100
AcDbEntity
  8
0
  6
ByBlock
 62
     2
440
 16777216
100
AcDbLine
 10
549.5657471683872
 20
279.6894286868406
 30
0.0
 11
591.7331338329764
 21
279.6894286868406
 31
0.0
  0
LINE
  5
95C
330
958
100
AcDbEntity
  8
0
  6
ByBlock
 62
     2
440
 16777216
100
AcDbLine
 10
590.4831338329764
 20
242.1894286868405
 30
0.0
 11
590.4831338329764
 21
277.1894286868406
 31
0.0
  0
INSERT
  5
95D
330
958
100
AcDbEntity
  8
0
  6
ByBlock
 62
     2
440
 16777216
100
AcDbBlockReference
  2
_OPEN
 10
590.4831338329764
 20
239.6894286868405
 30
0.0
 41
2.5
 42
2.5
 43
2.5
 50
270.0
  0
INSERT
  5
95E
330
958
100
AcDbEntity
  8
0
  6
ByBlock
 62
     2
440
 16777216
100
AcDbBlockReference
  2
_OPEN
 10
590.4831338329764
 20
279.6894286868406
 30
0.0
 41
2.5
 42
2.5
 43
2.5
 50
90.0
  0
MTEXT
  5
95F
330
958
100
AcDbEntity
  8
0
  6
ByBlock
 62
     6
440
 16777216
100
AcDbMText
 10
588.6081338329764
 20
259.6894286868405
 30
0.0
 40
2.5
 41
0.0
 71
     5
 72
     1
  1
\A1;40
  7
STYLE3
 11
0.0000000000000001
 21
1.0
 31
0.0
 73
     1
 44
1.0
  0
POINT
  5
960
330
958
100
AcDbEntity
  8
DEFPOINTS
  6
ByBlock
 62
     0
440
 16777216
100
AcDbPoint
 10
566.8336963608186
 20
239.6894286868405
 30
0.0
  0
POINT
  5
961
330
958
100
AcDbEntity
  8
DEFPOINTS
  6
ByBlock
 62
     0
440
 16777216
100
AcDbPoint
 10
549.5657471683872
 20
279.6894286868406
 30
0.0
  0
POINT
  5
962
330
958
100
AcDbEntity
  8
DEFPOINTS
  6
ByBlock
 62
     0
440
 16777216
100
AcDbPoint
 10
590.4831338329764
 20
279.6894286868406
 30
0.0
  0
ENDBLK
  5
963
330
958
100
AcDbEntity
  8
0
100
AcDbBlockEnd
  0
BLOCK
  5
966
330
965
100
AcDbEntity
  8
0
100
AcDbBlockBegin
  2
*D12
 70
     1
 10
0.0
 20
0.0
 30
0.0
  3
*D12
  1

  0
LINE
  5
967
330
965
100
AcDbEntity
  8
0
  6
ByBlock
 62
     2
440
 16777216
100
AcDbLine
 10
546.3336963608185
 20
424.6894286868405
 30
0.0
 11
591.7331338329764
 21
424.6894286868405
 31
0.0
  0
LINE
  5
968
330
965
100
AcDbEntity
  8
0
  6
ByBlock
 62
     2
440
 16777216
100
AcDbLine
 10
590.4831338329764
 20
282.1894286868406
 30
0.0
 11
590.4831338329764
 21
422.1894286868406
 31
0.0
  0
INSERT
  5
969
330
965
100
AcDbEntity
  8
0
  6
ByBlock
 62
     2
440
 16777216
100
AcDbBlockReference
  2
_OPEN
 10
590.4831338329764
 20
279.6894286868406
 30
0.0
 41
2.5
 42
2.5
 43
2.5
 50
270.0
  0
INSERT
  5
96A
330
965
100
AcDbEntity
  8
0
  6
ByBlock
 62
     2
440
 16777216
100
AcDbBlockReference
  2
_OPEN
 10
590.4831338329764
 20
424.6894286868405
 30
0.0
 41
2.5
 42
2.5
 43
2.5
 50
90.0
  0
MTEXT
  5
96B
330
965
100
AcDbEntity
  8
0
  6
ByBlock
 62
     6
440
 16777216
100
AcDbMText
 10
588.6081338329764
 20
352.1894286868406
 30
0.0
 40
2.5
 41
0.0
 71
     5
 72
     1
  1
\A1;145
  7
STYLE3
 11
0.0000000000000001
 21
1.0
 31
0.0
 73
     1
 44
1.0
  0
POINT
  5
96C
330
965
100
AcDbEntity
  8
DEFPOINTS
  6
ByBlock
 62
     0
440
 16777216
100
AcDbPoint
 10
549.5657471683872
 20
279.6894286868406
 30
0.0
  0
POINT
  5
96D
330
965
100
AcDbEntity
  8
DEFPOINTS
  6
ByBlock
 62
     0
440
 16777216
100
AcDbPoint
 10
546.3336963608185
 20
424.6894286868405
 30
0.0
  0
POINT
  5
96E
330
965
100
AcDbEntity
  8
DEFPOINTS
  6
ByBlock
 62
     0
440
 16777216
100
AcDbPoint
 10
590.4831338329764
 20
424.6894286868405
 30
0.0
  0
ENDBLK
  5
96F
330
965
100
AcDbEntity
  8
0
100
AcDbBlockEnd
  0
BLOCK
  5
972
330
971
100
AcDbEntity
  8
0
100
AcDbBlockBegin
  2
*D13
 70
     1
 10
0.0
 20
0.0
 30
0.0
  3
*D13
  1

  0
LINE
  5
973
330
971
100
AcDbEntity
  8
0
  6
ByBlock
 62
     2
440
 16777216
100
AcDbLine
 10
591.7331338329764
 20
424.6894286868405
 30
0.0
 11
598.5661602655127
 21
424.6894286868405
 31
0.0
  0
LINE
  5
974
330
971
100
AcDbEntity
  8
0
  6
ByBlock
 62
     2
440
 16777216
100
AcDbLine
 10
591.7331338329764
 20
239.6894286868405
 30
0.0
 11
598.5661602655127
 21
239.6894286868405
 31
0.0
  0
LINE
  5
975
330
971
100
AcDbEntity
  8
0
  6
ByBlock
 62
     2
440
 16777216
100
AcDbLine
 10
597.3161602655127
 20
422.1894286868406
 30
0.0
 11
597.3161602655127
 21
242.1894286868405
 31
0.0
  0
INSERT
  5
976
330
971
100
AcDbEntity
  8
0
  6
ByBlock
 62
     2
440
 16777216
100
AcDbBlockReference
  2
_OPEN
 10
597.3161602655127
 20
424.6894286868405
 30
0.0
 41
2.5
 42
2.5
 43
2.5
 50
90.0
  0
INSERT
  5
977
330
971
100
AcDbEntity
  8
0
  6
ByBlock
 62
     2
440
 16777216
100
AcDbBlockReference
  2
_OPEN
 10
597.3161602655127
 20
239.6894286868405
 30
0.0
 41
2.5
 42
2.5
 43
2.5
 50
270.0
  0
MTEXT
  5
978
330
971
100
AcDbEntity
  8
0
  6
ByBlock
 62
     6
440
 16777216
100
AcDbMText
 10
595.4411602655127
 20
332.1894286868407
 30
0.0
 40
2.5
 41
0.0
 71
     5
 72
     1
  1
\A1;185
  7
STYLE3
 11
0.0000000000000001
 21
1.0
 31
0.0
 73
     1
 44
1.0
  0
POINT
  5
979
330
971
100
AcDbEntity
  8
DEFPOINTS
  6
ByBlock
 62
     0
440
 16777216
100
AcDbPoint
 10
591.7331338329764
 20
424.6894286868405
 30
0.0
  0
POINT
  5
97A
330
971
100
AcDbEntity
  8
DEFPOINTS
  6
ByBlock
 62
     0
440
 16777216
100
AcDbPoint
 10
591.7331338329764
 20
239.6894286868405
 30
0.0
  0
POINT
  5
97B
330
971
100
AcDbEntity
  8
DEFPOINTS
  6
ByBlock
 62
     0
440
 16777216
100
AcDbPoint
 10
597.3161602655127
 20
239.6894286868405
 30
0.0
  0
ENDBLK
  5
97C
330
971
100
AcDbEntity
  8
0
100
AcDbBlockEnd
  0
BLOCK
  5
9A6
330
97E
100
AcDbEntity
  8
0
100
AcDbBlockBegin
  2
*D14
 70
     1
 10
0.0
 20
0.0
 30
0.0
  3
*D14
  1

  0
LINE
  5
AF9
330
97E
100
AcDbEntity
  8
寸法線
 62
     2
440
 16777216
370
    -2
100
AcDbLine
 10
445.8450226049479
 20
279.6894286868406
 30
0.0
 11
433.8179159146527
 21
279.6894286868406
 31
0.0
  0
LINE
  5
AFA
330
97E
100
AcDbEntity
  8
寸法線
 62
     2
440
 16777216
370
    -2
100
AcDbLine
 10
468.845022604948
 20
354.6894286868406
 30
0.0
 11
433.8179159146527
 21
354.6894286868406
 31
0.0
  0
LINE
  5
AFB
330
97E
100
AcDbEntity
  8
寸法線
 62
     2
440
 16777216
370
    -2
100
AcDbLine
 10
435.0679159146527
 20
282.1894286868406
 30
0.0
 11
435.0679159146527
 21
352.1894286868406
 31
0.0
  0
INSERT
  5
AFC
330
97E
100
AcDbEntity
  8
寸法線
 62
     2
440
 16777216
370
    -2
100
AcDbBlockReference
  2
_OPEN
 10
435.0679159146527
 20
279.6894286868406
 30
0.0
 41
2.5
 42
2.5
 43
2.5
 50
270.0
  0
INSERT
  5
AFD
330
97E
100
AcDbEntity
  8
寸法線
 62
     2
440
 16777216
370
    -2
100
AcDbBlockReference
  2
_OPEN
 10
435.0679159146527
 20
354.6894286868406
 30
0.0
 41
2.5
 42
2.5
 43
2.5
 50
90.0
  0
MTEXT
  5
AFE
330
97E
100
AcDbEntity
  8
寸法線
 62
     6
440
 16777216
100
AcDbMText
 10
432.9548206765574
 20
317.1894286868407
 30
0.0
 40
2.5
 41
0.0
 71
     5
 72
     1
  1
\A1;MAX'100
  7
STYLE3
 11
0.0000000000000001
 21
1.0
 31
0.0
 73
     1
 44
1.0
  0
POINT
  5
AFF
330
97E
100
AcDbEntity
  8
DEFPOINTS
 62
     0
440
 16777216
100
AcDbPoint
 10
445.8450226049479
 20
279.6894286868406
 30
0.0
  0
POINT
  5
B00
330
97E
100
AcDbEntity
  8
DEFPOINTS
 62
     0
440
 16777216
100
AcDbPoint
 10
468.845022604948
 20
354.6894286868406
 30
0.0
  0
POINT
  5
B01
330
97E
100
AcDbEntity
  8
DEFPOINTS
 62
     0
440
 16777216
100
AcDbPoint
 10
435.0679159146527
 20
354.6894286868406
 30
0.0
  0
ENDBLK
  5
9B0
330
97E
100
AcDbEntity
  8
0
100
AcDbBlockEnd
  0
BLOCK
  5
998
330
997
100
AcDbEntity
  8
0
100
AcDbBlockBegin
  2
*D15
 70
     1
 10
0.0
 20
0.0
 30
0.0
  3
*D15
  1

  0
LINE
  5
999
330
997
100
AcDbEntity
  8
0
  6
ByBlock
 62
     2
440
 16777216
100
AcDbLine
 10
561.0798389773471
 20
274.6894286868406
 30
0.0
 11
574.2209549001278
 21
274.6894286868406
 31
0.0
  0
LINE
  5
99A
330
997
100
AcDbEntity
  8
0
  6
ByBlock
 62
     2
440
 16777216
100
AcDbLine
 10
572.2472120886274
 20
279.6894286868406
 30
0.0
 11
574.2209549001278
 21
279.6894286868406
 31
0.0
  0
LINE
  5
99B
330
997
100
AcDbEntity
  8
0
  6
ByBlock
 62
     2
440
 16777216
100
AcDbLine
 10
572.9709549001277
 20
272.1894286868406
 30
0.0
 11
572.9709549001277
 21
269.6894286868406
 31
0.0
  0
LINE
  5
99C
330
997
100
AcDbEntity
  8
0
  6
ByBlock
 62
     2
440
 16777216
100
AcDbLine
 10
572.9709549001277
 20
282.1894286868406
 30
0.0
 11
572.9709549001277
 21
284.6894286868407
 31
0.0
  0
LINE
  5
99D
330
997
100
AcDbEntity
  8
0
  6
ByBlock
 62
     2
440
 16777216
100
AcDbLine
 10
572.9709549001277
 20
274.6894286868406
 30
0.0
 11
572.9709549001277
 21
279.6894286868406
 31
0.0
  0
INSERT
  5
99E
330
997
100
AcDbEntity
  8
0
  6
ByBlock
 62
     2
440
 16777216
100
AcDbBlockReference
  2
_OPEN
 10
572.9709549001277
 20
274.6894286868406
 30
0.0
 41
2.5
 42
2.5
 43
2.5
 50
90.0
  0
INSERT
  5
99F
330
997
100
AcDbEntity
  8
0
  6
ByBlock
 62
     2
440
 16777216
100
AcDbBlockReference
  2
_OPEN
 10
572.9709549001277
 20
279.6894286868406
 30
0.0
 41
2.5
 42
2.5
 43
2.5
 50
270.0
  0
MTEXT
  5
9A0
330
997
100
AcDbEntity
  8
0
  6
ByBlock
 62
     6
440
 16777216
100
AcDbMText
 10
571.0959549001278
 20
277.1894286868406
 30
0.0
 40
2.5
 41
0.0
 71
     5
 72
     1
  1
\A1;5
  7
STYLE3
 11
0.0000000000000001
 21
1.0
 31
0.0
 73
     1
 44
1.0
  0
POINT
  5
9A1
330
997
100
AcDbEntity
  8
DEFPOINTS
  6
ByBlock
 62
     0
440
 16777216
100
AcDbPoint
 10
561.0798389773471
 20
274.6894286868406
 30
0.0
  0
POINT
  5
9A2
330
997
100
AcDbEntity
  8
DEFPOINTS
  6
ByBlock
 62
     0
440
 16777216
100
AcDbPoint
 10
572.2472120886274
 20
279.6894286868406
 30
0.0
  0
POINT
  5
9A3
330
997
100
AcDbEntity
  8
DEFPOINTS
  6
ByBlock
 62
     0
440
 16777216
100
AcDbPoint
 10
572.9709549001277
 20
279.6894286868406
 30
0.0
  0
ENDBLK
  5
9A4
330
997
100
AcDbEntity
  8
0
100
AcDbBlockEnd
  0
BLOCK
  5
A1B
330
A1A
100
AcDbEntity
  8
0
100
AcDbBlockBegin
  2
*D16
 70
     1
 10
0.0
 20
0.0
 30
0.0
  3
*D16
  1

  0
LINE
  5
A1C
330
A1A
100
AcDbEntity
  8
0
  6
ByBlock
 62
     2
440
 16777216
100
AcDbLine
 10
461.3336963608187
 20
372.6894286868406
 30
0.0
 11
425.8065896705232
 21
372.6894286868406
 31
0.0
  0
LINE
  5
A1D
330
A1A
100
AcDbEntity
  8
0
  6
ByBlock
 62
     2
440
 16777216
100
AcDbLine
 10
430.7174784333277
 20
354.6894286868406
 30
0.0
 11
425.8065896705232
 21
354.6894286868406
 31
0.0
  0
LINE
  5
A1E
330
A1A
100
AcDbEntity
  8
0
  6
ByBlock
 62
     2
440
 16777216
100
AcDbLine
 10
427.0565896705234
 20
370.1894286868407
 30
0.0
 11
427.0565896705234
 21
357.1894286868406
 31
0.0
  0
INSERT
  5
A1F
330
A1A
100
AcDbEntity
  8
0
  6
ByBlock
 62
     2
440
 16777216
100
AcDbBlockReference
  2
_OPEN
 10
427.0565896705234
 20
372.6894286868406
 30
0.0
 41
2.5
 42
2.5
 43
2.5
 50
90.0
  0
INSERT
  5
A20
330
A1A
100
AcDbEntity
  8
0
  6
ByBlock
 62
     2
440
 16777216
100
AcDbBlockReference
  2
_OPEN
 10
427.0565896705234
 20
354.6894286868406
 30
0.0
 41
2.5
 42
2.5
 43
2.5
 50
270.0
  0
MTEXT
  5
A21
330
A1A
100
AcDbEntity
  8
0
  6
ByBlock
 62
     6
440
 16777216
100
AcDbMText
 10
425.1815896705233
 20
363.6894286868407
 30
0.0
 40
2.5
 41
0.0
 71
     5
 72
     1
  1
\A1;18
  7
STYLE3
 11
0.0000000000000001
 21
1.0
 31
0.0
 73
     1
 44
1.0
  0
POINT
  5
A22
330
A1A
100
AcDbEntity
  8
DEFPOINTS
  6
ByBlock
 62
     0
440
 16777216
100
AcDbPoint
 10
461.3336963608187
 20
372.6894286868406
 30
0.0
  0
POINT
  5
A23
330
A1A
100
AcDbEntity
  8
DEFPOINTS
  6
ByBlock
 62
     0
440
 16777216
100
AcDbPoint
 10
430.7174784333277
 20
354.6894286868406
 30
0.0
  0
POINT
  5
A24
330
A1A
100
AcDbEntity
  8
DEFPOINTS
  6
ByBlock
 62
     0
440
 16777216
100
AcDbPoint
 10
427.0565896705234
 20
354.6894286868406
 30
0.0
  0
ENDBLK
  5
A25
330
A1A
100
AcDbEntity
  8
0
100
AcDbBlockEnd
  0
BLOCK
  5
A54
330
A53
100
AcDbEntity
  8
0
100
AcDbBlockBegin
  2
A$C792C231F
 70
     0
 10
0.0
 20
0.0
 30
0.0
  3
A$C792C231F
  1

  0
LINE
  5
A55
330
A53
100
AcDbEntity
  8
外形線
100
AcDbLine
 10
0.0
 20
0.0
 30
0.0
 11
101.377516
 21
0.0
 31
0.0
  0
ENDBLK
  5
A56
330
A53
100
AcDbEntity
  8
0
100
AcDbBlockEnd
  0
ENDSEC
  0
SECTION
  2
ENTITIES
  0
LWPOLYLINE
  5
1A0
330
18
100
AcDbEntity
  8
C
100
AcDbPolyline
 90
        5
 70
     0
 43
0.8
 10
256.2352605185929
 20
458.9717683211813
 10
633.7352605185929
 20
458.9717683211813
 10
633.7352605185929
 20
176.4717683211813
 10
256.2352605185929
 20
176.4717683211813
 10
256.2352605185929
 20
458.9717683211813
  0
LINE
  5
209
330
18
100
AcDbEntity
  8
中心線
100
AcDbLine
 10
335.169028276264
 20
429.112117357588
 30
0.0
 11
335.169028276264
 21
235.6817384701102
 31
0.0
  0
LINE
  5
20A
330
18
100
AcDbEntity
  8
外形線
100
AcDbLine
 10
347.6690282762641
 20
423.6894286868405
 30
0.0
 11
347.6690282762641
 21
392.6894286868407
 31
0.0
  0
LINE
  5
20B
330
18
100
AcDbEntity
  8
外形線
100
AcDbLine
 10
322.6690282762641
 20
423.6894286868405
 30
0.0
 11
322.6690282762641
 21
392.6894286868407
 31
0.0
  0
LINE
  5
20F
330
18
100
AcDbEntity
  8
外形線
100
AcDbLine
 10
290.9228856597355
 20
274.6894286868406
 30
0.0
 11
379.4151708927925
 21
274.6894286868405
 31
0.0
  0
LINE
  5
239
330
18
100
AcDbEntity
  8
外形線
100
AcDbLine
 10
323.6690282762641
 20
424.6894286868406
 30
0.0
 11
346.6690282762641
 21
424.6894286868405
 31
0.0
  0
LINE
  5
23B
330
18
100
AcDbEntity
  8
外形線
100
AcDbLine
 10
322.6690282762641
 20
423.6894286868405
 30
0.0
 11
323.6690282762641
 21
424.6894286868406
 31
0.0
  0
LINE
  5
23C
330
18
100
AcDbEntity
  8
外形線
100
AcDbLine
 10
346.6690282762641
 20
424.6894286868405
 30
0.0
 11
347.6690282762641
 21
423.6894286868405
 31
0.0
  0
LINE
  5
23D
330
18
100
AcDbEntity
  8
外形線
100
AcDbLine
 10
322.6690282762641
 20
423.6894286868405
 30
0.0
 11
347.6690282762641
 21
423.6894286868405
 31
0.0
  0
LINE
  5
23F
330
18
100
AcDbEntity
  8
外形線
100
AcDbLine
 10
298.169028276264
 20
279.6894286868405
 30
0.0
 11
372.1690282762641
 21
279.6894286868406
 31
0.0
  0
LINE
  5
241
330
18
100
AcDbEntity
  8
外形線
100
AcDbLine
 10
298.169028276264
 20
279.6894286868406
 30
0.0
 11
298.169028276264
 21
275.6894286868406
 31
0.0
  0
ARC
  5
242
330
18
100
AcDbEntity
  8
外形線
100
AcDbCircle
 10
297.169028276264
 20
275.6894286868406
 30
0.0
 40
1.0
100
AcDbArc
 50
270.0
 51
0.0000000000000509
  0
LINE
  5
243
330
18
100
AcDbEntity
  8
外形線
100
AcDbLine
 10
372.1690282762641
 20
279.6894286868406
 30
0.0
 11
372.1690282762641
 21
275.6894286868406
 31
0.0
  0
ARC
  5
244
330
18
100
AcDbEntity
  8
外形線
100
AcDbCircle
 10
373.1690282762641
 20
275.6894286868406
 30
0.0
 40
1.0
100
AcDbArc
 50
179.9999999999999
 51
270.0
  0
LINE
  5
24F
330
18
100
AcDbEntity
  8
外形線
100
AcDbLine
 10
320.919028276264
 20
392.6894286868407
 30
0.0
 11
349.419028276264
 21
392.6894286868407
 31
0.0
  0
LINE
  5
250
330
18
100
AcDbEntity
  8
外形線
100
AcDbLine
 10
320.919028276264
 20
354.6894286868406
 30
0.0
 11
354.6690282762641
 21
354.6894286868406
 31
0.0
  0
LINE
  5
251
330
18
100
AcDbEntity
  8
外形線
100
AcDbLine
 10
319.9190282762641
 20
391.6894286868406
 30
0.0
 11
319.9190282762641
 21
355.6894286868407
 31
0.0
  0
LINE
  5
252
330
18
100
AcDbEntity
  8
外形線
100
AcDbLine
 10
350.419028276264
 20
391.6894286868406
 30
0.0
 11
350.419028276264
 21
370.6894286868406
 31
0.0
  0
ARC
  5
253
330
18
100
AcDbEntity
  8
外形線
100
AcDbCircle
 10
320.919028276264
 20
391.6894286868406
 30
0.0
 40
1.0
100
AcDbArc
 50
89.99999999999984
 51
180.0
  0
ARC
  5
254
330
18
100
AcDbEntity
  8
外形線
100
AcDbCircle
 10
349.419028276264
 20
391.6894286868406
 30
0.0
 40
1.0
100
AcDbArc
 50
0.0
 51
89.99999999999987
  0
ARC
  5
256
330
18
100
AcDbEntity
  8
外形線
100
AcDbCircle
 10
320.919028276264
 20
355.6894286868407
 30
0.0
 40
1.0
100
AcDbArc
 50
180.0
 51
269.9999999999999
  0
LINE
  5
257
330
18
100
AcDbEntity
  8
外形線
100
AcDbLine
 10
322.669028276264
 20
354.6894286868406
 30
0.0
 11
322.669028276264
 21
279.6894286868405
 31
0.0
  0
LINE
  5
258
330
18
100
AcDbEntity
  8
外形線
100
AcDbLine
 10
347.6690282762641
 20
354.6894286868406
 30
0.0
 11
347.669028276264
 21
279.6894286868406
 31
0.0
  0
LINE
  5
259
330
18
100
AcDbEntity
  8
中心線
100
AcDbLine
 10
369.3894520685612
 20
373.6894286868406
 30
0.0
 11
315.5210314812702
 21
373.6894286868406
 31
0.0
  0
LINE
  5
25A
330
18
100
AcDbEntity
  8
外形線
100
AcDbLine
 10
353.4190282762639
 20
380.6894286868407
 30
0.0
 11
350.4190282762639
 21
380.6894286868407
 31
0.0
  0
LINE
  5
25C
330
18
100
AcDbEntity
  8
外形線
100
AcDbLine
 10
353.4190282762641
 20
392.6894286868406
 30
0.0
 11
353.4190282762639
 21
370.6894286868408
 31
0.0
  0
LINE
  5
25D
330
18
100
AcDbEntity
  8
外形線
100
AcDbLine
 10
354.419028276264
 20
392.6894286868406
 30
0.0
 11
354.419028276264
 21
370.6894286868408
 31
0.0
  0
LINE
  5
25E
330
18
100
AcDbEntity
  8
外形線
100
AcDbLine
 10
355.4190282762641
 20
393.6894286868406
 30
0.0
 11
355.4190282762641
 21
369.4800472153697
 31
0.0
  0
LINE
  5
25F
330
18
100
AcDbEntity
  8
外形線
100
AcDbLine
 10
365.4190282762641
 20
393.6894286868406
 30
0.0
 11
365.4190282762641
 21
353.6894286868407
 31
0.0
  0
LINE
  5
260
330
18
100
AcDbEntity
  8
外形線
100
AcDbLine
 10
366.419028276264
 20
392.6894286868406
 30
0.0
 11
366.419028276264
 21
354.6894286868406
 31
0.0
  0
LINE
  5
261
330
18
100
AcDbEntity
  8
外形線
100
AcDbLine
 10
365.4190282762641
 20
393.6894286868406
 30
0.0
 11
355.4190282762641
 21
393.6894286868406
 31
0.0
  0
LINE
  5
262
330
18
100
AcDbEntity
  8
外形線
100
AcDbLine
 10
365.4190282762639
 20
353.6894286868407
 30
0.0
 11
355.4190282762641
 21
353.6894286868407
 31
0.0
  0
LINE
  5
263
330
18
100
AcDbEntity
  8
外形線
100
AcDbLine
 10
354.419028276264
 20
392.6894286868406
 30
0.0
 11
355.4190282762641
 21
393.6894286868406
 31
0.0
  0
LINE
  5
264
330
18
100
AcDbEntity
  8
外形線
100
AcDbLine
 10
365.4190282762641
 20
393.6894286868406
 30
0.0
 11
366.419028276264
 21
392.6894286868406
 31
0.0
  0
LINE
  5
265
330
18
100
AcDbEntity
  8
外形線
100
AcDbLine
 10
366.419028276264
 20
354.6894286868406
 30
0.0
 11
365.4190282762639
 21
353.6894286868407
 31
0.0
  0
LINE
  5
266
330
18
100
AcDbEntity
  8
外形線
100
AcDbLine
 10
355.4190282762641
 20
353.6894286868407
 30
0.0
 11
354.419028276264
 21
354.6894286868406
 31
0.0
  0
LINE
  5
267
330
18
100
AcDbEntity
  8
外形線
100
AcDbLine
 10
354.419028276264
 20
392.6894286868406
 30
0.0
 11
353.4190282762641
 21
392.6894286868406
 31
0.0
  0
LINE
  5
268
330
18
100
AcDbEntity
  8
外形線
100
AcDbLine
 10
354.419028276264
 20
354.6894286868406
 30
0.0
 11
353.4190282762641
 21
354.6894286868406
 31
0.0
  0
LINE
  5
269
330
18
100
AcDbEntity
  8
外形線
100
AcDbLine
 10
365.4190282762641
 20
392.6894286868406
 30
0.0
 11
355.4190282762641
 21
392.6894286868406
 31
0.0
  0
LINE
  5
26A
330
18
100
AcDbEntity
  8
外形線
100
AcDbLine
 10
365.4190282762641
 20
391.6894286868406
 30
0.0
 11
355.4190282762641
 21
391.6894286868406
 31
0.0
  0
LINE
  5
26B
330
18
100
AcDbEntity
  8
外形線
100
AcDbLine
 10
365.4190282762641
 20
390.1894286868406
 30
0.0
 11
355.4190282762641
 21
390.1894286868406
 31
0.0
  0
LINE
  5
26C
330
18
100
AcDbEntity
  8
外形線
100
AcDbLine
 10
365.4190282762641
 20
388.6894286868406
 30
0.0
 11
355.4190282762641
 21
388.6894286868406
 31
0.0
  0
LINE
  5
26D
330
18
100
AcDbEntity
  8
外形線
100
AcDbLine
 10
365.4190282762641
 20
387.0894286868406
 30
0.0
 11
355.4190282762641
 21
387.0894286868406
 31
0.0
  0
LINE
  5
26E
330
18
100
AcDbEntity
  8
外形線
100
AcDbLine
 10
365.4190282762641
 20
385.3894286868406
 30
0.0
 11
355.4190282762641
 21
385.3894286868406
 31
0.0
  0
LINE
  5
26F
330
18
100
AcDbEntity
  8
外形線
100
AcDbLine
 10
365.4190282762641
 20
383.5894286868406
 30
0.0
 11
355.4190282762641
 21
383.5894286868406
 31
0.0
  0
LINE
  5
270
330
18
100
AcDbEntity
  8
外形線
100
AcDbLine
 10
365.4190282762641
 20
381.6894286868406
 30
0.0
 11
355.4190282762641
 21
381.6894286868406
 31
0.0
  0
LINE
  5
271
330
18
100
AcDbEntity
  8
外形線
100
AcDbLine
 10
365.4190282762641
 20
379.6894286868406
 30
0.0
 11
355.4190282762641
 21
379.6894286868406
 31
0.0
  0
LINE
  5
272
330
18
100
AcDbEntity
  8
外形線
100
AcDbLine
 10
365.4190282762641
 20
377.5894286868406
 30
0.0
 11
355.4190282762641
 21
377.5894286868406
 31
0.0
  0
LINE
  5
273
330
18
100
AcDbEntity
  8
外形線
100
AcDbLine
 10
365.4190282762641
 20
375.3894286868406
 30
0.0
 11
355.4190282762641
 21
375.3894286868406
 31
0.0
  0
LINE
  5
275
330
18
100
AcDbEntity
  8
外形線
100
AcDbLine
 10
325.169028276264
 20
387.6894286868406
 30
0.0
 11
345.1690282762641
 21
387.6894286868406
 31
0.0
  0
LINE
  5
276
330
18
100
AcDbEntity
  8
外形線
100
AcDbLine
 10
345.1690282762641
 20
387.6894286868406
 30
0.0
 11
345.1690282762639
 21
366.1894286868407
 31
0.0
  0
LINE
  5
277
330
18
100
AcDbEntity
  8
外形線
100
AcDbLine
 10
325.169028276264
 20
387.6894286868406
 30
0.0
 11
325.169028276264
 21
362.6894286868406
 31
0.0
  0
LINE
  5
278
330
18
100
AcDbEntity
  8
外形線
100
AcDbLine
 10
328.1690282762641
 20
370.6894286868406
 30
0.0
 11
342.169028276264
 21
370.6894286868406
 31
0.0
  0
LINE
  5
279
330
18
100
AcDbEntity
  8
外形線
100
AcDbLine
 10
342.6690282762641
 20
370.1894286868407
 30
0.0
 11
342.6690282762641
 21
354.6894286868406
 31
0.0
  0
LINE
  5
27A
330
18
100
AcDbEntity
  8
外形線
100
AcDbLine
 10
327.6690282762642
 20
370.1894286868407
 30
0.0
 11
327.669028276264
 21
354.6894286868406
 31
0.0
  0
LINE
  5
27B
330
18
100
AcDbEntity
  8
外形線
100
AcDbLine
 10
325.169028276264
 20
387.6894286868406
 30
0.0
 11
327.6690282762642
 21
370.1894286868407
 31
0.0
  0
LINE
  5
27C
330
18
100
AcDbEntity
  8
外形線
100
AcDbLine
 10
345.1690282762641
 20
387.6894286868406
 30
0.0
 11
342.6690282762641
 21
370.1894286868407
 31
0.0
  0
LINE
  5
27E
330
18
100
AcDbEntity
  8
外形線
100
AcDbLine
 10
327.669028276264
 20
354.6894286868406
 30
0.0
 11
325.169028276264
 21
362.6894286868406
 31
0.0
  0
LINE
  5
27F
330
18
100
AcDbEntity
  8
外形線
100
AcDbLine
 10
342.6690282762641
 20
354.6894286868406
 30
0.0
 11
344.075278276264
 21
359.1894286868406
 31
0.0
  0
LINE
  5
280
330
18
100
AcDbEntity
  8
中心線
100
AcDbLine
 10
359.8432040611882
 20
362.6894286868406
 30
0.0
 11
326.1440332304927
 21
362.6894286868406
 31
0.0
  0
LINE
  5
282
330
18
100
AcDbEntity
  8
外形線
100
AcDbLine
 10
347.669028276264
 20
368.6894286868406
 30
0.0
 11
345.6690282762641
 21
368.6894286868406
 31
0.0
  0
LINE
  5
283
330
18
100
AcDbEntity
  8
外形線
100
AcDbLine
 10
347.669028276264
 20
356.6894286868406
 30
0.0
 11
345.6690282762641
 21
356.6894286868408
 31
0.0
  0
LINE
  5
284
330
18
100
AcDbEntity
  8
外形線
100
AcDbLine
 10
345.6690282762641
 20
368.6894286868406
 30
0.0
 11
345.6690282762641
 21
356.6894286868408
 31
0.0
  0
LINE
  5
285
330
18
100
AcDbEntity
  8
外形線
100
AcDbLine
 10
347.669028276264
 20
370.1894286868407
 30
0.0
 11
347.669028276264
 21
355.1894286868406
 31
0.0
  0
LINE
  5
286
330
18
100
AcDbEntity
  8
外形線
100
AcDbLine
 10
354.669028276264
 20
370.6894286868406
 30
0.0
 11
354.669028276264
 21
354.6894286868406
 31
0.0
  0
LINE
  5
288
330
18
100
AcDbEntity
  8
外形線
100
AcDbLine
 10
354.669028276264
 20
370.6894286868406
 30
0.0
 11
348.169028276264
 21
370.6894286868406
 31
0.0
  0
LINE
  5
28B
330
18
100
AcDbEntity
  8
外形線
100
AcDbLine
 10
347.669028276264
 20
370.1894286868407
 30
0.0
 11
348.169028276264
 21
370.6894286868406
 31
0.0
  0
LINE
  5
28C
330
18
100
AcDbEntity
  8
外形線
100
AcDbLine
 10
347.669028276264
 20
355.1894286868406
 30
0.0
 11
348.169028276264
 21
354.6894286868406
 31
0.0
  0
ARC
  5
28D
330
18
100
AcDbEntity
  8
外形線
100
AcDbCircle
 10
343.1190282762639
 20
362.6894286868406
 30
0.0
 40
14.05000000000013
100
AcDbArc
 50
325.2919507274776
 51
34.70804927252258
  0
LINE
  5
2AD
330
18
100
AcDbEntity
  8
外形線
100
AcDbLine
 10
358.419028276264
 20
393.6894286868406
 30
0.0
 11
358.419028276264
 21
373.6894286868406
 31
0.0
  0
LINE
  5
2AE
330
18
100
AcDbEntity
  8
外形線
100
AcDbLine
 10
362.419028276264
 20
393.6894286868406
 30
0.0
 11
362.419028276264
 21
373.6894286868406
 31
0.0
  0
LINE
  5
2B2
330
18
100
AcDbEntity
  8
外形線
100
AcDbLine
 10
353.1690282762641
 20
370.1894286868407
 30
0.0
 11
349.1690282762641
 21
370.1894286868407
 31
0.0
  0
LINE
  5
2B3
330
18
100
AcDbEntity
  8
外形線
100
AcDbLine
 10
353.1690282762641
 20
369.1894286868406
 30
0.0
 11
349.1690282762641
 21
369.1894286868406
 31
0.0
  0
LINE
  5
2B4
330
18
100
AcDbEntity
  8
外形線
100
AcDbLine
 10
353.1690282762641
 20
368.4894286868407
 30
0.0
 11
349.1690282762641
 21
368.4894286868407
 31
0.0
  0
LINE
  5
2B5
330
18
100
AcDbEntity
  8
外形線
100
AcDbLine
 10
353.1690282762641
 20
367.4894286868406
 30
0.0
 11
349.1690282762641
 21
367.4894286868406
 31
0.0
  0
LINE
  5
2B6
330
18
100
AcDbEntity
  8
外形線
100
AcDbLine
 10
353.1690282762641
 20
366.5894286868407
 30
0.0
 11
349.1690282762641
 21
366.5894286868407
 31
0.0
  0
LINE
  5
2B7
330
18
100
AcDbEntity
  8
外形線
100
AcDbLine
 10
353.1690282762641
 20
365.5894286868407
 30
0.0
 11
349.1690282762641
 21
365.5894286868407
 31
0.0
  0
LINE
  5
2B8
330
18
100
AcDbEntity
  8
外形線
100
AcDbLine
 10
353.1690282762641
 20
364.5894286868407
 30
0.0
 11
349.1690282762641
 21
364.5894286868407
 31
0.0
  0
LINE
  5
2B9
330
18
100
AcDbEntity
  8
外形線
100
AcDbLine
 10
353.1690282762641
 20
363.5894286868407
 30
0.0
 11
349.1690282762641
 21
363.5894286868407
 31
0.0
  0
ARC
  5
2BA
330
18
100
AcDbEntity
  8
外形線
100
AcDbCircle
 10
349.1690282762641
 20
369.6894286868407
 30
0.0
 40
0.5
100
AcDbArc
 50
90.0
 51
270.0
  0
ARC
  5
2BC
330
18
100
AcDbEntity
  8
外形線
100
AcDbCircle
 10
353.1690282762641
 20
369.6894286868407
 30
0.0
 40
0.5
100
AcDbArc
 50
270.0
 51
90.0
  0
ARC
  5
2C0
330
18
100
AcDbEntity
  8
外形線
100
AcDbCircle
 10
349.1690282762641
 20
367.9894286868407
 30
0.0
 40
0.5
100
AcDbArc
 50
90.0
 51
270.0
  0
ARC
  5
2C1
330
18
100
AcDbEntity
  8
外形線
100
AcDbCircle
 10
349.1690282762641
 20
366.0894286868408
 30
0.0
 40
0.5
100
AcDbArc
 50
90.0
 51
270.0
  0
ARC
  5
2C2
330
18
100
AcDbEntity
  8
外形線
100
AcDbCircle
 10
349.1690282762641
 20
364.0894286868407
 30
0.0
 40
0.5
100
AcDbArc
 50
90.0
 51
270.0
  0
ARC
  5
2C3
330
18
100
AcDbEntity
  8
外形線
100
AcDbCircle
 10
353.1690282762641
 20
364.0894286868407
 30
0.0
 40
0.5
100
AcDbArc
 50
270.0
 51
90.0
  0
ARC
  5
2C4
330
18
100
AcDbEntity
  8
外形線
100
AcDbCircle
 10
353.1690282762641
 20
366.0894286868408
 30
0.0
 40
0.5
100
AcDbArc
 50
270.0
 51
90.0
  0
ARC
  5
2C5
330
18
100
AcDbEntity
  8
外形線
100
AcDbCircle
 10
353.1690282762641
 20
367.9894286868407
 30
0.0
 40
0.5
100
AcDbArc
 50
270.0
 51
90.0
  0
LINE
  5
2C6
330
18
100
AcDbEntity
  8
外形線
100
AcDbLine
 10
330.7698964849714
 20
371.6894286868405
 30
0.0
 11
339.5681600675771
 21
371.6894286868406
 31
0.0
  0
ARC
  5
2CC
330
18
100
AcDbEntity
  8
外形線
100
AcDbCircle
 10
340.6412561838794
 20
370.6814688182933
 30
0.0
 40
1.472249425698196
100
AcDbArc
 50
136.7927504680167
 51
179.6902229423768
  0
ARC
  5
2CD
330
18
100
AcDbEntity
  8
外形線
100
AcDbCircle
 10
329.6968003686487
 20
370.6814688182933
 30
0.0
 40
1.472249425698196
100
AcDbArc
 50
0.3097770576231489
 51
43.20724953198321
  0
LINE
  5
2CE
330
18
100
AcDbEntity
  8
外形線
100
AcDbLine
 10
330.7698964849714
 20
371.8894286868405
 30
0.0
 11
339.5681600675771
 21
371.8894286868406
 31
0.0
  0
LINE
  5
2CF
330
18
100
AcDbEntity
  8
外形線
100
AcDbLine
 10
330.7698964849714
 20
371.8894286868405
 30
0.0
 11
330.7698964849714
 21
371.6894286868405
 31
0.0
  0
LINE
  5
2D0
330
18
100
AcDbEntity
  8
外形線
100
AcDbLine
 10
339.5681600675567
 20
371.8894286868405
 30
0.0
 11
339.5681600675567
 21
371.6894286868405
 31
0.0
  0
ARC
  5
2D3
330
18
100
AcDbEntity
  8
外形線
100
AcDbCircle
 10
328.1690282762641
 20
370.1894286868407
 30
0.0
 40
0.5
100
AcDbArc
 50
90.00000000000021
 51
179.9999999999998
  0
ARC
  5
2D4
330
18
100
AcDbEntity
  8
外形線
100
AcDbCircle
 10
342.169028276264
 20
370.1894286868407
 30
0.0
 40
0.5
100
AcDbArc
 50
0.0
 51
90.0
  0
LINE
  5
2DB
330
18
100
AcDbEntity
  8
外形線
100
AcDbLine
 10
330.6690282762643
 20
370.6894286868406
 30
0.0
 11
330.669028276264
 21
354.6894286868406
 31
0.0
  0
LINE
  5
2DC
330
18
100
AcDbEntity
  8
外形線
100
AcDbLine
 10
339.669028276264
 20
370.6894286868406
 30
0.0
 11
339.669028276264
 21
354.6894286868406
 31
0.0
  0
LINE
  5
2DE
330
18
100
AcDbEntity
  8
外形線
100
AcDbLine
 10
345.6690282762641
 20
366.1894286868407
 30
0.0
 11
342.6690282762641
 21
366.1894286868407
 31
0.0
  0
LINE
  5
2DF
330
18
100
AcDbEntity
  8
外形線
100
AcDbLine
 10
345.6690282762641
 20
359.1894286868406
 30
0.0
 11
342.6690282762641
 21
359.1894286868406
 31
0.0
  0
LINE
  5
2E0
330
18
100
AcDbEntity
  8
外形線
100
AcDbLine
 10
355.4190282762641
 20
355.8988101583116
 30
0.0
 11
355.4190282762641
 21
353.6894286868407
 31
0.0
  0
LINE
  5
41C
330
18
100
AcDbEntity
  8
中心線
100
AcDbLine
 10
542.845022604948
 20
430.4084463070828
 30
0.0
 11
542.8450226049478
 21
237.4519648114336
 31
0.0
  0
LINE
  5
431
330
18
100
AcDbEntity
  8
外形線
100
AcDbLine
 10
555.3450226049478
 20
354.6894286868406
 30
0.0
 11
555.3450226049478
 21
279.6894286868406
 31
0.0
  0
LINE
  5
432
330
18
100
AcDbEntity
  8
外形線
100
AcDbLine
 10
530.3450226049478
 20
354.6894286868406
 30
0.0
 11
530.3450226049478
 21
279.6894286868406
 31
0.0
  0
LINE
  5
4DB
330
18
100
AcDbEntity
  8
外形線
100
AcDbLine
 10
530.3450226049478
 20
423.6894286868405
 30
0.0
 11
555.3450226049478
 21
423.6894286868405
 31
0.0
  0
LINE
  5
4DC
330
18
100
AcDbEntity
  8
外形線
100
AcDbLine
 10
531.3450226049479
 20
424.6894286868406
 30
0.0
 11
554.3450226049478
 21
424.6894286868405
 31
0.0
  0
LINE
  5
4DD
330
18
100
AcDbEntity
  8
外形線
100
AcDbLine
 10
530.3450226049478
 20
423.6894286868405
 30
0.0
 11
530.3450226049478
 21
400.6894286868406
 31
0.0
  0
LINE
  5
4DF
330
18
100
AcDbEntity
  8
外形線
100
AcDbLine
 10
530.3450226049478
 20
423.6894286868405
 30
0.0
 11
531.3450226049479
 21
424.6894286868406
 31
0.0
  0
LINE
  5
4E0
330
18
100
AcDbEntity
  8
外形線
100
AcDbLine
 10
555.3450226049478
 20
423.6894286868405
 30
0.0
 11
555.3450226049478
 21
400.6894286868406
 31
0.0
  0
LINE
  5
4F0
330
18
100
AcDbEntity
  8
外形線
100
AcDbLine
 10
554.3450226049478
 20
424.6894286868405
 30
0.0
 11
555.3450226049478
 21
423.6894286868405
 31
0.0
  0
DIMENSION
  5
656
330
18
100
AcDbEntity
  8
ﾊｯﾁﾝｸ
100
AcDbDimension
  2
*D2
 10
555.3450226049478
 20
409.3519197872765
 30
0.0
 11
542.8450226049478
 21
411.2269197872767
 31
0.0
 12
-14.88861890016756
 22
5.447879619937566
 32
0.0
 70
    32
  1
\U+03C625
 71
     5
 42
-1.0
  3
STYLE3
100
AcDbAlignedDimension
 13
530.3450226049478
 23
402.3985358042073
 33
0.0
 14
555.3450226049478
 24
408.1930226766348
 34
0.0
100
AcDbRotatedDimension
1001
ACAD
1000
DSTYLE
1002
{
1070
    75
1070
     1
1070
   271
1070
     2
1070
   279
1070
     1
1002
}
  0
DIMENSION
  5
66D
330
18
100
AcDbEntity
  8
ﾊｯﾁﾝｸ
100
AcDbDimension
  2
*D3
 10
481.8450226049482
 20
340.7808923977159
 30
0.0
 11
477.8450226049482
 21
342.6558923977159
 31
0.0
 12
-14.88861890016738
 22
5.447879619937622
 32
0.0
 70
    32
  1
\U+03C68
 71
     5
 42
-1.0
  3
STYLE3
100
AcDbAlignedDimension
 13
473.8450226049482
 23
354.6894286868406
 33
0.0
 14
481.8450226049482
 24
354.6894286868406
 34
0.0
100
AcDbRotatedDimension
1001
ACAD
1000
DSTYLE
1002
{
1070
   271
1070
     2
1002
}
  0
DIMENSION
  5
7CA
330
18
100
AcDbEntity
  8
文字
100
AcDbDimension
  2
*D4
 10
298.169028276264
 20
293.0431268039596
 30
0.0
 11
335.169028276264
 21
294.9181268039597
 31
0.0
 70
    32
 71
     5
 42
74.00000000000011
  3
STYLE3
100
AcDbAlignedDimension
 13
372.1690282762641
 23
279.6894286868406
 33
0.0
 14
298.169028276264
 24
279.6894286868405
 34
0.0
100
AcDbRotatedDimension
1001
ACAD
1000
DSTYLE
1002
{
1070
   271
1070
     2
1002
}
  0
TEXT
  5
812
330
18
100
AcDbEntity
  8
文字
100
AcDbText
 10
316.8988622990071
 20
249.3279663406817
 30
0.0
 40
2.5
  1
TYPE SIS-7
 41
1.399999999999999
  7
4
100
AcDbText
  0
TEXT
  5
813
330
18
100
AcDbEntity
  8
文字
100
AcDbText
 10
318.3679321962309
 20
256.0151711451813
 30
0.0
 40
3.0
  1
DIAL GAUGE STAND
 41
1.35
  7
4
100
AcDbText
  0
LINE
  5
814
330
18
100
AcDbEntity
  8
外形線
100
AcDbLine
 10
373.1690282762641
 20
260.6894286868406
 30
0.0
 11
316.169028276264
 21
260.6894286868406
 31
0.0
  0
LINE
  5
815
330
18
100
AcDbEntity
  8
外形線
100
AcDbLine
 10
316.169028276264
 20
254.6894286868406
 30
0.0
 11
373.1690282762641
 21
254.6894286868406
 31
0.0
  0
LINE
  5
817
330
18
100
AcDbEntity
  8
外形線
100
AcDbLine
 10
373.1690282762641
 20
261.6894286868407
 30
0.0
 11
297.169028276264
 21
261.6894286868407
 31
0.0
  0
LINE
  5
818
330
18
100
AcDbEntity
  8
外形線
100
AcDbLine
 10
373.1690282762641
 20
247.6894286868406
 30
0.0
 11
297.169028276264
 21
247.6894286868406
 31
0.0
  0
INSERT
  5
81D
330
18
100
AcDbEntity
  8
外形線
100
AcDbBlockReference
  2
ROGO
 10
298.4043785263517
 20
253.7988624268126
 30
0.0
 41
0.4
 42
0.4
 43
0.4
  0
LINE
  5
81E
330
18
100
AcDbEntity
  8
外形線
100
AcDbLine
 10
315.1690282762641
 20
248.6894286868406
 30
0.0
 11
297.169028276264
 21
248.6894286868406
 31
0.0
  0
LINE
  5
81F
330
18
100
AcDbEntity
  8
外形線
100
AcDbLine
 10
315.169028276264
 20
260.6894286868406
 30
0.0
 11
297.169028276264
 21
260.6894286868406
 31
0.0
  0
LINE
  5
820
330
18
100
AcDbEntity
  8
外形線
100
AcDbLine
 10
297.169028276264
 20
260.6894286868406
 30
0.0
 11
297.169028276264
 21
248.6894286868406
 31
0.0
  0
LINE
  5
821
330
18
100
AcDbEntity
  8
外形線
100
AcDbLine
 10
296.169028276264
 20
260.6894286868406
 30
0.0
 11
296.169028276264
 21
248.6894286868406
 31
0.0
  0
ARC
  5
822
330
18
100
AcDbEntity
  8
外形線
100
AcDbCircle
 10
297.169028276264
 20
248.6894286868406
 30
0.0
 40
1.0
100
AcDbArc
 50
180.0000000000001
 51
270.0
  0
ARC
  5
823
330
18
100
AcDbEntity
  8
外形線
100
AcDbCircle
 10
297.169028276264
 20
260.6894286868406
 30
0.0
 40
1.0
100
AcDbArc
 50
90.0
 51
180.0000000000001
  0
LINE
  5
824
330
18
100
AcDbEntity
  8
外形線
100
AcDbLine
 10
316.169028276264
 20
260.6894286868406
 30
0.0
 11
316.169028276264
 21
254.6894286868406
 31
0.0
  0
LINE
  5
825
330
18
100
AcDbEntity
  8
外形線
100
AcDbLine
 10
315.169028276264
 20
260.6894286868406
 30
0.0
 11
315.1690282762641
 21
248.6894286868406
 31
0.0
  0
HATCH
  5
82A
330
18
100
AcDbEntity
  8
文字
100
AcDbHatch
 10
0.0
 20
0.0
 30
0.0
210
0.0
220
0.0
230
1.0
  2
SOLID
 70
     1
 71
     0
 91
        1
 92
        7
 72
     0
 73
     1
 93
        4
 10
373.1690282762641
 20
249.6197111414566
 10
373.1690282762641
 20
249.9197111414566
 10
344.8927775722008
 20
249.9197111414566
 10
344.8927775722008
 20
249.6197111414566
 97
        0
 75
     0
 76
     1
 47
0.0312835946974617
 98
        1
 10
363.2322829591954
 20
249.7415790744343
450
        0
451
        0
460
0.0
461
0.0
452
        0
462
0.0
453
        0
470

  0
LINE
  5
82B
330
18
100
AcDbEntity
  8
文字
100
AcDbLine
 10
344.8927775722008
 20
249.6197111414566
 30
0.0
 11
373.1690282762641
 21
249.6197111414566
 31
0.0
  0
LINE
  5
82C
330
18
100
AcDbEntity
  8
文字
100
AcDbLine
 10
344.8927775722008
 20
249.9197111414566
 30
0.0
 11
373.1690282762641
 21
249.9197111414566
 31
0.0
  0
TEXT
  5
82D
330
18
100
AcDbEntity
  8
文字
100
AcDbText
 10
344.9743900769151
 20
250.4905689167574
 30
0.0
 40
2.299999999999998
  1
NO.
 41
1.3
  7
4
100
AcDbText
  0
LINE
  5
82E
330
18
100
AcDbEntity
  8
文字
100
AcDbLine
 10
344.8927775722008
 20
249.9197111414566
 30
0.0
 11
344.8927775722008
 21
249.6197111414566
 31
0.0
  0
LINE
  5
82F
330
18
100
AcDbEntity
  8
外形線
100
AcDbLine
 10
373.1690282762641
 20
260.6894286868406
 30
0.0
 11
373.1690282762641
 21
254.6894286868406
 31
0.0
  0
LINE
  5
830
330
18
100
AcDbEntity
  8
外形線
100
AcDbLine
 10
374.1690282762641
 20
260.6894286868406
 30
0.0
 11
374.1690282762641
 21
248.6894286868406
 31
0.0
  0
ARC
  5
831
330
18
100
AcDbEntity
  8
外形線
100
AcDbCircle
 10
373.1690282762641
 20
248.6894286868406
 30
0.0
 40
1.0
100
AcDbArc
 50
270.0
 51
0.0
  0
LINE
  5
832
330
18
100
AcDbEntity
  8
文字
100
AcDbLine
 10
373.1690282762641
 20
249.9197111414566
 30
0.0
 11
373.1690282762641
 21
249.6197111414566
 31
0.0
  0
ARC
  5
833
330
18
100
AcDbEntity
  8
外形線
100
AcDbCircle
 10
373.1690282762641
 20
260.6894286868406
 30
0.0
 40
1.0
100
AcDbArc
 50
0.0
 51
90.0
  0
LINE
  5
889
330
18
100
AcDbEntity
  8
外形線
100
AcDbLine
 10
434.8450226049478
 20
239.6894286868405
 30
0.0
 11
442.8743565799194
 21
239.6894286868405
 31
0.0
  0
LINE
  5
88D
330
18
100
AcDbEntity
  8
外形線
100
AcDbLine
 10
528.112971797379
 20
279.6894286868406
 30
0.0
 11
557.5770734125167
 21
279.6894286868406
 31
0.0
  0
LINE
  5
89B
330
18
100
AcDbEntity
  8
外形線
100
AcDbLine
 10
440.5988799884193
 20
274.6894286868406
 30
0.0
 11
440.8450226049478
 21
274.6894286868406
 31
0.0
  0
LINE
  5
89C
330
18
100
AcDbEntity
  8
中心線
100
AcDbLine
 10
477.8450226049478
 20
412.4888580582537
 30
0.0
 11
477.8450226049478
 21
236.6894286868406
 31
0.0
  0
LINE
  5
89D
330
18
100
AcDbEntity
  8
外形線
100
AcDbLine
 10
445.8450226049479
 20
279.6894286868406
 30
0.0
 11
519.8450226049479
 21
279.6894286868405
 31
0.0
  0
LINE
  5
89E
330
18
100
AcDbEntity
  8
外形線
100
AcDbLine
 10
519.8450226049479
 20
279.6894286868405
 30
0.0
 11
519.8450226049479
 21
276.6894286868406
 31
0.0
  0
LINE
  5
89F
330
18
100
AcDbEntity
  8
外形線
100
AcDbLine
 10
445.8450226049479
 20
279.6894286868406
 30
0.0
 11
445.8450226049479
 21
276.6894286868406
 31
0.0
  0
LINE
  5
8A2
330
18
100
AcDbEntity
  8
外形線
100
AcDbLine
 10
434.8450226049478
 20
239.6894286868406
 30
0.0
 11
437.609840041294
 21
271.9456321108799
 31
0.0
  0
LINE
  5
8A3
330
18
100
AcDbEntity
  8
外形線
100
AcDbLine
 10
574.8450226049477
 20
239.6894286868405
 30
0.0
 11
572.0802051686016
 21
271.9456321108799
 31
0.0
  0
LINE
  5
8A4
330
18
100
AcDbEntity
  8
外形線
100
AcDbLine
 10
442.8743565799193
 20
239.6894286868405
 30
0.0
 11
443.0457851513478
 21
241.6894286868406
 31
0.0
  0
LINE
  5
8A5
330
18
100
AcDbEntity
  8
外形線
100
AcDbLine
 10
435.0164511763763
 20
241.6894286868406
 30
0.0
 11
562.8450226049478
 21
241.6894286868405
 31
0.0
  0
LINE
  5
8A8
330
18
100
AcDbEntity
  8
外形線
100
AcDbLine
 10
564.8450226049479
 20
239.6894286868405
 30
0.0
 11
562.8450226049478
 21
241.6894286868405
 31
0.0
  0
LINE
  5
8A9
330
18
100
AcDbEntity
  8
外形線
100
AcDbLine
 10
564.8450226049479
 20
239.6894286868405
 30
0.0
 11
574.8450226049478
 21
239.6894286868405
 31
0.0
  0
ARC
  5
8AA
330
18
100
AcDbEntity
  8
外形線
100
AcDbCircle
 10
569.0911652214763
 20
271.6894286868406
 30
0.0
 40
3.0
100
AcDbArc
 50
4.899092453787773
 51
90.0
  0
ARC
  5
8AB
330
18
100
AcDbEntity
  8
外形線
100
AcDbCircle
 10
440.5988799884193
 20
271.6894286868406
 30
0.0
 40
3.0
100
AcDbArc
 50
90.0
 51
175.100907546212
  0
LINE
  5
8AC
330
18
100
AcDbEntity
  8
外形線
100
AcDbLine
 10
527.8450226049478
 20
278.6894286868406
 30
0.0
 11
527.8450226049478
 21
276.6894286868406
 31
0.0
  0
LINE
  5
8AD
330
18
100
AcDbEntity
  8
外形線
100
AcDbLine
 10
557.8450226049478
 20
278.6894286868405
 30
0.0
 11
557.8450226049478
 21
276.6894286868405
 31
0.0
  0
ARC
  5
8B2
330
18
100
AcDbEntity
  8
外形線
100
AcDbCircle
 10
529.8450226049478
 20
278.6894286868406
 30
0.0
 40
2.0
100
AcDbArc
 50
149.9999999999994
 51
180.0
  0
ARC
  5
8B3
330
18
100
AcDbEntity
  8
外形線
100
AcDbCircle
 10
555.8450226049479
 20
278.6894286868405
 30
0.0
 40
2.0
100
AcDbArc
 50
0.0
 51
30.00000000000197
  0
LINE
  5
8B4
330
18
100
AcDbEntity
  8
外形線
100
AcDbLine
 10
525.8450226049478
 20
274.6894286868406
 30
0.0
 11
559.8450226049478
 21
274.6894286868406
 31
0.0
  0
LINE
  5
8B5
330
18
100
AcDbEntity
  8
外形線
100
AcDbLine
 10
559.8450226049478
 20
274.6894286868405
 30
0.0
 11
569.0911652214763
 21
274.6894286868406
 31
0.0
  0
ARC
  5
8B6
330
18
100
AcDbEntity
  8
外形線
100
AcDbCircle
 10
525.8450226049478
 20
276.6894286868406
 30
0.0
 40
2.0
100
AcDbArc
 50
270.0
 51
0.0
  0
ARC
  5
8B7
330
18
100
AcDbEntity
  8
外形線
100
AcDbCircle
 10
559.8450226049478
 20
276.6894286868405
 30
0.0
 40
2.0
100
AcDbArc
 50
180.0
 51
270.0
  0
LINE
  5
8B8
330
18
100
AcDbEntity
  8
外形線
100
AcDbLine
 10
524.8450226049478
 20
274.6894286868406
 30
0.0
 11
525.8450226049478
 21
274.6894286868406
 31
0.0
  0
ARC
  5
8B9
330
18
100
AcDbEntity
  8
外形線
100
AcDbCircle
 10
521.8450226049478
 20
276.6894286868406
 30
0.0
 40
2.0
100
AcDbArc
 50
180.0
 51
270.0
  0
LINE
  5
8BA
330
18
100
AcDbEntity
  8
外形線
100
AcDbLine
 10
440.8450226049478
 20
274.6894286868405
 30
0.0
 11
525.8450226049478
 21
274.6894286868406
 31
0.0
  0
ARC
  5
8BB
330
18
100
AcDbEntity
  8
外形線
100
AcDbCircle
 10
443.8450226049479
 20
276.6894286868406
 30
0.0
 40
2.0
100
AcDbArc
 50
270.0
 51
0.0
  0
LINE
  5
8BD
330
18
100
AcDbEntity
  8
0
  6
ByBlock
 62
     2
100
AcDbLine
 10
530.3450226049478
 20
402.3985358042073
 30
0.0
 11
530.3450226049478
 21
410.6019197872766
 31
0.0
  0
LINE
  5
8BE
330
18
100
AcDbEntity
  8
0
  6
ByBlock
 62
     2
100
AcDbLine
 10
480.3450226049478
 20
409.3519197872765
 30
0.0
 11
527.8450226049478
 21
409.3519197872765
 31
0.0
  0
INSERT
  5
8BF
330
18
100
AcDbEntity
  8
0
  6
ByBlock
 62
     2
100
AcDbBlockReference
  2
_OPEN
 10
477.8450226049478
 20
409.3519197872765
 30
0.0
 41
2.5
 42
2.5
 43
2.5
 50
180.0
  0
INSERT
  5
8C0
330
18
100
AcDbEntity
  8
0
  6
ByBlock
 62
     2
100
AcDbBlockReference
  2
_OPEN
 10
530.3450226049478
 20
409.3519197872765
 30
0.0
 41
2.5
 42
2.5
 43
2.5
  0
MTEXT
  5
8C1
330
18
100
AcDbEntity
  8
0
  6
ByBlock
 62
     6
100
AcDbMText
 10
504.0950226049479
 20
411.2269197872767
 30
0.0
 40
2.5
 41
0.0
 71
     5
 72
     1
  1
\A1;52.5
  7
STYLE3
 73
     1
 44
1.0
  0
POINT
  5
8C3
330
18
100
AcDbEntity
  8
DEFPOINTS
  6
ByBlock
 62
     0
100
AcDbPoint
 10
530.3450226049478
 20
402.3985358042073
 30
0.0
  0
POINT
  5
8C4
330
18
100
AcDbEntity
  8
DEFPOINTS
  6
ByBlock
 62
     0
100
AcDbPoint
 10
530.3450226049478
 20
409.3519197872765
 30
0.0
  0
LINE
  5
8F2
330
18
100
AcDbEntity
  8
外形線
100
AcDbLine
 10
285.1690282762641
 20
239.6894286868404
 30
0.0
 11
295.2056957449785
 21
239.6894286868404
 31
0.0
  0
LINE
  5
8F7
330
18
100
AcDbEntity
  8
外形線
100
AcDbLine
 10
285.1690282762641
 20
239.6894286868404
 30
0.0
 11
287.9338457126102
 21
271.9456321108799
 31
0.0
  0
LINE
  5
8F8
330
18
100
AcDbEntity
  8
外形線
100
AcDbLine
 10
382.4042108399178
 20
271.9456321108798
 30
0.0
 11
385.1690282762641
 21
239.6894286868407
 31
0.0
  0
ARC
  5
8FB
330
18
100
AcDbEntity
  8
外形線
100
AcDbCircle
 10
290.9228856597355
 20
271.6894286868406
 30
0.0
 40
3.0
100
AcDbArc
 50
90.0
 51
175.100907546212
  0
ARC
  5
8FC
330
18
100
AcDbEntity
  8
外形線
100
AcDbCircle
 10
379.4151708927925
 20
271.6894286868405
 30
0.0
 40
3.0
100
AcDbArc
 50
4.899092453787773
 51
90.0
  0
LINE
  5
8FD
330
18
100
AcDbEntity
  8
外形線
100
AcDbLine
 10
297.38445781015
 20
241.6894286868404
 30
0.0
 11
325.6690282762641
 21
241.6894286868405
 31
0.0
  0
LINE
  5
904
330
18
100
AcDbEntity
  8
外形線
100
AcDbLine
 10
327.669028276264
 20
239.6894286868405
 30
0.0
 11
325.6690282762641
 21
241.6894286868405
 31
0.0
  0
LINE
  5
905
330
18
100
AcDbEntity
  8
外形線
100
AcDbLine
 10
342.6690282762641
 20
239.6894286868405
 30
0.0
 11
344.6690282762641
 21
241.6894286868406
 31
0.0
  0
LINE
  5
906
330
18
100
AcDbEntity
  8
外形線
100
AcDbLine
 10
375.1323608075496
 20
239.6894286868406
 30
0.0
 11
372.9535987423782
 21
241.6894286868406
 31
0.0
  0
LINE
  5
907
330
18
100
AcDbEntity
  8
外形線
100
AcDbLine
 10
295.2056957449785
 20
239.6894286868405
 30
0.0
 11
297.38445781015
 21
241.6894286868405
 31
0.0
  0
LINE
  5
908
330
18
100
AcDbEntity
  8
外形線
100
AcDbLine
 10
375.1323608075495
 20
239.6894286868406
 30
0.0
 11
385.1690282762641
 21
239.6894286868407
 31
0.0
  0
LINE
  5
909
330
18
100
AcDbEntity
  8
外形線
100
AcDbLine
 10
327.669028276264
 20
239.6894286868405
 30
0.0
 11
342.6690282762641
 21
239.6894286868405
 31
0.0
  0
LINE
  5
90A
330
18
100
AcDbEntity
  8
外形線
100
AcDbLine
 10
344.6690282762641
 20
241.6894286868406
 30
0.0
 11
372.9535987423782
 21
241.6894286868406
 31
0.0
  0
DIMENSION
  5
917
330
18
100
AcDbEntity
  8
寸法線
100
AcDbDimension
  2
*D5
 10
477.8450226049478
 20
291.7964340895526
 30
0.0
 11
461.8450226049478
 21
293.6714340895526
 31
0.0
 70
    32
 71
     5
 42
31.99999999999983
  3
STYLE3
100
AcDbAlignedDimension
 13
445.8450226049479
 23
279.6894286868406
 33
0.0
 14
477.8450226049478
 24
291.4151362645134
 34
0.0
100
AcDbRotatedDimension
1001
ACAD
1000
DSTYLE
1002
{
1070
   271
1070
     2
1002
}
  0
DIMENSION
  5
924
330
18
100
AcDbEntity
  8
寸法線
100
AcDbDimension
  2
*D6
 10
519.8450226049479
 20
299.4223846062963
 30
0.0
 11
482.8450226049479
 21
301.2973846062963
 31
0.0
 70
    32
 71
     5
 42
74.0
  3
STYLE3
100
AcDbAlignedDimension
 13
445.8450226049479
 23
279.6894286868406
 33
0.0
 14
519.8450226049479
 24
279.6894286868405
 34
0.0
100
AcDbRotatedDimension
1001
ACAD
1000
DSTYLE
1002
{
1070
   271
1070
     2
1002
}
  0
DIMENSION
  5
931
330
18
100
AcDbEntity
  8
寸法線
100
AcDbDimension
  2
*D7
 10
542.8450226049478
 20
230.0262329757385
 30
0.0
 11
558.8450226049478
 21
231.9012329757385
 31
0.0
 12
8.01132624412935
 22
0.0
 32
0.0
 70
    32
 71
     5
 42
-1.0
  3
STYLE3
100
AcDbAlignedDimension
 13
574.8450226049478
 23
239.6894286868405
 33
0.0
 14
542.8450226049478
 24
237.4519648114336
 34
0.0
100
AcDbRotatedDimension
1001
ACAD
1000
DSTYLE
1002
{
1070
   271
1070
     2
1002
}
  0
DIMENSION
  5
93D
330
18
100
AcDbEntity
  8
寸法線
100
AcDbDimension
  2
*D8
 10
477.8450226049478
 20
230.0262329757385
 30
0.0
 11
510.3450226049479
 21
231.9012329757385
 31
0.0
 12
8.01132624412935
 22
0.0
 32
0.0
 70
    32
 71
     5
 42
-1.0
  3
STYLE3
100
AcDbAlignedDimension
 13
542.8450226049478
 23
237.4519648114336
 33
0.0
 14
477.8450226049478
 24
236.6894286868406
 34
0.0
100
AcDbRotatedDimension
1001
ACAD
1000
DSTYLE
1002
{
1070
    75
1070
     1
1070
   271
1070
     2
1070
   279
1070
     1
1002
}
  0
DIMENSION
  5
94A
330
18
100
AcDbEntity
  8
寸法線
100
AcDbDimension
  2
*D9
 10
434.8450226049478
 20
220.8750918237314
 30
0.0
 11
504.8450226049478
 21
222.7500918237315
 31
0.0
 12
8.01132624412935
 22
0.0
 32
0.0
 70
    32
 71
     5
 42
-1.0
  3
STYLE3
100
AcDbAlignedDimension
 13
574.8450226049478
 23
228.7762329757385
 33
0.0
 14
434.8450226049478
 24
239.6894286868405
 34
0.0
100
AcDbRotatedDimension
1001
ACAD
1000
DSTYLE
1002
{
1070
   271
1070
     2
1002
}
  0
DIMENSION
  5
957
330
18
100
AcDbEntity
  8
寸法線
100
AcDbDimension
  2
*D10
 10
285.1690282762641
 20
229.2636379905536
 30
0.0
 11
335.169028276264
 21
231.1386379905536
 31
0.0
 12
-2.288950799693793
 22
0.0
 32
0.0
 70
    32
 71
     5
 42
-1.0
  3
STYLE3
100
AcDbAlignedDimension
 13
385.1690282762641
 23
239.6894286868407
 33
0.0
 14
285.1690282762641
 24
239.6894286868404
 34
0.0
100
AcDbRotatedDimension
1001
ACAD
1000
DSTYLE
1002
{
1070
   271
1070
     2
1002
}
  0
DIMENSION
  5
964
330
18
100
AcDbEntity
  8
寸法線
100
AcDbDimension
  2
*D11
 10
598.4944600771058
 20
279.6894286868406
 30
0.0
 11
596.6194600771058
 21
259.6894286868405
 31
0.0
 12
8.01132624412935
 22
0.0
 32
0.0
 70
    32
 71
     5
 42
-1.0
  3
STYLE3
100
AcDbAlignedDimension
 13
574.8450226049478
 23
239.6894286868405
 33
0.0
 14
557.5770734125167
 24
279.6894286868406
 34
0.0
 50
90.0
100
AcDbRotatedDimension
1001
ACAD
1000
DSTYLE
1002
{
1070
   271
1070
     2
1002
}
  0
DIMENSION
  5
970
330
18
100
AcDbEntity
  8
寸法線
100
AcDbDimension
  2
*D12
 10
598.4944600771058
 20
424.6894286868405
 30
0.0
 11
596.6194600771058
 21
352.1894286868406
 31
0.0
 12
8.01132624412935
 22
0.0
 32
0.0
 70
    32
 71
     5
 42
-1.0
  3
STYLE3
100
AcDbAlignedDimension
 13
557.5770734125167
 23
279.6894286868406
 33
0.0
 14
554.3450226049478
 24
424.6894286868405
 34
0.0
 50
90.0
100
AcDbRotatedDimension
1001
ACAD
1000
DSTYLE
1002
{
1070
    75
1070
     1
1070
   271
1070
     2
1070
   279
1070
     1
1002
}
  0
DIMENSION
  5
97D
330
18
100
AcDbEntity
  8
寸法線
100
AcDbDimension
  2
*D13
 10
605.3274865096421
 20
239.6894286868405
 30
0.0
 11
603.4524865096421
 21
332.1894286868407
 31
0.0
 12
8.01132624412935
 22
0.0
 32
0.0
 70
    32
 71
     5
 42
-1.0
  3
STYLE3
100
AcDbAlignedDimension
 13
599.7444600771058
 23
424.6894286868405
 33
0.0
 14
599.7444600771058
 24
239.6894286868405
 34
0.0
 50
90.0
100
AcDbRotatedDimension
1001
ACAD
1000
DSTYLE
1002
{
1070
   271
1070
     2
1002
}
  0
DIMENSION
  5
98A
330
18
100
AcDbEntity
  8
寸法線
100
AcDbDimension
  2
*D14
 10
435.0679159146527
 20
354.6894286868406
 30
0.0
 11
432.9548206765574
 21
317.1894286868407
 31
0.0
 70
    32
  1
MAX'100
 71
     5
 42
75.0
  3
STYLE3
100
AcDbAlignedDimension
 13
445.8450226049479
 23
279.6894286868406
 33
0.0
 14
468.845022604948
 24
354.6894286868406
 34
0.0
 50
90.0
100
AcDbRotatedDimension
1001
ACAD
1000
DSTYLE
1002
{
1070
   271
1070
     2
1002
}
  0
DIMENSION
  5
9A5
330
18
100
AcDbEntity
  8
寸法線
100
AcDbDimension
  2
*D15
 10
580.9822811442573
 20
279.6894286868406
 30
0.0
 11
579.1072811442573
 21
277.1894286868406
 31
0.0
 12
8.01132624412935
 22
0.0
 32
0.0
 70
    32
 71
     5
 42
-1.0
  3
STYLE3
100
AcDbAlignedDimension
 13
569.0911652214763
 23
274.6894286868406
 33
0.0
 14
580.2585383327567
 24
279.6894286868406
 34
0.0
 50
90.0
100
AcDbRotatedDimension
1001
ACAD
1000
DSTYLE
1002
{
1070
   271
1070
     2
1002
}
  0
LINE
  5
9E0
330
18
100
AcDbEntity
  8
中心線
100
AcDbLine
 10
463.5394705816412
 20
366.6894286868406
 30
0.0
 11
492.0377065549009
 21
366.6894286868406
 31
0.0
  0
CIRCLE
  5
9E1
330
18
100
AcDbEntity
  8
外形線
100
AcDbCircle
 10
565.8450226049479
 20
377.6894286868406
 30
0.0
 40
22.5
  0
CIRCLE
  5
9E2
330
18
100
AcDbEntity
  8
外形線
100
AcDbCircle
 10
565.8450226049479
 20
377.6894286868406
 30
0.0
 40
25.0
  0
LINE
  5
9E3
330
18
100
AcDbEntity
  8
中心線
100
AcDbLine
 10
535.8730605895058
 20
377.6894286868406
 30
0.0
 11
595.7049958520395
 21
377.6894286868406
 31
0.0
  0
LINE
  5
9E4
330
18
100
AcDbEntity
  8
外形線
100
AcDbLine
 10
526.9760793160511
 20
396.0935818601685
 30
0.0
 11
492.8450226049481
 21
372.6894286868406
 31
0.0
  0
LINE
  5
9E5
330
18
100
AcDbEntity
  8
外形線
100
AcDbLine
 10
556.1440727071079
 20
354.6894286868406
 30
0.0
 11
469.3450226049482
 21
354.6894286868406
 31
0.0
  0
LINE
  5
9E6
330
18
100
AcDbEntity
  8
外形線
100
AcDbLine
 10
492.8450226049481
 20
372.6894286868406
 30
0.0
 11
483.1365252270773
 21
372.6894286868406
 31
0.0
  0
LINE
  5
9E7
330
18
100
AcDbEntity
  8
隠れ線2
100
AcDbLine
 10
472.845022604948
 20
360.4444306884423
 30
0.0
 11
472.845022604948
 21
354.6894286868406
 31
0.0
  0
LINE
  5
9E8
330
18
100
AcDbEntity
  8
隠れ線2
100
AcDbLine
 10
482.8450226049482
 20
360.4444306884423
 30
0.0
 11
482.8450226049482
 21
354.6894286868406
 31
0.0
  0
LINE
  5
9E9
330
18
100
AcDbEntity
  8
隠れ線2
100
AcDbLine
 10
473.8450226049482
 20
359.7612254565652
 30
0.0
 11
473.8450226049479
 21
354.6894286868406
 31
0.0
  0
LINE
  5
9EA
330
18
100
AcDbEntity
  8
隠れ線2
100
AcDbLine
 10
481.8450226049482
 20
359.7612254565652
 30
0.0
 11
481.8450226049482
 21
354.6894286868406
 31
0.0
  0
ARC
  5
9EB
330
18
100
AcDbEntity
  8
外形線
100
AcDbCircle
 10
469.3450226049482
 20
356.1894286868406
 30
0.0
 40
1.5
100
AcDbArc
 50
180.0
 51
270.0
  0
LINE
  5
9EC
330
18
100
AcDbEntity
  8
外形線
100
AcDbLine
 10
487.8450226049482
 20
372.6894286868406
 30
0.0
 11
487.8450226049482
 21
354.6894286868406
 31
0.0
  0
CIRCLE
  5
9ED
330
18
100
AcDbEntity
  8
外形線
100
AcDbCircle
 10
477.8450226049479
 20
366.6894286868406
 30
0.0
 40
7.5
  0
CIRCLE
  5
9EE
330
18
100
AcDbEntity
  8
外形線
100
AcDbCircle
 10
477.8450226049479
 20
366.6894286868406
 30
0.0
 40
8.0
  0
LINE
  5
9EF
330
18
100
AcDbEntity
  8
外形線
100
AcDbLine
 10
467.8450226049481
 20
371.1894286868406
 30
0.0
 11
467.8450226049482
 21
356.1894286868406
 31
0.0
  0
ARC
  5
9F0
330
18
100
AcDbEntity
  8
外形線
100
AcDbCircle
 10
469.3450226049479
 20
371.1894286868406
 30
0.0
 40
1.5
100
AcDbArc
 50
90.0
 51
180.0
  0
LINE
  5
9F1
330
18
100
AcDbEntity
  8
外形線
100
AcDbLine
 10
472.553519982819
 20
372.6894286868406
 30
0.0
 11
469.3450226049479
 21
372.6894286868406
 31
0.0
  0
LINE
  5
9F2
330
18
100
AcDbEntity
  8
隠れ線2
100
AcDbLine
 10
471.6000246065497
 20
371.6894286868406
 30
0.0
 11
471.5950226049482
 21
371.6894286868406
 31
0.0
  0
LINE
  5
9F3
330
18
100
AcDbEntity
  8
隠れ線2
100
AcDbLine
 10
471.5950226049482
 20
372.6894286868406
 30
0.0
 11
471.5950226049482
 21
371.6894286868406
 31
0.0
  0
LINE
  5
9F4
330
18
100
AcDbEntity
  8
隠れ線2
100
AcDbLine
 10
484.0950226049479
 20
371.6894286868406
 30
0.0
 11
484.0900206033465
 21
371.6894286868406
 31
0.0
  0
LINE
  5
9F5
330
18
100
AcDbEntity
  8
隠れ線2
100
AcDbLine
 10
484.0950226049479
 20
372.6894286868406
 30
0.0
 11
484.0950226049479
 21
371.6894286868406
 31
0.0
  0
CIRCLE
  5
9F6
330
18
100
AcDbEntity
  8
外形線
100
AcDbCircle
 10
565.8450226049479
 20
377.6894286868406
 30
0.0
 40
11.5
  0
LINE
  5
9F7
330
18
100
AcDbEntity
  8
中心線
100
AcDbLine
 10
565.8450226049479
 20
405.5607857168681
 30
0.0
 11
565.8450226049479
 21
348.4654877546902
 31
0.0
  0
LINE
  5
9F8
330
18
100
AcDbEntity
  8
外形線
100
AcDbLine
 10
527.8450226049479
 20
399.1894286868406
 30
0.0
 11
527.8450226049479
 21
356.1894286868406
 31
0.0
  0
ARC
  5
9F9
330
18
100
AcDbEntity
  8
外形線
100
AcDbCircle
 10
529.3450226049481
 20
356.1894286868406
 30
0.0
 40
1.5
100
AcDbArc
 50
180.0
 51
270.0
  0
LINE
  5
9FB
330
18
100
AcDbEntity
  8
外形線
100
AcDbLine
 10
556.152515264026
 20
400.6894286868406
 30
0.0
 11
529.3450226049481
 21
400.6894286868406
 31
0.0
  0
ARC
  5
9FC
330
18
100
AcDbEntity
  8
外形線
100
AcDbCircle
 10
529.3450226049481
 20
399.1894286868406
 30
0.0
 40
1.5
100
AcDbArc
 50
90.0
 51
180.0
  0
ARC
  5
9FD
330
18
100
AcDbEntity
  8
外形線
100
AcDbCircle
 10
525.8450226049481
 20
397.7430395638604
 30
0.0
 40
2.0
100
AcDbArc
 50
304.4389893088036
 51
0.000000000000007
  0
DIMENSION
  5
A26
330
18
100
AcDbEntity
  8
寸法線
100
AcDbDimension
  2
*D16
 10
435.0679159146527
 20
354.6894286868406
 30
0.0
 11
433.1929159146526
 21
363.6894286868407
 31
0.0
 12
8.01132624412935
 22
0.0
 32
0.0
 70
    32
 71
     5
 42
-1.0
  3
STYLE3
100
AcDbAlignedDimension
 13
469.3450226049479
 23
372.6894286868406
 33
0.0
 14
438.7288046774569
 24
354.6894286868406
 34
0.0
 50
90.0
100
AcDbRotatedDimension
1001
ACAD
1000
DSTYLE
1002
{
1070
   271
1070
     2
1002
}
  0
TEXT
  5
A74
330
18
100
AcDbEntity
  8
文字
  6
Continuous
100
AcDbText
 10
387.132186285107
 20
448.3088150161453
 30
0.0
 40
4.0
  1
Model No.SIS-7 Dial Gauge Stand
  7
STYLE3
100
AcDbText
  0
INSERT
  5
A75
330
18
100
AcDbEntity
  8
外形線
100
AcDbBlockReference
  2
A$C792C231F
 10
386.7132712851071
 20
444.5403460161451
 30
0.0
  0
LINE
  5
A76
330
18
100
AcDbEntity
  8
外形線
100
AcDbLine
 10
386.7132712851071
 20
445.7965020161453
 30
0.0
 11
488.0907862851071
 21
445.7965020161453
 31
0.0
  0
TEXT
  5
A77
330
18
100
AcDbEntity
  8
0
  6
Continuous
100
AcDbText
 10
493.4459152851069
 20
178.7271280161453
 30
0.0
 40
2.1
  1
3RD Angle Projection
  7
STYLE3
100
AcDbText
  0
TEXT
  5
A78
330
18
100
AcDbEntity
  8
0
  6
Continuous
100
AcDbText
 10
496.0693582851069
 20
182.2234110161453
 30
0.0
 40
3.0
  1
三　　角　　法
  7
STYLE3
100
AcDbText
  0
LINE
  5
A79
330
18
100
AcDbEntity
  8
外形線
100
AcDbLine
 10
492.279939285107
 20
197.3739710161453
 30
0.0
 11
633.0713572851069
 21
197.3739710161453
 31
0.0
  0
LINE
  5
A7A
330
18
100
AcDbEntity
  8
外形線
100
AcDbLine
 10
492.279939285107
 20
186.5937650161453
 30
0.0
 11
633.0713572851069
 21
186.5937650161453
 31
0.0
  0
TEXT
  5
A7B
330
18
100
AcDbEntity
  8
0
  6
Continuous
100
AcDbText
 10
493.7374072851069
 20
188.4917550161453
 30
0.0
 40
2.1
  1
Design and specifications are subject to change without notice for future improvement.
  7
STYLE3
100
AcDbText
  0
TEXT
  5
A7C
330
18
100
AcDbEntity
  8
0
  6
Continuous
100
AcDbText
 10
494.0289012851069
 20
192.4209030161453
 30
0.0
 40
3.5
  1
仕様及び外観は予告なく変更される場合がございますのでご了承下さい。
  7
STYLE3
100
AcDbText
  0
LINE
  5
A7D
330
18
100
AcDbEntity
  8
外形線
100
AcDbLine
 10
492.279939285107
 20
176.9789870161453
 30
0.0
 11
492.279939285107
 21
197.3739710161453
 31
0.0
  0
TEXT
  5
A7E
330
18
100
AcDbEntity
  8
0
  6
Continuous
100
AcDbText
 10
596.5261482851068
 20
178.7271280161453
 30
0.0
 40
2.1
  1
OZAKI MFG. CO., LTD.
  7
STYLE3
100
AcDbText
  0
TEXT
  5
A7F
330
18
100
AcDbEntity
  8
0
  6
Continuous
100
AcDbText
 10
595.651669285107
 20
182.5147670161453
 30
0.0
 40
3.0
  1
株式会社　尾崎製作所
  7
STYLE3
100
AcDbText
  0
TEXT
  5
A80
330
18
100
AcDbEntity
  8
0
  6
Continuous
100
AcDbText
 10
537.0501842851068
 20
180.4752710161453
 30
0.0
 40
2.399999999999999
  1
mm
  7
STYLE3
100
AcDbText
  0
LINE
  5
A81
330
18
100
AcDbEntity
  8
外形線
100
AcDbLine
 10
527.550667285107
 20
186.5937650161453
 30
0.0
 11
527.550667285107
 21
176.9789870161453
 31
0.0
  0
TEXT
  5
A82
330
18
100
AcDbEntity
  8
0
  6
Continuous
100
AcDbText
 10
529.0081362851069
 20
182.2293650161453
 30
0.0
 40
3.0
  1
単位
  7
STYLE3
100
AcDbText
  0
TEXT
  5
A83
330
18
100
AcDbEntity
  8
0
  6
Continuous
100
AcDbText
 10
529.1798572851071
 20
178.7271290161453
 30
0.0
 40
2.1
  1
Unit
  7
STYLE3
100
AcDbText
  0
TEXT
  5
A84
330
18
100
AcDbEntity
  8
0
  6
Continuous
100
AcDbText
 10
546.3260322851071
 20
181.9380070161453
 30
0.0
 40
3.0
  1
尺 度
  7
STYLE3
100
AcDbText
  0
TEXT
  5
A85
330
18
100
AcDbEntity
  8
0
  6
Continuous
100
AcDbText
 10
546.7892472851068
 20
179.0184860161453
 30
0.0
 40
2.1
  1
Scale
  7
STYLE3
100
AcDbText
  0
LINE
  5
A86
330
18
100
AcDbEntity
  8
外形線
100
AcDbLine
 10
545.0402852851068
 20
186.5937650161453
 30
0.0
 11
545.0402852851068
 21
176.9789870161453
 31
0.0
  0
LINE
  5
A87
330
18
100
AcDbEntity
  8
外形線
100
AcDbLine
 10
564.5703572851069
 20
186.5937650161453
 30
0.0
 11
564.5703572851069
 21
176.9789870161453
 31
0.0
  0
TEXT
  5
A88
330
18
100
AcDbEntity
  8
0
  6
Continuous
100
AcDbText
 10
556.4085362851069
 20
180.7666280161453
 30
0.0
 40
2.399999999999999
  1
1/1
  7
STYLE3
100
AcDbText
  0
TEXT
  5
A89
330
18
100
AcDbEntity
  8
0
  6
Continuous
100
AcDbText
 10
575.2471152851069
 20
180.4752700161453
 30
0.0
 40
2.1
  1
2010.06.15
  7
STYLE3
100
AcDbText
  0
TEXT
  5
A8A
330
18
100
AcDbEntity
  8
0
  6
Continuous
100
AcDbText
 10
566.1189472851068
 20
182.0602130161453
 30
0.0
 40
3.0
  1
日 付
  7
STYLE3
100
AcDbText
  0
TEXT
  5
A8B
330
18
100
AcDbEntity
  8
0
  6
Continuous
100
AcDbText
 10
566.502308285107
 20
178.7271290161453
 30
0.0
 40
2.1
  1
Date
  7
STYLE3
100
AcDbText
  0
LINE
  5
A8C
330
18
100
AcDbEntity
  8
外形線
100
AcDbLine
 10
594.3027062851069
 20
186.5937650161453
 30
0.0
 11
594.3027062851069
 21
176.9789870161453
 31
0.0
  0
ENDSEC
  0
SECTION
  2
OBJECTS
  0
DICTIONARY
  5
C
330
0
100
AcDbDictionary
281
     1
  3
ACAD_CIP_PREVIOUS_PRODUCT_INFO
350
AE0
  3
ACAD_COLOR
350
A48
  3
ACAD_DETAILVIEWSTYLE
350
ADC
  3
ACAD_GROUP
350
D
  3
ACAD_LAYOUT
350
A49
  3
ACAD_MATERIAL
350
A47
  3
ACAD_MLEADERSTYLE
350
AD8
  3
ACAD_MLINESTYLE
350
1B
  3
ACAD_PLOTSETTINGS
350
A4A
  3
ACAD_PLOTSTYLENAME
350
A45
  3
ACAD_SCALELIST
350
AC6
  3
ACAD_SECTIONVIEWSTYLE
350
ADA
  3
ACAD_TABLESTYLE
350
AC4
  3
ACAD_VISUALSTYLE
350
AAB
  3
ACDB_RECOMPOSE_DATA
350
B45
  3
ACDBVARIABLEDICTIONARY
350
3A8
  0
DICTIONARY
  5
B2C
330
E
100
AcDbDictionary
280
     1
281
     1
  3
ADSK_XREC_LAYER_RECONCILED
360
B2D
  0
DICTIONARY
  5
B2E
330
25
100
AcDbDictionary
280
     1
281
     1
  3
ADSK_XREC_LAYER_RECONCILED
360
B2F
  0
DICTIONARY
  5
B30
330
26
100
AcDbDictionary
280
     1
281
     1
  3
ADSK_XREC_LAYER_RECONCILED
360
B31
  0
DICTIONARY
  5
B32
330
27
100
AcDbDictionary
280
     1
281
     1
  3
ADSK_XREC_LAYER_RECONCILED
360
B33
  0
DICTIONARY
  5
B34
330
2A
100
AcDbDictionary
280
     1
281
     1
  3
ADSK_XREC_LAYER_RECONCILED
360
B35
  0
DICTIONARY
  5
B36
330
2B
100
AcDbDictionary
280
     1
281
     1
  3
ADSK_XREC_LAYER_RECONCILED
360
B37
  0
DICTIONARY
  5
B38
330
A5
100
AcDbDictionary
280
     1
281
     1
  3
ADSK_XREC_LAYER_RECONCILED
360
B39
  0
DICTIONARY
  5
B3A
330
1FE
100
AcDbDictionary
280
     1
281
     1
  3
ADSK_XREC_LAYER_RECONCILED
360
B3B
  0
DICTIONARY
  5
B3C
330
2FA
100
AcDbDictionary
280
     1
281
     1
  3
ADSK_XREC_LAYER_RECONCILED
360
B3D
  0
XRECORD
  5
AE0
102
{ACAD_REACTORS
330
C
102
}
330
C
100
AcDbXrecord
280
     1
300
ACDLT
300
2015
300
ACDLT_F_S
  0
DICTIONARY
  5
A48
102
{ACAD_REACTORS
330
C
102
}
330
C
100
AcDbDictionary
281
     1
  0
DICTIONARY
  5
ADC
102
{ACAD_REACTORS
330
C
102
}
330
C
100
AcDbDictionary
281
     1
  3
Metric50
350
ADD
  0
DICTIONARY
  5
D
102
{ACAD_REACTORS
330
C
102
}
330
C
100
AcDbDictionary
281
     1
  0
DICTIONARY
  5
A49
102
{ACAD_REACTORS
330
C
102
}
330
C
100
AcDbDictionary
281
     1
  3
Model
350
A4B
  3
レイアウト1
350
A4C
  0
DICTIONARY
  5
A47
102
{ACAD_REACTORS
330
C
102
}
330
C
100
AcDbDictionary
281
     1
  3
ByBlock
350
A9B
  3
ByLayer
350
A93
  3
Global
350
AA3
  0
DICTIONARY
  5
AD8
102
{ACAD_REACTORS
330
C
102
}
330
C
100
AcDbDictionary
281
     1
  3
Standard
350
AD9
  0
DICTIONARY
  5
1B
102
{ACAD_REACTORS
330
C
102
}
330
C
100
AcDbDictionary
281
     1
  3
STANDARD
350
1C
  0
DICTIONARY
  5
A4A
102
{ACAD_REACTORS
330
C
102
}
330
C
100
AcDbDictionary
281
     1
  0
ACDBDICTIONARYWDFLT
  5
A45
102
{ACAD_REACTORS
330
C
102
}
330
C
100
AcDbDictionary
281
     1
  3
Normal
350
A46
100
AcDbDictionaryWithDefault
340
A46
  0
DICTIONARY
  5
AC6
102
{ACAD_REACTORS
330
C
102
}
330
C
100
AcDbDictionary
281
     1
  3
A0
350
AC7
  3
A1
350
AC8
  3
A2
350
AC9
  3
A3
350
ACA
  3
A4
350
ACB
  3
A5
350
ACC
  3
A6
350
ACD
  3
A7
350
ACE
  3
A8
350
ACF
  3
A9
350
AD0
  3
B0
350
AD1
  3
B1
350
AD2
  3
B2
350
AD3
  3
B3
350
AD4
  3
B4
350
AD5
  3
B5
350
AD6
  3
B6
350
AD7
  0
DICTIONARY
  5
ADA
102
{ACAD_REACTORS
330
C
102
}
330
C
100
AcDbDictionary
281
     1
  3
Metric50
350
ADB
  0
DICTIONARY
  5
AC4
102
{ACAD_REACTORS
330
C
102
}
330
C
100
AcDbDictionary
281
     1
  3
Standard
350
AC5
  0
DICTIONARY
  5
AAB
102
{ACAD_REACTORS
330
C
102
}
330
C
100
AcDbDictionary
281
     1
  3
2dWireframe
350
AB1
  3
Basic
350
AB0
  3
Brighten
350
AB7
  3
ColorChange
350
ABB
  3
Conceptual
350
AB4
  3
Dim
350
AB6
  3
EdgeColorOff
350
AC3
  3
Facepattern
350
ABA
  3
Flat
350
AAC
  3
FlatWithEdges
350
AAD
  3
Gouraud
350
AAE
  3
GouraudWithEdges
350
AAF
  3
Hidden
350
AB3
  3
JitterOff
350
AC1
  3
Linepattern
350
AB9
  3
OverhangOff
350
AC2
  3
Realistic
350
AB5
  3
Shaded
350
AC0
  3
Shaded with edges
350
ABF
  3
Shades of Gray
350
ABC
  3
Sketchy
350
ABD
  3
Thicken
350
AB8
  3
Wireframe
350
AB2
  3
X-Ray
350
ABE
  0
XRECORD
  5
B45
102
{ACAD_REACTORS
330
C
102
}
330
C
100
AcDbXrecord
280
     1
 90
        1
330
AC5
  0
DICTIONARY
  5
3A8
102
{ACAD_REACTORS
330
C
102
}
330
C
100
AcDbDictionary
281
     1
  3
CANNOSCALE
350
B42
  3
CMLEADERSTYLE
350
B3F
  3
CTABLESTYLE
350
B3E
  3
CVIEWDETAILSTYLE
350
B40
  3
CVIEWSECTIONSTYLE
350
B41
  3
SORTENTS
350
3A9
  0
XRECORD
  5
B2D
102
{ACAD_REACTORS
330
B2C
102
}
330
B2C
100
AcDbXrecord
280
     1
290
     1
  0
XRECORD
  5
B2F
102
{ACAD_REACTORS
330
B2E
102
}
330
B2E
100
AcDbXrecord
280
     1
290
     1
  0
XRECORD
  5
B31
102
{ACAD_REACTORS
330
B30
102
}
330
B30
100
AcDbXrecord
280
     1
290
     1
  0
XRECORD
  5
B33
102
{ACAD_REACTORS
330
B32
102
}
330
B32
100
AcDbXrecord
280
     1
290
     1
  0
XRECORD
  5
B35
102
{ACAD_REACTORS
330
B34
102
}
330
B34
100
AcDbXrecord
280
     1
290
     1
  0
XRECORD
  5
B37
102
{ACAD_REACTORS
330
B36
102
}
330
B36
100
AcDbXrecord
280
     1
290
     1
  0
XRECORD
  5
B39
102
{ACAD_REACTORS
330
B38
102
}
330
B38
100
AcDbXrecord
280
     1
290
     1
  0
XRECORD
  5
B3B
102
{ACAD_REACTORS
330
B3A
102
}
330
B3A
100
AcDbXrecord
280
     1
290
     1
  0
XRECORD
  5
B3D
102
{ACAD_REACTORS
330
B3C
102
}
330
B3C
100
AcDbXrecord
280
     1
290
     1
  0
ACDBDETAILVIEWSTYLE
  5
ADD
102
{ACAD_XDICTIONARY
360
B7D
102
}
102
{ACAD_REACTORS
330
ADC
102
}
330
ADC
100
AcDbModelDocViewStyle
 70
     0
  3
Metric50
290
     0
100
AcDbDetailViewStyle
 70
     0
 71
     0
 90
        3
 71
     1
340
F
 62
   256
 40
5.0
340
0
 62
   256
 40
5.0
300

 40
0.0
280
     1
 71
     2
340
14
 90
       25
 62
   256
 71
     3
340
F
 62
   256
 40
5.0
 90
        0
 40
15.0
 90
        1
300
%<\AcVar ViewDetailId>% (%<\AcVar ViewScale \f "%sn">%)
 71
     4
340
14
 90
       25
 62
   256
340
14
 90
       25
 62
   256
280
     0
  0
LAYOUT
  5
A4B
102
{ACAD_REACTORS
330
A49
102
}
330
A49
100
AcDbPlotSettings
  1

  2
EPSON PX-101
  4

  6

 40
0.0
 41
0.0
 42
0.0
 43
0.0
 44
0.0
 45
0.0
 46
0.0
 47
0.0
 48
0.0
 49
0.0
140
0.0
141
0.0
142
1.0
143
1.0
 70
  1712
 72
     0
 73
     0
 74
     0
  7
AutoCad LT 98fukui.ctb
 75
     0
147
1.0
 76
     0
 77
     2
 78
   300
148
0.0
149
0.0
100
AcDbLayout
  1
Model
 70
     1
 71
     0
 10
0.0
 20
0.0
 11
12.0
 21
9.0
 12
0.0
 22
0.0
 32
0.0
 14
0.0
 24
0.0
 34
0.0
 15
0.0
 25
0.0
 35
0.0
146
0.0
 13
0.0
 23
0.0
 33
0.0
 16
1.0
 26
0.0
 36
0.0
 17
0.0
 27
1.0
 37
0.0
 76
     0
330
18
331
A8D
  0
LAYOUT
  5
A4C
102
{ACAD_REACTORS
330
A49
102
}
330
A49
100
AcDbPlotSettings
  1

  2
EPSON PX-101
  4

  6

 40
0.0
 41
0.0
 42
0.0
 43
0.0
 44
0.0
 45
0.0
 46
0.0
 47
0.0
 48
0.0
 49
0.0
140
0.0
141
0.0
142
1.0
143
1.0
 70
   688
 72
     0
 73
     0
 74
     5
  7
AutoCad LT 98fukui.ctb
 75
    16
147
1.0
 76
     0
 77
     2
 78
   300
148
0.0
149
0.0
100
AcDbLayout
  1
レイアウト1
 70
     1
 71
     1
 10
0.0
 20
0.0
 11
420.0
 21
297.0
 12
0.0
 22
0.0
 32
0.0
 14
1.000000000000000E+20
 24
1.000000000000000E+20
 34
1.000000000000000E+20
 15
-1.000000000000000E+20
 25
-1.000000000000000E+20
 35
-1.000000000000000E+20
146
0.0
 13
0.0
 23
0.0
 33
0.0
 16
1.0
 26
0.0
 36
0.0
 17
0.0
 27
1.0
 37
0.0
 76
     0
330
15
  0
MATERIAL
  5
A9B
102
{ACAD_XDICTIONARY
360
A9C
102
}
102
{ACAD_REACTORS
330
A47
102
}
330
A47
100
AcDbMaterial
  1
ByBlock
 72
     0
 43
0.0208333333333333
 43
0.0
 43
0.0
 43
0.0
 43
0.0
 43
0.0208333333333333
 43
0.0
 43
0.0
 43
0.0
 43
0.0
 43
1.0
 43
0.0
 43
0.0
 43
0.0
 43
0.0
 43
1.0
 77
     0
 47
0.0208333333333333
 47
0.0
 47
0.0
 47
0.0
 47
0.0
 47
0.0208333333333333
 47
0.0
 47
0.0
 47
0.0
 47
0.0
 47
1.0
 47
0.0
 47
0.0
 47
0.0
 47
0.0
 47
1.0
171
     0
 49
0.0208333333333333
 49
0.0
 49
0.0
 49
0.0
 49
0.0
 49
0.0208333333333333
 49
0.0
 49
0.0
 49
0.0
 49
0.0
 49
1.0
 49
0.0
 49
0.0
 49
0.0
 49
0.0
 49
1.0
175
     0
142
0.0208333333333333
142
0.0
142
0.0
142
0.0
142
0.0
142
0.0208333333333333
142
0.0
142
0.0
142
0.0
142
0.0
142
1.0
142
0.0
142
0.0
142
0.0
142
0.0
142
1.0
179
     0
144
0.0208333333333333
144
0.0
144
0.0
144
0.0
144
0.0
144
0.0208333333333333
144
0.0
144
0.0
144
0.0
144
0.0
144
1.0
144
0.0
144
0.0
144
0.0
144
0.0
144
1.0
147
0.0208333333333333
147
0.0
147
0.0
147
0.0
147
0.0
147
0.0208333333333333
147
0.0
147
0.0
147
0.0
147
0.0
147
1.0
147
0.0
147
0.0
147
0.0
147
0.0
147
1.0
  0
MATERIAL
  5
A93
102
{ACAD_XDICTIONARY
360
A94
102
}
102
{ACAD_REACTORS
330
A47
102
}
330
A47
100
AcDbMaterial
  1
ByLayer
 72
     0
 43
0.0208333333333333
 43
0.0
 43
0.0
 43
0.0
 43
0.0
 43
0.0208333333333333
 43
0.0
 43
0.0
 43
0.0
 43
0.0
 43
1.0
 43
0.0
 43
0.0
 43
0.0
 43
0.0
 43
1.0
 77
     0
 47
0.0208333333333333
 47
0.0
 47
0.0
 47
0.0
 47
0.0
 47
0.0208333333333333
 47
0.0
 47
0.0
 47
0.0
 47
0.0
 47
1.0
 47
0.0
 47
0.0
 47
0.0
 47
0.0
 47
1.0
171
     0
 49
0.0208333333333333
 49
0.0
 49
0.0
 49
0.0
 49
0.0
 49
0.0208333333333333
 49
0.0
 49
0.0
 49
0.0
 49
0.0
 49
1.0
 49
0.0
 49
0.0
 49
0.0
 49
0.0
 49
1.0
175
     0
142
0.0208333333333333
142
0.0
142
0.0
142
0.0
142
0.0
142
0.0208333333333333
142
0.0
142
0.0
142
0.0
142
0.0
142
1.0
142
0.0
142
0.0
142
0.0
142
0.0
142
1.0
179
     0
144
0.0208333333333333
144
0.0
144
0.0
144
0.0
144
0.0
144
0.0208333333333333
144
0.0
144
0.0
144
0.0
144
0.0
144
1.0
144
0.0
144
0.0
144
0.0
144
0.0
144
1.0
147
0.0208333333333333
147
0.0
147
0.0
147
0.0
147
0.0
147
0.0208333333333333
147
0.0
147
0.0
147
0.0
147
0.0
147
1.0
147
0.0
147
0.0
147
0.0
147
0.0
147
1.0
  0
MATERIAL
  5
AA3
102
{ACAD_XDICTIONARY
360
AA4
102
}
102
{ACAD_REACTORS
330
A47
102
}
330
A47
100
AcDbMaterial
  1
Global
 72
     0
 43
0.0208333333333333
 43
0.0
 43
0.0
 43
0.0
 43
0.0
 43
0.0208333333333333
 43
0.0
 43
0.0
 43
0.0
 43
0.0
 43
1.0
 43
0.0
 43
0.0
 43
0.0
 43
0.0
 43
1.0
 77
     0
 47
0.0208333333333333
 47
0.0
 47
0.0
 47
0.0
 47
0.0
 47
0.0208333333333333
 47
0.0
 47
0.0
 47
0.0
 47
0.0
 47
1.0
 47
0.0
 47
0.0
 47
0.0
 47
0.0
 47
1.0
171
     0
 49
0.0208333333333333
 49
0.0
 49
0.0
 49
0.0
 49
0.0
 49
0.0208333333333333
 49
0.0
 49
0.0
 49
0.0
 49
0.0
 49
1.0
 49
0.0
 49
0.0
 49
0.0
 49
0.0
 49
1.0
175
     0
142
0.0208333333333333
142
0.0
142
0.0
142
0.0
142
0.0
142
0.0208333333333333
142
0.0
142
0.0
142
0.0
142
0.0
142
1.0
142
0.0
142
0.0
142
0.0
142
0.0
142
1.0
179
     0
144
0.0208333333333333
144
0.0
144
0.0
144
0.0
144
0.0
144
0.0208333333333333
144
0.0
144
0.0
144
0.0
144
0.0
144
1.0
144
0.0
144
0.0
144
0.0
144
0.0
144
1.0
147
0.0208333333333333
147
0.0
147
0.0
147
0.0
147
0.0
147
0.0208333333333333
147
0.0
147
0.0
147
0.0
147
0.0
147
1.0
147
0.0
147
0.0
147
0.0
147
0.0
147
1.0
  0
MLEADERSTYLE
  5
AD9
102
{ACAD_REACTORS
330
AD8
102
}
330
AD8
100
AcDbMLeaderStyle
170
     2
171
     1
172
     0
 90
        2
 40
0.0
 41
0.0
173
     1
 91
-1056964608
340
12
 92
       -2
290
     1
 42
2.0
291
     1
 43
0.36
  3
Standard
 44
4.0
300

342
F
174
     1
178
     6
175
     1
176
     0
 93
-1056964608
 45
4.0
292
     0
297
     0
 46
4.0
 94
-1056964608
 47
1.0
 49
1.0
140
1.0
293
     1
141
0.0
294
     1
177
     0
142
1.0
295
     0
296
     0
143
0.125
1001
ACAD_MLEADERVER
1070
     2
  0
MLINESTYLE
  5
1C
102
{ACAD_REACTORS
330
1B
102
}
330
1B
100
AcDbMlineStyle
  2
STANDARD
 70
     0
  3

 62
   256
 51
90.0
 52
90.0
 71
     2
 49
0.5
 62
   256
  6
BYLAYER
 49
-0.5
 62
   256
  6
BYLAYER
  0
ACDBPLACEHOLDER
  5
A46
102
{ACAD_REACTORS
330
A45
102
}
330
A45
  0
SCALE
  5
AC7
102
{ACAD_REACTORS
330
AC6
102
}
330
AC6
100
AcDbScale
 70
     0
300
1:1
140
1.0
141
1.0
290
     1
  0
SCALE
  5
AC8
102
{ACAD_REACTORS
330
AC6
102
}
330
AC6
100
AcDbScale
 70
     0
300
1:2
140
1.0
141
2.0
290
     0
  0
SCALE
  5
AC9
102
{ACAD_REACTORS
330
AC6
102
}
330
AC6
100
AcDbScale
 70
     0
300
1:4
140
1.0
141
4.0
290
     0
  0
SCALE
  5
ACA
102
{ACAD_REACTORS
330
AC6
102
}
330
AC6
100
AcDbScale
 70
     0
300
1:5
140
1.0
141
5.0
290
     0
  0
SCALE
  5
ACB
102
{ACAD_REACTORS
330
AC6
102
}
330
AC6
100
AcDbScale
 70
     0
300
1:8
140
1.0
141
8.0
290
     0
  0
SCALE
  5
ACC
102
{ACAD_REACTORS
330
AC6
102
}
330
AC6
100
AcDbScale
 70
     0
300
1:10
140
1.0
141
10.0
290
     0
  0
SCALE
  5
ACD
102
{ACAD_REACTORS
330
AC6
102
}
330
AC6
100
AcDbScale
 70
     0
300
1:16
140
1.0
141
16.0
290
     0
  0
SCALE
  5
ACE
102
{ACAD_REACTORS
330
AC6
102
}
330
AC6
100
AcDbScale
 70
     0
300
1:20
140
1.0
141
20.0
290
     0
  0
SCALE
  5
ACF
102
{ACAD_REACTORS
330
AC6
102
}
330
AC6
100
AcDbScale
 70
     0
300
1:30
140
1.0
141
30.0
290
     0
  0
SCALE
  5
AD0
102
{ACAD_REACTORS
330
AC6
102
}
330
AC6
100
AcDbScale
 70
     0
300
1:40
140
1.0
141
40.0
290
     0
  0
SCALE
  5
AD1
102
{ACAD_REACTORS
330
AC6
102
}
330
AC6
100
AcDbScale
 70
     0
300
1:50
140
1.0
141
50.0
290
     0
  0
SCALE
  5
AD2
102
{ACAD_REACTORS
330
AC6
102
}
330
AC6
100
AcDbScale
 70
     0
300
1:100
140
1.0
141
100.0
290
     0
  0
SCALE
  5
AD3
102
{ACAD_REACTORS
330
AC6
102
}
330
AC6
100
AcDbScale
 70
     0
300
2:1
140
2.0
141
1.0
290
     0
  0
SCALE
  5
AD4
102
{ACAD_REACTORS
330
AC6
102
}
330
AC6
100
AcDbScale
 70
     0
300
4:1
140
4.0
141
1.0
290
     0
  0
SCALE
  5
AD5
102
{ACAD_REACTORS
330
AC6
102
}
330
AC6
100
AcDbScale
 70
     0
300
8:1
140
8.0
141
1.0
290
     0
  0
SCALE
  5
AD6
102
{ACAD_REACTORS
330
AC6
102
}
330
AC6
100
AcDbScale
 70
     0
300
10:1
140
10.0
141
1.0
290
     0
  0
SCALE
  5
AD7
102
{ACAD_REACTORS
330
AC6
102
}
330
AC6
100
AcDbScale
 70
     0
300
100:1
140
100.0
141
1.0
290
     0
  0
ACDBSECTIONVIEWSTYLE
  5
ADB
102
{ACAD_XDICTIONARY
360
B7B
102
}
102
{ACAD_REACTORS
330
ADA
102
}
330
ADA
100
AcDbModelDocViewStyle
 70
     0
  3
Metric50
290
     0
100
AcDbSectionViewStyle
 70
     0
 71
     0
 90
      102
 71
     1
340
F
 62
   256
 40
5.0
340
0
340
0
 62
   256
 40
5.0
300
I, O, Q, S, X, Z
 40
10.0
 90
        0
 40
2.5
 90
        0
 71
     2
340
14
 90
       25
 62
   256
340
14
 90
       50
 62
   256
 40
5.0
 40
2.5
 40
5.0
 71
     3
340
F
 62
   256
 40
5.0
 90
        0
 40
15.0
 90
        1
300
%<\AcVar ViewSectionStartId>%-%<\AcVar ViewSectionEndId>% (%<\AcVar ViewScale \f "%sn">%)
 71
     4
 62
   256
 62
   257
300
ANSI31
 40
1.0
 90
        0
290
     0
290
     0
 90
        6
 40
0.0
 40
1.570796326794896
 40
0.2617993877991494
 40
1.308996938995747
 40
-0.2617993877991494
 40
1.832595714594046
  0
TABLESTYLE
  5
AC5
102
{ACAD_XDICTIONARY
360
B43
102
}
102
{ACAD_REACTORS
330
AC4
102
}
330
AC4
100
AcDbTableStyle
  3
Standard
 70
     0
 71
     0
 40
1.5
 41
1.5
280
     0
281
     0
  7
STANDARD
140
4.5
170
     2
 62
     0
 63
     7
283
     0
274
    -2
284
     1
 64
     0
275
    -2
285
     1
 65
     0
276
    -2
286
     1
 66
     0
277
    -2
287
     1
 67
     0
278
    -2
288
     1
 68
     0
279
    -2
289
     1
 69
     0
  7
STANDARD
140
6.0
170
     5
 62
     0
 63
     7
283
     0
274
    -2
284
     1
 64
     0
275
    -2
285
     1
 65
     0
276
    -2
286
     1
 66
     0
277
    -2
287
     1
 67
     0
278
    -2
288
     1
 68
     0
279
    -2
289
     1
 69
     0
  7
STANDARD
140
4.5
170
     5
 62
     0
 63
     7
283
     0
274
    -2
284
     1
 64
     0
275
    -2
285
     1
 65
     0
276
    -2
286
     1
 66
     0
277
    -2
287
     1
 67
     0
278
    -2
288
     1
 68
     0
279
    -2
289
     1
 69
     0
  0
VISUALSTYLE
  5
AB1
102
{ACAD_XDICTIONARY
360
B53
102
}
102
{ACAD_REACTORS
330
AAB
102
}
330
AAB
100
AcDbVisualStyle
  2
2dWireframe
 70
     4
 71
     0
 72
     2
 73
     0
 90
        0
 40
-0.6
 41
-30.0
 62
     5
 63
     7
421
 16777215
 74
     1
 91
        4
 64
     7
 65
   257
 75
     1
175
     1
 42
1.0
 92
        0
 66
   257
 43
1.0
 76
     1
 77
     6
 78
     2
 67
     7
 79
     5
170
     0
171
     0
290
     0
174
     0
 93
        1
 44
0.0
173
     0
291
     0
 45
0.0
1001
ACAD
1000
AcDbSavedByObjectVersion
1070
     0
  0
VISUALSTYLE
  5
AB0
102
{ACAD_XDICTIONARY
360
B51
102
}
102
{ACAD_REACTORS
330
AAB
102
}
330
AAB
100
AcDbVisualStyle
  2
Basic
 70
     7
 71
     1
 72
     0
 73
     1
 90
        0
 40
-0.6
 41
-30.0
 62
     5
 63
     7
421
 16777215
 74
     0
 91
        4
 64
     7
 65
   257
 75
     1
175
     1
 42
1.0
 92
        8
 66
     7
 43
1.0
 76
     1
 77
     6
 78
     2
 67
     7
 79
     5
170
     0
171
     0
290
     0
174
     0
 93
        1
 44
0.0
173
     0
291
     1
 45
0.0
1001
ACAD
1000
AcDbSavedByObjectVersion
1070
     0
  0
VISUALSTYLE
  5
AB7
102
{ACAD_XDICTIONARY
360
B5F
102
}
102
{ACAD_REACTORS
330
AAB
102
}
330
AAB
100
AcDbVisualStyle
  2
Brighten
 70
    12
 71
     2
 72
     2
 73
     0
 90
        0
 40
-0.6
 41
-30.0
 62
     5
 63
     7
421
 16777215
 74
     1
 91
        4
 64
     7
 65
   257
 75
     1
175
     1
 42
1.0
 92
        8
 66
     7
 43
1.0
 76
     1
 77
     6
 78
     2
 67
     7
 79
     5
170
     0
171
     0
290
     0
174
     0
 93
        1
 44
50.0
173
     0
291
     1
 45
0.0
1001
ACAD
1000
AcDbSavedByObjectVersion
1070
     0
  0
VISUALSTYLE
  5
ABB
102
{ACAD_XDICTIONARY
360
B67
102
}
102
{ACAD_REACTORS
330
AAB
102
}
330
AAB
100
AcDbVisualStyle
  2
ColorChange
 70
    16
 71
     2
 72
     2
 73
     3
 90
        0
 40
-0.6
 41
-30.0
 62
     5
 63
     8
421
  8421504
 74
     1
 91
        4
 64
     7
 65
   257
 75
     1
175
     1
 42
1.0
 92
        8
 66
     8
424
  8421504
 43
1.0
 76
     1
 77
     6
 78
     2
 67
     7
 79
     5
170
     0
171
     0
290
     0
174
     0
 93
        1
 44
0.0
173
     0
291
     1
 45
0.0
1001
ACAD
1000
AcDbSavedByObjectVersion
1070
     0
  0
VISUALSTYLE
  5
AB4
102
{ACAD_XDICTIONARY
360
B59
102
}
102
{ACAD_REACTORS
330
AAB
102
}
330
AAB
100
AcDbVisualStyle
  2
Conceptual
 70
     9
 71
     3
 72
     2
 73
     0
 90
        0
 40
-0.6
 41
-30.0
 62
     5
 63
     7
421
 16777215
 74
     2
 91
        2
 64
     7
 65
   257
 75
     1
175
     1
 42
179.0
 92
        8
 66
     7
 43
1.0
 76
     1
 77
     6
 78
     2
 67
     7
 79
     3
170
     0
171
     0
290
     0
174
     0
 93
        1
 44
0.0
173
     0
291
     0
 45
0.0
1001
ACAD
1000
AcDbSavedByObjectVersion
1070
     0
  0
VISUALSTYLE
  5
AB6
102
{ACAD_XDICTIONARY
360
B5D
102
}
102
{ACAD_REACTORS
330
AAB
102
}
330
AAB
100
AcDbVisualStyle
  2
Dim
 70
    11
 71
     2
 72
     2
 73
     0
 90
        0
 40
-0.6
 41
-30.0
 62
     5
 63
     7
421
 16777215
 74
     1
 91
        4
 64
     7
 65
   257
 75
     1
175
     1
 42
1.0
 92
        8
 66
     7
 43
1.0
 76
     1
 77
     6
 78
     2
 67
     7
 79
     5
170
     0
171
     0
290
     0
174
     0
 93
        1
 44
-50.0
173
     0
291
     1
 45
0.0
1001
ACAD
1000
AcDbSavedByObjectVersion
1070
     0
  0
VISUALSTYLE
  5
AC3
102
{ACAD_XDICTIONARY
360
B77
102
}
102
{ACAD_REACTORS
330
AAB
102
}
330
AAB
100
AcDbVisualStyle
  2
EdgeColorOff
 70
    22
 71
     2
 72
     2
 73
     0
 90
        0
 40
-0.6
 41
-30.0
 62
     5
 63
     7
421
 16777215
 74
     1
 91
        4
 64
     7
 65
   257
 75
     1
175
     1
 42
1.0
 92
        8
 66
     7
 43
1.0
 76
     1
 77
     6
 78
     2
 67
     7
 79
     5
170
     0
171
     0
290
     0
174
     0
 93
        1
 44
0.0
173
     0
291
     1
 45
0.0
1001
ACAD
1000
AcDbSavedByObjectVersion
1070
     0
  0
VISUALSTYLE
  5
ABA
102
{ACAD_XDICTIONARY
360
B65
102
}
102
{ACAD_REACTORS
330
AAB
102
}
330
AAB
100
AcDbVisualStyle
  2
Facepattern
 70
    15
 71
     2
 72
     2
 73
     0
 90
        0
 40
-0.6
 41
-30.0
 62
     5
 63
     7
421
 16777215
 74
     1
 91
        4
 64
     7
 65
   257
 75
     1
175
     1
 42
1.0
 92
        8
 66
     7
 43
1.0
 76
     1
 77
     6
 78
     2
 67
     7
 79
     5
170
     0
171
     0
290
     0
174
     0
 93
        1
 44
0.0
173
     0
291
     1
 45
0.0
1001
ACAD
1000
AcDbSavedByObjectVersion
1070
     0
  0
VISUALSTYLE
  5
AAC
102
{ACAD_XDICTIONARY
360
B49
102
}
102
{ACAD_REACTORS
330
AAB
102
}
330
AAB
100
AcDbVisualStyle
  2
Flat
 70
     0
 71
     2
 72
     1
 73
     1
 90
        2
 40
-0.6
 41
30.0
 62
     5
 63
     7
421
 16777215
 74
     0
 91
        0
 64
     7
 65
   257
 75
     1
175
     1
 42
1.0
 92
        8
 66
     7
 43
1.0
 76
     1
 77
     6
 78
     2
 67
     7
 79
     5
170
     0
171
     0
290
     0
174
     0
 93
       13
 44
0.0
173
     0
291
     1
 45
0.0
1001
ACAD
1000
AcDbSavedByObjectVersion
1070
     0
  0
VISUALSTYLE
  5
AAD
102
{ACAD_XDICTIONARY
360
B4B
102
}
102
{ACAD_REACTORS
330
AAB
102
}
330
AAB
100
AcDbVisualStyle
  2
FlatWithEdges
 70
     1
 71
     2
 72
     1
 73
     1
 90
        2
 40
-0.6
 41
30.0
 62
     5
 63
     7
421
 16777215
 74
     1
 91
        0
 64
     7
 65
   257
 75
     1
175
     1
 42
1.0
 92
        0
 66
   257
 43
1.0
 76
     1
 77
     6
 78
     2
 67
     7
 79
     5
170
     0
171
     0
290
     0
174
     0
 93
       13
 44
0.0
173
     0
291
     1
 45
0.0
1001
ACAD
1000
AcDbSavedByObjectVersion
1070
     0
  0
VISUALSTYLE
  5
AAE
102
{ACAD_XDICTIONARY
360
B4D
102
}
102
{ACAD_REACTORS
330
AAB
102
}
330
AAB
100
AcDbVisualStyle
  2
Gouraud
 70
     2
 71
     2
 72
     2
 73
     1
 90
        2
 40
-0.6
 41
30.0
 62
     5
 63
     7
421
 16777215
 74
     0
 91
        0
 64
     7
 65
   257
 75
     1
175
     1
 42
1.0
 92
        0
 66
     7
 43
1.0
 76
     1
 77
     6
 78
     2
 67
     7
 79
     5
170
     0
171
     0
290
     0
174
     0
 93
       13
 44
0.0
173
     0
291
     1
 45
0.0
1001
ACAD
1000
AcDbSavedByObjectVersion
1070
     0
  0
VISUALSTYLE
  5
AAF
102
{ACAD_XDICTIONARY
360
B4F
102
}
102
{ACAD_REACTORS
330
AAB
102
}
330
AAB
100
AcDbVisualStyle
  2
GouraudWithEdges
 70
     3
 71
     2
 72
     2
 73
     1
 90
        2
 40
-0.6
 41
30.0
 62
     5
 63
     7
421
 16777215
 74
     1
 91
        0
 64
     7
 65
   257
 75
     1
175
     1
 42
1.0
 92
        0
 66
   257
 43
1.0
 76
     1
 77
     6
 78
     2
 67
     7
 79
     5
170
     0
171
     0
290
     0
174
     0
 93
       13
 44
0.0
173
     0
291
     1
 45
0.0
1001
ACAD
1000
AcDbSavedByObjectVersion
1070
     0
  0
VISUALSTYLE
  5
AB3
102
{ACAD_XDICTIONARY
360
B57
102
}
102
{ACAD_REACTORS
330
AAB
102
}
330
AAB
100
AcDbVisualStyle
  2
Hidden
 70
     6
 71
     1
 72
     2
 73
     2
 90
        0
 40
-0.6
 41
-30.0
 62
     5
 63
     7
421
 16777215
 74
     2
 91
        2
 64
     7
 65
   257
 75
     2
175
     1
 42
40.0
 92
        0
 66
   257
 43
1.0
 76
     1
 77
     6
 78
     2
 67
     7
 79
     3
170
     0
171
     0
290
     0
174
     0
 93
        1
 44
0.0
173
     0
291
     0
 45
0.0
1001
ACAD
1000
AcDbSavedByObjectVersion
1070
     0
  0
VISUALSTYLE
  5
AC1
102
{ACAD_XDICTIONARY
360
B73
102
}
102
{ACAD_REACTORS
330
AAB
102
}
330
AAB
100
AcDbVisualStyle
  2
JitterOff
 70
    20
 71
     2
 72
     2
 73
     0
 90
        0
 40
-0.6
 41
-30.0
 62
     5
 63
     7
421
 16777215
 74
     1
 91
        4
 64
     7
 65
   257
 75
     1
175
     1
 42
1.0
 92
       10
 66
     7
 43
1.0
 76
     1
 77
     6
 78
     2
 67
     7
 79
     5
170
     0
171
     0
290
     0
174
     0
 93
        1
 44
0.0
173
     0
291
     1
 45
0.0
1001
ACAD
1000
AcDbSavedByObjectVersion
1070
     0
  0
VISUALSTYLE
  5
AB9
102
{ACAD_XDICTIONARY
360
B63
102
}
102
{ACAD_REACTORS
330
AAB
102
}
330
AAB
100
AcDbVisualStyle
  2
Linepattern
 70
    14
 71
     2
 72
     2
 73
     0
 90
        0
 40
-0.6
 41
-30.0
 62
     5
 63
     7
421
 16777215
 74
     1
 91
        4
 64
     7
 65
   257
 75
     7
175
     7
 42
1.0
 92
        8
 66
     7
 43
1.0
 76
     1
 77
     6
 78
     2
 67
     7
 79
     5
170
     0
171
     0
290
     0
174
     0
 93
        1
 44
0.0
173
     0
291
     1
 45
0.0
1001
ACAD
1000
AcDbSavedByObjectVersion
1070
     0
  0
VISUALSTYLE
  5
AC2
102
{ACAD_XDICTIONARY
360
B75
102
}
102
{ACAD_REACTORS
330
AAB
102
}
330
AAB
100
AcDbVisualStyle
  2
OverhangOff
 70
    21
 71
     2
 72
     2
 73
     0
 90
        0
 40
-0.6
 41
-30.0
 62
     5
 63
     7
421
 16777215
 74
     1
 91
        4
 64
     7
 65
   257
 75
     1
175
     1
 42
1.0
 92
        9
 66
     7
 43
1.0
 76
     1
 77
     6
 78
     2
 67
     7
 79
     5
170
     0
171
     0
290
     0
174
     0
 93
        1
 44
0.0
173
     0
291
     1
 45
0.0
1001
ACAD
1000
AcDbSavedByObjectVersion
1070
     0
  0
VISUALSTYLE
  5
AB5
102
{ACAD_XDICTIONARY
360
B5B
102
}
102
{ACAD_REACTORS
330
AAB
102
}
330
AAB
100
AcDbVisualStyle
  2
Realistic
 70
     8
 71
     2
 72
     3
 73
     0
 90
        2
 40
-0.6
 41
30.0
 62
     5
 63
     7
421
 16777215
 74
     0
 91
        0
 64
     7
 65
   257
 75
     1
175
     1
 42
1.0
 92
        8
 66
   257
 43
1.0
 76
     1
 77
     6
 78
     2
 67
     7
 79
     3
170
     0
171
     0
290
     0
174
     0
 93
       13
 44
0.0
173
     0
291
     0
 45
0.0
1001
ACAD
1000
AcDbSavedByObjectVersion
1070
     0
  0
VISUALSTYLE
  5
AC0
102
{ACAD_XDICTIONARY
360
B71
102
}
102
{ACAD_REACTORS
330
AAB
102
}
330
AAB
100
AcDbVisualStyle
  2
Shaded
 70
    27
 71
     2
 72
     2
 73
     1
 90
        2
 40
-0.6
 41
30.0
 62
     5
 63
     7
421
 16777215
 74
     0
 91
        4
 64
     7
 65
   257
 75
     1
175
     1
 42
1.0
 92
        8
 66
   257
 43
1.0
 76
     1
 77
     6
 78
     2
 67
     8
425
  7895160
 79
     3
170
     0
171
     0
290
     0
174
     0
 93
        5
 44
0.0
173
     0
291
     0
 45
0.0
1001
ACAD
1000
AcDbSavedByObjectVersion
1070
     0
  0
VISUALSTYLE
  5
ABF
102
{ACAD_XDICTIONARY
360
B6F
102
}
102
{ACAD_REACTORS
330
AAB
102
}
330
AAB
100
AcDbVisualStyle
  2
Shaded with edges
 70
    26
 71
     2
 72
     2
 73
     1
 90
        2
 40
-0.6
 41
30.0
 62
     5
 63
     7
421
 16777215
 74
     1
 91
       10
 64
     7
 65
   257
 75
     2
175
     1
 42
1.0
 92
        8
 66
   257
 43
1.0
 76
     1
 77
     6
 78
     2
 67
     7
 79
     3
170
     0
171
     0
290
     0
174
     0
 93
        5
 44
0.0
173
     0
291
     0
 45
0.0
1001
ACAD
1000
AcDbSavedByObjectVersion
1070
     0
  0
VISUALSTYLE
  5
ABC
102
{ACAD_XDICTIONARY
360
B69
102
}
102
{ACAD_REACTORS
330
AAB
102
}
330
AAB
100
AcDbVisualStyle
  2
Shades of Gray
 70
    23
 71
     2
 72
     2
 73
     3
 90
        0
 40
-0.6
 41
-30.0
 62
     5
 63
     7
421
 16777215
 74
     2
 91
        2
 64
     7
 65
     7
 75
     1
175
     1
 42
40.0
 92
        8
 66
     7
 43
1.0
 76
     1
 77
     6
 78
     2
 67
     7
 79
     3
170
     0
171
     0
290
     0
174
     0
 93
        1
 44
0.0
173
     0
291
     0
 45
0.0
1001
ACAD
1000
AcDbSavedByObjectVersion
1070
     0
  0
VISUALSTYLE
  5
ABD
102
{ACAD_XDICTIONARY
360
B6B
102
}
102
{ACAD_REACTORS
330
AAB
102
}
330
AAB
100
AcDbVisualStyle
  2
Sketchy
 70
    24
 71
     1
 72
     2
 73
     2
 90
        0
 40
-0.6
 41
-30.0
 62
     5
 63
     7
421
 16777215
 74
     2
 91
        2
 64
     7
 65
     7
 75
     1
175
     1
 42
40.0
 92
       11
 66
     7
 43
1.0
 76
     1
 77
     6
 78
     2
 67
     7
 79
     6
170
     0
171
     0
290
     0
174
     0
 93
        1
 44
0.0
173
     0
291
     0
 45
0.0
1001
ACAD
1000
AcDbSavedByObjectVersion
1070
     0
  0
VISUALSTYLE
  5
AB8
102
{ACAD_XDICTIONARY
360
B61
102
}
102
{ACAD_REACTORS
330
AAB
102
}
330
AAB
100
AcDbVisualStyle
  2
Thicken
 70
    13
 71
     2
 72
     2
 73
     0
 90
        0
 40
-0.6
 41
-30.0
 62
     5
 63
     7
421
 16777215
 74
     1
 91
        4
 64
     7
 65
   257
 75
     1
175
     1
 42
1.0
 92
       12
 66
     7
 43
1.0
 76
     1
 77
     6
 78
     2
 67
     7
 79
     5
170
     0
171
     0
290
     0
174
     0
 93
        1
 44
0.0
173
     0
291
     1
 45
0.0
1001
ACAD
1000
AcDbSavedByObjectVersion
1070
     0
  0
VISUALSTYLE
  5
AB2
102
{ACAD_XDICTIONARY
360
B55
102
}
102
{ACAD_REACTORS
330
AAB
102
}
330
AAB
100
AcDbVisualStyle
  2
Wireframe
 70
     5
 71
     0
 72
     2
 73
     0
 90
        0
 40
-0.6
 41
-30.0
 62
     5
 63
     7
421
 16777215
 74
     1
 91
        4
 64
     7
 65
   257
 75
     1
175
     1
 42
1.0
 92
        0
 66
   257
 43
1.0
 76
     1
 77
     6
 78
     2
 67
     7
 79
     3
170
     0
171
     0
290
     0
174
     0
 93
        1
 44
0.0
173
     0
291
     0
 45
0.0
1001
ACAD
1000
AcDbSavedByObjectVersion
1070
     0
  0
VISUALSTYLE
  5
ABE
102
{ACAD_XDICTIONARY
360
B6D
102
}
102
{ACAD_REACTORS
330
AAB
102
}
330
AAB
100
AcDbVisualStyle
  2
X-Ray
 70
    25
 71
     2
 72
     2
 73
     1
 90
        1
 40
0.5
 41
-30.0
 62
     5
 63
     7
421
 16777215
 74
     1
 91
        0
 64
     7
 65
   257
 75
     1
175
     1
 42
1.0
 92
        8
 66
     7
 43
1.0
 76
     1
 77
     6
 78
     2
 67
     7
 79
     3
170
     0
171
     0
290
     0
174
     0
 93
       13
 44
0.0
173
     0
291
     0
 45
0.0
1001
ACAD
1000
AcDbSavedByObjectVersion
1070
     0
  0
DICTIONARYVAR
  5
B42
102
{ACAD_REACTORS
330
3A8
102
}
330
3A8
100
DictionaryVariables
280
     0
  1
1:1
  0
DICTIONARYVAR
  5
B3F
102
{ACAD_REACTORS
330
3A8
102
}
330
3A8
100
DictionaryVariables
280
     0
  1
STANDARD
  0
DICTIONARYVAR
  5
B3E
102
{ACAD_REACTORS
330
3A8
102
}
330
3A8
100
DictionaryVariables
280
     0
  1
STANDARD
  0
DICTIONARYVAR
  5
B40
102
{ACAD_REACTORS
330
3A8
102
}
330
3A8
100
DictionaryVariables
280
     0
  1
Metric50
  0
DICTIONARYVAR
  5
B41
102
{ACAD_REACTORS
330
3A8
102
}
330
3A8
100
DictionaryVariables
280
     0
  1
Metric50
  0
DICTIONARYVAR
  5
3A9
102
{ACAD_REACTORS
330
3A8
102
}
330
3A8
100
DictionaryVariables
280
     0
  1
96
  0
DICTIONARY
  5
B7D
330
ADD
100
AcDbDictionary
280
     1
281
     1
  3
ACAD_XREC_ROUNDTRIP
360
B7E
  0
DICTIONARY
  5
A9C
330
A9B
100
AcDbDictionary
280
     1
281
     1
  3
ACAD_XREC_ROUNDTRIP
360
B47
  3
BUMPTILE
360
A9E
  3
DIFFUSETILE
360
A9D
  3
OPACITYTILE
360
AA1
  3
REFLECTIONTILE
360
AA0
  3
REFRACTIONTILE
360
AA2
  3
SPECULARTILE
360
A9F
  0
DICTIONARY
  5
A94
330
A93
100
AcDbDictionary
280
     1
281
     1
  3
ACAD_XREC_ROUNDTRIP
360
B46
  3
BUMPTILE
360
A96
  3
DIFFUSETILE
360
A95
  3
OPACITYTILE
360
A99
  3
REFLECTIONTILE
360
A98
  3
REFRACTIONTILE
360
A9A
  3
SPECULARTILE
360
A97
  0
DICTIONARY
  5
AA4
330
AA3
100
AcDbDictionary
280
     1
281
     1
  3
ACAD_XREC_ROUNDTRIP
360
B48
  3
BUMPTILE
360
AA6
  3
DIFFUSETILE
360
AA5
  3
OPACITYTILE
360
AA9
  3
REFLECTIONTILE
360
AA8
  3
REFRACTIONTILE
360
AAA
  3
SPECULARTILE
360
AA7
  0
DICTIONARY
  5
B7B
330
ADB
100
AcDbDictionary
280
     1
281
     1
  3
ACAD_XREC_ROUNDTRIP
360
B7C
  0
DICTIONARY
  5
B43
330
AC5
100
AcDbDictionary
280
     1
281
     1
  3
ACAD_ROUNDTRIP_2008_TABLESTYLE_CELLSTYLEMAP
360
B44
  3
ACAD_XREC_ROUNDTRIP
360
B79
  0
DICTIONARY
  5
B53
330
AB1
100
AcDbDictionary
280
     1
281
     1
  3
ACAD_XREC_ROUNDTRIP
360
B54
  0
DICTIONARY
  5
B51
330
AB0
100
AcDbDictionary
280
     1
281
     1
  3
ACAD_XREC_ROUNDTRIP
360
B52
  0
DICTIONARY
  5
B5F
330
AB7
100
AcDbDictionary
280
     1
281
     1
  3
ACAD_XREC_ROUNDTRIP
360
B60
  0
DICTIONARY
  5
B67
330
ABB
100
AcDbDictionary
280
     1
281
     1
  3
ACAD_XREC_ROUNDTRIP
360
B68
  0
DICTIONARY
  5
B59
330
AB4
100
AcDbDictionary
280
     1
281
     1
  3
ACAD_XREC_ROUNDTRIP
360
B5A
  0
DICTIONARY
  5
B5D
330
AB6
100
AcDbDictionary
280
     1
281
     1
  3
ACAD_XREC_ROUNDTRIP
360
B5E
  0
DICTIONARY
  5
B77
330
AC3
100
AcDbDictionary
280
     1
281
     1
  3
ACAD_XREC_ROUNDTRIP
360
B78
  0
DICTIONARY
  5
B65
330
ABA
100
AcDbDictionary
280
     1
281
     1
  3
ACAD_XREC_ROUNDTRIP
360
B66
  0
DICTIONARY
  5
B49
330
AAC
100
AcDbDictionary
280
     1
281
     1
  3
ACAD_XREC_ROUNDTRIP
360
B4A
  0
DICTIONARY
  5
B4B
330
AAD
100
AcDbDictionary
280
     1
281
     1
  3
ACAD_XREC_ROUNDTRIP
360
B4C
  0
DICTIONARY
  5
B4D
330
AAE
100
AcDbDictionary
280
     1
281
     1
  3
ACAD_XREC_ROUNDTRIP
360
B4E
  0
DICTIONARY
  5
B4F
330
AAF
100
AcDbDictionary
280
     1
281
     1
  3
ACAD_XREC_ROUNDTRIP
360
B50
  0
DICTIONARY
  5
B57
330
AB3
100
AcDbDictionary
280
     1
281
     1
  3
ACAD_XREC_ROUNDTRIP
360
B58
  0
DICTIONARY
  5
B73
330
AC1
100
AcDbDictionary
280
     1
281
     1
  3
ACAD_XREC_ROUNDTRIP
360
B74
  0
DICTIONARY
  5
B63
330
AB9
100
AcDbDictionary
280
     1
281
     1
  3
ACAD_XREC_ROUNDTRIP
360
B64
  0
DICTIONARY
  5
B75
330
AC2
100
AcDbDictionary
280
     1
281
     1
  3
ACAD_XREC_ROUNDTRIP
360
B76
  0
DICTIONARY
  5
B5B
330
AB5
100
AcDbDictionary
280
     1
281
     1
  3
ACAD_XREC_ROUNDTRIP
360
B5C
  0
DICTIONARY
  5
B71
330
AC0
100
AcDbDictionary
280
     1
281
     1
  3
ACAD_XREC_ROUNDTRIP
360
B72
  0
DICTIONARY
  5
B6F
330
ABF
100
AcDbDictionary
280
     1
281
     1
  3
ACAD_XREC_ROUNDTRIP
360
B70
  0
DICTIONARY
  5
B69
330
ABC
100
AcDbDictionary
280
     1
281
     1
  3
ACAD_XREC_ROUNDTRIP
360
B6A
  0
DICTIONARY
  5
B6B
330
ABD
100
AcDbDictionary
280
     1
281
     1
  3
ACAD_XREC_ROUNDTRIP
360
B6C
  0
DICTIONARY
  5
B61
330
AB8
100
AcDbDictionary
280
     1
281
     1
  3
ACAD_XREC_ROUNDTRIP
360
B62
  0
DICTIONARY
  5
B55
330
AB2
100
AcDbDictionary
280
     1
281
     1
  3
ACAD_XREC_ROUNDTRIP
360
B56
  0
DICTIONARY
  5
B6D
330
ABE
100
AcDbDictionary
280
     1
281
     1
  3
ACAD_XREC_ROUNDTRIP
360
B6E
  0
XRECORD
  5
B7E
102
{ACAD_REACTORS
330
B7D
102
}
330
B7D
100
AcDbXrecord
280
     1
102
DISPLAYNAME
  1
Metric50
102
FLAGS
 90
        0
  0
XRECORD
  5
B47
102
{ACAD_REACTORS
330
A9C
102
}
330
A9C
100
AcDbXrecord
280
     1
102
MATERIAL
148
0.0
149
0.0
149
0.0
 93
        0
 94
      127
282
     0
 72
     0
 77
     0
171
     0
175
     0
179
     0
273
     0
  0
XRECORD
  5
A9E
102
{ACAD_REACTORS
330
A9C
102
}
330
A9C
100
AcDbXrecord
280
     1
270
     1
271
     1
  0
XRECORD
  5
A9D
102
{ACAD_REACTORS
330
A9C
102
}
330
A9C
100
AcDbXrecord
280
     1
270
     1
271
     1
  0
XRECORD
  5
AA1
102
{ACAD_REACTORS
330
A9C
102
}
330
A9C
100
AcDbXrecord
280
     1
270
     1
271
     1
  0
XRECORD
  5
AA0
102
{ACAD_REACTORS
330
A9C
102
}
330
A9C
100
AcDbXrecord
280
     1
270
     1
271
     1
  0
XRECORD
  5
AA2
102
{ACAD_REACTORS
330
A9C
102
}
330
A9C
100
AcDbXrecord
280
     1
270
     1
271
     1
  0
XRECORD
  5
A9F
102
{ACAD_REACTORS
330
A9C
102
}
330
A9C
100
AcDbXrecord
280
     1
270
     1
271
     1
  0
XRECORD
  5
B46
102
{ACAD_REACTORS
330
A94
102
}
330
A94
100
AcDbXrecord
280
     1
102
MATERIAL
148
0.0
149
0.0
149
0.0
 93
        0
 94
      127
282
     0
 72
     0
 77
     0
171
     0
175
     0
179
     0
273
     0
  0
XRECORD
  5
A96
102
{ACAD_REACTORS
330
A94
102
}
330
A94
100
AcDbXrecord
280
     1
270
     1
271
     1
  0
XRECORD
  5
A95
102
{ACAD_REACTORS
330
A94
102
}
330
A94
100
AcDbXrecord
280
     1
270
     1
271
     1
  0
XRECORD
  5
A99
102
{ACAD_REACTORS
330
A94
102
}
330
A94
100
AcDbXrecord
280
     1
270
     1
271
     1
  0
XRECORD
  5
A98
102
{ACAD_REACTORS
330
A94
102
}
330
A94
100
AcDbXrecord
280
     1
270
     1
271
     1
  0
XRECORD
  5
A9A
102
{ACAD_REACTORS
330
A94
102
}
330
A94
100
AcDbXrecord
280
     1
270
     1
271
     1
  0
XRECORD
  5
A97
102
{ACAD_REACTORS
330
A94
102
}
330
A94
100
AcDbXrecord
280
     1
270
     1
271
     1
  0
XRECORD
  5
B48
102
{ACAD_REACTORS
330
AA4
102
}
330
AA4
100
AcDbXrecord
280
     1
102
MATERIAL
148
0.0
149
0.0
149
0.0
 93
        0
 94
      127
282
     0
 72
     0
 77
     0
171
     0
175
     0
179
     0
273
     0
  0
XRECORD
  5
AA6
102
{ACAD_REACTORS
330
AA4
102
}
330
AA4
100
AcDbXrecord
280
     1
270
     1
271
     1
  0
XRECORD
  5
AA5
102
{ACAD_REACTORS
330
AA4
102
}
330
AA4
100
AcDbXrecord
280
     1
270
     1
271
     1
  0
XRECORD
  5
AA9
102
{ACAD_REACTORS
330
AA4
102
}
330
AA4
100
AcDbXrecord
280
     1
270
     1
271
     1
  0
XRECORD
  5
AA8
102
{ACAD_REACTORS
330
AA4
102
}
330
AA4
100
AcDbXrecord
280
     1
270
     1
271
     1
  0
XRECORD
  5
AAA
102
{ACAD_REACTORS
330
AA4
102
}
330
AA4
100
AcDbXrecord
280
     1
270
     1
271
     1
  0
XRECORD
  5
AA7
102
{ACAD_REACTORS
330
AA4
102
}
330
AA4
100
AcDbXrecord
280
     1
270
     1
271
     1
  0
XRECORD
  5
B7C
102
{ACAD_REACTORS
330
B7B
102
}
330
B7B
100
AcDbXrecord
280
     1
102
DISPLAYNAME
  1
Metric50
102
FLAGS
 90
        0
  0
CELLSTYLEMAP
  5
B44
102
{ACAD_REACTORS
330
B43
102
}
330
B43
100
AcDbCellStyleMap
 90
        3
300
CELLSTYLE
  1
TABLEFORMAT_BEGIN
 90
        5
170
     1
 91
        0
 92
    32768
 62
   257
 93
        1
300
CONTENTFORMAT
  1
CONTENTFORMAT_BEGIN
 90
        0
 91
        0
 92
      512
 93
        0
300

 40
0.0
140
1.0
 94
        5
 62
     0
340
F
144
6.0
309
CONTENTFORMAT_END
171
     1
301
MARGIN
  1
CELLMARGIN_BEGIN
 40
1.5
 40
1.5
 40
1.5
 40
1.5
 40
4.5
 40
4.5
309
CELLMARGIN_END
 94
        6
 95
        1
302
GRIDFORMAT
  1
GRIDFORMAT_BEGIN
 90
        0
 91
        1
 62
     0
 92
       -2
340
0
 93
        0
 40
1.125
309
GRIDFORMAT_END
 95
        2
302
GRIDFORMAT
  1
GRIDFORMAT_BEGIN
 90
        0
 91
        1
 62
     0
 92
       -2
340
0
 93
        0
 40
1.125
309
GRIDFORMAT_END
 95
        4
302
GRIDFORMAT
  1
GRIDFORMAT_BEGIN
 90
        0
 91
        1
 62
     0
 92
       -2
340
0
 93
        0
 40
1.125
309
GRIDFORMAT_END
 95
        8
302
GRIDFORMAT
  1
GRIDFORMAT_BEGIN
 90
        0
 91
        1
 62
     0
 92
       -2
340
0
 93
        0
 40
1.125
309
GRIDFORMAT_END
 95
       16
302
GRIDFORMAT
  1
GRIDFORMAT_BEGIN
 90
        0
 91
        1
 62
     0
 92
       -2
340
0
 93
        0
 40
1.125
309
GRIDFORMAT_END
 95
       32
302
GRIDFORMAT
  1
GRIDFORMAT_BEGIN
 90
        0
 91
        1
 62
     0
 92
       -2
340
0
 93
        0
 40
1.125
309
GRIDFORMAT_END
309
TABLEFORMAT_END
  1
CELLSTYLE_BEGIN
 90
        1
 91
        1
300
_TITLE
309
CELLSTYLE_END
300
CELLSTYLE
  1
TABLEFORMAT_BEGIN
 90
        5
170
     1
 91
        0
 92
        0
 62
   257
 93
        1
300
CONTENTFORMAT
  1
CONTENTFORMAT_BEGIN
 90
        0
 91
        0
 92
      512
 93
        0
300

 40
0.0
140
1.0
 94
        5
 62
     0
340
F
144
4.5
309
CONTENTFORMAT_END
171
     1
301
MARGIN
  1
CELLMARGIN_BEGIN
 40
1.5
 40
1.5
 40
1.5
 40
1.5
 40
4.5
 40
4.5
309
CELLMARGIN_END
 94
        6
 95
        1
302
GRIDFORMAT
  1
GRIDFORMAT_BEGIN
 90
        0
 91
        1
 62
     0
 92
       -2
340
0
 93
        0
 40
1.125
309
GRIDFORMAT_END
 95
        2
302
GRIDFORMAT
  1
GRIDFORMAT_BEGIN
 90
        0
 91
        1
 62
     0
 92
       -2
340
0
 93
        0
 40
1.125
309
GRIDFORMAT_END
 95
        4
302
GRIDFORMAT
  1
GRIDFORMAT_BEGIN
 90
        0
 91
        1
 62
     0
 92
       -2
340
0
 93
        0
 40
1.125
309
GRIDFORMAT_END
 95
        8
302
GRIDFORMAT
  1
GRIDFORMAT_BEGIN
 90
        0
 91
        1
 62
     0
 92
       -2
340
0
 93
        0
 40
1.125
309
GRIDFORMAT_END
 95
       16
302
GRIDFORMAT
  1
GRIDFORMAT_BEGIN
 90
        0
 91
        1
 62
     0
 92
       -2
340
0
 93
        0
 40
1.125
309
GRIDFORMAT_END
 95
       32
302
GRIDFORMAT
  1
GRIDFORMAT_BEGIN
 90
        0
 91
        1
 62
     0
 92
       -2
340
0
 93
        0
 40
1.125
309
GRIDFORMAT_END
309
TABLEFORMAT_END
  1
CELLSTYLE_BEGIN
 90
        2
 91
        1
300
_HEADER
309
CELLSTYLE_END
300
CELLSTYLE
  1
TABLEFORMAT_BEGIN
 90
        5
170
     1
 91
        0
 92
        0
 62
   257
 93
        1
300
CONTENTFORMAT
  1
CONTENTFORMAT_BEGIN
 90
        0
 91
        0
 92
      512
 93
        0
300

 40
0.0
140
1.0
 94
        2
 62
     0
340
F
144
4.5
309
CONTENTFORMAT_END
171
     1
301
MARGIN
  1
CELLMARGIN_BEGIN
 40
1.5
 40
1.5
 40
1.5
 40
1.5
 40
4.5
 40
4.5
309
CELLMARGIN_END
 94
        6
 95
        1
302
GRIDFORMAT
  1
GRIDFORMAT_BEGIN
 90
        0
 91
        1
 62
     0
 92
       -2
340
0
 93
        0
 40
1.125
309
GRIDFORMAT_END
 95
        2
302
GRIDFORMAT
  1
GRIDFORMAT_BEGIN
 90
        0
 91
        1
 62
     0
 92
       -2
340
0
 93
        0
 40
1.125
309
GRIDFORMAT_END
 95
        4
302
GRIDFORMAT
  1
GRIDFORMAT_BEGIN
 90
        0
 91
        1
 62
     0
 92
       -2
340
0
 93
        0
 40
1.125
309
GRIDFORMAT_END
 95
        8
302
GRIDFORMAT
  1
GRIDFORMAT_BEGIN
 90
        0
 91
        1
 62
     0
 92
       -2
340
0
 93
        0
 40
1.125
309
GRIDFORMAT_END
 95
       16
302
GRIDFORMAT
  1
GRIDFORMAT_BEGIN
 90
        0
 91
        1
 62
     0
 92
       -2
340
0
 93
        0
 40
1.125
309
GRIDFORMAT_END
 95
       32
302
GRIDFORMAT
  1
GRIDFORMAT_BEGIN
 90
        0
 91
        1
 62
     0
 92
       -2
340
0
 93
        0
 40
1.125
309
GRIDFORMAT_END
309
TABLEFORMAT_END
  1
CELLSTYLE_BEGIN
 90
        3
 91
        2
300
_DATA
309
CELLSTYLE_END
  0
XRECORD
  5
B79
102
{ACAD_REACTORS
330
B43
102
}
330
B43
100
AcDbXrecord
280
     1
102
ACAD_ROUNDTRIP_PRE2007_TABLESTYLE
 90
      512
 91
        0
  1

 92
      512
 93
        0
  2

 94
      512
 95
        0
  3

  0
XRECORD
  5
B54
102
{ACAD_REACTORS
330
B53
102
}
330
B53
100
AcDbXrecord
280
     1
102
RTVSPost2010Prop28
280
     1
102
RTVSPost2010PropOp28
 70
     1
102
RTVSPost2010Prop29
280
     1
102
RTVSPost2010PropOp29
 70
     1
102
RTVSPost2010Prop30
280
     0
102
RTVSPost2010PropOp30
 70
     1
102
RTVSPost2010Prop31
280
     0
102
RTVSPost2010PropOp31
 70
     1
102
RTVSPost2010Prop32
280
     0
102
RTVSPost2010PropOp32
 70
     1
102
RTVSPost2010Prop33
280
     0
102
RTVSPost2010PropOp33
 70
     1
102
RTVSPost2010Prop34
280
     0
102
RTVSPost2010PropOp34
 70
     1
102
RTVSPost2010Prop35
280
     0
102
RTVSPost2010PropOp35
 70
     1
102
RTVSPost2010Prop36
280
     0
102
RTVSPost2010PropOp36
 70
     1
102
RTVSPost2010Prop37
 90
       50
102
RTVSPost2010PropOp37
 70
     1
102
RTVSPost2010Prop38
140
0.0
102
RTVSPost2010PropOp38
 70
     1
102
RTVSPost2010Prop39
140
1.0
102
RTVSPost2010PropOp39
 70
     1
102
RTVSPost2010Prop40
 90
        0
102
RTVSPost2010PropOp40
 70
     1
102
RTVSPost2010Prop41ColorIndex
 90
       18
102
RTVSPost2010Prop41ColorRGB
 90
        0
102
RTVSPost2010PropOp41
 70
     1
102
RTVSPost2010Prop42
 90
       50
102
RTVSPost2010PropOp42
 70
     1
102
RTVSPost2010Prop43
 90
        3
102
RTVSPost2010PropOp43
 70
     1
102
RTVSPost2010Prop44ColorIndex
 90
        5
102
RTVSPost2010Prop44ColorRGB
 90
      255
102
RTVSPost2010PropOp44
 70
     1
102
RTVSPost2010Prop45
280
     0
102
RTVSPost2010PropOp45
 70
     1
102
RTVSPost2010Prop46
 90
       50
102
RTVSPost2010PropOp46
 70
     1
102
RTVSPost2010Prop47
 90
       50
102
RTVSPost2010PropOp47
 70
     1
102
RTVSPost2010Prop48
 90
       50
102
RTVSPost2010PropOp48
 70
     1
102
RTVSPost2010Prop49
280
     0
102
RTVSPost2010PropOp49
 70
     1
102
RTVSPost2010Prop50
 90
       50
102
RTVSPost2010PropOp50
 70
     1
102
RTVSPost2010Prop51ColorIndex
 90
      256
102
RTVSPost2010Prop51ColorRGB
 90
-16777216
102
RTVSPost2010PropOp51
 70
     0
102
RTVSPost2010Prop52
140
1.0
102
RTVSPost2010PropOp52
 70
     0
102
RTVSPost2010Prop53
 90
        2
102
RTVSPost2010PropOp53
 70
     1
102
RTVSPost2010Prop54
  1
strokes_ogs.tif
102
RTVSPost2010PropOp54
 70
     1
102
RTVSPost2010Prop55
280
     0
102
RTVSPost2010PropOp55
 70
     1
102
RTVSPost2010Prop56
140
1.0
102
RTVSPost2010PropOp56
 70
     1
102
RTVSPost2010Prop57
140
1.0
102
RTVSPost2010PropOp57
 70
     1
102
RTVSPropertyOp0
 70
     1
102
RTVSPropertyOp1
 70
     1
102
RTVSPropertyOp2
 70
     1
102
RTVSPropertyOp3
 70
     1
102
RTVSPropertyOp4
 70
     1
102
RTVSPropertyOp5
 70
     1
102
RTVSPropertyOp6
 70
     1
102
RTVSPropertyOp7
 70
     1
102
RTVSPropertyOp8
 70
     1
102
RTVSPropertyOp9
 70
     1
102
RTVSPropertyOp10
 70
     1
102
RTVSPropertyOp11
 70
     1
102
RTVSPropertyOp12
 70
     1
102
RTVSPropertyOp13
 70
     1
102
RTVSPropertyOp14
 70
     1
102
RTVSPropertyOp15
 70
     1
102
RTVSPropertyOp16
 70
     1
102
RTVSPropertyOp17
 70
     1
102
RTVSPropertyOp18
 70
     1
102
RTVSPropertyOp19
 70
     1
102
RTVSPropertyOp20
 70
     1
102
RTVSPropertyOp21
 70
     1
102
RTVSPropertyOp22
 70
     1
102
RTVSPropertyOp23
 70
     1
102
RTVSPropertyOp24
 70
     1
102
RTVSPropertyOp25
 70
     1
102
RTVSPropertyOp26
 70
     1
102
RTVSPropertyOp27
 70
     1
102
RTVSPropertyOp28
 70
     1
102
RTVSPropertyOp29
 70
     1
102
RTVSPropertyOp30
 70
     1
102
RTVSPropertyOp31
 70
     1
102
RTVSPropertyOp32
 70
     1
102
RTVSPropertyOp33
 70
     1
102
RTVSPropertyOp34
 70
     1
102
RTVSPropertyOp35
 70
     1
102
RTVSPropertyOp36
 70
     1
102
RTVSPropertyOp37
 70
     1
102
RTVSPropertyOp38
 70
     1
102
RTVSPropertyOp39
 70
     1
102
RTVSPropertyOp40
 70
     1
102
RTVSPropertyOp41
 70
     1
102
RTVSPropertyOp42
 70
     1
102
RTVSPropertyOp43
 70
     1
102
RTVSPropertyOp44
 70
     1
102
RTVSPropertyOp45
 70
     1
102
RTVSPropertyOp46
 70
     1
102
RTVSPropertyOp47
 70
     1
102
RTVSPropertyOp48
 70
     1
102
RTVSPropertyOp49
 70
     1
102
RTVSPropertyOp50
 70
     1
102
RTVSPropertyOp51
 70
     0
102
RTVSPropertyOp52
 70
     0
102
RTVSPropertyOp53
 70
     1
102
RTVSPropertyOp54
 70
     1
102
RTVSPropertyOp55
 70
     1
102
RTVSPropertyOp56
 70
     1
102
RTVSPropertyOp57
 70
     1
102
RTVSPropertyOp58
 70
     1
102
RTVSPropertyOp59
 70
     1
102
RTVSPropertyOp60
 70
     1
102
RTVSPropertyOp61
 70
     1
102
RTVSPropertyOp62
 70
     1
  0
XRECORD
  5
B52
102
{ACAD_REACTORS
330
B51
102
}
330
B51
100
AcDbXrecord
280
     1
102
RTVSPost2010Prop28
280
     0
102
RTVSPost2010PropOp28
 70
     1
102
RTVSPost2010Prop29
280
     1
102
RTVSPost2010PropOp29
 70
     1
102
RTVSPost2010Prop30
280
     1
102
RTVSPost2010PropOp30
 70
     1
102
RTVSPost2010Prop31
280
     0
102
RTVSPost2010PropOp31
 70
     1
102
RTVSPost2010Prop32
280
     0
102
RTVSPost2010PropOp32
 70
     1
102
RTVSPost2010Prop33
280
     0
102
RTVSPost2010PropOp33
 70
     1
102
RTVSPost2010Prop34
280
     0
102
RTVSPost2010PropOp34
 70
     1
102
RTVSPost2010Prop35
280
     0
102
RTVSPost2010PropOp35
 70
     1
102
RTVSPost2010Prop36
280
     0
102
RTVSPost2010PropOp36
 70
     1
102
RTVSPost2010Prop37
 90
       50
102
RTVSPost2010PropOp37
 70
     1
102
RTVSPost2010Prop38
140
0.0
102
RTVSPost2010PropOp38
 70
     1
102
RTVSPost2010Prop39
140
1.0
102
RTVSPost2010PropOp39
 70
     1
102
RTVSPost2010Prop40
 90
        0
102
RTVSPost2010PropOp40
 70
     1
102
RTVSPost2010Prop41ColorIndex
 90
       18
102
RTVSPost2010Prop41ColorRGB
 90
        0
102
RTVSPost2010PropOp41
 70
     1
102
RTVSPost2010Prop42
 90
       50
102
RTVSPost2010PropOp42
 70
     1
102
RTVSPost2010Prop43
 90
        3
102
RTVSPost2010PropOp43
 70
     1
102
RTVSPost2010Prop44ColorIndex
 90
        5
102
RTVSPost2010Prop44ColorRGB
 90
      255
102
RTVSPost2010PropOp44
 70
     1
102
RTVSPost2010Prop45
280
     0
102
RTVSPost2010PropOp45
 70
     1
102
RTVSPost2010Prop46
 90
       50
102
RTVSPost2010PropOp46
 70
     1
102
RTVSPost2010Prop47
 90
       50
102
RTVSPost2010PropOp47
 70
     1
102
RTVSPost2010Prop48
 90
       50
102
RTVSPost2010PropOp48
 70
     1
102
RTVSPost2010Prop49
280
     0
102
RTVSPost2010PropOp49
 70
     1
102
RTVSPost2010Prop50
 90
       50
102
RTVSPost2010PropOp50
 70
     1
102
RTVSPost2010Prop51ColorIndex
 90
      256
102
RTVSPost2010Prop51ColorRGB
 90
-16777216
102
RTVSPost2010PropOp51
 70
     0
102
RTVSPost2010Prop52
140
1.0
102
RTVSPost2010PropOp52
 70
     0
102
RTVSPost2010Prop53
 90
        2
102
RTVSPost2010PropOp53
 70
     1
102
RTVSPost2010Prop54
  1
strokes_ogs.tif
102
RTVSPost2010PropOp54
 70
     1
102
RTVSPost2010Prop55
280
     0
102
RTVSPost2010PropOp55
 70
     1
102
RTVSPost2010Prop56
140
1.0
102
RTVSPost2010PropOp56
 70
     1
102
RTVSPost2010Prop57
140
1.0
102
RTVSPost2010PropOp57
 70
     1
102
RTVSPropertyOp0
 70
     1
102
RTVSPropertyOp1
 70
     1
102
RTVSPropertyOp2
 70
     1
102
RTVSPropertyOp3
 70
     1
102
RTVSPropertyOp4
 70
     1
102
RTVSPropertyOp5
 70
     1
102
RTVSPropertyOp6
 70
     1
102
RTVSPropertyOp7
 70
     1
102
RTVSPropertyOp8
 70
     1
102
RTVSPropertyOp9
 70
     1
102
RTVSPropertyOp10
 70
     1
102
RTVSPropertyOp11
 70
     1
102
RTVSPropertyOp12
 70
     1
102
RTVSPropertyOp13
 70
     1
102
RTVSPropertyOp14
 70
     1
102
RTVSPropertyOp15
 70
     1
102
RTVSPropertyOp16
 70
     1
102
RTVSPropertyOp17
 70
     1
102
RTVSPropertyOp18
 70
     1
102
RTVSPropertyOp19
 70
     1
102
RTVSPropertyOp20
 70
     1
102
RTVSPropertyOp21
 70
     1
102
RTVSPropertyOp22
 70
     1
102
RTVSPropertyOp23
 70
     1
102
RTVSPropertyOp24
 70
     1
102
RTVSPropertyOp25
 70
     1
102
RTVSPropertyOp26
 70
     1
102
RTVSPropertyOp27
 70
     1
102
RTVSPropertyOp28
 70
     1
102
RTVSPropertyOp29
 70
     1
102
RTVSPropertyOp30
 70
     1
102
RTVSPropertyOp31
 70
     1
102
RTVSPropertyOp32
 70
     1
102
RTVSPropertyOp33
 70
     1
102
RTVSPropertyOp34
 70
     1
102
RTVSPropertyOp35
 70
     1
102
RTVSPropertyOp36
 70
     1
102
RTVSPropertyOp37
 70
     1
102
RTVSPropertyOp38
 70
     1
102
RTVSPropertyOp39
 70
     1
102
RTVSPropertyOp40
 70
     1
102
RTVSPropertyOp41
 70
     1
102
RTVSPropertyOp42
 70
     1
102
RTVSPropertyOp43
 70
     1
102
RTVSPropertyOp44
 70
     1
102
RTVSPropertyOp45
 70
     1
102
RTVSPropertyOp46
 70
     1
102
RTVSPropertyOp47
 70
     1
102
RTVSPropertyOp48
 70
     1
102
RTVSPropertyOp49
 70
     1
102
RTVSPropertyOp50
 70
     1
102
RTVSPropertyOp51
 70
     0
102
RTVSPropertyOp52
 70
     0
102
RTVSPropertyOp53
 70
     1
102
RTVSPropertyOp54
 70
     1
102
RTVSPropertyOp55
 70
     1
102
RTVSPropertyOp56
 70
     1
102
RTVSPropertyOp57
 70
     1
102
RTVSPropertyOp58
 70
     1
102
RTVSPropertyOp59
 70
     1
102
RTVSPropertyOp60
 70
     1
102
RTVSPropertyOp61
 70
     1
102
RTVSPropertyOp62
 70
     1
  0
XRECORD
  5
B60
102
{ACAD_REACTORS
330
B5F
102
}
330
B5F
100
AcDbXrecord
280
     1
102
RTVSPost2010Prop28
280
     0
102
RTVSPost2010PropOp28
 70
     1
102
RTVSPost2010Prop29
280
     1
102
RTVSPost2010PropOp29
 70
     1
102
RTVSPost2010Prop30
280
     1
102
RTVSPost2010PropOp30
 70
     1
102
RTVSPost2010Prop31
280
     0
102
RTVSPost2010PropOp31
 70
     1
102
RTVSPost2010Prop32
280
     0
102
RTVSPost2010PropOp32
 70
     1
102
RTVSPost2010Prop33
280
     0
102
RTVSPost2010PropOp33
 70
     1
102
RTVSPost2010Prop34
280
     0
102
RTVSPost2010PropOp34
 70
     1
102
RTVSPost2010Prop35
280
     0
102
RTVSPost2010PropOp35
 70
     1
102
RTVSPost2010Prop36
280
     0
102
RTVSPost2010PropOp36
 70
     1
102
RTVSPost2010Prop37
 90
       50
102
RTVSPost2010PropOp37
 70
     1
102
RTVSPost2010Prop38
140
0.0
102
RTVSPost2010PropOp38
 70
     1
102
RTVSPost2010Prop39
140
1.0
102
RTVSPost2010PropOp39
 70
     1
102
RTVSPost2010Prop40
 90
        0
102
RTVSPost2010PropOp40
 70
     1
102
RTVSPost2010Prop41ColorIndex
 90
       18
102
RTVSPost2010Prop41ColorRGB
 90
        0
102
RTVSPost2010PropOp41
 70
     1
102
RTVSPost2010Prop42
 90
       50
102
RTVSPost2010PropOp42
 70
     1
102
RTVSPost2010Prop43
 90
        3
102
RTVSPost2010PropOp43
 70
     1
102
RTVSPost2010Prop44ColorIndex
 90
        5
102
RTVSPost2010Prop44ColorRGB
 90
      255
102
RTVSPost2010PropOp44
 70
     1
102
RTVSPost2010Prop45
280
     0
102
RTVSPost2010PropOp45
 70
     1
102
RTVSPost2010Prop46
 90
       50
102
RTVSPost2010PropOp46
 70
     1
102
RTVSPost2010Prop47
 90
       50
102
RTVSPost2010PropOp47
 70
     1
102
RTVSPost2010Prop48
 90
       50
102
RTVSPost2010PropOp48
 70
     1
102
RTVSPost2010Prop49
280
     0
102
RTVSPost2010PropOp49
 70
     1
102
RTVSPost2010Prop50
 90
       50
102
RTVSPost2010PropOp50
 70
     1
102
RTVSPost2010Prop51ColorIndex
 90
      256
102
RTVSPost2010Prop51ColorRGB
 90
-16777216
102
RTVSPost2010PropOp51
 70
     0
102
RTVSPost2010Prop52
140
1.0
102
RTVSPost2010PropOp52
 70
     0
102
RTVSPost2010Prop53
 90
        2
102
RTVSPost2010PropOp53
 70
     1
102
RTVSPost2010Prop54
  1
strokes_ogs.tif
102
RTVSPost2010PropOp54
 70
     1
102
RTVSPost2010Prop55
280
     0
102
RTVSPost2010PropOp55
 70
     1
102
RTVSPost2010Prop56
140
1.0
102
RTVSPost2010PropOp56
 70
     1
102
RTVSPost2010Prop57
140
1.0
102
RTVSPost2010PropOp57
 70
     1
102
RTVSPropertyOp0
 70
     1
102
RTVSPropertyOp1
 70
     1
102
RTVSPropertyOp2
 70
     1
102
RTVSPropertyOp3
 70
     1
102
RTVSPropertyOp4
 70
     1
102
RTVSPropertyOp5
 70
     1
102
RTVSPropertyOp6
 70
     1
102
RTVSPropertyOp7
 70
     1
102
RTVSPropertyOp8
 70
     1
102
RTVSPropertyOp9
 70
     1
102
RTVSPropertyOp10
 70
     1
102
RTVSPropertyOp11
 70
     1
102
RTVSPropertyOp12
 70
     1
102
RTVSPropertyOp13
 70
     1
102
RTVSPropertyOp14
 70
     1
102
RTVSPropertyOp15
 70
     1
102
RTVSPropertyOp16
 70
     1
102
RTVSPropertyOp17
 70
     1
102
RTVSPropertyOp18
 70
     1
102
RTVSPropertyOp19
 70
     1
102
RTVSPropertyOp20
 70
     1
102
RTVSPropertyOp21
 70
     1
102
RTVSPropertyOp22
 70
     1
102
RTVSPropertyOp23
 70
     1
102
RTVSPropertyOp24
 70
     1
102
RTVSPropertyOp25
 70
     1
102
RTVSPropertyOp26
 70
     1
102
RTVSPropertyOp27
 70
     1
102
RTVSPropertyOp28
 70
     1
102
RTVSPropertyOp29
 70
     1
102
RTVSPropertyOp30
 70
     1
102
RTVSPropertyOp31
 70
     1
102
RTVSPropertyOp32
 70
     1
102
RTVSPropertyOp33
 70
     1
102
RTVSPropertyOp34
 70
     1
102
RTVSPropertyOp35
 70
     1
102
RTVSPropertyOp36
 70
     1
102
RTVSPropertyOp37
 70
     1
102
RTVSPropertyOp38
 70
     1
102
RTVSPropertyOp39
 70
     1
102
RTVSPropertyOp40
 70
     1
102
RTVSPropertyOp41
 70
     1
102
RTVSPropertyOp42
 70
     1
102
RTVSPropertyOp43
 70
     1
102
RTVSPropertyOp44
 70
     1
102
RTVSPropertyOp45
 70
     1
102
RTVSPropertyOp46
 70
     1
102
RTVSPropertyOp47
 70
     1
102
RTVSPropertyOp48
 70
     1
102
RTVSPropertyOp49
 70
     1
102
RTVSPropertyOp50
 70
     1
102
RTVSPropertyOp51
 70
     0
102
RTVSPropertyOp52
 70
     0
102
RTVSPropertyOp53
 70
     1
102
RTVSPropertyOp54
 70
     1
102
RTVSPropertyOp55
 70
     1
102
RTVSPropertyOp56
 70
     1
102
RTVSPropertyOp57
 70
     1
102
RTVSPropertyOp58
 70
     1
102
RTVSPropertyOp59
 70
     1
102
RTVSPropertyOp60
 70
     1
102
RTVSPropertyOp61
 70
     1
102
RTVSPropertyOp62
 70
     1
  0
XRECORD
  5
B68
102
{ACAD_REACTORS
330
B67
102
}
330
B67
100
AcDbXrecord
280
     1
102
RTVSPost2010Prop28
280
     0
102
RTVSPost2010PropOp28
 70
     1
102
RTVSPost2010Prop29
280
     1
102
RTVSPost2010PropOp29
 70
     1
102
RTVSPost2010Prop30
280
     1
102
RTVSPost2010PropOp30
 70
     1
102
RTVSPost2010Prop31
280
     0
102
RTVSPost2010PropOp31
 70
     1
102
RTVSPost2010Prop32
280
     0
102
RTVSPost2010PropOp32
 70
     1
102
RTVSPost2010Prop33
280
     0
102
RTVSPost2010PropOp33
 70
     1
102
RTVSPost2010Prop34
280
     0
102
RTVSPost2010PropOp34
 70
     1
102
RTVSPost2010Prop35
280
     0
102
RTVSPost2010PropOp35
 70
     1
102
RTVSPost2010Prop36
280
     0
102
RTVSPost2010PropOp36
 70
     1
102
RTVSPost2010Prop37
 90
       50
102
RTVSPost2010PropOp37
 70
     1
102
RTVSPost2010Prop38
140
0.0
102
RTVSPost2010PropOp38
 70
     1
102
RTVSPost2010Prop39
140
1.0
102
RTVSPost2010PropOp39
 70
     1
102
RTVSPost2010Prop40
 90
        0
102
RTVSPost2010PropOp40
 70
     1
102
RTVSPost2010Prop41ColorIndex
 90
       18
102
RTVSPost2010Prop41ColorRGB
 90
        0
102
RTVSPost2010PropOp41
 70
     1
102
RTVSPost2010Prop42
 90
       50
102
RTVSPost2010PropOp42
 70
     1
102
RTVSPost2010Prop43
 90
        3
102
RTVSPost2010PropOp43
 70
     1
102
RTVSPost2010Prop44ColorIndex
 90
        5
102
RTVSPost2010Prop44ColorRGB
 90
      255
102
RTVSPost2010PropOp44
 70
     1
102
RTVSPost2010Prop45
280
     0
102
RTVSPost2010PropOp45
 70
     1
102
RTVSPost2010Prop46
 90
       50
102
RTVSPost2010PropOp46
 70
     1
102
RTVSPost2010Prop47
 90
       50
102
RTVSPost2010PropOp47
 70
     1
102
RTVSPost2010Prop48
 90
       50
102
RTVSPost2010PropOp48
 70
     1
102
RTVSPost2010Prop49
280
     0
102
RTVSPost2010PropOp49
 70
     1
102
RTVSPost2010Prop50
 90
       50
102
RTVSPost2010PropOp50
 70
     1
102
RTVSPost2010Prop51ColorIndex
 90
      256
102
RTVSPost2010Prop51ColorRGB
 90
-16777216
102
RTVSPost2010PropOp51
 70
     0
102
RTVSPost2010Prop52
140
1.0
102
RTVSPost2010PropOp52
 70
     0
102
RTVSPost2010Prop53
 90
        2
102
RTVSPost2010PropOp53
 70
     1
102
RTVSPost2010Prop54
  1
strokes_ogs.tif
102
RTVSPost2010PropOp54
 70
     1
102
RTVSPost2010Prop55
280
     0
102
RTVSPost2010PropOp55
 70
     1
102
RTVSPost2010Prop56
140
1.0
102
RTVSPost2010PropOp56
 70
     1
102
RTVSPost2010Prop57
140
1.0
102
RTVSPost2010PropOp57
 70
     1
102
RTVSPropertyOp0
 70
     1
102
RTVSPropertyOp1
 70
     1
102
RTVSPropertyOp2
 70
     1
102
RTVSPropertyOp3
 70
     1
102
RTVSPropertyOp4
 70
     1
102
RTVSPropertyOp5
 70
     1
102
RTVSPropertyOp6
 70
     1
102
RTVSPropertyOp7
 70
     1
102
RTVSPropertyOp8
 70
     1
102
RTVSPropertyOp9
 70
     1
102
RTVSPropertyOp10
 70
     1
102
RTVSPropertyOp11
 70
     1
102
RTVSPropertyOp12
 70
     1
102
RTVSPropertyOp13
 70
     1
102
RTVSPropertyOp14
 70
     1
102
RTVSPropertyOp15
 70
     1
102
RTVSPropertyOp16
 70
     1
102
RTVSPropertyOp17
 70
     1
102
RTVSPropertyOp18
 70
     1
102
RTVSPropertyOp19
 70
     1
102
RTVSPropertyOp20
 70
     1
102
RTVSPropertyOp21
 70
     1
102
RTVSPropertyOp22
 70
     1
102
RTVSPropertyOp23
 70
     1
102
RTVSPropertyOp24
 70
     1
102
RTVSPropertyOp25
 70
     1
102
RTVSPropertyOp26
 70
     1
102
RTVSPropertyOp27
 70
     1
102
RTVSPropertyOp28
 70
     1
102
RTVSPropertyOp29
 70
     1
102
RTVSPropertyOp30
 70
     1
102
RTVSPropertyOp31
 70
     1
102
RTVSPropertyOp32
 70
     1
102
RTVSPropertyOp33
 70
     1
102
RTVSPropertyOp34
 70
     1
102
RTVSPropertyOp35
 70
     1
102
RTVSPropertyOp36
 70
     1
102
RTVSPropertyOp37
 70
     1
102
RTVSPropertyOp38
 70
     1
102
RTVSPropertyOp39
 70
     1
102
RTVSPropertyOp40
 70
     1
102
RTVSPropertyOp41
 70
     1
102
RTVSPropertyOp42
 70
     1
102
RTVSPropertyOp43
 70
     1
102
RTVSPropertyOp44
 70
     1
102
RTVSPropertyOp45
 70
     1
102
RTVSPropertyOp46
 70
     1
102
RTVSPropertyOp47
 70
     1
102
RTVSPropertyOp48
 70
     1
102
RTVSPropertyOp49
 70
     1
102
RTVSPropertyOp50
 70
     1
102
RTVSPropertyOp51
 70
     0
102
RTVSPropertyOp52
 70
     0
102
RTVSPropertyOp53
 70
     1
102
RTVSPropertyOp54
 70
     1
102
RTVSPropertyOp55
 70
     1
102
RTVSPropertyOp56
 70
     1
102
RTVSPropertyOp57
 70
     1
102
RTVSPropertyOp58
 70
     1
102
RTVSPropertyOp59
 70
     1
102
RTVSPropertyOp60
 70
     1
102
RTVSPropertyOp61
 70
     1
102
RTVSPropertyOp62
 70
     1
  0
XRECORD
  5
B5A
102
{ACAD_REACTORS
330
B59
102
}
330
B59
100
AcDbXrecord
280
     1
102
RTVSPost2010Prop28
280
     0
102
RTVSPost2010PropOp28
 70
     1
102
RTVSPost2010Prop29
280
     1
102
RTVSPost2010PropOp29
 70
     1
102
RTVSPost2010Prop30
280
     1
102
RTVSPost2010PropOp30
 70
     1
102
RTVSPost2010Prop31
280
     0
102
RTVSPost2010PropOp31
 70
     1
102
RTVSPost2010Prop32
280
     0
102
RTVSPost2010PropOp32
 70
     1
102
RTVSPost2010Prop33
280
     0
102
RTVSPost2010PropOp33
 70
     1
102
RTVSPost2010Prop34
280
     0
102
RTVSPost2010PropOp34
 70
     1
102
RTVSPost2010Prop35
280
     0
102
RTVSPost2010PropOp35
 70
     1
102
RTVSPost2010Prop36
280
     0
102
RTVSPost2010PropOp36
 70
     1
102
RTVSPost2010Prop37
 90
       50
102
RTVSPost2010PropOp37
 70
     1
102
RTVSPost2010Prop38
140
0.0
102
RTVSPost2010PropOp38
 70
     1
102
RTVSPost2010Prop39
140
1.0
102
RTVSPost2010PropOp39
 70
     1
102
RTVSPost2010Prop40
 90
        0
102
RTVSPost2010PropOp40
 70
     1
102
RTVSPost2010Prop41ColorIndex
 90
       18
102
RTVSPost2010Prop41ColorRGB
 90
        0
102
RTVSPost2010PropOp41
 70
     1
102
RTVSPost2010Prop42
 90
       50
102
RTVSPost2010PropOp42
 70
     1
102
RTVSPost2010Prop43
 90
        3
102
RTVSPost2010PropOp43
 70
     1
102
RTVSPost2010Prop44ColorIndex
 90
        5
102
RTVSPost2010Prop44ColorRGB
 90
      255
102
RTVSPost2010PropOp44
 70
     1
102
RTVSPost2010Prop45
280
     0
102
RTVSPost2010PropOp45
 70
     1
102
RTVSPost2010Prop46
 90
       50
102
RTVSPost2010PropOp46
 70
     1
102
RTVSPost2010Prop47
 90
       50
102
RTVSPost2010PropOp47
 70
     1
102
RTVSPost2010Prop48
 90
       50
102
RTVSPost2010PropOp48
 70
     1
102
RTVSPost2010Prop49
280
     0
102
RTVSPost2010PropOp49
 70
     1
102
RTVSPost2010Prop50
 90
       50
102
RTVSPost2010PropOp50
 70
     1
102
RTVSPost2010Prop51ColorIndex
 90
      256
102
RTVSPost2010Prop51ColorRGB
 90
-16777216
102
RTVSPost2010PropOp51
 70
     0
102
RTVSPost2010Prop52
140
1.0
102
RTVSPost2010PropOp52
 70
     0
102
RTVSPost2010Prop53
 90
        2
102
RTVSPost2010PropOp53
 70
     1
102
RTVSPost2010Prop54
  1
strokes_ogs.tif
102
RTVSPost2010PropOp54
 70
     1
102
RTVSPost2010Prop55
280
     0
102
RTVSPost2010PropOp55
 70
     1
102
RTVSPost2010Prop56
140
1.0
102
RTVSPost2010PropOp56
 70
     1
102
RTVSPost2010Prop57
140
1.0
102
RTVSPost2010PropOp57
 70
     1
102
RTVSPropertyOp0
 70
     1
102
RTVSPropertyOp1
 70
     1
102
RTVSPropertyOp2
 70
     1
102
RTVSPropertyOp3
 70
     1
102
RTVSPropertyOp4
 70
     1
102
RTVSPropertyOp5
 70
     1
102
RTVSPropertyOp6
 70
     1
102
RTVSPropertyOp7
 70
     1
102
RTVSPropertyOp8
 70
     1
102
RTVSPropertyOp9
 70
     1
102
RTVSPropertyOp10
 70
     1
102
RTVSPropertyOp11
 70
     1
102
RTVSPropertyOp12
 70
     1
102
RTVSPropertyOp13
 70
     1
102
RTVSPropertyOp14
 70
     1
102
RTVSPropertyOp15
 70
     1
102
RTVSPropertyOp16
 70
     1
102
RTVSPropertyOp17
 70
     1
102
RTVSPropertyOp18
 70
     1
102
RTVSPropertyOp19
 70
     1
102
RTVSPropertyOp20
 70
     1
102
RTVSPropertyOp21
 70
     1
102
RTVSPropertyOp22
 70
     1
102
RTVSPropertyOp23
 70
     1
102
RTVSPropertyOp24
 70
     1
102
RTVSPropertyOp25
 70
     1
102
RTVSPropertyOp26
 70
     1
102
RTVSPropertyOp27
 70
     1
102
RTVSPropertyOp28
 70
     1
102
RTVSPropertyOp29
 70
     1
102
RTVSPropertyOp30
 70
     1
102
RTVSPropertyOp31
 70
     1
102
RTVSPropertyOp32
 70
     1
102
RTVSPropertyOp33
 70
     1
102
RTVSPropertyOp34
 70
     1
102
RTVSPropertyOp35
 70
     1
102
RTVSPropertyOp36
 70
     1
102
RTVSPropertyOp37
 70
     1
102
RTVSPropertyOp38
 70
     1
102
RTVSPropertyOp39
 70
     1
102
RTVSPropertyOp40
 70
     1
102
RTVSPropertyOp41
 70
     1
102
RTVSPropertyOp42
 70
     1
102
RTVSPropertyOp43
 70
     1
102
RTVSPropertyOp44
 70
     1
102
RTVSPropertyOp45
 70
     1
102
RTVSPropertyOp46
 70
     1
102
RTVSPropertyOp47
 70
     1
102
RTVSPropertyOp48
 70
     1
102
RTVSPropertyOp49
 70
     1
102
RTVSPropertyOp50
 70
     1
102
RTVSPropertyOp51
 70
     0
102
RTVSPropertyOp52
 70
     0
102
RTVSPropertyOp53
 70
     1
102
RTVSPropertyOp54
 70
     1
102
RTVSPropertyOp55
 70
     1
102
RTVSPropertyOp56
 70
     1
102
RTVSPropertyOp57
 70
     1
102
RTVSPropertyOp58
 70
     1
102
RTVSPropertyOp59
 70
     1
102
RTVSPropertyOp60
 70
     1
102
RTVSPropertyOp61
 70
     1
102
RTVSPropertyOp62
 70
     1
  0
XRECORD
  5
B5E
102
{ACAD_REACTORS
330
B5D
102
}
330
B5D
100
AcDbXrecord
280
     1
102
RTVSPost2010Prop28
280
     0
102
RTVSPost2010PropOp28
 70
     1
102
RTVSPost2010Prop29
280
     1
102
RTVSPost2010PropOp29
 70
     1
102
RTVSPost2010Prop30
280
     1
102
RTVSPost2010PropOp30
 70
     1
102
RTVSPost2010Prop31
280
     0
102
RTVSPost2010PropOp31
 70
     1
102
RTVSPost2010Prop32
280
     0
102
RTVSPost2010PropOp32
 70
     1
102
RTVSPost2010Prop33
280
     0
102
RTVSPost2010PropOp33
 70
     1
102
RTVSPost2010Prop34
280
     0
102
RTVSPost2010PropOp34
 70
     1
102
RTVSPost2010Prop35
280
     0
102
RTVSPost2010PropOp35
 70
     1
102
RTVSPost2010Prop36
280
     0
102
RTVSPost2010PropOp36
 70
     1
102
RTVSPost2010Prop37
 90
       50
102
RTVSPost2010PropOp37
 70
     1
102
RTVSPost2010Prop38
140
0.0
102
RTVSPost2010PropOp38
 70
     1
102
RTVSPost2010Prop39
140
1.0
102
RTVSPost2010PropOp39
 70
     1
102
RTVSPost2010Prop40
 90
        0
102
RTVSPost2010PropOp40
 70
     1
102
RTVSPost2010Prop41ColorIndex
 90
       18
102
RTVSPost2010Prop41ColorRGB
 90
        0
102
RTVSPost2010PropOp41
 70
     1
102
RTVSPost2010Prop42
 90
       50
102
RTVSPost2010PropOp42
 70
     1
102
RTVSPost2010Prop43
 90
        3
102
RTVSPost2010PropOp43
 70
     1
102
RTVSPost2010Prop44ColorIndex
 90
        5
102
RTVSPost2010Prop44ColorRGB
 90
      255
102
RTVSPost2010PropOp44
 70
     1
102
RTVSPost2010Prop45
280
     0
102
RTVSPost2010PropOp45
 70
     1
102
RTVSPost2010Prop46
 90
       50
102
RTVSPost2010PropOp46
 70
     1
102
RTVSPost2010Prop47
 90
       50
102
RTVSPost2010PropOp47
 70
     1
102
RTVSPost2010Prop48
 90
       50
102
RTVSPost2010PropOp48
 70
     1
102
RTVSPost2010Prop49
280
     0
102
RTVSPost2010PropOp49
 70
     1
102
RTVSPost2010Prop50
 90
       50
102
RTVSPost2010PropOp50
 70
     1
102
RTVSPost2010Prop51ColorIndex
 90
      256
102
RTVSPost2010Prop51ColorRGB
 90
-16777216
102
RTVSPost2010PropOp51
 70
     0
102
RTVSPost2010Prop52
140
1.0
102
RTVSPost2010PropOp52
 70
     0
102
RTVSPost2010Prop53
 90
        2
102
RTVSPost2010PropOp53
 70
     1
102
RTVSPost2010Prop54
  1
strokes_ogs.tif
102
RTVSPost2010PropOp54
 70
     1
102
RTVSPost2010Prop55
280
     0
102
RTVSPost2010PropOp55
 70
     1
102
RTVSPost2010Prop56
140
1.0
102
RTVSPost2010PropOp56
 70
     1
102
RTVSPost2010Prop57
140
1.0
102
RTVSPost2010PropOp57
 70
     1
102
RTVSPropertyOp0
 70
     1
102
RTVSPropertyOp1
 70
     1
102
RTVSPropertyOp2
 70
     1
102
RTVSPropertyOp3
 70
     1
102
RTVSPropertyOp4
 70
     1
102
RTVSPropertyOp5
 70
     1
102
RTVSPropertyOp6
 70
     1
102
RTVSPropertyOp7
 70
     1
102
RTVSPropertyOp8
 70
     1
102
RTVSPropertyOp9
 70
     1
102
RTVSPropertyOp10
 70
     1
102
RTVSPropertyOp11
 70
     1
102
RTVSPropertyOp12
 70
     1
102
RTVSPropertyOp13
 70
     1
102
RTVSPropertyOp14
 70
     1
102
RTVSPropertyOp15
 70
     1
102
RTVSPropertyOp16
 70
     1
102
RTVSPropertyOp17
 70
     1
102
RTVSPropertyOp18
 70
     1
102
RTVSPropertyOp19
 70
     1
102
RTVSPropertyOp20
 70
     1
102
RTVSPropertyOp21
 70
     1
102
RTVSPropertyOp22
 70
     1
102
RTVSPropertyOp23
 70
     1
102
RTVSPropertyOp24
 70
     1
102
RTVSPropertyOp25
 70
     1
102
RTVSPropertyOp26
 70
     1
102
RTVSPropertyOp27
 70
     1
102
RTVSPropertyOp28
 70
     1
102
RTVSPropertyOp29
 70
     1
102
RTVSPropertyOp30
 70
     1
102
RTVSPropertyOp31
 70
     1
102
RTVSPropertyOp32
 70
     1
102
RTVSPropertyOp33
 70
     1
102
RTVSPropertyOp34
 70
     1
102
RTVSPropertyOp35
 70
     1
102
RTVSPropertyOp36
 70
     1
102
RTVSPropertyOp37
 70
     1
102
RTVSPropertyOp38
 70
     1
102
RTVSPropertyOp39
 70
     1
102
RTVSPropertyOp40
 70
     1
102
RTVSPropertyOp41
 70
     1
102
RTVSPropertyOp42
 70
     1
102
RTVSPropertyOp43
 70
     1
102
RTVSPropertyOp44
 70
     1
102
RTVSPropertyOp45
 70
     1
102
RTVSPropertyOp46
 70
     1
102
RTVSPropertyOp47
 70
     1
102
RTVSPropertyOp48
 70
     1
102
RTVSPropertyOp49
 70
     1
102
RTVSPropertyOp50
 70
     1
102
RTVSPropertyOp51
 70
     0
102
RTVSPropertyOp52
 70
     0
102
RTVSPropertyOp53
 70
     1
102
RTVSPropertyOp54
 70
     1
102
RTVSPropertyOp55
 70
     1
102
RTVSPropertyOp56
 70
     1
102
RTVSPropertyOp57
 70
     1
102
RTVSPropertyOp58
 70
     1
102
RTVSPropertyOp59
 70
     1
102
RTVSPropertyOp60
 70
     1
102
RTVSPropertyOp61
 70
     1
102
RTVSPropertyOp62
 70
     1
  0
XRECORD
  5
B78
102
{ACAD_REACTORS
330
B77
102
}
330
B77
100
AcDbXrecord
280
     1
102
RTVSPost2010Prop28
280
     0
102
RTVSPost2010PropOp28
 70
     1
102
RTVSPost2010Prop29
280
     1
102
RTVSPost2010PropOp29
 70
     1
102
RTVSPost2010Prop30
280
     1
102
RTVSPost2010PropOp30
 70
     1
102
RTVSPost2010Prop31
280
     0
102
RTVSPost2010PropOp31
 70
     1
102
RTVSPost2010Prop32
280
     0
102
RTVSPost2010PropOp32
 70
     1
102
RTVSPost2010Prop33
280
     0
102
RTVSPost2010PropOp33
 70
     1
102
RTVSPost2010Prop34
280
     0
102
RTVSPost2010PropOp34
 70
     1
102
RTVSPost2010Prop35
280
     0
102
RTVSPost2010PropOp35
 70
     1
102
RTVSPost2010Prop36
280
     0
102
RTVSPost2010PropOp36
 70
     1
102
RTVSPost2010Prop37
 90
       50
102
RTVSPost2010PropOp37
 70
     0
102
RTVSPost2010Prop38
140
0.0
102
RTVSPost2010PropOp38
 70
     0
102
RTVSPost2010Prop39
140
1.0
102
RTVSPost2010PropOp39
 70
     0
102
RTVSPost2010Prop40
 90
        0
102
RTVSPost2010PropOp40
 70
     0
102
RTVSPost2010Prop41ColorIndex
 90
       18
102
RTVSPost2010Prop41ColorRGB
 90
        0
102
RTVSPost2010PropOp41
 70
     0
102
RTVSPost2010Prop42
 90
       50
102
RTVSPost2010PropOp42
 70
     0
102
RTVSPost2010Prop43
 90
        3
102
RTVSPost2010PropOp43
 70
     0
102
RTVSPost2010Prop44ColorIndex
 90
        5
102
RTVSPost2010Prop44ColorRGB
 90
      255
102
RTVSPost2010PropOp44
 70
     0
102
RTVSPost2010Prop45
280
     0
102
RTVSPost2010PropOp45
 70
     1
102
RTVSPost2010Prop46
 90
       50
102
RTVSPost2010PropOp46
 70
     0
102
RTVSPost2010Prop47
 90
       50
102
RTVSPost2010PropOp47
 70
     0
102
RTVSPost2010Prop48
 90
       50
102
RTVSPost2010PropOp48
 70
     0
102
RTVSPost2010Prop49
280
     0
102
RTVSPost2010PropOp49
 70
     1
102
RTVSPost2010Prop50
 90
       50
102
RTVSPost2010PropOp50
 70
     0
102
RTVSPost2010Prop51ColorIndex
 90
      256
102
RTVSPost2010Prop51ColorRGB
 90
-16777216
102
RTVSPost2010PropOp51
 70
     0
102
RTVSPost2010Prop52
140
1.0
102
RTVSPost2010PropOp52
 70
     0
102
RTVSPost2010Prop53
 90
        2
102
RTVSPost2010PropOp53
 70
     0
102
RTVSPost2010Prop54
  1
strokes_ogs.tif
102
RTVSPost2010PropOp54
 70
     0
102
RTVSPost2010Prop55
280
     0
102
RTVSPost2010PropOp55
 70
     1
102
RTVSPost2010Prop56
140
1.0
102
RTVSPost2010PropOp56
 70
     0
102
RTVSPost2010Prop57
140
1.0
102
RTVSPost2010PropOp57
 70
     0
102
RTVSPropertyOp0
 70
     0
102
RTVSPropertyOp1
 70
     0
102
RTVSPropertyOp2
 70
     0
102
RTVSPropertyOp3
 70
     0
102
RTVSPropertyOp4
 70
     0
102
RTVSPropertyOp5
 70
     0
102
RTVSPropertyOp6
 70
     0
102
RTVSPropertyOp7
 70
     0
102
RTVSPropertyOp8
 70
     0
102
RTVSPropertyOp9
 70
     0
102
RTVSPropertyOp10
 70
     0
102
RTVSPropertyOp11
 70
     0
102
RTVSPropertyOp12
 70
     0
102
RTVSPropertyOp13
 70
     0
102
RTVSPropertyOp14
 70
     2
102
RTVSPropertyOp15
 70
     0
102
RTVSPropertyOp16
 70
     0
102
RTVSPropertyOp17
 70
     0
102
RTVSPropertyOp18
 70
     0
102
RTVSPropertyOp19
 70
     0
102
RTVSPropertyOp20
 70
     0
102
RTVSPropertyOp21
 70
     0
102
RTVSPropertyOp22
 70
     0
102
RTVSPropertyOp23
 70
     0
102
RTVSPropertyOp24
 70
     0
102
RTVSPropertyOp25
 70
     0
102
RTVSPropertyOp26
 70
     0
102
RTVSPropertyOp27
 70
     0
102
RTVSPropertyOp28
 70
     1
102
RTVSPropertyOp29
 70
     1
102
RTVSPropertyOp30
 70
     1
102
RTVSPropertyOp31
 70
     1
102
RTVSPropertyOp32
 70
     1
102
RTVSPropertyOp33
 70
     1
102
RTVSPropertyOp34
 70
     1
102
RTVSPropertyOp35
 70
     1
102
RTVSPropertyOp36
 70
     1
102
RTVSPropertyOp37
 70
     0
102
RTVSPropertyOp38
 70
     0
102
RTVSPropertyOp39
 70
     0
102
RTVSPropertyOp40
 70
     0
102
RTVSPropertyOp41
 70
     0
102
RTVSPropertyOp42
 70
     0
102
RTVSPropertyOp43
 70
     0
102
RTVSPropertyOp44
 70
     0
102
RTVSPropertyOp45
 70
     1
102
RTVSPropertyOp46
 70
     0
102
RTVSPropertyOp47
 70
     0
102
RTVSPropertyOp48
 70
     0
102
RTVSPropertyOp49
 70
     1
102
RTVSPropertyOp50
 70
     0
102
RTVSPropertyOp51
 70
     0
102
RTVSPropertyOp52
 70
     0
102
RTVSPropertyOp53
 70
     0
102
RTVSPropertyOp54
 70
     0
102
RTVSPropertyOp55
 70
     1
102
RTVSPropertyOp56
 70
     0
102
RTVSPropertyOp57
 70
     0
102
RTVSPropertyOp58
 70
     0
102
RTVSPropertyOp59
 70
     0
102
RTVSPropertyOp60
 70
     0
102
RTVSPropertyOp61
 70
     0
102
RTVSPropertyOp62
 70
     0
  0
XRECORD
  5
B66
102
{ACAD_REACTORS
330
B65
102
}
330
B65
100
AcDbXrecord
280
     1
102
RTVSPost2010Prop28
280
     0
102
RTVSPost2010PropOp28
 70
     1
102
RTVSPost2010Prop29
280
     1
102
RTVSPost2010PropOp29
 70
     1
102
RTVSPost2010Prop30
280
     1
102
RTVSPost2010PropOp30
 70
     1
102
RTVSPost2010Prop31
280
     0
102
RTVSPost2010PropOp31
 70
     1
102
RTVSPost2010Prop32
280
     0
102
RTVSPost2010PropOp32
 70
     1
102
RTVSPost2010Prop33
280
     0
102
RTVSPost2010PropOp33
 70
     1
102
RTVSPost2010Prop34
280
     0
102
RTVSPost2010PropOp34
 70
     1
102
RTVSPost2010Prop35
280
     0
102
RTVSPost2010PropOp35
 70
     1
102
RTVSPost2010Prop36
280
     0
102
RTVSPost2010PropOp36
 70
     1
102
RTVSPost2010Prop37
 90
       50
102
RTVSPost2010PropOp37
 70
     1
102
RTVSPost2010Prop38
140
0.0
102
RTVSPost2010PropOp38
 70
     1
102
RTVSPost2010Prop39
140
1.0
102
RTVSPost2010PropOp39
 70
     1
102
RTVSPost2010Prop40
 90
        0
102
RTVSPost2010PropOp40
 70
     1
102
RTVSPost2010Prop41ColorIndex
 90
       18
102
RTVSPost2010Prop41ColorRGB
 90
        0
102
RTVSPost2010PropOp41
 70
     1
102
RTVSPost2010Prop42
 90
       50
102
RTVSPost2010PropOp42
 70
     1
102
RTVSPost2010Prop43
 90
        3
102
RTVSPost2010PropOp43
 70
     1
102
RTVSPost2010Prop44ColorIndex
 90
        5
102
RTVSPost2010Prop44ColorRGB
 90
      255
102
RTVSPost2010PropOp44
 70
     1
102
RTVSPost2010Prop45
280
     0
102
RTVSPost2010PropOp45
 70
     1
102
RTVSPost2010Prop46
 90
       50
102
RTVSPost2010PropOp46
 70
     1
102
RTVSPost2010Prop47
 90
       50
102
RTVSPost2010PropOp47
 70
     1
102
RTVSPost2010Prop48
 90
       50
102
RTVSPost2010PropOp48
 70
     1
102
RTVSPost2010Prop49
280
     0
102
RTVSPost2010PropOp49
 70
     1
102
RTVSPost2010Prop50
 90
       50
102
RTVSPost2010PropOp50
 70
     1
102
RTVSPost2010Prop51ColorIndex
 90
      256
102
RTVSPost2010Prop51ColorRGB
 90
-16777216
102
RTVSPost2010PropOp51
 70
     0
102
RTVSPost2010Prop52
140
1.0
102
RTVSPost2010PropOp52
 70
     0
102
RTVSPost2010Prop53
 90
        2
102
RTVSPost2010PropOp53
 70
     1
102
RTVSPost2010Prop54
  1
strokes_ogs.tif
102
RTVSPost2010PropOp54
 70
     1
102
RTVSPost2010Prop55
280
     0
102
RTVSPost2010PropOp55
 70
     1
102
RTVSPost2010Prop56
140
1.0
102
RTVSPost2010PropOp56
 70
     1
102
RTVSPost2010Prop57
140
1.0
102
RTVSPost2010PropOp57
 70
     1
102
RTVSPropertyOp0
 70
     1
102
RTVSPropertyOp1
 70
     1
102
RTVSPropertyOp2
 70
     1
102
RTVSPropertyOp3
 70
     1
102
RTVSPropertyOp4
 70
     1
102
RTVSPropertyOp5
 70
     1
102
RTVSPropertyOp6
 70
     1
102
RTVSPropertyOp7
 70
     1
102
RTVSPropertyOp8
 70
     1
102
RTVSPropertyOp9
 70
     1
102
RTVSPropertyOp10
 70
     1
102
RTVSPropertyOp11
 70
     1
102
RTVSPropertyOp12
 70
     1
102
RTVSPropertyOp13
 70
     1
102
RTVSPropertyOp14
 70
     1
102
RTVSPropertyOp15
 70
     1
102
RTVSPropertyOp16
 70
     1
102
RTVSPropertyOp17
 70
     1
102
RTVSPropertyOp18
 70
     1
102
RTVSPropertyOp19
 70
     1
102
RTVSPropertyOp20
 70
     1
102
RTVSPropertyOp21
 70
     1
102
RTVSPropertyOp22
 70
     1
102
RTVSPropertyOp23
 70
     1
102
RTVSPropertyOp24
 70
     1
102
RTVSPropertyOp25
 70
     1
102
RTVSPropertyOp26
 70
     1
102
RTVSPropertyOp27
 70
     1
102
RTVSPropertyOp28
 70
     1
102
RTVSPropertyOp29
 70
     1
102
RTVSPropertyOp30
 70
     1
102
RTVSPropertyOp31
 70
     1
102
RTVSPropertyOp32
 70
     1
102
RTVSPropertyOp33
 70
     1
102
RTVSPropertyOp34
 70
     1
102
RTVSPropertyOp35
 70
     1
102
RTVSPropertyOp36
 70
     1
102
RTVSPropertyOp37
 70
     1
102
RTVSPropertyOp38
 70
     1
102
RTVSPropertyOp39
 70
     1
102
RTVSPropertyOp40
 70
     1
102
RTVSPropertyOp41
 70
     1
102
RTVSPropertyOp42
 70
     1
102
RTVSPropertyOp43
 70
     1
102
RTVSPropertyOp44
 70
     1
102
RTVSPropertyOp45
 70
     1
102
RTVSPropertyOp46
 70
     1
102
RTVSPropertyOp47
 70
     1
102
RTVSPropertyOp48
 70
     1
102
RTVSPropertyOp49
 70
     1
102
RTVSPropertyOp50
 70
     1
102
RTVSPropertyOp51
 70
     0
102
RTVSPropertyOp52
 70
     0
102
RTVSPropertyOp53
 70
     1
102
RTVSPropertyOp54
 70
     1
102
RTVSPropertyOp55
 70
     1
102
RTVSPropertyOp56
 70
     1
102
RTVSPropertyOp57
 70
     1
102
RTVSPropertyOp58
 70
     1
102
RTVSPropertyOp59
 70
     1
102
RTVSPropertyOp60
 70
     1
102
RTVSPropertyOp61
 70
     1
102
RTVSPropertyOp62
 70
     1
  0
XRECORD
  5
B4A
102
{ACAD_REACTORS
330
B49
102
}
330
B49
100
AcDbXrecord
280
     1
102
RTVSPost2010Prop28
280
     0
102
RTVSPost2010PropOp28
 70
     1
102
RTVSPost2010Prop29
280
     1
102
RTVSPost2010PropOp29
 70
     1
102
RTVSPost2010Prop30
280
     1
102
RTVSPost2010PropOp30
 70
     1
102
RTVSPost2010Prop31
280
     0
102
RTVSPost2010PropOp31
 70
     1
102
RTVSPost2010Prop32
280
     0
102
RTVSPost2010PropOp32
 70
     1
102
RTVSPost2010Prop33
280
     0
102
RTVSPost2010PropOp33
 70
     1
102
RTVSPost2010Prop34
280
     0
102
RTVSPost2010PropOp34
 70
     1
102
RTVSPost2010Prop35
280
     0
102
RTVSPost2010PropOp35
 70
     1
102
RTVSPost2010Prop36
280
     0
102
RTVSPost2010PropOp36
 70
     1
102
RTVSPost2010Prop37
 90
       50
102
RTVSPost2010PropOp37
 70
     1
102
RTVSPost2010Prop38
140
0.0
102
RTVSPost2010PropOp38
 70
     1
102
RTVSPost2010Prop39
140
1.0
102
RTVSPost2010PropOp39
 70
     1
102
RTVSPost2010Prop40
 90
        0
102
RTVSPost2010PropOp40
 70
     1
102
RTVSPost2010Prop41ColorIndex
 90
       18
102
RTVSPost2010Prop41ColorRGB
 90
        0
102
RTVSPost2010PropOp41
 70
     1
102
RTVSPost2010Prop42
 90
       50
102
RTVSPost2010PropOp42
 70
     1
102
RTVSPost2010Prop43
 90
        3
102
RTVSPost2010PropOp43
 70
     1
102
RTVSPost2010Prop44ColorIndex
 90
        5
102
RTVSPost2010Prop44ColorRGB
 90
      255
102
RTVSPost2010PropOp44
 70
     1
102
RTVSPost2010Prop45
280
     0
102
RTVSPost2010PropOp45
 70
     1
102
RTVSPost2010Prop46
 90
       50
102
RTVSPost2010PropOp46
 70
     1
102
RTVSPost2010Prop47
 90
       50
102
RTVSPost2010PropOp47
 70
     1
102
RTVSPost2010Prop48
 90
       50
102
RTVSPost2010PropOp48
 70
     1
102
RTVSPost2010Prop49
280
     0
102
RTVSPost2010PropOp49
 70
     1
102
RTVSPost2010Prop50
 90
       50
102
RTVSPost2010PropOp50
 70
     1
102
RTVSPost2010Prop51ColorIndex
 90
      256
102
RTVSPost2010Prop51ColorRGB
 90
-16777216
102
RTVSPost2010PropOp51
 70
     0
102
RTVSPost2010Prop52
140
1.0
102
RTVSPost2010PropOp52
 70
     0
102
RTVSPost2010Prop53
 90
        2
102
RTVSPost2010PropOp53
 70
     1
102
RTVSPost2010Prop54
  1
strokes_ogs.tif
102
RTVSPost2010PropOp54
 70
     1
102
RTVSPost2010Prop55
280
     0
102
RTVSPost2010PropOp55
 70
     1
102
RTVSPost2010Prop56
140
1.0
102
RTVSPost2010PropOp56
 70
     1
102
RTVSPost2010Prop57
140
1.0
102
RTVSPost2010PropOp57
 70
     1
102
RTVSPropertyOp0
 70
     1
102
RTVSPropertyOp1
 70
     1
102
RTVSPropertyOp2
 70
     1
102
RTVSPropertyOp3
 70
     1
102
RTVSPropertyOp4
 70
     1
102
RTVSPropertyOp5
 70
     1
102
RTVSPropertyOp6
 70
     1
102
RTVSPropertyOp7
 70
     1
102
RTVSPropertyOp8
 70
     1
102
RTVSPropertyOp9
 70
     1
102
RTVSPropertyOp10
 70
     1
102
RTVSPropertyOp11
 70
     1
102
RTVSPropertyOp12
 70
     1
102
RTVSPropertyOp13
 70
     1
102
RTVSPropertyOp14
 70
     1
102
RTVSPropertyOp15
 70
     1
102
RTVSPropertyOp16
 70
     1
102
RTVSPropertyOp17
 70
     1
102
RTVSPropertyOp18
 70
     1
102
RTVSPropertyOp19
 70
     1
102
RTVSPropertyOp20
 70
     1
102
RTVSPropertyOp21
 70
     1
102
RTVSPropertyOp22
 70
     1
102
RTVSPropertyOp23
 70
     1
102
RTVSPropertyOp24
 70
     1
102
RTVSPropertyOp25
 70
     1
102
RTVSPropertyOp26
 70
     1
102
RTVSPropertyOp27
 70
     1
102
RTVSPropertyOp28
 70
     1
102
RTVSPropertyOp29
 70
     1
102
RTVSPropertyOp30
 70
     1
102
RTVSPropertyOp31
 70
     1
102
RTVSPropertyOp32
 70
     1
102
RTVSPropertyOp33
 70
     1
102
RTVSPropertyOp34
 70
     1
102
RTVSPropertyOp35
 70
     1
102
RTVSPropertyOp36
 70
     1
102
RTVSPropertyOp37
 70
     1
102
RTVSPropertyOp38
 70
     1
102
RTVSPropertyOp39
 70
     1
102
RTVSPropertyOp40
 70
     1
102
RTVSPropertyOp41
 70
     1
102
RTVSPropertyOp42
 70
     1
102
RTVSPropertyOp43
 70
     1
102
RTVSPropertyOp44
 70
     1
102
RTVSPropertyOp45
 70
     1
102
RTVSPropertyOp46
 70
     1
102
RTVSPropertyOp47
 70
     1
102
RTVSPropertyOp48
 70
     1
102
RTVSPropertyOp49
 70
     1
102
RTVSPropertyOp50
 70
     1
102
RTVSPropertyOp51
 70
     0
102
RTVSPropertyOp52
 70
     0
102
RTVSPropertyOp53
 70
     1
102
RTVSPropertyOp54
 70
     1
102
RTVSPropertyOp55
 70
     1
102
RTVSPropertyOp56
 70
     1
102
RTVSPropertyOp57
 70
     1
102
RTVSPropertyOp58
 70
     1
102
RTVSPropertyOp59
 70
     1
102
RTVSPropertyOp60
 70
     1
102
RTVSPropertyOp61
 70
     1
102
RTVSPropertyOp62
 70
     1
  0
XRECORD
  5
B4C
102
{ACAD_REACTORS
330
B4B
102
}
330
B4B
100
AcDbXrecord
280
     1
102
RTVSPost2010Prop28
280
     0
102
RTVSPost2010PropOp28
 70
     1
102
RTVSPost2010Prop29
280
     1
102
RTVSPost2010PropOp29
 70
     1
102
RTVSPost2010Prop30
280
     1
102
RTVSPost2010PropOp30
 70
     1
102
RTVSPost2010Prop31
280
     0
102
RTVSPost2010PropOp31
 70
     1
102
RTVSPost2010Prop32
280
     0
102
RTVSPost2010PropOp32
 70
     1
102
RTVSPost2010Prop33
280
     0
102
RTVSPost2010PropOp33
 70
     1
102
RTVSPost2010Prop34
280
     0
102
RTVSPost2010PropOp34
 70
     1
102
RTVSPost2010Prop35
280
     0
102
RTVSPost2010PropOp35
 70
     1
102
RTVSPost2010Prop36
280
     0
102
RTVSPost2010PropOp36
 70
     1
102
RTVSPost2010Prop37
 90
       50
102
RTVSPost2010PropOp37
 70
     1
102
RTVSPost2010Prop38
140
0.0
102
RTVSPost2010PropOp38
 70
     1
102
RTVSPost2010Prop39
140
1.0
102
RTVSPost2010PropOp39
 70
     1
102
RTVSPost2010Prop40
 90
        0
102
RTVSPost2010PropOp40
 70
     1
102
RTVSPost2010Prop41ColorIndex
 90
       18
102
RTVSPost2010Prop41ColorRGB
 90
        0
102
RTVSPost2010PropOp41
 70
     1
102
RTVSPost2010Prop42
 90
       50
102
RTVSPost2010PropOp42
 70
     1
102
RTVSPost2010Prop43
 90
        3
102
RTVSPost2010PropOp43
 70
     1
102
RTVSPost2010Prop44ColorIndex
 90
        5
102
RTVSPost2010Prop44ColorRGB
 90
      255
102
RTVSPost2010PropOp44
 70
     1
102
RTVSPost2010Prop45
280
     0
102
RTVSPost2010PropOp45
 70
     1
102
RTVSPost2010Prop46
 90
       50
102
RTVSPost2010PropOp46
 70
     1
102
RTVSPost2010Prop47
 90
       50
102
RTVSPost2010PropOp47
 70
     1
102
RTVSPost2010Prop48
 90
       50
102
RTVSPost2010PropOp48
 70
     1
102
RTVSPost2010Prop49
280
     0
102
RTVSPost2010PropOp49
 70
     1
102
RTVSPost2010Prop50
 90
       50
102
RTVSPost2010PropOp50
 70
     1
102
RTVSPost2010Prop51ColorIndex
 90
      256
102
RTVSPost2010Prop51ColorRGB
 90
-16777216
102
RTVSPost2010PropOp51
 70
     0
102
RTVSPost2010Prop52
140
1.0
102
RTVSPost2010PropOp52
 70
     0
102
RTVSPost2010Prop53
 90
        2
102
RTVSPost2010PropOp53
 70
     1
102
RTVSPost2010Prop54
  1
strokes_ogs.tif
102
RTVSPost2010PropOp54
 70
     1
102
RTVSPost2010Prop55
280
     0
102
RTVSPost2010PropOp55
 70
     1
102
RTVSPost2010Prop56
140
1.0
102
RTVSPost2010PropOp56
 70
     1
102
RTVSPost2010Prop57
140
1.0
102
RTVSPost2010PropOp57
 70
     1
102
RTVSPropertyOp0
 70
     1
102
RTVSPropertyOp1
 70
     1
102
RTVSPropertyOp2
 70
     1
102
RTVSPropertyOp3
 70
     1
102
RTVSPropertyOp4
 70
     1
102
RTVSPropertyOp5
 70
     1
102
RTVSPropertyOp6
 70
     1
102
RTVSPropertyOp7
 70
     1
102
RTVSPropertyOp8
 70
     1
102
RTVSPropertyOp9
 70
     1
102
RTVSPropertyOp10
 70
     1
102
RTVSPropertyOp11
 70
     1
102
RTVSPropertyOp12
 70
     1
102
RTVSPropertyOp13
 70
     1
102
RTVSPropertyOp14
 70
     1
102
RTVSPropertyOp15
 70
     1
102
RTVSPropertyOp16
 70
     1
102
RTVSPropertyOp17
 70
     1
102
RTVSPropertyOp18
 70
     1
102
RTVSPropertyOp19
 70
     1
102
RTVSPropertyOp20
 70
     1
102
RTVSPropertyOp21
 70
     1
102
RTVSPropertyOp22
 70
     1
102
RTVSPropertyOp23
 70
     1
102
RTVSPropertyOp24
 70
     1
102
RTVSPropertyOp25
 70
     1
102
RTVSPropertyOp26
 70
     1
102
RTVSPropertyOp27
 70
     1
102
RTVSPropertyOp28
 70
     1
102
RTVSPropertyOp29
 70
     1
102
RTVSPropertyOp30
 70
     1
102
RTVSPropertyOp31
 70
     1
102
RTVSPropertyOp32
 70
     1
102
RTVSPropertyOp33
 70
     1
102
RTVSPropertyOp34
 70
     1
102
RTVSPropertyOp35
 70
     1
102
RTVSPropertyOp36
 70
     1
102
RTVSPropertyOp37
 70
     1
102
RTVSPropertyOp38
 70
     1
102
RTVSPropertyOp39
 70
     1
102
RTVSPropertyOp40
 70
     1
102
RTVSPropertyOp41
 70
     1
102
RTVSPropertyOp42
 70
     1
102
RTVSPropertyOp43
 70
     1
102
RTVSPropertyOp44
 70
     1
102
RTVSPropertyOp45
 70
     1
102
RTVSPropertyOp46
 70
     1
102
RTVSPropertyOp47
 70
     1
102
RTVSPropertyOp48
 70
     1
102
RTVSPropertyOp49
 70
     1
102
RTVSPropertyOp50
 70
     1
102
RTVSPropertyOp51
 70
     0
102
RTVSPropertyOp52
 70
     0
102
RTVSPropertyOp53
 70
     1
102
RTVSPropertyOp54
 70
     1
102
RTVSPropertyOp55
 70
     1
102
RTVSPropertyOp56
 70
     1
102
RTVSPropertyOp57
 70
     1
102
RTVSPropertyOp58
 70
     1
102
RTVSPropertyOp59
 70
     1
102
RTVSPropertyOp60
 70
     1
102
RTVSPropertyOp61
 70
     1
102
RTVSPropertyOp62
 70
     1
  0
XRECORD
  5
B4E
102
{ACAD_REACTORS
330
B4D
102
}
330
B4D
100
AcDbXrecord
280
     1
102
RTVSPost2010Prop28
280
     0
102
RTVSPost2010PropOp28
 70
     1
102
RTVSPost2010Prop29
280
     1
102
RTVSPost2010PropOp29
 70
     1
102
RTVSPost2010Prop30
280
     1
102
RTVSPost2010PropOp30
 70
     1
102
RTVSPost2010Prop31
280
     0
102
RTVSPost2010PropOp31
 70
     1
102
RTVSPost2010Prop32
280
     0
102
RTVSPost2010PropOp32
 70
     1
102
RTVSPost2010Prop33
280
     0
102
RTVSPost2010PropOp33
 70
     1
102
RTVSPost2010Prop34
280
     0
102
RTVSPost2010PropOp34
 70
     1
102
RTVSPost2010Prop35
280
     0
102
RTVSPost2010PropOp35
 70
     1
102
RTVSPost2010Prop36
280
     0
102
RTVSPost2010PropOp36
 70
     1
102
RTVSPost2010Prop37
 90
       50
102
RTVSPost2010PropOp37
 70
     1
102
RTVSPost2010Prop38
140
0.0
102
RTVSPost2010PropOp38
 70
     1
102
RTVSPost2010Prop39
140
1.0
102
RTVSPost2010PropOp39
 70
     1
102
RTVSPost2010Prop40
 90
        0
102
RTVSPost2010PropOp40
 70
     1
102
RTVSPost2010Prop41ColorIndex
 90
       18
102
RTVSPost2010Prop41ColorRGB
 90
        0
102
RTVSPost2010PropOp41
 70
     1
102
RTVSPost2010Prop42
 90
       50
102
RTVSPost2010PropOp42
 70
     1
102
RTVSPost2010Prop43
 90
        3
102
RTVSPost2010PropOp43
 70
     1
102
RTVSPost2010Prop44ColorIndex
 90
        5
102
RTVSPost2010Prop44ColorRGB
 90
      255
102
RTVSPost2010PropOp44
 70
     1
102
RTVSPost2010Prop45
280
     0
102
RTVSPost2010PropOp45
 70
     1
102
RTVSPost2010Prop46
 90
       50
102
RTVSPost2010PropOp46
 70
     1
102
RTVSPost2010Prop47
 90
       50
102
RTVSPost2010PropOp47
 70
     1
102
RTVSPost2010Prop48
 90
       50
102
RTVSPost2010PropOp48
 70
     1
102
RTVSPost2010Prop49
280
     0
102
RTVSPost2010PropOp49
 70
     1
102
RTVSPost2010Prop50
 90
       50
102
RTVSPost2010PropOp50
 70
     1
102
RTVSPost2010Prop51ColorIndex
 90
      256
102
RTVSPost2010Prop51ColorRGB
 90
-16777216
102
RTVSPost2010PropOp51
 70
     0
102
RTVSPost2010Prop52
140
1.0
102
RTVSPost2010PropOp52
 70
     0
102
RTVSPost2010Prop53
 90
        2
102
RTVSPost2010PropOp53
 70
     1
102
RTVSPost2010Prop54
  1
strokes_ogs.tif
102
RTVSPost2010PropOp54
 70
     1
102
RTVSPost2010Prop55
280
     0
102
RTVSPost2010PropOp55
 70
     1
102
RTVSPost2010Prop56
140
1.0
102
RTVSPost2010PropOp56
 70
     1
102
RTVSPost2010Prop57
140
1.0
102
RTVSPost2010PropOp57
 70
     1
102
RTVSPropertyOp0
 70
     1
102
RTVSPropertyOp1
 70
     1
102
RTVSPropertyOp2
 70
     1
102
RTVSPropertyOp3
 70
     1
102
RTVSPropertyOp4
 70
     1
102
RTVSPropertyOp5
 70
     1
102
RTVSPropertyOp6
 70
     1
102
RTVSPropertyOp7
 70
     1
102
RTVSPropertyOp8
 70
     1
102
RTVSPropertyOp9
 70
     1
102
RTVSPropertyOp10
 70
     1
102
RTVSPropertyOp11
 70
     1
102
RTVSPropertyOp12
 70
     1
102
RTVSPropertyOp13
 70
     1
102
RTVSPropertyOp14
 70
     1
102
RTVSPropertyOp15
 70
     1
102
RTVSPropertyOp16
 70
     1
102
RTVSPropertyOp17
 70
     1
102
RTVSPropertyOp18
 70
     1
102
RTVSPropertyOp19
 70
     1
102
RTVSPropertyOp20
 70
     1
102
RTVSPropertyOp21
 70
     1
102
RTVSPropertyOp22
 70
     1
102
RTVSPropertyOp23
 70
     1
102
RTVSPropertyOp24
 70
     1
102
RTVSPropertyOp25
 70
     1
102
RTVSPropertyOp26
 70
     1
102
RTVSPropertyOp27
 70
     1
102
RTVSPropertyOp28
 70
     1
102
RTVSPropertyOp29
 70
     1
102
RTVSPropertyOp30
 70
     1
102
RTVSPropertyOp31
 70
     1
102
RTVSPropertyOp32
 70
     1
102
RTVSPropertyOp33
 70
     1
102
RTVSPropertyOp34
 70
     1
102
RTVSPropertyOp35
 70
     1
102
RTVSPropertyOp36
 70
     1
102
RTVSPropertyOp37
 70
     1
102
RTVSPropertyOp38
 70
     1
102
RTVSPropertyOp39
 70
     1
102
RTVSPropertyOp40
 70
     1
102
RTVSPropertyOp41
 70
     1
102
RTVSPropertyOp42
 70
     1
102
RTVSPropertyOp43
 70
     1
102
RTVSPropertyOp44
 70
     1
102
RTVSPropertyOp45
 70
     1
102
RTVSPropertyOp46
 70
     1
102
RTVSPropertyOp47
 70
     1
102
RTVSPropertyOp48
 70
     1
102
RTVSPropertyOp49
 70
     1
102
RTVSPropertyOp50
 70
     1
102
RTVSPropertyOp51
 70
     0
102
RTVSPropertyOp52
 70
     0
102
RTVSPropertyOp53
 70
     1
102
RTVSPropertyOp54
 70
     1
102
RTVSPropertyOp55
 70
     1
102
RTVSPropertyOp56
 70
     1
102
RTVSPropertyOp57
 70
     1
102
RTVSPropertyOp58
 70
     1
102
RTVSPropertyOp59
 70
     1
102
RTVSPropertyOp60
 70
     1
102
RTVSPropertyOp61
 70
     1
102
RTVSPropertyOp62
 70
     1
  0
XRECORD
  5
B50
102
{ACAD_REACTORS
330
B4F
102
}
330
B4F
100
AcDbXrecord
280
     1
102
RTVSPost2010Prop28
280
     0
102
RTVSPost2010PropOp28
 70
     1
102
RTVSPost2010Prop29
280
     1
102
RTVSPost2010PropOp29
 70
     1
102
RTVSPost2010Prop30
280
     1
102
RTVSPost2010PropOp30
 70
     1
102
RTVSPost2010Prop31
280
     0
102
RTVSPost2010PropOp31
 70
     1
102
RTVSPost2010Prop32
280
     0
102
RTVSPost2010PropOp32
 70
     1
102
RTVSPost2010Prop33
280
     0
102
RTVSPost2010PropOp33
 70
     1
102
RTVSPost2010Prop34
280
     0
102
RTVSPost2010PropOp34
 70
     1
102
RTVSPost2010Prop35
280
     0
102
RTVSPost2010PropOp35
 70
     1
102
RTVSPost2010Prop36
280
     0
102
RTVSPost2010PropOp36
 70
     1
102
RTVSPost2010Prop37
 90
       50
102
RTVSPost2010PropOp37
 70
     1
102
RTVSPost2010Prop38
140
0.0
102
RTVSPost2010PropOp38
 70
     1
102
RTVSPost2010Prop39
140
1.0
102
RTVSPost2010PropOp39
 70
     1
102
RTVSPost2010Prop40
 90
        0
102
RTVSPost2010PropOp40
 70
     1
102
RTVSPost2010Prop41ColorIndex
 90
       18
102
RTVSPost2010Prop41ColorRGB
 90
        0
102
RTVSPost2010PropOp41
 70
     1
102
RTVSPost2010Prop42
 90
       50
102
RTVSPost2010PropOp42
 70
     1
102
RTVSPost2010Prop43
 90
        3
102
RTVSPost2010PropOp43
 70
     1
102
RTVSPost2010Prop44ColorIndex
 90
        5
102
RTVSPost2010Prop44ColorRGB
 90
      255
102
RTVSPost2010PropOp44
 70
     1
102
RTVSPost2010Prop45
280
     0
102
RTVSPost2010PropOp45
 70
     1
102
RTVSPost2010Prop46
 90
       50
102
RTVSPost2010PropOp46
 70
     1
102
RTVSPost2010Prop47
 90
       50
102
RTVSPost2010PropOp47
 70
     1
102
RTVSPost2010Prop48
 90
       50
102
RTVSPost2010PropOp48
 70
     1
102
RTVSPost2010Prop49
280
     0
102
RTVSPost2010PropOp49
 70
     1
102
RTVSPost2010Prop50
 90
       50
102
RTVSPost2010PropOp50
 70
     1
102
RTVSPost2010Prop51ColorIndex
 90
      256
102
RTVSPost2010Prop51ColorRGB
 90
-16777216
102
RTVSPost2010PropOp51
 70
     0
102
RTVSPost2010Prop52
140
1.0
102
RTVSPost2010PropOp52
 70
     0
102
RTVSPost2010Prop53
 90
        2
102
RTVSPost2010PropOp53
 70
     1
102
RTVSPost2010Prop54
  1
strokes_ogs.tif
102
RTVSPost2010PropOp54
 70
     1
102
RTVSPost2010Prop55
280
     0
102
RTVSPost2010PropOp55
 70
     1
102
RTVSPost2010Prop56
140
1.0
102
RTVSPost2010PropOp56
 70
     1
102
RTVSPost2010Prop57
140
1.0
102
RTVSPost2010PropOp57
 70
     1
102
RTVSPropertyOp0
 70
     1
102
RTVSPropertyOp1
 70
     1
102
RTVSPropertyOp2
 70
     1
102
RTVSPropertyOp3
 70
     1
102
RTVSPropertyOp4
 70
     1
102
RTVSPropertyOp5
 70
     1
102
RTVSPropertyOp6
 70
     1
102
RTVSPropertyOp7
 70
     1
102
RTVSPropertyOp8
 70
     1
102
RTVSPropertyOp9
 70
     1
102
RTVSPropertyOp10
 70
     1
102
RTVSPropertyOp11
 70
     1
102
RTVSPropertyOp12
 70
     1
102
RTVSPropertyOp13
 70
     1
102
RTVSPropertyOp14
 70
     1
102
RTVSPropertyOp15
 70
     1
102
RTVSPropertyOp16
 70
     1
102
RTVSPropertyOp17
 70
     1
102
RTVSPropertyOp18
 70
     1
102
RTVSPropertyOp19
 70
     1
102
RTVSPropertyOp20
 70
     1
102
RTVSPropertyOp21
 70
     1
102
RTVSPropertyOp22
 70
     1
102
RTVSPropertyOp23
 70
     1
102
RTVSPropertyOp24
 70
     1
102
RTVSPropertyOp25
 70
     1
102
RTVSPropertyOp26
 70
     1
102
RTVSPropertyOp27
 70
     1
102
RTVSPropertyOp28
 70
     1
102
RTVSPropertyOp29
 70
     1
102
RTVSPropertyOp30
 70
     1
102
RTVSPropertyOp31
 70
     1
102
RTVSPropertyOp32
 70
     1
102
RTVSPropertyOp33
 70
     1
102
RTVSPropertyOp34
 70
     1
102
RTVSPropertyOp35
 70
     1
102
RTVSPropertyOp36
 70
     1
102
RTVSPropertyOp37
 70
     1
102
RTVSPropertyOp38
 70
     1
102
RTVSPropertyOp39
 70
     1
102
RTVSPropertyOp40
 70
     1
102
RTVSPropertyOp41
 70
     1
102
RTVSPropertyOp42
 70
     1
102
RTVSPropertyOp43
 70
     1
102
RTVSPropertyOp44
 70
     1
102
RTVSPropertyOp45
 70
     1
102
RTVSPropertyOp46
 70
     1
102
RTVSPropertyOp47
 70
     1
102
RTVSPropertyOp48
 70
     1
102
RTVSPropertyOp49
 70
     1
102
RTVSPropertyOp50
 70
     1
102
RTVSPropertyOp51
 70
     0
102
RTVSPropertyOp52
 70
     0
102
RTVSPropertyOp53
 70
     1
102
RTVSPropertyOp54
 70
     1
102
RTVSPropertyOp55
 70
     1
102
RTVSPropertyOp56
 70
     1
102
RTVSPropertyOp57
 70
     1
102
RTVSPropertyOp58
 70
     1
102
RTVSPropertyOp59
 70
     1
102
RTVSPropertyOp60
 70
     1
102
RTVSPropertyOp61
 70
     1
102
RTVSPropertyOp62
 70
     1
  0
XRECORD
  5
B58
102
{ACAD_REACTORS
330
B57
102
}
330
B57
100
AcDbXrecord
280
     1
102
RTVSPost2010Prop28
280
     0
102
RTVSPost2010PropOp28
 70
     1
102
RTVSPost2010Prop29
280
     1
102
RTVSPost2010PropOp29
 70
     1
102
RTVSPost2010Prop30
280
     1
102
RTVSPost2010PropOp30
 70
     1
102
RTVSPost2010Prop31
280
     0
102
RTVSPost2010PropOp31
 70
     1
102
RTVSPost2010Prop32
280
     0
102
RTVSPost2010PropOp32
 70
     1
102
RTVSPost2010Prop33
280
     0
102
RTVSPost2010PropOp33
 70
     1
102
RTVSPost2010Prop34
280
     0
102
RTVSPost2010PropOp34
 70
     1
102
RTVSPost2010Prop35
280
     0
102
RTVSPost2010PropOp35
 70
     1
102
RTVSPost2010Prop36
280
     0
102
RTVSPost2010PropOp36
 70
     1
102
RTVSPost2010Prop37
 90
       50
102
RTVSPost2010PropOp37
 70
     1
102
RTVSPost2010Prop38
140
0.0
102
RTVSPost2010PropOp38
 70
     1
102
RTVSPost2010Prop39
140
1.0
102
RTVSPost2010PropOp39
 70
     1
102
RTVSPost2010Prop40
 90
        0
102
RTVSPost2010PropOp40
 70
     1
102
RTVSPost2010Prop41ColorIndex
 90
       18
102
RTVSPost2010Prop41ColorRGB
 90
        0
102
RTVSPost2010PropOp41
 70
     1
102
RTVSPost2010Prop42
 90
       50
102
RTVSPost2010PropOp42
 70
     1
102
RTVSPost2010Prop43
 90
        3
102
RTVSPost2010PropOp43
 70
     1
102
RTVSPost2010Prop44ColorIndex
 90
        5
102
RTVSPost2010Prop44ColorRGB
 90
      255
102
RTVSPost2010PropOp44
 70
     1
102
RTVSPost2010Prop45
280
     0
102
RTVSPost2010PropOp45
 70
     1
102
RTVSPost2010Prop46
 90
       50
102
RTVSPost2010PropOp46
 70
     1
102
RTVSPost2010Prop47
 90
       50
102
RTVSPost2010PropOp47
 70
     1
102
RTVSPost2010Prop48
 90
       50
102
RTVSPost2010PropOp48
 70
     1
102
RTVSPost2010Prop49
280
     0
102
RTVSPost2010PropOp49
 70
     1
102
RTVSPost2010Prop50
 90
       50
102
RTVSPost2010PropOp50
 70
     1
102
RTVSPost2010Prop51ColorIndex
 90
      256
102
RTVSPost2010Prop51ColorRGB
 90
-16777216
102
RTVSPost2010PropOp51
 70
     0
102
RTVSPost2010Prop52
140
1.0
102
RTVSPost2010PropOp52
 70
     0
102
RTVSPost2010Prop53
 90
        2
102
RTVSPost2010PropOp53
 70
     1
102
RTVSPost2010Prop54
  1
strokes_ogs.tif
102
RTVSPost2010PropOp54
 70
     1
102
RTVSPost2010Prop55
280
     0
102
RTVSPost2010PropOp55
 70
     1
102
RTVSPost2010Prop56
140
1.0
102
RTVSPost2010PropOp56
 70
     1
102
RTVSPost2010Prop57
140
1.0
102
RTVSPost2010PropOp57
 70
     1
102
RTVSPropertyOp0
 70
     1
102
RTVSPropertyOp1
 70
     1
102
RTVSPropertyOp2
 70
     1
102
RTVSPropertyOp3
 70
     1
102
RTVSPropertyOp4
 70
     1
102
RTVSPropertyOp5
 70
     1
102
RTVSPropertyOp6
 70
     1
102
RTVSPropertyOp7
 70
     1
102
RTVSPropertyOp8
 70
     1
102
RTVSPropertyOp9
 70
     1
102
RTVSPropertyOp10
 70
     1
102
RTVSPropertyOp11
 70
     1
102
RTVSPropertyOp12
 70
     1
102
RTVSPropertyOp13
 70
     1
102
RTVSPropertyOp14
 70
     1
102
RTVSPropertyOp15
 70
     1
102
RTVSPropertyOp16
 70
     1
102
RTVSPropertyOp17
 70
     1
102
RTVSPropertyOp18
 70
     1
102
RTVSPropertyOp19
 70
     1
102
RTVSPropertyOp20
 70
     1
102
RTVSPropertyOp21
 70
     1
102
RTVSPropertyOp22
 70
     1
102
RTVSPropertyOp23
 70
     1
102
RTVSPropertyOp24
 70
     1
102
RTVSPropertyOp25
 70
     1
102
RTVSPropertyOp26
 70
     1
102
RTVSPropertyOp27
 70
     1
102
RTVSPropertyOp28
 70
     1
102
RTVSPropertyOp29
 70
     1
102
RTVSPropertyOp30
 70
     1
102
RTVSPropertyOp31
 70
     1
102
RTVSPropertyOp32
 70
     1
102
RTVSPropertyOp33
 70
     1
102
RTVSPropertyOp34
 70
     1
102
RTVSPropertyOp35
 70
     1
102
RTVSPropertyOp36
 70
     1
102
RTVSPropertyOp37
 70
     1
102
RTVSPropertyOp38
 70
     1
102
RTVSPropertyOp39
 70
     1
102
RTVSPropertyOp40
 70
     1
102
RTVSPropertyOp41
 70
     1
102
RTVSPropertyOp42
 70
     1
102
RTVSPropertyOp43
 70
     1
102
RTVSPropertyOp44
 70
     1
102
RTVSPropertyOp45
 70
     1
102
RTVSPropertyOp46
 70
     1
102
RTVSPropertyOp47
 70
     1
102
RTVSPropertyOp48
 70
     1
102
RTVSPropertyOp49
 70
     1
102
RTVSPropertyOp50
 70
     1
102
RTVSPropertyOp51
 70
     0
102
RTVSPropertyOp52
 70
     0
102
RTVSPropertyOp53
 70
     1
102
RTVSPropertyOp54
 70
     1
102
RTVSPropertyOp55
 70
     1
102
RTVSPropertyOp56
 70
     1
102
RTVSPropertyOp57
 70
     1
102
RTVSPropertyOp58
 70
     1
102
RTVSPropertyOp59
 70
     1
102
RTVSPropertyOp60
 70
     1
102
RTVSPropertyOp61
 70
     1
102
RTVSPropertyOp62
 70
     1
  0
XRECORD
  5
B74
102
{ACAD_REACTORS
330
B73
102
}
330
B73
100
AcDbXrecord
280
     1
102
RTVSPost2010Prop28
280
     0
102
RTVSPost2010PropOp28
 70
     1
102
RTVSPost2010Prop29
280
     1
102
RTVSPost2010PropOp29
 70
     1
102
RTVSPost2010Prop30
280
     1
102
RTVSPost2010PropOp30
 70
     1
102
RTVSPost2010Prop31
280
     0
102
RTVSPost2010PropOp31
 70
     1
102
RTVSPost2010Prop32
280
     0
102
RTVSPost2010PropOp32
 70
     1
102
RTVSPost2010Prop33
280
     0
102
RTVSPost2010PropOp33
 70
     1
102
RTVSPost2010Prop34
280
     0
102
RTVSPost2010PropOp34
 70
     1
102
RTVSPost2010Prop35
280
     0
102
RTVSPost2010PropOp35
 70
     1
102
RTVSPost2010Prop36
280
     0
102
RTVSPost2010PropOp36
 70
     1
102
RTVSPost2010Prop37
 90
       50
102
RTVSPost2010PropOp37
 70
     0
102
RTVSPost2010Prop38
140
0.0
102
RTVSPost2010PropOp38
 70
     0
102
RTVSPost2010Prop39
140
1.0
102
RTVSPost2010PropOp39
 70
     0
102
RTVSPost2010Prop40
 90
        0
102
RTVSPost2010PropOp40
 70
     0
102
RTVSPost2010Prop41ColorIndex
 90
       18
102
RTVSPost2010Prop41ColorRGB
 90
        0
102
RTVSPost2010PropOp41
 70
     0
102
RTVSPost2010Prop42
 90
       50
102
RTVSPost2010PropOp42
 70
     0
102
RTVSPost2010Prop43
 90
        3
102
RTVSPost2010PropOp43
 70
     0
102
RTVSPost2010Prop44ColorIndex
 90
        5
102
RTVSPost2010Prop44ColorRGB
 90
      255
102
RTVSPost2010PropOp44
 70
     0
102
RTVSPost2010Prop45
280
     0
102
RTVSPost2010PropOp45
 70
     1
102
RTVSPost2010Prop46
 90
       50
102
RTVSPost2010PropOp46
 70
     0
102
RTVSPost2010Prop47
 90
       50
102
RTVSPost2010PropOp47
 70
     0
102
RTVSPost2010Prop48
 90
       50
102
RTVSPost2010PropOp48
 70
     0
102
RTVSPost2010Prop49
280
     0
102
RTVSPost2010PropOp49
 70
     1
102
RTVSPost2010Prop50
 90
       50
102
RTVSPost2010PropOp50
 70
     0
102
RTVSPost2010Prop51ColorIndex
 90
      256
102
RTVSPost2010Prop51ColorRGB
 90
-16777216
102
RTVSPost2010PropOp51
 70
     0
102
RTVSPost2010Prop52
140
1.0
102
RTVSPost2010PropOp52
 70
     0
102
RTVSPost2010Prop53
 90
        2
102
RTVSPost2010PropOp53
 70
     0
102
RTVSPost2010Prop54
  1
strokes_ogs.tif
102
RTVSPost2010PropOp54
 70
     0
102
RTVSPost2010Prop55
280
     0
102
RTVSPost2010PropOp55
 70
     1
102
RTVSPost2010Prop56
140
1.0
102
RTVSPost2010PropOp56
 70
     0
102
RTVSPost2010Prop57
140
1.0
102
RTVSPost2010PropOp57
 70
     0
102
RTVSPropertyOp0
 70
     0
102
RTVSPropertyOp1
 70
     0
102
RTVSPropertyOp2
 70
     0
102
RTVSPropertyOp3
 70
     0
102
RTVSPropertyOp4
 70
     0
102
RTVSPropertyOp5
 70
     0
102
RTVSPropertyOp6
 70
     0
102
RTVSPropertyOp7
 70
     0
102
RTVSPropertyOp8
 70
     0
102
RTVSPropertyOp9
 70
     0
102
RTVSPropertyOp10
 70
     0
102
RTVSPropertyOp11
 70
     0
102
RTVSPropertyOp12
 70
     0
102
RTVSPropertyOp13
 70
     0
102
RTVSPropertyOp14
 70
     2
102
RTVSPropertyOp15
 70
     0
102
RTVSPropertyOp16
 70
     0
102
RTVSPropertyOp17
 70
     0
102
RTVSPropertyOp18
 70
     0
102
RTVSPropertyOp19
 70
     0
102
RTVSPropertyOp20
 70
     0
102
RTVSPropertyOp21
 70
     0
102
RTVSPropertyOp22
 70
     0
102
RTVSPropertyOp23
 70
     0
102
RTVSPropertyOp24
 70
     0
102
RTVSPropertyOp25
 70
     0
102
RTVSPropertyOp26
 70
     0
102
RTVSPropertyOp27
 70
     0
102
RTVSPropertyOp28
 70
     1
102
RTVSPropertyOp29
 70
     1
102
RTVSPropertyOp30
 70
     1
102
RTVSPropertyOp31
 70
     1
102
RTVSPropertyOp32
 70
     1
102
RTVSPropertyOp33
 70
     1
102
RTVSPropertyOp34
 70
     1
102
RTVSPropertyOp35
 70
     1
102
RTVSPropertyOp36
 70
     1
102
RTVSPropertyOp37
 70
     0
102
RTVSPropertyOp38
 70
     0
102
RTVSPropertyOp39
 70
     0
102
RTVSPropertyOp40
 70
     0
102
RTVSPropertyOp41
 70
     0
102
RTVSPropertyOp42
 70
     0
102
RTVSPropertyOp43
 70
     0
102
RTVSPropertyOp44
 70
     0
102
RTVSPropertyOp45
 70
     1
102
RTVSPropertyOp46
 70
     0
102
RTVSPropertyOp47
 70
     0
102
RTVSPropertyOp48
 70
     0
102
RTVSPropertyOp49
 70
     1
102
RTVSPropertyOp50
 70
     0
102
RTVSPropertyOp51
 70
     0
102
RTVSPropertyOp52
 70
     0
102
RTVSPropertyOp53
 70
     0
102
RTVSPropertyOp54
 70
     0
102
RTVSPropertyOp55
 70
     1
102
RTVSPropertyOp56
 70
     0
102
RTVSPropertyOp57
 70
     0
102
RTVSPropertyOp58
 70
     0
102
RTVSPropertyOp59
 70
     0
102
RTVSPropertyOp60
 70
     0
102
RTVSPropertyOp61
 70
     0
102
RTVSPropertyOp62
 70
     0
  0
XRECORD
  5
B64
102
{ACAD_REACTORS
330
B63
102
}
330
B63
100
AcDbXrecord
280
     1
102
RTVSPost2010Prop28
280
     0
102
RTVSPost2010PropOp28
 70
     1
102
RTVSPost2010Prop29
280
     1
102
RTVSPost2010PropOp29
 70
     1
102
RTVSPost2010Prop30
280
     1
102
RTVSPost2010PropOp30
 70
     1
102
RTVSPost2010Prop31
280
     0
102
RTVSPost2010PropOp31
 70
     1
102
RTVSPost2010Prop32
280
     0
102
RTVSPost2010PropOp32
 70
     1
102
RTVSPost2010Prop33
280
     0
102
RTVSPost2010PropOp33
 70
     1
102
RTVSPost2010Prop34
280
     0
102
RTVSPost2010PropOp34
 70
     1
102
RTVSPost2010Prop35
280
     0
102
RTVSPost2010PropOp35
 70
     1
102
RTVSPost2010Prop36
280
     0
102
RTVSPost2010PropOp36
 70
     1
102
RTVSPost2010Prop37
 90
       50
102
RTVSPost2010PropOp37
 70
     1
102
RTVSPost2010Prop38
140
0.0
102
RTVSPost2010PropOp38
 70
     1
102
RTVSPost2010Prop39
140
1.0
102
RTVSPost2010PropOp39
 70
     1
102
RTVSPost2010Prop40
 90
        0
102
RTVSPost2010PropOp40
 70
     1
102
RTVSPost2010Prop41ColorIndex
 90
       18
102
RTVSPost2010Prop41ColorRGB
 90
        0
102
RTVSPost2010PropOp41
 70
     1
102
RTVSPost2010Prop42
 90
       50
102
RTVSPost2010PropOp42
 70
     1
102
RTVSPost2010Prop43
 90
        3
102
RTVSPost2010PropOp43
 70
     1
102
RTVSPost2010Prop44ColorIndex
 90
        5
102
RTVSPost2010Prop44ColorRGB
 90
      255
102
RTVSPost2010PropOp44
 70
     1
102
RTVSPost2010Prop45
280
     0
102
RTVSPost2010PropOp45
 70
     1
102
RTVSPost2010Prop46
 90
       50
102
RTVSPost2010PropOp46
 70
     1
102
RTVSPost2010Prop47
 90
       50
102
RTVSPost2010PropOp47
 70
     1
102
RTVSPost2010Prop48
 90
       50
102
RTVSPost2010PropOp48
 70
     1
102
RTVSPost2010Prop49
280
     0
102
RTVSPost2010PropOp49
 70
     1
102
RTVSPost2010Prop50
 90
       50
102
RTVSPost2010PropOp50
 70
     1
102
RTVSPost2010Prop51ColorIndex
 90
      256
102
RTVSPost2010Prop51ColorRGB
 90
-16777216
102
RTVSPost2010PropOp51
 70
     0
102
RTVSPost2010Prop52
140
1.0
102
RTVSPost2010PropOp52
 70
     0
102
RTVSPost2010Prop53
 90
        2
102
RTVSPost2010PropOp53
 70
     1
102
RTVSPost2010Prop54
  1
strokes_ogs.tif
102
RTVSPost2010PropOp54
 70
     1
102
RTVSPost2010Prop55
280
     0
102
RTVSPost2010PropOp55
 70
     1
102
RTVSPost2010Prop56
140
1.0
102
RTVSPost2010PropOp56
 70
     1
102
RTVSPost2010Prop57
140
1.0
102
RTVSPost2010PropOp57
 70
     1
102
RTVSPropertyOp0
 70
     1
102
RTVSPropertyOp1
 70
     1
102
RTVSPropertyOp2
 70
     1
102
RTVSPropertyOp3
 70
     1
102
RTVSPropertyOp4
 70
     1
102
RTVSPropertyOp5
 70
     1
102
RTVSPropertyOp6
 70
     1
102
RTVSPropertyOp7
 70
     1
102
RTVSPropertyOp8
 70
     1
102
RTVSPropertyOp9
 70
     1
102
RTVSPropertyOp10
 70
     1
102
RTVSPropertyOp11
 70
     1
102
RTVSPropertyOp12
 70
     1
102
RTVSPropertyOp13
 70
     1
102
RTVSPropertyOp14
 70
     1
102
RTVSPropertyOp15
 70
     1
102
RTVSPropertyOp16
 70
     1
102
RTVSPropertyOp17
 70
     1
102
RTVSPropertyOp18
 70
     1
102
RTVSPropertyOp19
 70
     1
102
RTVSPropertyOp20
 70
     1
102
RTVSPropertyOp21
 70
     1
102
RTVSPropertyOp22
 70
     1
102
RTVSPropertyOp23
 70
     1
102
RTVSPropertyOp24
 70
     1
102
RTVSPropertyOp25
 70
     1
102
RTVSPropertyOp26
 70
     1
102
RTVSPropertyOp27
 70
     1
102
RTVSPropertyOp28
 70
     1
102
RTVSPropertyOp29
 70
     1
102
RTVSPropertyOp30
 70
     1
102
RTVSPropertyOp31
 70
     1
102
RTVSPropertyOp32
 70
     1
102
RTVSPropertyOp33
 70
     1
102
RTVSPropertyOp34
 70
     1
102
RTVSPropertyOp35
 70
     1
102
RTVSPropertyOp36
 70
     1
102
RTVSPropertyOp37
 70
     1
102
RTVSPropertyOp38
 70
     1
102
RTVSPropertyOp39
 70
     1
102
RTVSPropertyOp40
 70
     1
102
RTVSPropertyOp41
 70
     1
102
RTVSPropertyOp42
 70
     1
102
RTVSPropertyOp43
 70
     1
102
RTVSPropertyOp44
 70
     1
102
RTVSPropertyOp45
 70
     1
102
RTVSPropertyOp46
 70
     1
102
RTVSPropertyOp47
 70
     1
102
RTVSPropertyOp48
 70
     1
102
RTVSPropertyOp49
 70
     1
102
RTVSPropertyOp50
 70
     1
102
RTVSPropertyOp51
 70
     0
102
RTVSPropertyOp52
 70
     0
102
RTVSPropertyOp53
 70
     1
102
RTVSPropertyOp54
 70
     1
102
RTVSPropertyOp55
 70
     1
102
RTVSPropertyOp56
 70
     1
102
RTVSPropertyOp57
 70
     1
102
RTVSPropertyOp58
 70
     1
102
RTVSPropertyOp59
 70
     1
102
RTVSPropertyOp60
 70
     1
102
RTVSPropertyOp61
 70
     1
102
RTVSPropertyOp62
 70
     1
  0
XRECORD
  5
B76
102
{ACAD_REACTORS
330
B75
102
}
330
B75
100
AcDbXrecord
280
     1
102
RTVSPost2010Prop28
280
     0
102
RTVSPost2010PropOp28
 70
     1
102
RTVSPost2010Prop29
280
     1
102
RTVSPost2010PropOp29
 70
     1
102
RTVSPost2010Prop30
280
     1
102
RTVSPost2010PropOp30
 70
     1
102
RTVSPost2010Prop31
280
     0
102
RTVSPost2010PropOp31
 70
     1
102
RTVSPost2010Prop32
280
     0
102
RTVSPost2010PropOp32
 70
     1
102
RTVSPost2010Prop33
280
     0
102
RTVSPost2010PropOp33
 70
     1
102
RTVSPost2010Prop34
280
     0
102
RTVSPost2010PropOp34
 70
     1
102
RTVSPost2010Prop35
280
     0
102
RTVSPost2010PropOp35
 70
     1
102
RTVSPost2010Prop36
280
     0
102
RTVSPost2010PropOp36
 70
     1
102
RTVSPost2010Prop37
 90
       50
102
RTVSPost2010PropOp37
 70
     0
102
RTVSPost2010Prop38
140
0.0
102
RTVSPost2010PropOp38
 70
     0
102
RTVSPost2010Prop39
140
1.0
102
RTVSPost2010PropOp39
 70
     0
102
RTVSPost2010Prop40
 90
        0
102
RTVSPost2010PropOp40
 70
     0
102
RTVSPost2010Prop41ColorIndex
 90
       18
102
RTVSPost2010Prop41ColorRGB
 90
        0
102
RTVSPost2010PropOp41
 70
     0
102
RTVSPost2010Prop42
 90
       50
102
RTVSPost2010PropOp42
 70
     0
102
RTVSPost2010Prop43
 90
        3
102
RTVSPost2010PropOp43
 70
     0
102
RTVSPost2010Prop44ColorIndex
 90
        5
102
RTVSPost2010Prop44ColorRGB
 90
      255
102
RTVSPost2010PropOp44
 70
     0
102
RTVSPost2010Prop45
280
     0
102
RTVSPost2010PropOp45
 70
     1
102
RTVSPost2010Prop46
 90
       50
102
RTVSPost2010PropOp46
 70
     0
102
RTVSPost2010Prop47
 90
       50
102
RTVSPost2010PropOp47
 70
     0
102
RTVSPost2010Prop48
 90
       50
102
RTVSPost2010PropOp48
 70
     0
102
RTVSPost2010Prop49
280
     0
102
RTVSPost2010PropOp49
 70
     1
102
RTVSPost2010Prop50
 90
       50
102
RTVSPost2010PropOp50
 70
     0
102
RTVSPost2010Prop51ColorIndex
 90
      256
102
RTVSPost2010Prop51ColorRGB
 90
-16777216
102
RTVSPost2010PropOp51
 70
     0
102
RTVSPost2010Prop52
140
1.0
102
RTVSPost2010PropOp52
 70
     0
102
RTVSPost2010Prop53
 90
        2
102
RTVSPost2010PropOp53
 70
     0
102
RTVSPost2010Prop54
  1
strokes_ogs.tif
102
RTVSPost2010PropOp54
 70
     0
102
RTVSPost2010Prop55
280
     0
102
RTVSPost2010PropOp55
 70
     1
102
RTVSPost2010Prop56
140
1.0
102
RTVSPost2010PropOp56
 70
     0
102
RTVSPost2010Prop57
140
1.0
102
RTVSPost2010PropOp57
 70
     0
102
RTVSPropertyOp0
 70
     0
102
RTVSPropertyOp1
 70
     0
102
RTVSPropertyOp2
 70
     0
102
RTVSPropertyOp3
 70
     0
102
RTVSPropertyOp4
 70
     0
102
RTVSPropertyOp5
 70
     0
102
RTVSPropertyOp6
 70
     0
102
RTVSPropertyOp7
 70
     0
102
RTVSPropertyOp8
 70
     0
102
RTVSPropertyOp9
 70
     0
102
RTVSPropertyOp10
 70
     0
102
RTVSPropertyOp11
 70
     0
102
RTVSPropertyOp12
 70
     0
102
RTVSPropertyOp13
 70
     0
102
RTVSPropertyOp14
 70
     2
102
RTVSPropertyOp15
 70
     0
102
RTVSPropertyOp16
 70
     0
102
RTVSPropertyOp17
 70
     0
102
RTVSPropertyOp18
 70
     0
102
RTVSPropertyOp19
 70
     0
102
RTVSPropertyOp20
 70
     0
102
RTVSPropertyOp21
 70
     0
102
RTVSPropertyOp22
 70
     0
102
RTVSPropertyOp23
 70
     0
102
RTVSPropertyOp24
 70
     0
102
RTVSPropertyOp25
 70
     0
102
RTVSPropertyOp26
 70
     0
102
RTVSPropertyOp27
 70
     0
102
RTVSPropertyOp28
 70
     1
102
RTVSPropertyOp29
 70
     1
102
RTVSPropertyOp30
 70
     1
102
RTVSPropertyOp31
 70
     1
102
RTVSPropertyOp32
 70
     1
102
RTVSPropertyOp33
 70
     1
102
RTVSPropertyOp34
 70
     1
102
RTVSPropertyOp35
 70
     1
102
RTVSPropertyOp36
 70
     1
102
RTVSPropertyOp37
 70
     0
102
RTVSPropertyOp38
 70
     0
102
RTVSPropertyOp39
 70
     0
102
RTVSPropertyOp40
 70
     0
102
RTVSPropertyOp41
 70
     0
102
RTVSPropertyOp42
 70
     0
102
RTVSPropertyOp43
 70
     0
102
RTVSPropertyOp44
 70
     0
102
RTVSPropertyOp45
 70
     1
102
RTVSPropertyOp46
 70
     0
102
RTVSPropertyOp47
 70
     0
102
RTVSPropertyOp48
 70
     0
102
RTVSPropertyOp49
 70
     1
102
RTVSPropertyOp50
 70
     0
102
RTVSPropertyOp51
 70
     0
102
RTVSPropertyOp52
 70
     0
102
RTVSPropertyOp53
 70
     0
102
RTVSPropertyOp54
 70
     0
102
RTVSPropertyOp55
 70
     1
102
RTVSPropertyOp56
 70
     0
102
RTVSPropertyOp57
 70
     0
102
RTVSPropertyOp58
 70
     0
102
RTVSPropertyOp59
 70
     0
102
RTVSPropertyOp60
 70
     0
102
RTVSPropertyOp61
 70
     0
102
RTVSPropertyOp62
 70
     0
  0
XRECORD
  5
B5C
102
{ACAD_REACTORS
330
B5B
102
}
330
B5B
100
AcDbXrecord
280
     1
102
RTVSPost2010Prop28
280
     0
102
RTVSPost2010PropOp28
 70
     1
102
RTVSPost2010Prop29
280
     1
102
RTVSPost2010PropOp29
 70
     1
102
RTVSPost2010Prop30
280
     1
102
RTVSPost2010PropOp30
 70
     1
102
RTVSPost2010Prop31
280
     0
102
RTVSPost2010PropOp31
 70
     1
102
RTVSPost2010Prop32
280
     0
102
RTVSPost2010PropOp32
 70
     1
102
RTVSPost2010Prop33
280
     0
102
RTVSPost2010PropOp33
 70
     1
102
RTVSPost2010Prop34
280
     0
102
RTVSPost2010PropOp34
 70
     1
102
RTVSPost2010Prop35
280
     0
102
RTVSPost2010PropOp35
 70
     1
102
RTVSPost2010Prop36
280
     0
102
RTVSPost2010PropOp36
 70
     1
102
RTVSPost2010Prop37
 90
       50
102
RTVSPost2010PropOp37
 70
     1
102
RTVSPost2010Prop38
140
0.0
102
RTVSPost2010PropOp38
 70
     1
102
RTVSPost2010Prop39
140
1.0
102
RTVSPost2010PropOp39
 70
     1
102
RTVSPost2010Prop40
 90
        0
102
RTVSPost2010PropOp40
 70
     1
102
RTVSPost2010Prop41ColorIndex
 90
       18
102
RTVSPost2010Prop41ColorRGB
 90
        0
102
RTVSPost2010PropOp41
 70
     1
102
RTVSPost2010Prop42
 90
       50
102
RTVSPost2010PropOp42
 70
     1
102
RTVSPost2010Prop43
 90
        3
102
RTVSPost2010PropOp43
 70
     1
102
RTVSPost2010Prop44ColorIndex
 90
        5
102
RTVSPost2010Prop44ColorRGB
 90
      255
102
RTVSPost2010PropOp44
 70
     1
102
RTVSPost2010Prop45
280
     0
102
RTVSPost2010PropOp45
 70
     1
102
RTVSPost2010Prop46
 90
       50
102
RTVSPost2010PropOp46
 70
     1
102
RTVSPost2010Prop47
 90
       50
102
RTVSPost2010PropOp47
 70
     1
102
RTVSPost2010Prop48
 90
       50
102
RTVSPost2010PropOp48
 70
     1
102
RTVSPost2010Prop49
280
     0
102
RTVSPost2010PropOp49
 70
     1
102
RTVSPost2010Prop50
 90
       50
102
RTVSPost2010PropOp50
 70
     1
102
RTVSPost2010Prop51ColorIndex
 90
      256
102
RTVSPost2010Prop51ColorRGB
 90
-16777216
102
RTVSPost2010PropOp51
 70
     0
102
RTVSPost2010Prop52
140
1.0
102
RTVSPost2010PropOp52
 70
     0
102
RTVSPost2010Prop53
 90
        2
102
RTVSPost2010PropOp53
 70
     1
102
RTVSPost2010Prop54
  1
strokes_ogs.tif
102
RTVSPost2010PropOp54
 70
     1
102
RTVSPost2010Prop55
280
     0
102
RTVSPost2010PropOp55
 70
     1
102
RTVSPost2010Prop56
140
1.0
102
RTVSPost2010PropOp56
 70
     1
102
RTVSPost2010Prop57
140
1.0
102
RTVSPost2010PropOp57
 70
     1
102
RTVSPropertyOp0
 70
     1
102
RTVSPropertyOp1
 70
     1
102
RTVSPropertyOp2
 70
     1
102
RTVSPropertyOp3
 70
     1
102
RTVSPropertyOp4
 70
     1
102
RTVSPropertyOp5
 70
     1
102
RTVSPropertyOp6
 70
     1
102
RTVSPropertyOp7
 70
     1
102
RTVSPropertyOp8
 70
     1
102
RTVSPropertyOp9
 70
     1
102
RTVSPropertyOp10
 70
     1
102
RTVSPropertyOp11
 70
     1
102
RTVSPropertyOp12
 70
     1
102
RTVSPropertyOp13
 70
     1
102
RTVSPropertyOp14
 70
     1
102
RTVSPropertyOp15
 70
     1
102
RTVSPropertyOp16
 70
     1
102
RTVSPropertyOp17
 70
     1
102
RTVSPropertyOp18
 70
     1
102
RTVSPropertyOp19
 70
     1
102
RTVSPropertyOp20
 70
     1
102
RTVSPropertyOp21
 70
     1
102
RTVSPropertyOp22
 70
     1
102
RTVSPropertyOp23
 70
     1
102
RTVSPropertyOp24
 70
     1
102
RTVSPropertyOp25
 70
     1
102
RTVSPropertyOp26
 70
     1
102
RTVSPropertyOp27
 70
     1
102
RTVSPropertyOp28
 70
     1
102
RTVSPropertyOp29
 70
     1
102
RTVSPropertyOp30
 70
     1
102
RTVSPropertyOp31
 70
     1
102
RTVSPropertyOp32
 70
     1
102
RTVSPropertyOp33
 70
     1
102
RTVSPropertyOp34
 70
     1
102
RTVSPropertyOp35
 70
     1
102
RTVSPropertyOp36
 70
     1
102
RTVSPropertyOp37
 70
     1
102
RTVSPropertyOp38
 70
     1
102
RTVSPropertyOp39
 70
     1
102
RTVSPropertyOp40
 70
     1
102
RTVSPropertyOp41
 70
     1
102
RTVSPropertyOp42
 70
     1
102
RTVSPropertyOp43
 70
     1
102
RTVSPropertyOp44
 70
     1
102
RTVSPropertyOp45
 70
     1
102
RTVSPropertyOp46
 70
     1
102
RTVSPropertyOp47
 70
     1
102
RTVSPropertyOp48
 70
     1
102
RTVSPropertyOp49
 70
     1
102
RTVSPropertyOp50
 70
     1
102
RTVSPropertyOp51
 70
     0
102
RTVSPropertyOp52
 70
     0
102
RTVSPropertyOp53
 70
     1
102
RTVSPropertyOp54
 70
     1
102
RTVSPropertyOp55
 70
     1
102
RTVSPropertyOp56
 70
     1
102
RTVSPropertyOp57
 70
     1
102
RTVSPropertyOp58
 70
     1
102
RTVSPropertyOp59
 70
     1
102
RTVSPropertyOp60
 70
     1
102
RTVSPropertyOp61
 70
     1
102
RTVSPropertyOp62
 70
     1
  0
XRECORD
  5
B72
102
{ACAD_REACTORS
330
B71
102
}
330
B71
100
AcDbXrecord
280
     1
102
RTVSPost2010Prop28
280
     0
102
RTVSPost2010PropOp28
 70
     1
102
RTVSPost2010Prop29
280
     1
102
RTVSPost2010PropOp29
 70
     1
102
RTVSPost2010Prop30
280
     1
102
RTVSPost2010PropOp30
 70
     1
102
RTVSPost2010Prop31
280
     0
102
RTVSPost2010PropOp31
 70
     1
102
RTVSPost2010Prop32
280
     0
102
RTVSPost2010PropOp32
 70
     1
102
RTVSPost2010Prop33
280
     0
102
RTVSPost2010PropOp33
 70
     1
102
RTVSPost2010Prop34
280
     0
102
RTVSPost2010PropOp34
 70
     1
102
RTVSPost2010Prop35
280
     0
102
RTVSPost2010PropOp35
 70
     1
102
RTVSPost2010Prop36
280
     0
102
RTVSPost2010PropOp36
 70
     1
102
RTVSPost2010Prop37
 90
       50
102
RTVSPost2010PropOp37
 70
     1
102
RTVSPost2010Prop38
140
0.0
102
RTVSPost2010PropOp38
 70
     1
102
RTVSPost2010Prop39
140
1.0
102
RTVSPost2010PropOp39
 70
     1
102
RTVSPost2010Prop40
 90
        0
102
RTVSPost2010PropOp40
 70
     1
102
RTVSPost2010Prop41ColorIndex
 90
       18
102
RTVSPost2010Prop41ColorRGB
 90
        0
102
RTVSPost2010PropOp41
 70
     1
102
RTVSPost2010Prop42
 90
       50
102
RTVSPost2010PropOp42
 70
     1
102
RTVSPost2010Prop43
 90
        3
102
RTVSPost2010PropOp43
 70
     1
102
RTVSPost2010Prop44ColorIndex
 90
        5
102
RTVSPost2010Prop44ColorRGB
 90
      255
102
RTVSPost2010PropOp44
 70
     1
102
RTVSPost2010Prop45
280
     0
102
RTVSPost2010PropOp45
 70
     1
102
RTVSPost2010Prop46
 90
       50
102
RTVSPost2010PropOp46
 70
     1
102
RTVSPost2010Prop47
 90
       50
102
RTVSPost2010PropOp47
 70
     1
102
RTVSPost2010Prop48
 90
       50
102
RTVSPost2010PropOp48
 70
     1
102
RTVSPost2010Prop49
280
     0
102
RTVSPost2010PropOp49
 70
     1
102
RTVSPost2010Prop50
 90
       50
102
RTVSPost2010PropOp50
 70
     1
102
RTVSPost2010Prop51ColorIndex
 90
      256
102
RTVSPost2010Prop51ColorRGB
 90
-16777216
102
RTVSPost2010PropOp51
 70
     0
102
RTVSPost2010Prop52
140
1.0
102
RTVSPost2010PropOp52
 70
     0
102
RTVSPost2010Prop53
 90
        2
102
RTVSPost2010PropOp53
 70
     1
102
RTVSPost2010Prop54
  1
strokes_ogs.tif
102
RTVSPost2010PropOp54
 70
     1
102
RTVSPost2010Prop55
280
     0
102
RTVSPost2010PropOp55
 70
     1
102
RTVSPost2010Prop56
140
1.0
102
RTVSPost2010PropOp56
 70
     1
102
RTVSPost2010Prop57
140
1.0
102
RTVSPost2010PropOp57
 70
     1
102
RTVSPropertyOp0
 70
     1
102
RTVSPropertyOp1
 70
     1
102
RTVSPropertyOp2
 70
     1
102
RTVSPropertyOp3
 70
     1
102
RTVSPropertyOp4
 70
     1
102
RTVSPropertyOp5
 70
     1
102
RTVSPropertyOp6
 70
     1
102
RTVSPropertyOp7
 70
     1
102
RTVSPropertyOp8
 70
     1
102
RTVSPropertyOp9
 70
     1
102
RTVSPropertyOp10
 70
     1
102
RTVSPropertyOp11
 70
     1
102
RTVSPropertyOp12
 70
     1
102
RTVSPropertyOp13
 70
     1
102
RTVSPropertyOp14
 70
     1
102
RTVSPropertyOp15
 70
     1
102
RTVSPropertyOp16
 70
     1
102
RTVSPropertyOp17
 70
     1
102
RTVSPropertyOp18
 70
     1
102
RTVSPropertyOp19
 70
     1
102
RTVSPropertyOp20
 70
     1
102
RTVSPropertyOp21
 70
     1
102
RTVSPropertyOp22
 70
     1
102
RTVSPropertyOp23
 70
     1
102
RTVSPropertyOp24
 70
     1
102
RTVSPropertyOp25
 70
     1
102
RTVSPropertyOp26
 70
     1
102
RTVSPropertyOp27
 70
     1
102
RTVSPropertyOp28
 70
     1
102
RTVSPropertyOp29
 70
     1
102
RTVSPropertyOp30
 70
     1
102
RTVSPropertyOp31
 70
     1
102
RTVSPropertyOp32
 70
     1
102
RTVSPropertyOp33
 70
     1
102
RTVSPropertyOp34
 70
     1
102
RTVSPropertyOp35
 70
     1
102
RTVSPropertyOp36
 70
     1
102
RTVSPropertyOp37
 70
     1
102
RTVSPropertyOp38
 70
     1
102
RTVSPropertyOp39
 70
     1
102
RTVSPropertyOp40
 70
     1
102
RTVSPropertyOp41
 70
     1
102
RTVSPropertyOp42
 70
     1
102
RTVSPropertyOp43
 70
     1
102
RTVSPropertyOp44
 70
     1
102
RTVSPropertyOp45
 70
     1
102
RTVSPropertyOp46
 70
     1
102
RTVSPropertyOp47
 70
     1
102
RTVSPropertyOp48
 70
     1
102
RTVSPropertyOp49
 70
     1
102
RTVSPropertyOp50
 70
     1
102
RTVSPropertyOp51
 70
     0
102
RTVSPropertyOp52
 70
     0
102
RTVSPropertyOp53
 70
     1
102
RTVSPropertyOp54
 70
     1
102
RTVSPropertyOp55
 70
     1
102
RTVSPropertyOp56
 70
     1
102
RTVSPropertyOp57
 70
     1
102
RTVSPropertyOp58
 70
     1
102
RTVSPropertyOp59
 70
     1
102
RTVSPropertyOp60
 70
     1
102
RTVSPropertyOp61
 70
     1
102
RTVSPropertyOp62
 70
     1
  0
XRECORD
  5
B70
102
{ACAD_REACTORS
330
B6F
102
}
330
B6F
100
AcDbXrecord
280
     1
102
RTVSPost2010Prop28
280
     0
102
RTVSPost2010PropOp28
 70
     1
102
RTVSPost2010Prop29
280
     1
102
RTVSPost2010PropOp29
 70
     1
102
RTVSPost2010Prop30
280
     1
102
RTVSPost2010PropOp30
 70
     1
102
RTVSPost2010Prop31
280
     0
102
RTVSPost2010PropOp31
 70
     1
102
RTVSPost2010Prop32
280
     0
102
RTVSPost2010PropOp32
 70
     1
102
RTVSPost2010Prop33
280
     0
102
RTVSPost2010PropOp33
 70
     1
102
RTVSPost2010Prop34
280
     0
102
RTVSPost2010PropOp34
 70
     1
102
RTVSPost2010Prop35
280
     0
102
RTVSPost2010PropOp35
 70
     1
102
RTVSPost2010Prop36
280
     0
102
RTVSPost2010PropOp36
 70
     1
102
RTVSPost2010Prop37
 90
       50
102
RTVSPost2010PropOp37
 70
     1
102
RTVSPost2010Prop38
140
0.0
102
RTVSPost2010PropOp38
 70
     1
102
RTVSPost2010Prop39
140
1.0
102
RTVSPost2010PropOp39
 70
     1
102
RTVSPost2010Prop40
 90
        0
102
RTVSPost2010PropOp40
 70
     1
102
RTVSPost2010Prop41ColorIndex
 90
       18
102
RTVSPost2010Prop41ColorRGB
 90
        0
102
RTVSPost2010PropOp41
 70
     1
102
RTVSPost2010Prop42
 90
       50
102
RTVSPost2010PropOp42
 70
     1
102
RTVSPost2010Prop43
 90
        3
102
RTVSPost2010PropOp43
 70
     1
102
RTVSPost2010Prop44ColorIndex
 90
        5
102
RTVSPost2010Prop44ColorRGB
 90
      255
102
RTVSPost2010PropOp44
 70
     1
102
RTVSPost2010Prop45
280
     0
102
RTVSPost2010PropOp45
 70
     1
102
RTVSPost2010Prop46
 90
       50
102
RTVSPost2010PropOp46
 70
     1
102
RTVSPost2010Prop47
 90
       50
102
RTVSPost2010PropOp47
 70
     1
102
RTVSPost2010Prop48
 90
       50
102
RTVSPost2010PropOp48
 70
     1
102
RTVSPost2010Prop49
280
     0
102
RTVSPost2010PropOp49
 70
     1
102
RTVSPost2010Prop50
 90
       50
102
RTVSPost2010PropOp50
 70
     1
102
RTVSPost2010Prop51ColorIndex
 90
      256
102
RTVSPost2010Prop51ColorRGB
 90
-16777216
102
RTVSPost2010PropOp51
 70
     0
102
RTVSPost2010Prop52
140
1.0
102
RTVSPost2010PropOp52
 70
     0
102
RTVSPost2010Prop53
 90
        2
102
RTVSPost2010PropOp53
 70
     1
102
RTVSPost2010Prop54
  1
strokes_ogs.tif
102
RTVSPost2010PropOp54
 70
     1
102
RTVSPost2010Prop55
280
     0
102
RTVSPost2010PropOp55
 70
     1
102
RTVSPost2010Prop56
140
1.0
102
RTVSPost2010PropOp56
 70
     1
102
RTVSPost2010Prop57
140
1.0
102
RTVSPost2010PropOp57
 70
     1
102
RTVSPropertyOp0
 70
     1
102
RTVSPropertyOp1
 70
     1
102
RTVSPropertyOp2
 70
     1
102
RTVSPropertyOp3
 70
     1
102
RTVSPropertyOp4
 70
     1
102
RTVSPropertyOp5
 70
     1
102
RTVSPropertyOp6
 70
     1
102
RTVSPropertyOp7
 70
     1
102
RTVSPropertyOp8
 70
     1
102
RTVSPropertyOp9
 70
     1
102
RTVSPropertyOp10
 70
     1
102
RTVSPropertyOp11
 70
     1
102
RTVSPropertyOp12
 70
     1
102
RTVSPropertyOp13
 70
     1
102
RTVSPropertyOp14
 70
     1
102
RTVSPropertyOp15
 70
     1
102
RTVSPropertyOp16
 70
     1
102
RTVSPropertyOp17
 70
     1
102
RTVSPropertyOp18
 70
     1
102
RTVSPropertyOp19
 70
     1
102
RTVSPropertyOp20
 70
     1
102
RTVSPropertyOp21
 70
     1
102
RTVSPropertyOp22
 70
     1
102
RTVSPropertyOp23
 70
     1
102
RTVSPropertyOp24
 70
     1
102
RTVSPropertyOp25
 70
     1
102
RTVSPropertyOp26
 70
     1
102
RTVSPropertyOp27
 70
     1
102
RTVSPropertyOp28
 70
     1
102
RTVSPropertyOp29
 70
     1
102
RTVSPropertyOp30
 70
     1
102
RTVSPropertyOp31
 70
     1
102
RTVSPropertyOp32
 70
     1
102
RTVSPropertyOp33
 70
     1
102
RTVSPropertyOp34
 70
     1
102
RTVSPropertyOp35
 70
     1
102
RTVSPropertyOp36
 70
     1
102
RTVSPropertyOp37
 70
     1
102
RTVSPropertyOp38
 70
     1
102
RTVSPropertyOp39
 70
     1
102
RTVSPropertyOp40
 70
     1
102
RTVSPropertyOp41
 70
     1
102
RTVSPropertyOp42
 70
     1
102
RTVSPropertyOp43
 70
     1
102
RTVSPropertyOp44
 70
     1
102
RTVSPropertyOp45
 70
     1
102
RTVSPropertyOp46
 70
     1
102
RTVSPropertyOp47
 70
     1
102
RTVSPropertyOp48
 70
     1
102
RTVSPropertyOp49
 70
     1
102
RTVSPropertyOp50
 70
     1
102
RTVSPropertyOp51
 70
     0
102
RTVSPropertyOp52
 70
     0
102
RTVSPropertyOp53
 70
     1
102
RTVSPropertyOp54
 70
     1
102
RTVSPropertyOp55
 70
     1
102
RTVSPropertyOp56
 70
     1
102
RTVSPropertyOp57
 70
     1
102
RTVSPropertyOp58
 70
     1
102
RTVSPropertyOp59
 70
     1
102
RTVSPropertyOp60
 70
     1
102
RTVSPropertyOp61
 70
     1
102
RTVSPropertyOp62
 70
     1
  0
XRECORD
  5
B6A
102
{ACAD_REACTORS
330
B69
102
}
330
B69
100
AcDbXrecord
280
     1
102
RTVSPost2010Prop28
280
     0
102
RTVSPost2010PropOp28
 70
     1
102
RTVSPost2010Prop29
280
     1
102
RTVSPost2010PropOp29
 70
     1
102
RTVSPost2010Prop30
280
     1
102
RTVSPost2010PropOp30
 70
     1
102
RTVSPost2010Prop31
280
     0
102
RTVSPost2010PropOp31
 70
     1
102
RTVSPost2010Prop32
280
     0
102
RTVSPost2010PropOp32
 70
     1
102
RTVSPost2010Prop33
280
     0
102
RTVSPost2010PropOp33
 70
     1
102
RTVSPost2010Prop34
280
     0
102
RTVSPost2010PropOp34
 70
     1
102
RTVSPost2010Prop35
280
     0
102
RTVSPost2010PropOp35
 70
     1
102
RTVSPost2010Prop36
280
     0
102
RTVSPost2010PropOp36
 70
     1
102
RTVSPost2010Prop37
 90
       50
102
RTVSPost2010PropOp37
 70
     1
102
RTVSPost2010Prop38
140
0.0
102
RTVSPost2010PropOp38
 70
     1
102
RTVSPost2010Prop39
140
1.0
102
RTVSPost2010PropOp39
 70
     1
102
RTVSPost2010Prop40
 90
        0
102
RTVSPost2010PropOp40
 70
     1
102
RTVSPost2010Prop41ColorIndex
 90
       18
102
RTVSPost2010Prop41ColorRGB
 90
        0
102
RTVSPost2010PropOp41
 70
     1
102
RTVSPost2010Prop42
 90
       50
102
RTVSPost2010PropOp42
 70
     1
102
RTVSPost2010Prop43
 90
        3
102
RTVSPost2010PropOp43
 70
     1
102
RTVSPost2010Prop44ColorIndex
 90
        5
102
RTVSPost2010Prop44ColorRGB
 90
      255
102
RTVSPost2010PropOp44
 70
     1
102
RTVSPost2010Prop45
280
     0
102
RTVSPost2010PropOp45
 70
     1
102
RTVSPost2010Prop46
 90
       50
102
RTVSPost2010PropOp46
 70
     1
102
RTVSPost2010Prop47
 90
       50
102
RTVSPost2010PropOp47
 70
     1
102
RTVSPost2010Prop48
 90
       50
102
RTVSPost2010PropOp48
 70
     1
102
RTVSPost2010Prop49
280
     0
102
RTVSPost2010PropOp49
 70
     1
102
RTVSPost2010Prop50
 90
       50
102
RTVSPost2010PropOp50
 70
     1
102
RTVSPost2010Prop51ColorIndex
 90
      256
102
RTVSPost2010Prop51ColorRGB
 90
-16777216
102
RTVSPost2010PropOp51
 70
     0
102
RTVSPost2010Prop52
140
1.0
102
RTVSPost2010PropOp52
 70
     0
102
RTVSPost2010Prop53
 90
        2
102
RTVSPost2010PropOp53
 70
     1
102
RTVSPost2010Prop54
  1
strokes_ogs.tif
102
RTVSPost2010PropOp54
 70
     1
102
RTVSPost2010Prop55
280
     0
102
RTVSPost2010PropOp55
 70
     1
102
RTVSPost2010Prop56
140
1.0
102
RTVSPost2010PropOp56
 70
     1
102
RTVSPost2010Prop57
140
1.0
102
RTVSPost2010PropOp57
 70
     1
102
RTVSPropertyOp0
 70
     1
102
RTVSPropertyOp1
 70
     1
102
RTVSPropertyOp2
 70
     1
102
RTVSPropertyOp3
 70
     1
102
RTVSPropertyOp4
 70
     1
102
RTVSPropertyOp5
 70
     1
102
RTVSPropertyOp6
 70
     1
102
RTVSPropertyOp7
 70
     1
102
RTVSPropertyOp8
 70
     1
102
RTVSPropertyOp9
 70
     1
102
RTVSPropertyOp10
 70
     1
102
RTVSPropertyOp11
 70
     1
102
RTVSPropertyOp12
 70
     1
102
RTVSPropertyOp13
 70
     1
102
RTVSPropertyOp14
 70
     1
102
RTVSPropertyOp15
 70
     1
102
RTVSPropertyOp16
 70
     1
102
RTVSPropertyOp17
 70
     1
102
RTVSPropertyOp18
 70
     1
102
RTVSPropertyOp19
 70
     1
102
RTVSPropertyOp20
 70
     1
102
RTVSPropertyOp21
 70
     1
102
RTVSPropertyOp22
 70
     1
102
RTVSPropertyOp23
 70
     1
102
RTVSPropertyOp24
 70
     1
102
RTVSPropertyOp25
 70
     1
102
RTVSPropertyOp26
 70
     1
102
RTVSPropertyOp27
 70
     1
102
RTVSPropertyOp28
 70
     1
102
RTVSPropertyOp29
 70
     1
102
RTVSPropertyOp30
 70
     1
102
RTVSPropertyOp31
 70
     1
102
RTVSPropertyOp32
 70
     1
102
RTVSPropertyOp33
 70
     1
102
RTVSPropertyOp34
 70
     1
102
RTVSPropertyOp35
 70
     1
102
RTVSPropertyOp36
 70
     1
102
RTVSPropertyOp37
 70
     1
102
RTVSPropertyOp38
 70
     1
102
RTVSPropertyOp39
 70
     1
102
RTVSPropertyOp40
 70
     1
102
RTVSPropertyOp41
 70
     1
102
RTVSPropertyOp42
 70
     1
102
RTVSPropertyOp43
 70
     1
102
RTVSPropertyOp44
 70
     1
102
RTVSPropertyOp45
 70
     1
102
RTVSPropertyOp46
 70
     1
102
RTVSPropertyOp47
 70
     1
102
RTVSPropertyOp48
 70
     1
102
RTVSPropertyOp49
 70
     1
102
RTVSPropertyOp50
 70
     1
102
RTVSPropertyOp51
 70
     0
102
RTVSPropertyOp52
 70
     0
102
RTVSPropertyOp53
 70
     1
102
RTVSPropertyOp54
 70
     1
102
RTVSPropertyOp55
 70
     1
102
RTVSPropertyOp56
 70
     1
102
RTVSPropertyOp57
 70
     1
102
RTVSPropertyOp58
 70
     1
102
RTVSPropertyOp59
 70
     1
102
RTVSPropertyOp60
 70
     1
102
RTVSPropertyOp61
 70
     1
102
RTVSPropertyOp62
 70
     1
  0
XRECORD
  5
B6C
102
{ACAD_REACTORS
330
B6B
102
}
330
B6B
100
AcDbXrecord
280
     1
102
RTVSPost2010Prop28
280
     0
102
RTVSPost2010PropOp28
 70
     1
102
RTVSPost2010Prop29
280
     1
102
RTVSPost2010PropOp29
 70
     1
102
RTVSPost2010Prop30
280
     1
102
RTVSPost2010PropOp30
 70
     1
102
RTVSPost2010Prop31
280
     0
102
RTVSPost2010PropOp31
 70
     1
102
RTVSPost2010Prop32
280
     0
102
RTVSPost2010PropOp32
 70
     1
102
RTVSPost2010Prop33
280
     0
102
RTVSPost2010PropOp33
 70
     1
102
RTVSPost2010Prop34
280
     0
102
RTVSPost2010PropOp34
 70
     1
102
RTVSPost2010Prop35
280
     0
102
RTVSPost2010PropOp35
 70
     1
102
RTVSPost2010Prop36
280
     0
102
RTVSPost2010PropOp36
 70
     1
102
RTVSPost2010Prop37
 90
       50
102
RTVSPost2010PropOp37
 70
     1
102
RTVSPost2010Prop38
140
0.0
102
RTVSPost2010PropOp38
 70
     1
102
RTVSPost2010Prop39
140
1.0
102
RTVSPost2010PropOp39
 70
     1
102
RTVSPost2010Prop40
 90
        0
102
RTVSPost2010PropOp40
 70
     1
102
RTVSPost2010Prop41ColorIndex
 90
       18
102
RTVSPost2010Prop41ColorRGB
 90
        0
102
RTVSPost2010PropOp41
 70
     1
102
RTVSPost2010Prop42
 90
       50
102
RTVSPost2010PropOp42
 70
     1
102
RTVSPost2010Prop43
 90
        3
102
RTVSPost2010PropOp43
 70
     1
102
RTVSPost2010Prop44ColorIndex
 90
        5
102
RTVSPost2010Prop44ColorRGB
 90
      255
102
RTVSPost2010PropOp44
 70
     1
102
RTVSPost2010Prop45
280
     0
102
RTVSPost2010PropOp45
 70
     1
102
RTVSPost2010Prop46
 90
       50
102
RTVSPost2010PropOp46
 70
     1
102
RTVSPost2010Prop47
 90
       50
102
RTVSPost2010PropOp47
 70
     1
102
RTVSPost2010Prop48
 90
       50
102
RTVSPost2010PropOp48
 70
     1
102
RTVSPost2010Prop49
280
     0
102
RTVSPost2010PropOp49
 70
     1
102
RTVSPost2010Prop50
 90
       50
102
RTVSPost2010PropOp50
 70
     1
102
RTVSPost2010Prop51ColorIndex
 90
      256
102
RTVSPost2010Prop51ColorRGB
 90
-16777216
102
RTVSPost2010PropOp51
 70
     0
102
RTVSPost2010Prop52
140
1.0
102
RTVSPost2010PropOp52
 70
     0
102
RTVSPost2010Prop53
 90
        2
102
RTVSPost2010PropOp53
 70
     1
102
RTVSPost2010Prop54
  1
strokes_ogs.tif
102
RTVSPost2010PropOp54
 70
     1
102
RTVSPost2010Prop55
280
     0
102
RTVSPost2010PropOp55
 70
     1
102
RTVSPost2010Prop56
140
1.0
102
RTVSPost2010PropOp56
 70
     1
102
RTVSPost2010Prop57
140
1.0
102
RTVSPost2010PropOp57
 70
     1
102
RTVSPropertyOp0
 70
     1
102
RTVSPropertyOp1
 70
     1
102
RTVSPropertyOp2
 70
     1
102
RTVSPropertyOp3
 70
     1
102
RTVSPropertyOp4
 70
     1
102
RTVSPropertyOp5
 70
     1
102
RTVSPropertyOp6
 70
     1
102
RTVSPropertyOp7
 70
     1
102
RTVSPropertyOp8
 70
     1
102
RTVSPropertyOp9
 70
     1
102
RTVSPropertyOp10
 70
     1
102
RTVSPropertyOp11
 70
     1
102
RTVSPropertyOp12
 70
     1
102
RTVSPropertyOp13
 70
     1
102
RTVSPropertyOp14
 70
     1
102
RTVSPropertyOp15
 70
     1
102
RTVSPropertyOp16
 70
     1
102
RTVSPropertyOp17
 70
     1
102
RTVSPropertyOp18
 70
     1
102
RTVSPropertyOp19
 70
     1
102
RTVSPropertyOp20
 70
     1
102
RTVSPropertyOp21
 70
     1
102
RTVSPropertyOp22
 70
     1
102
RTVSPropertyOp23
 70
     1
102
RTVSPropertyOp24
 70
     1
102
RTVSPropertyOp25
 70
     1
102
RTVSPropertyOp26
 70
     1
102
RTVSPropertyOp27
 70
     1
102
RTVSPropertyOp28
 70
     1
102
RTVSPropertyOp29
 70
     1
102
RTVSPropertyOp30
 70
     1
102
RTVSPropertyOp31
 70
     1
102
RTVSPropertyOp32
 70
     1
102
RTVSPropertyOp33
 70
     1
102
RTVSPropertyOp34
 70
     1
102
RTVSPropertyOp35
 70
     1
102
RTVSPropertyOp36
 70
     1
102
RTVSPropertyOp37
 70
     1
102
RTVSPropertyOp38
 70
     1
102
RTVSPropertyOp39
 70
     1
102
RTVSPropertyOp40
 70
     1
102
RTVSPropertyOp41
 70
     1
102
RTVSPropertyOp42
 70
     1
102
RTVSPropertyOp43
 70
     1
102
RTVSPropertyOp44
 70
     1
102
RTVSPropertyOp45
 70
     1
102
RTVSPropertyOp46
 70
     1
102
RTVSPropertyOp47
 70
     1
102
RTVSPropertyOp48
 70
     1
102
RTVSPropertyOp49
 70
     1
102
RTVSPropertyOp50
 70
     1
102
RTVSPropertyOp51
 70
     0
102
RTVSPropertyOp52
 70
     0
102
RTVSPropertyOp53
 70
     1
102
RTVSPropertyOp54
 70
     1
102
RTVSPropertyOp55
 70
     1
102
RTVSPropertyOp56
 70
     1
102
RTVSPropertyOp57
 70
     1
102
RTVSPropertyOp58
 70
     1
102
RTVSPropertyOp59
 70
     1
102
RTVSPropertyOp60
 70
     1
102
RTVSPropertyOp61
 70
     1
102
RTVSPropertyOp62
 70
     1
  0
XRECORD
  5
B62
102
{ACAD_REACTORS
330
B61
102
}
330
B61
100
AcDbXrecord
280
     1
102
RTVSPost2010Prop28
280
     0
102
RTVSPost2010PropOp28
 70
     1
102
RTVSPost2010Prop29
280
     1
102
RTVSPost2010PropOp29
 70
     1
102
RTVSPost2010Prop30
280
     1
102
RTVSPost2010PropOp30
 70
     1
102
RTVSPost2010Prop31
280
     0
102
RTVSPost2010PropOp31
 70
     1
102
RTVSPost2010Prop32
280
     0
102
RTVSPost2010PropOp32
 70
     1
102
RTVSPost2010Prop33
280
     0
102
RTVSPost2010PropOp33
 70
     1
102
RTVSPost2010Prop34
280
     0
102
RTVSPost2010PropOp34
 70
     1
102
RTVSPost2010Prop35
280
     0
102
RTVSPost2010PropOp35
 70
     1
102
RTVSPost2010Prop36
280
     0
102
RTVSPost2010PropOp36
 70
     1
102
RTVSPost2010Prop37
 90
       50
102
RTVSPost2010PropOp37
 70
     1
102
RTVSPost2010Prop38
140
0.0
102
RTVSPost2010PropOp38
 70
     1
102
RTVSPost2010Prop39
140
1.0
102
RTVSPost2010PropOp39
 70
     1
102
RTVSPost2010Prop40
 90
        0
102
RTVSPost2010PropOp40
 70
     1
102
RTVSPost2010Prop41ColorIndex
 90
       18
102
RTVSPost2010Prop41ColorRGB
 90
        0
102
RTVSPost2010PropOp41
 70
     1
102
RTVSPost2010Prop42
 90
       50
102
RTVSPost2010PropOp42
 70
     1
102
RTVSPost2010Prop43
 90
        3
102
RTVSPost2010PropOp43
 70
     1
102
RTVSPost2010Prop44ColorIndex
 90
        5
102
RTVSPost2010Prop44ColorRGB
 90
      255
102
RTVSPost2010PropOp44
 70
     1
102
RTVSPost2010Prop45
280
     0
102
RTVSPost2010PropOp45
 70
     1
102
RTVSPost2010Prop46
 90
       50
102
RTVSPost2010PropOp46
 70
     1
102
RTVSPost2010Prop47
 90
       50
102
RTVSPost2010PropOp47
 70
     1
102
RTVSPost2010Prop48
 90
       50
102
RTVSPost2010PropOp48
 70
     1
102
RTVSPost2010Prop49
280
     0
102
RTVSPost2010PropOp49
 70
     1
102
RTVSPost2010Prop50
 90
       50
102
RTVSPost2010PropOp50
 70
     1
102
RTVSPost2010Prop51ColorIndex
 90
      256
102
RTVSPost2010Prop51ColorRGB
 90
-16777216
102
RTVSPost2010PropOp51
 70
     0
102
RTVSPost2010Prop52
140
1.0
102
RTVSPost2010PropOp52
 70
     0
102
RTVSPost2010Prop53
 90
        2
102
RTVSPost2010PropOp53
 70
     1
102
RTVSPost2010Prop54
  1
strokes_ogs.tif
102
RTVSPost2010PropOp54
 70
     1
102
RTVSPost2010Prop55
280
     0
102
RTVSPost2010PropOp55
 70
     1
102
RTVSPost2010Prop56
140
1.0
102
RTVSPost2010PropOp56
 70
     1
102
RTVSPost2010Prop57
140
1.0
102
RTVSPost2010PropOp57
 70
     1
102
RTVSPropertyOp0
 70
     1
102
RTVSPropertyOp1
 70
     1
102
RTVSPropertyOp2
 70
     1
102
RTVSPropertyOp3
 70
     1
102
RTVSPropertyOp4
 70
     1
102
RTVSPropertyOp5
 70
     1
102
RTVSPropertyOp6
 70
     1
102
RTVSPropertyOp7
 70
     1
102
RTVSPropertyOp8
 70
     1
102
RTVSPropertyOp9
 70
     1
102
RTVSPropertyOp10
 70
     1
102
RTVSPropertyOp11
 70
     1
102
RTVSPropertyOp12
 70
     1
102
RTVSPropertyOp13
 70
     1
102
RTVSPropertyOp14
 70
     1
102
RTVSPropertyOp15
 70
     1
102
RTVSPropertyOp16
 70
     1
102
RTVSPropertyOp17
 70
     1
102
RTVSPropertyOp18
 70
     1
102
RTVSPropertyOp19
 70
     1
102
RTVSPropertyOp20
 70
     1
102
RTVSPropertyOp21
 70
     1
102
RTVSPropertyOp22
 70
     1
102
RTVSPropertyOp23
 70
     1
102
RTVSPropertyOp24
 70
     1
102
RTVSPropertyOp25
 70
     1
102
RTVSPropertyOp26
 70
     1
102
RTVSPropertyOp27
 70
     1
102
RTVSPropertyOp28
 70
     1
102
RTVSPropertyOp29
 70
     1
102
RTVSPropertyOp30
 70
     1
102
RTVSPropertyOp31
 70
     1
102
RTVSPropertyOp32
 70
     1
102
RTVSPropertyOp33
 70
     1
102
RTVSPropertyOp34
 70
     1
102
RTVSPropertyOp35
 70
     1
102
RTVSPropertyOp36
 70
     1
102
RTVSPropertyOp37
 70
     1
102
RTVSPropertyOp38
 70
     1
102
RTVSPropertyOp39
 70
     1
102
RTVSPropertyOp40
 70
     1
102
RTVSPropertyOp41
 70
     1
102
RTVSPropertyOp42
 70
     1
102
RTVSPropertyOp43
 70
     1
102
RTVSPropertyOp44
 70
     1
102
RTVSPropertyOp45
 70
     1
102
RTVSPropertyOp46
 70
     1
102
RTVSPropertyOp47
 70
     1
102
RTVSPropertyOp48
 70
     1
102
RTVSPropertyOp49
 70
     1
102
RTVSPropertyOp50
 70
     1
102
RTVSPropertyOp51
 70
     0
102
RTVSPropertyOp52
 70
     0
102
RTVSPropertyOp53
 70
     1
102
RTVSPropertyOp54
 70
     1
102
RTVSPropertyOp55
 70
     1
102
RTVSPropertyOp56
 70
     1
102
RTVSPropertyOp57
 70
     1
102
RTVSPropertyOp58
 70
     1
102
RTVSPropertyOp59
 70
     1
102
RTVSPropertyOp60
 70
     1
102
RTVSPropertyOp61
 70
     1
102
RTVSPropertyOp62
 70
     1
  0
XRECORD
  5
B56
102
{ACAD_REACTORS
330
B55
102
}
330
B55
100
AcDbXrecord
280
     1
102
RTVSPost2010Prop28
280
     0
102
RTVSPost2010PropOp28
 70
     1
102
RTVSPost2010Prop29
280
     1
102
RTVSPost2010PropOp29
 70
     1
102
RTVSPost2010Prop30
280
     1
102
RTVSPost2010PropOp30
 70
     1
102
RTVSPost2010Prop31
280
     0
102
RTVSPost2010PropOp31
 70
     1
102
RTVSPost2010Prop32
280
     0
102
RTVSPost2010PropOp32
 70
     1
102
RTVSPost2010Prop33
280
     0
102
RTVSPost2010PropOp33
 70
     1
102
RTVSPost2010Prop34
280
     0
102
RTVSPost2010PropOp34
 70
     1
102
RTVSPost2010Prop35
280
     0
102
RTVSPost2010PropOp35
 70
     1
102
RTVSPost2010Prop36
280
     0
102
RTVSPost2010PropOp36
 70
     1
102
RTVSPost2010Prop37
 90
       50
102
RTVSPost2010PropOp37
 70
     1
102
RTVSPost2010Prop38
140
0.0
102
RTVSPost2010PropOp38
 70
     1
102
RTVSPost2010Prop39
140
1.0
102
RTVSPost2010PropOp39
 70
     1
102
RTVSPost2010Prop40
 90
        0
102
RTVSPost2010PropOp40
 70
     1
102
RTVSPost2010Prop41ColorIndex
 90
       18
102
RTVSPost2010Prop41ColorRGB
 90
        0
102
RTVSPost2010PropOp41
 70
     1
102
RTVSPost2010Prop42
 90
       50
102
RTVSPost2010PropOp42
 70
     1
102
RTVSPost2010Prop43
 90
        3
102
RTVSPost2010PropOp43
 70
     1
102
RTVSPost2010Prop44ColorIndex
 90
        5
102
RTVSPost2010Prop44ColorRGB
 90
      255
102
RTVSPost2010PropOp44
 70
     1
102
RTVSPost2010Prop45
280
     0
102
RTVSPost2010PropOp45
 70
     1
102
RTVSPost2010Prop46
 90
       50
102
RTVSPost2010PropOp46
 70
     1
102
RTVSPost2010Prop47
 90
       50
102
RTVSPost2010PropOp47
 70
     1
102
RTVSPost2010Prop48
 90
       50
102
RTVSPost2010PropOp48
 70
     1
102
RTVSPost2010Prop49
280
     0
102
RTVSPost2010PropOp49
 70
     1
102
RTVSPost2010Prop50
 90
       50
102
RTVSPost2010PropOp50
 70
     1
102
RTVSPost2010Prop51ColorIndex
 90
      256
102
RTVSPost2010Prop51ColorRGB
 90
-16777216
102
RTVSPost2010PropOp51
 70
     0
102
RTVSPost2010Prop52
140
1.0
102
RTVSPost2010PropOp52
 70
     0
102
RTVSPost2010Prop53
 90
        2
102
RTVSPost2010PropOp53
 70
     1
102
RTVSPost2010Prop54
  1
strokes_ogs.tif
102
RTVSPost2010PropOp54
 70
     1
102
RTVSPost2010Prop55
280
     0
102
RTVSPost2010PropOp55
 70
     1
102
RTVSPost2010Prop56
140
1.0
102
RTVSPost2010PropOp56
 70
     1
102
RTVSPost2010Prop57
140
1.0
102
RTVSPost2010PropOp57
 70
     1
102
RTVSPropertyOp0
 70
     1
102
RTVSPropertyOp1
 70
     1
102
RTVSPropertyOp2
 70
     1
102
RTVSPropertyOp3
 70
     1
102
RTVSPropertyOp4
 70
     1
102
RTVSPropertyOp5
 70
     1
102
RTVSPropertyOp6
 70
     1
102
RTVSPropertyOp7
 70
     1
102
RTVSPropertyOp8
 70
     1
102
RTVSPropertyOp9
 70
     1
102
RTVSPropertyOp10
 70
     1
102
RTVSPropertyOp11
 70
     1
102
RTVSPropertyOp12
 70
     1
102
RTVSPropertyOp13
 70
     1
102
RTVSPropertyOp14
 70
     1
102
RTVSPropertyOp15
 70
     1
102
RTVSPropertyOp16
 70
     1
102
RTVSPropertyOp17
 70
     1
102
RTVSPropertyOp18
 70
     1
102
RTVSPropertyOp19
 70
     1
102
RTVSPropertyOp20
 70
     1
102
RTVSPropertyOp21
 70
     1
102
RTVSPropertyOp22
 70
     1
102
RTVSPropertyOp23
 70
     1
102
RTVSPropertyOp24
 70
     1
102
RTVSPropertyOp25
 70
     1
102
RTVSPropertyOp26
 70
     1
102
RTVSPropertyOp27
 70
     1
102
RTVSPropertyOp28
 70
     1
102
RTVSPropertyOp29
 70
     1
102
RTVSPropertyOp30
 70
     1
102
RTVSPropertyOp31
 70
     1
102
RTVSPropertyOp32
 70
     1
102
RTVSPropertyOp33
 70
     1
102
RTVSPropertyOp34
 70
     1
102
RTVSPropertyOp35
 70
     1
102
RTVSPropertyOp36
 70
     1
102
RTVSPropertyOp37
 70
     1
102
RTVSPropertyOp38
 70
     1
102
RTVSPropertyOp39
 70
     1
102
RTVSPropertyOp40
 70
     1
102
RTVSPropertyOp41
 70
     1
102
RTVSPropertyOp42
 70
     1
102
RTVSPropertyOp43
 70
     1
102
RTVSPropertyOp44
 70
     1
102
RTVSPropertyOp45
 70
     1
102
RTVSPropertyOp46
 70
     1
102
RTVSPropertyOp47
 70
     1
102
RTVSPropertyOp48
 70
     1
102
RTVSPropertyOp49
 70
     1
102
RTVSPropertyOp50
 70
     1
102
RTVSPropertyOp51
 70
     0
102
RTVSPropertyOp52
 70
     0
102
RTVSPropertyOp53
 70
     1
102
RTVSPropertyOp54
 70
     1
102
RTVSPropertyOp55
 70
     1
102
RTVSPropertyOp56
 70
     1
102
RTVSPropertyOp57
 70
     1
102
RTVSPropertyOp58
 70
     1
102
RTVSPropertyOp59
 70
     1
102
RTVSPropertyOp60
 70
     1
102
RTVSPropertyOp61
 70
     1
102
RTVSPropertyOp62
 70
     1
  0
XRECORD
  5
B6E
102
{ACAD_REACTORS
330
B6D
102
}
330
B6D
100
AcDbXrecord
280
     1
102
RTVSPost2010Prop28
280
     0
102
RTVSPost2010PropOp28
 70
     1
102
RTVSPost2010Prop29
280
     1
102
RTVSPost2010PropOp29
 70
     1
102
RTVSPost2010Prop30
280
     1
102
RTVSPost2010PropOp30
 70
     1
102
RTVSPost2010Prop31
280
     0
102
RTVSPost2010PropOp31
 70
     1
102
RTVSPost2010Prop32
280
     0
102
RTVSPost2010PropOp32
 70
     1
102
RTVSPost2010Prop33
280
     0
102
RTVSPost2010PropOp33
 70
     1
102
RTVSPost2010Prop34
280
     0
102
RTVSPost2010PropOp34
 70
     1
102
RTVSPost2010Prop35
280
     0
102
RTVSPost2010PropOp35
 70
     1
102
RTVSPost2010Prop36
280
     0
102
RTVSPost2010PropOp36
 70
     1
102
RTVSPost2010Prop37
 90
       50
102
RTVSPost2010PropOp37
 70
     1
102
RTVSPost2010Prop38
140
0.0
102
RTVSPost2010PropOp38
 70
     1
102
RTVSPost2010Prop39
140
1.0
102
RTVSPost2010PropOp39
 70
     1
102
RTVSPost2010Prop40
 90
        0
102
RTVSPost2010PropOp40
 70
     1
102
RTVSPost2010Prop41ColorIndex
 90
       18
102
RTVSPost2010Prop41ColorRGB
 90
        0
102
RTVSPost2010PropOp41
 70
     1
102
RTVSPost2010Prop42
 90
       50
102
RTVSPost2010PropOp42
 70
     1
102
RTVSPost2010Prop43
 90
        3
102
RTVSPost2010PropOp43
 70
     1
102
RTVSPost2010Prop44ColorIndex
 90
        5
102
RTVSPost2010Prop44ColorRGB
 90
      255
102
RTVSPost2010PropOp44
 70
     1
102
RTVSPost2010Prop45
280
     0
102
RTVSPost2010PropOp45
 70
     1
102
RTVSPost2010Prop46
 90
       50
102
RTVSPost2010PropOp46
 70
     1
102
RTVSPost2010Prop47
 90
       50
102
RTVSPost2010PropOp47
 70
     1
102
RTVSPost2010Prop48
 90
       50
102
RTVSPost2010PropOp48
 70
     1
102
RTVSPost2010Prop49
280
     0
102
RTVSPost2010PropOp49
 70
     1
102
RTVSPost2010Prop50
 90
       50
102
RTVSPost2010PropOp50
 70
     1
102
RTVSPost2010Prop51ColorIndex
 90
      256
102
RTVSPost2010Prop51ColorRGB
 90
-16777216
102
RTVSPost2010PropOp51
 70
     0
102
RTVSPost2010Prop52
140
1.0
102
RTVSPost2010PropOp52
 70
     0
102
RTVSPost2010Prop53
 90
        2
102
RTVSPost2010PropOp53
 70
     1
102
RTVSPost2010Prop54
  1
strokes_ogs.tif
102
RTVSPost2010PropOp54
 70
     1
102
RTVSPost2010Prop55
280
     0
102
RTVSPost2010PropOp55
 70
     1
102
RTVSPost2010Prop56
140
1.0
102
RTVSPost2010PropOp56
 70
     1
102
RTVSPost2010Prop57
140
1.0
102
RTVSPost2010PropOp57
 70
     1
102
RTVSPropertyOp0
 70
     1
102
RTVSPropertyOp1
 70
     1
102
RTVSPropertyOp2
 70
     1
102
RTVSPropertyOp3
 70
     1
102
RTVSPropertyOp4
 70
     1
102
RTVSPropertyOp5
 70
     1
102
RTVSPropertyOp6
 70
     1
102
RTVSPropertyOp7
 70
     1
102
RTVSPropertyOp8
 70
     1
102
RTVSPropertyOp9
 70
     1
102
RTVSPropertyOp10
 70
     1
102
RTVSPropertyOp11
 70
     1
102
RTVSPropertyOp12
 70
     1
102
RTVSPropertyOp13
 70
     1
102
RTVSPropertyOp14
 70
     1
102
RTVSPropertyOp15
 70
     1
102
RTVSPropertyOp16
 70
     1
102
RTVSPropertyOp17
 70
     1
102
RTVSPropertyOp18
 70
     1
102
RTVSPropertyOp19
 70
     1
102
RTVSPropertyOp20
 70
     1
102
RTVSPropertyOp21
 70
     1
102
RTVSPropertyOp22
 70
     1
102
RTVSPropertyOp23
 70
     1
102
RTVSPropertyOp24
 70
     1
102
RTVSPropertyOp25
 70
     1
102
RTVSPropertyOp26
 70
     1
102
RTVSPropertyOp27
 70
     1
102
RTVSPropertyOp28
 70
     1
102
RTVSPropertyOp29
 70
     1
102
RTVSPropertyOp30
 70
     1
102
RTVSPropertyOp31
 70
     1
102
RTVSPropertyOp32
 70
     1
102
RTVSPropertyOp33
 70
     1
102
RTVSPropertyOp34
 70
     1
102
RTVSPropertyOp35
 70
     1
102
RTVSPropertyOp36
 70
     1
102
RTVSPropertyOp37
 70
     1
102
RTVSPropertyOp38
 70
     1
102
RTVSPropertyOp39
 70
     1
102
RTVSPropertyOp40
 70
     1
102
RTVSPropertyOp41
 70
     1
102
RTVSPropertyOp42
 70
     1
102
RTVSPropertyOp43
 70
     1
102
RTVSPropertyOp44
 70
     1
102
RTVSPropertyOp45
 70
     1
102
RTVSPropertyOp46
 70
     1
102
RTVSPropertyOp47
 70
     1
102
RTVSPropertyOp48
 70
     1
102
RTVSPropertyOp49
 70
     1
102
RTVSPropertyOp50
 70
     1
102
RTVSPropertyOp51
 70
     0
102
RTVSPropertyOp52
 70
     0
102
RTVSPropertyOp53
 70
     1
102
RTVSPropertyOp54
 70
     1
102
RTVSPropertyOp55
 70
     1
102
RTVSPropertyOp56
 70
     1
102
RTVSPropertyOp57
 70
     1
102
RTVSPropertyOp58
 70
     1
102
RTVSPropertyOp59
 70
     1
102
RTVSPropertyOp60
 70
     1
102
RTVSPropertyOp61
 70
     1
102
RTVSPropertyOp62
 70
     1
  0
ENDSEC
  0
EOF
