  0
SECTION
  2
HEADER
  9
$ACADVER
  1
AC1018
  9
$ACADMAINTVER
 70
     0
  9
$DWGCODEPAGE
  3
ANSI_932
  9
$INSBASE
 10
0.0
 20
0.0
 30
0.0
  9
$EXTMIN
 10
-152.9231647116876
 20
-219.3300033316834
 30
-0.0000152487762435
  9
$EXTMAX
 10
102.5120777059351
 20
-23.90459385622467
 30
0.0000610486609247
  9
$LIMMIN
 10
0.0
 20
0.0
  9
$LIMMAX
 10
420.0
 20
297.0
  9
$ORTHOMODE
 70
     0
  9
$REGENMODE
 70
     1
  9
$FILLMODE
 70
     1
  9
$QTEXTMODE
 70
     0
  9
$MIRRTEXT
 70
     1
  9
$LTSCALE
 40
1.0
  9
$ATTMODE
 70
     1
  9
$TEXTSIZE
 40
2.5
  9
$TRACEWID
 40
1.0
  9
$TEXTSTYLE
  7
STYLE3
  9
$CLAYER
  8
外形線
  9
$CELTYPE
  6
BYLAYER
  9
$CECOLOR
 62
   256
  9
$CELTSCALE
 40
1.0
  9
$DISPSILH
 70
     0
  9
$DIMSCALE
 40
1.0
  9
$DIMASZ
 40
2.5
  9
$DIMEXO
 40
0.0
  9
$DIMDLI
 40
3.75
  9
$DIMRND
 40
0.0
  9
$DIMDLE
 40
0.0
  9
$DIMEXE
 40
1.25
  9
$DIMTP
 40
0.0
  9
$DIMTM
 40
0.0
  9
$DIMTXT
 40
2.5
  9
$DIMCEN
 40
2.5
  9
$DIMTSZ
 40
0.0
  9
$DIMTOL
 70
     0
  9
$DIMLIM
 70
     0
  9
$DIMTIH
 70
     0
  9
$DIMTOH
 70
     0
  9
$DIMSE1
 70
     0
  9
$DIMSE2
 70
     0
  9
$DIMTAD
 70
     1
  9
$DIMZIN
 70
     8
  9
$DIMBLK
  1

  9
$DIMASO
 70
     1
  9
$DIMSHO
 70
     1
  9
$DIMPOST
  1

  9
$DIMAPOST
  1

  9
$DIMALT
 70
     0
  9
$DIMALTD
 70
     4
  9
$DIMALTF
 40
0.0394
  9
$DIMLFAC
 40
1.0
  9
$DIMTOFL
 70
     1
  9
$DIMTVP
 40
0.0
  9
$DIMTIX
 70
     0
  9
$DIMSOXD
 70
     0
  9
$DIMSAH
 70
     1
  9
$DIMBLK1
  1
OPEN
  9
$DIMBLK2
  1
OPEN
  9
$DIMSTYLE
  2
STYLE3
  9
$DIMCLRD
 70
     2
  9
$DIMCLRE
 70
     2
  9
$DIMCLRT
 70
     6
  9
$DIMTFAC
 40
1.0
  9
$DIMGAP
 40
0.625
  9
$DIMJUST
 70
     0
  9
$DIMSD1
 70
     0
  9
$DIMSD2
 70
     0
  9
$DIMTOLJ
 70
     1
  9
$DIMTZIN
 70
     0
  9
$DIMALTZ
 70
     0
  9
$DIMALTTZ
 70
     0
  9
$DIMUPT
 70
     0
  9
$DIMDEC
 70
     2
  9
$DIMTDEC
 70
     4
  9
$DIMALTU
 70
     8
  9
$DIMALTTD
 70
     4
  9
$DIMTXSTY
  7
STYLE3
  9
$DIMAUNIT
 70
     0
  9
$DIMADEC
 70
     0
  9
$DIMALTRND
 40
0.0
  9
$DIMAZIN
 70
     0
  9
$DIMDSEP
 70
    46
  9
$DIMATFIT
 70
     3
  9
$DIMFRAC
 70
     0
  9
$DIMLDRBLK
  1

  9
$DIMLUNIT
 70
     2
  9
$DIMLWD
 70
    -2
  9
$DIMLWE
 70
    -2
  9
$DIMTMOVE
 70
     0
  9
$LUNITS
 70
     2
  9
$LUPREC
 70
     4
  9
$SKETCHINC
 40
1.0
  9
$FILLETRAD
 40
0.0
  9
$AUNITS
 70
     0
  9
$AUPREC
 70
     0
  9
$MENU
  1
.
  9
$ELEVATION
 40
0.0
  9
$PELEVATION
 40
0.0
  9
$THICKNESS
 40
0.0
  9
$LIMCHECK
 70
     0
  9
$CHAMFERA
 40
0.3
  9
$CHAMFERB
 40
0.3
  9
$CHAMFERC
 40
20.0
  9
$CHAMFERD
 40
0.0
  9
$SKPOLY
 70
     0
  9
$TDCREATE
 40
2451400.687391204
  9
$TDUCREATE
 40
2451400.312391204
  9
$TDUPDATE
 40
2455371.352807431
  9
$TDUUPDATE
 40
2455370.977807431
  9
$TDINDWG
 40
0.2741099653
  9
$TDUSRTIMER
 40
0.2741099653
  9
$USRTIMER
 70
     1
  9
$ANGBASE
 50
0.0
  9
$ANGDIR
 70
     0
  9
$PDMODE
 70
     0
  9
$PDSIZE
 40
0.0
  9
$PLINEWID
 40
0.0
  9
$SPLFRAME
 70
     0
  9
$SPLINETYPE
 70
     6
  9
$SPLINESEGS
 70
     8
  9
$HANDSEED
  5
367E
  9
$SURFTAB1
 70
     6
  9
$SURFTAB2
 70
     6
  9
$SURFTYPE
 70
     6
  9
$SURFU
 70
     6
  9
$SURFV
 70
     6
  9
$UCSBASE
  2

  9
$UCSNAME
  2

  9
$UCSORG
 10
0.0
 20
0.0
 30
0.0
  9
$UCSXDIR
 10
1.0
 20
0.0
 30
0.0
  9
$UCSYDIR
 10
0.0
 20
1.0
 30
0.0
  9
$UCSORTHOREF
  2

  9
$UCSORTHOVIEW
 70
     0
  9
$UCSORGTOP
 10
0.0
 20
0.0
 30
0.0
  9
$UCSORGBOTTOM
 10
0.0
 20
0.0
 30
0.0
  9
$UCSORGLEFT
 10
0.0
 20
0.0
 30
0.0
  9
$UCSORGRIGHT
 10
0.0
 20
0.0
 30
0.0
  9
$UCSORGFRONT
 10
0.0
 20
0.0
 30
0.0
  9
$UCSORGBACK
 10
0.0
 20
0.0
 30
0.0
  9
$PUCSBASE
  2

  9
$PUCSNAME
  2

  9
$PUCSORG
 10
0.0
 20
0.0
 30
0.0
  9
$PUCSXDIR
 10
1.0
 20
0.0
 30
0.0
  9
$PUCSYDIR
 10
0.0
 20
1.0
 30
0.0
  9
$PUCSORTHOREF
  2

  9
$PUCSORTHOVIEW
 70
     0
  9
$PUCSORGTOP
 10
0.0
 20
0.0
 30
0.0
  9
$PUCSORGBOTTOM
 10
0.0
 20
0.0
 30
0.0
  9
$PUCSORGLEFT
 10
0.0
 20
0.0
 30
0.0
  9
$PUCSORGRIGHT
 10
0.0
 20
0.0
 30
0.0
  9
$PUCSORGFRONT
 10
0.0
 20
0.0
 30
0.0
  9
$PUCSORGBACK
 10
0.0
 20
0.0
 30
0.0
  9
$USERI1
 70
     0
  9
$USERI2
 70
     0
  9
$USERI3
 70
     0
  9
$USERI4
 70
     0
  9
$USERI5
 70
     0
  9
$USERR1
 40
0.0
  9
$USERR2
 40
0.0
  9
$USERR3
 40
0.0
  9
$USERR4
 40
0.0
  9
$USERR5
 40
0.0
  9
$WORLDVIEW
 70
     1
  9
$SHADEDGE
 70
     3
  9
$SHADEDIF
 70
    70
  9
$TILEMODE
 70
     1
  9
$MAXACTVP
 70
    48
  9
$PINSBASE
 10
0.0
 20
0.0
 30
0.0
  9
$PLIMCHECK
 70
     0
  9
$PEXTMIN
 10
-0.2
 20
-0.2
 30
0.0
  9
$PEXTMAX
 10
255.2
 20
195.2
 30
0.0
  9
$PLIMMIN
 10
0.0
 20
0.0
  9
$PLIMMAX
 10
420.0
 20
297.0
  9
$UNITMODE
 70
     0
  9
$VISRETAIN
 70
     1
  9
$PLINEGEN
 70
     0
  9
$PSLTSCALE
 70
     1
  9
$TREEDEPTH
 70
  3020
  9
$CMLSTYLE
  2
STANDARD
  9
$CMLJUST
 70
     0
  9
$CMLSCALE
 40
20.0
  9
$PROXYGRAPHICS
 70
     1
  9
$MEASUREMENT
 70
     1
  9
$CELWEIGHT
370
    -1
  9
$ENDCAPS
280
     0
  9
$JOINSTYLE
280
     0
  9
$LWDISPLAY
290
     0
  9
$INSUNITS
 70
     0
  9
$HYPERLINKBASE
  1

  9
$STYLESHEET
  1
monochrome.ctb
  9
$XEDIT
290
     1
  9
$CEPSNTYPE
380
     0
  9
$PSTYLEMODE
290
     1
  9
$FINGERPRINTGUID
  2
{2222DAA5-074A-49A3-AB81-D89594290796}
  9
$VERSIONGUID
  2
{B7D0B064-8B06-4DFA-A3C2-8607EDAAF11A}
  9
$EXTNAMES
290
     1
  9
$PSVPSCALE
 40
0.0
  9
$OLESTARTUP
290
     0
  9
$SORTENTS
280
   127
  9
$INDEXCTL
280
     0
  9
$HIDETEXT
280
     0
  9
$XCLIPFRAME
290
     0
  9
$HALOGAP
280
     0
  9
$OBSCOLOR
 70
   257
  9
$OBSLTYPE
280
     0
  9
$INTERSECTIONDISPLAY
280
     0
  9
$INTERSECTIONCOLOR
 70
   257
  9
$DIMASSOC
280
     1
  9
$PROJECTNAME
  1

  0
ENDSEC
  0
SECTION
  2
CLASSES
  0
CLASS
  1
HATCH
  2
AcDbHatch
  3
ObjectDBX Classes
 90
        0
 91
       25
280
     0
281
     1
  0
CLASS
  1
IMAGEDEF
  2
AcDbRasterImageDef
  3
ISM
 90
        0
 91
        1
280
     0
281
     0
  0
CLASS
  1
LWPOLYLINE
  2
AcDbPolyline
  3
ObjectDBX Classes
 90
        0
 91
       13
280
     0
281
     1
  0
CLASS
  1
ACDBDICTIONARYWDFLT
  2
AcDbDictionaryWithDefault
  3
ObjectDBX Classes
 90
        0
 91
        1
280
     0
281
     0
  0
CLASS
  1
TABLESTYLE
  2
AcDbTableStyle
  3
ObjectDBX Classes
 90
     2047
 91
        1
280
     0
281
     0
  0
CLASS
  1
DICTIONARYVAR
  2
AcDbDictionaryVar
  3
ObjectDBX Classes
 90
        0
 91
        1
280
     0
281
     0
  0
CLASS
  1
SORTENTSTABLE
  2
AcDbSortentsTable
  3
ObjectDBX Classes
 90
        0
 91
        1
280
     0
281
     0
  0
ENDSEC
  0
SECTION
  2
TABLES
  0
TABLE
  2
VPORT
  5
8
330
0
100
AcDbSymbolTable
 70
     2
  0
VPORT
  5
367D
330
8
100
AcDbSymbolTableRecord
100
AcDbViewportTableRecord
  2
*Active
 70
     0
 10
0.0
 20
0.0
 11
1.0
 21
1.0
 12
-25.20554350287626
 22
-121.617298593954
 13
0.0
 23
0.0
 14
10.0
 24
10.0
 15
10.0
 25
10.0
 16
0.0
 26
0.0
 36
1.0
 17
0.0
 27
0.0
 37
0.0
 40
196.9115342623444
 41
1.530456852791878
 42
50.0
 43
0.0
 44
0.0
 50
0.0
 51
0.0
 71
     0
 72
   100
 73
     1
 74
     1
 75
     0
 76
     0
 77
     0
 78
     0
281
     0
 65
     1
110
0.0
120
0.0
130
0.0
111
1.0
121
0.0
131
0.0
112
0.0
122
1.0
132
0.0
 79
     0
146
0.0
  0
ENDTAB
  0
TABLE
  2
LTYPE
  5
5
330
0
100
AcDbSymbolTable
 70
    12
  0
LTYPE
  5
12
330
5
100
AcDbSymbolTableRecord
100
AcDbLinetypeTableRecord
  2
BYBLOCK
 70
     0
  3

 72
    65
 73
     0
 40
0.0
  0
LTYPE
  5
13
330
5
100
AcDbSymbolTableRecord
100
AcDbLinetypeTableRecord
  2
BYLAYER
 70
     0
  3

 72
    65
 73
     0
 40
0.0
  0
LTYPE
  5
14
330
5
100
AcDbSymbolTableRecord
100
AcDbLinetypeTableRecord
  2
CONTINUOUS
 70
     0
  3
Solid line
 72
    65
 73
     0
 40
0.0
  0
LTYPE
  5
22
330
5
100
AcDbSymbolTableRecord
100
AcDbLinetypeTableRecord
  2
CENTER2
 70
     0
  3
Center (.5x) ___ _ ___ _ ___ _ ___ _ ___ _ ___
 72
    65
 73
     4
 40
28.575
 49
19.05
 74
     0
 49
-3.174999999999999
 74
     0
 49
3.174999999999999
 74
     0
 49
-3.174999999999999
 74
     0
  0
ENDTAB
  0
TABLE
  2
LAYER
  5
2
330
0
100
AcDbSymbolTable
 70
    16
  0
LAYER
  5
E
330
2
100
AcDbSymbolTableRecord
100
AcDbLayerTableRecord
  2
0
 70
     0
 62
     7
  6
CONTINUOUS
370
    -3
390
235A
  0
LAYER
  5
25
330
2
100
AcDbSymbolTableRecord
100
AcDbLayerTableRecord
  2
外形線
 70
     0
 62
     7
  6
CONTINUOUS
370
    -3
390
235A
  0
LAYER
  5
27
330
2
100
AcDbSymbolTableRecord
100
AcDbLayerTableRecord
  2
中心線
 70
     0
 62
     4
  6
CENTER2
370
    -3
390
235A
  0
LAYER
  5
2B
330
2
100
AcDbSymbolTableRecord
100
AcDbLayerTableRecord
  2
文字
 70
     0
 62
     6
  6
CONTINUOUS
370
    -3
390
235A
  0
LAYER
  5
2C
330
2
100
AcDbSymbolTableRecord
100
AcDbLayerTableRecord
  2
目盛
 70
     0
 62
    70
  6
CONTINUOUS
370
    -3
390
235A
  0
LAYER
  5
2D
330
2
100
AcDbSymbolTableRecord
100
AcDbLayerTableRecord
  2
針
 70
     0
 62
     5
  6
CONTINUOUS
370
    -3
390
235A
  0
LAYER
  5
53
330
2
100
AcDbSymbolTableRecord
100
AcDbLayerTableRecord
  2
DEFPOINTS
 70
     0
 62
     7
  6
CONTINUOUS
290
     0
370
    -3
390
235A
  0
LAYER
  5
A5
330
2
100
AcDbSymbolTableRecord
100
AcDbLayerTableRecord
  2
C
 70
     0
 62
     7
  6
CONTINUOUS
370
    -3
390
235A
  0
LAYER
  5
306
330
2
100
AcDbSymbolTableRecord
100
AcDbLayerTableRecord
  2
ROGO
 70
     0
 62
     6
  6
CONTINUOUS
370
    -3
390
235A
  0
ENDTAB
  0
TABLE
  2
STYLE
  5
3
330
0
100
AcDbSymbolTable
 70
     6
  0
STYLE
  5
F
330
3
100
AcDbSymbolTableRecord
100
AcDbTextStyleTableRecord
  2
STANDARD
 70
     0
 40
0.0
 41
1.0
 50
0.0
 71
     0
 42
2.5
  3
txt
  4

  0
STYLE
  5
3F
330
3
100
AcDbSymbolTableRecord
100
AcDbTextStyleTableRecord
  2
STYLE3
 70
     0
 40
0.0
 41
1.0
 50
0.0
 71
     0
 42
2.5
  3
romans.shx
  4
bigfont.shx
  0
ENDTAB
  0
TABLE
  2
VIEW
  5
6
330
0
100
AcDbSymbolTable
 70
     0
  0
ENDTAB
  0
TABLE
  2
UCS
  5
7
330
0
100
AcDbSymbolTable
 70
     0
  0
ENDTAB
  0
TABLE
  2
APPID
  5
9
330
0
100
AcDbSymbolTable
 70
     2
  0
APPID
  5
10
330
9
100
AcDbSymbolTableRecord
100
AcDbRegAppTableRecord
  2
ACAD
 70
     0
  0
APPID
  5
2400
330
9
100
AcDbSymbolTableRecord
100
AcDbRegAppTableRecord
  2
ACAD_PSEXT
 70
     0
  0
ENDTAB
  0
TABLE
  2
DIMSTYLE
  5
A
330
0
100
AcDbSymbolTable
 70
     7
100
AcDbDimStyleTable
 71
     1
340
8F
  0
DIMSTYLE
105
1D
330
A
100
AcDbSymbolTableRecord
100
AcDbDimStyleTableRecord
  2
STANDARD
 70
     0
 41
2.5
 42
0.625
 43
3.75
 44
1.25
 73
     0
 74
     0
 77
     1
 78
     8
140
2.5
141
2.5
143
0.0394
147
0.625
171
     4
172
     1
273
     8
274
     4
277
     6
340
F
  0
DIMSTYLE
105
8F
102
{ACAD_REACTORS
330
17C0
330
17CC
330
1B62
330
1A2D
330
35C7
102
}
330
A
100
AcDbSymbolTableRecord
100
AcDbDimStyleTableRecord
  2
STYLE3
 70
     0
 41
2.5
 42
0.0
 43
3.75
 44
1.25
 73
     0
 74
     0
 77
     1
 78
     8
140
2.5
141
2.5
143
0.0394
147
0.625
171
     4
172
     1
173
     1
176
     2
177
     2
178
     6
271
     1
273
     8
274
     4
340
3F
341
45
343
45
344
45
  0
ENDTAB
  0
TABLE
  2
BLOCK_RECORD
  5
1
330
0
100
AcDbSymbolTable
 70
    29
  0
BLOCK_RECORD
  5
18
102
{ACAD_XDICTIONARY
360
2CD0
102
}
330
1
100
AcDbSymbolTableRecord
100
AcDbBlockTableRecord
  2
*MODEL_SPACE
340
2361
  0
BLOCK_RECORD
  5
15
330
1
100
AcDbSymbolTableRecord
100
AcDbBlockTableRecord
  2
*PAPER_SPACE
340
2362
  0
BLOCK_RECORD
  5
45
330
1
100
AcDbSymbolTableRecord
100
AcDbBlockTableRecord
  2
_OPEN
340
0
102
{BLKREFS
331
17E8
331
17E9
331
1AF4
331
1AF5
331
1C0D
331
1C0E
331
1C19
331
1C1A
331
1C25
331
1C26
331
1C31
331
1C3C
331
1C3D
331
1C48
331
1C49
331
1C56
331
1C57
331
1C99
331
1CCB
331
1CCD
331
1CDE
331
1DAC
331
1DC6
331
1E67
331
1E86
331
1E8A
331
1EA6
331
1EA8
331
1EC2
331
1EC4
331
1EC5
331
1EC6
331
1ECC
331
1ED5
331
1ED6
331
1ED7
331
1EDA
331
1EDB
331
1EE7
331
1EE8
331
1F3C
331
353A
331
353B
331
3542
331
3543
331
354B
331
354C
331
3554
331
3555
331
3562
331
3563
331
356B
331
356C
331
357A
331
357B
331
3582
331
3583
331
358B
331
358C
331
3594
331
3595
331
359F
331
35A0
331
35A8
331
35A9
331
35B0
331
35B6
331
35B7
331
35C1
331
35C2
331
35E0
331
35E1
102
}
  0
BLOCK_RECORD
  5
17B4
330
1
100
AcDbSymbolTableRecord
100
AcDbBlockTableRecord
  2
*D1
340
0
  0
BLOCK_RECORD
  5
17C1
330
1
100
AcDbSymbolTableRecord
100
AcDbBlockTableRecord
  2
*D2
340
0
  0
BLOCK_RECORD
  5
1A83
330
1
100
AcDbSymbolTableRecord
100
AcDbBlockTableRecord
  2
*D3
340
0
  0
BLOCK_RECORD
  5
1B56
330
1
100
AcDbSymbolTableRecord
100
AcDbBlockTableRecord
  2
*D4
340
0
  0
BLOCK_RECORD
  5
35C8
330
1
100
AcDbSymbolTableRecord
100
AcDbBlockTableRecord
  2
*D27
340
0
  0
ENDTAB
  0
ENDSEC
  0
SECTION
  2
BLOCKS
  0
BLOCK
  5
19
330
18
100
AcDbEntity
  8
0
100
AcDbBlockBegin
  2
*MODEL_SPACE
 70
     0
 10
0.0
 20
0.0
 30
0.0
  3
*MODEL_SPACE
  1

  0
ENDBLK
  5
1A
330
18
100
AcDbEntity
  8
0
100
AcDbBlockEnd
  0
BLOCK
  5
16
330
15
100
AcDbEntity
 67
     1
  8
0
100
AcDbBlockBegin
  2
*PAPER_SPACE
 70
     0
 10
0.0
 20
0.0
 30
0.0
  3
*PAPER_SPACE
  1

  0
ENDBLK
  5
17
330
15
100
AcDbEntity
 67
     1
  8
0
100
AcDbBlockEnd
  0
BLOCK
  5
46
330
45
100
AcDbEntity
  8
0
100
AcDbBlockBegin
  2
_OPEN
 70
     0
 10
0.0
 20
0.0
 30
0.0
  3
_OPEN
  1

  0
LINE
  5
47
330
45
100
AcDbEntity
  8
0
  6
ByBlock
 62
     0
100
AcDbLine
 10
-1.0
 20
0.1666666666666666
 30
0.0
 11
0.0
 21
0.0
 31
0.0
  0
LINE
  5
48
330
45
100
AcDbEntity
  8
0
  6
ByBlock
 62
     0
100
AcDbLine
 10
0.0
 20
0.0
 30
0.0
 11
-1.0
 21
-0.1666666666666666
 31
0.0
  0
LINE
  5
49
330
45
100
AcDbEntity
  8
0
  6
ByBlock
 62
     0
100
AcDbLine
 10
0.0
 20
0.0
 30
0.0
 11
-1.0
 21
0.0
 31
0.0
  0
ENDBLK
  5
4A
330
45
100
AcDbEntity
  8
0
100
AcDbBlockEnd
  0
BLOCK
  5
17B5
330
17B4
100
AcDbEntity
  8
0
100
AcDbBlockBegin
  2
*D1
 70
     1
 10
0.0
 20
0.0
 30
0.0
  3
*D1
  1

  0
LINE
  5
3537
330
17B4
100
AcDbEntity
  8
外形線
 62
     2
370
    -2
100
AcDbLine
 10
-47.98192117669998
 20
-45.58632437305743
 30
0.0
 11
-111.5761728463829
 21
-45.58632437305742
 31
0.0
  0
LINE
  5
3538
330
17B4
100
AcDbEntity
  8
外形線
 62
     2
370
    -2
100
AcDbLine
 10
-79.80632171295633
 20
-96.08632437305743
 30
0.0
 11
-111.5761728463829
 21
-96.08632437305743
 31
0.0
  0
LINE
  5
3539
330
17B4
100
AcDbEntity
  8
外形線
 62
     2
370
    -2
100
AcDbLine
 10
-110.3261728463829
 20
-48.08632437305742
 30
0.0
 11
-110.3261728463829
 21
-93.58632437305741
 31
0.0
  0
INSERT
  5
353A
330
17B4
100
AcDbEntity
  8
外形線
 62
     2
370
    -2
100
AcDbBlockReference
  2
_OPEN
 10
-110.3261728463829
 20
-45.58632437305742
 30
0.0
 41
2.5
 42
2.5
 43
2.5
 50
90.0
  0
INSERT
  5
353B
330
17B4
100
AcDbEntity
  8
外形線
 62
     2
370
    -2
100
AcDbBlockReference
  2
_OPEN
 10
-110.3261728463829
 20
-96.08632437305743
 30
0.0
 41
2.5
 42
2.5
 43
2.5
 50
270.0
  0
MTEXT
  5
353C
330
17B4
100
AcDbEntity
  8
外形線
 62
     6
100
AcDbMText
 10
-112.2011728463829
 20
-70.83632437305744
 30
0.0
 40
2.5
 41
0.0
 71
     5
 72
     1
  1
\A1;50.5
  7
STYLE3
 11
0.0000000000000001
 21
1.0
 31
0.0
 73
     1
 44
1.0
  0
POINT
  5
353D
330
17B4
100
AcDbEntity
  8
DEFPOINTS
 62
     0
100
AcDbPoint
 10
-47.98192117669998
 20
-45.58632437305743
 30
0.0
  0
POINT
  5
353E
330
17B4
100
AcDbEntity
  8
DEFPOINTS
 62
     0
100
AcDbPoint
 10
-79.80632171295633
 20
-96.08632437305743
 30
0.0
  0
POINT
  5
353F
330
17B4
100
AcDbEntity
  8
DEFPOINTS
 62
     0
100
AcDbPoint
 10
-110.3261728463829
 20
-96.08632437305743
 30
0.0
  0
ENDBLK
  5
17BF
330
17B4
100
AcDbEntity
  8
0
100
AcDbBlockEnd
  0
BLOCK
  5
17C2
330
17C1
100
AcDbEntity
  8
0
100
AcDbBlockBegin
  2
*D2
 70
     1
 10
0.0
 20
0.0
 30
0.0
  3
*D2
  1

  0
LINE
  5
3540
330
17C1
100
AcDbEntity
  8
外形線
 62
     2
370
    -2
100
AcDbLine
 10
-97.98192117669998
 20
-159.5863243730574
 30
0.0
 11
-111.5761728463829
 21
-159.5863243730574
 31
0.0
  0
LINE
  5
3541
330
17C1
100
AcDbEntity
  8
外形線
 62
     2
370
    -2
100
AcDbLine
 10
-110.3261728463829
 20
-98.58632437305743
 30
0.0
 11
-110.3261728463829
 21
-157.0863243730574
 31
0.0
  0
INSERT
  5
3542
330
17C1
100
AcDbEntity
  8
外形線
 62
     2
370
    -2
100
AcDbBlockReference
  2
_OPEN
 10
-110.3261728463829
 20
-96.08632437305743
 30
0.0
 41
2.5
 42
2.5
 43
2.5
 50
90.0
  0
INSERT
  5
3543
330
17C1
100
AcDbEntity
  8
外形線
 62
     2
370
    -2
100
AcDbBlockReference
  2
_OPEN
 10
-110.3261728463829
 20
-159.5863243730574
 30
0.0
 41
2.5
 42
2.5
 43
2.5
 50
270.0
  0
MTEXT
  5
3544
330
17C1
100
AcDbEntity
  8
外形線
 62
     6
100
AcDbMText
 10
-112.2011728463829
 20
-127.8363243730574
 30
0.0
 40
2.5
 41
0.0
 71
     5
 72
     1
  1
\A1;63.5
  7
STYLE3
 11
0.0000000000000001
 21
1.0
 31
0.0
 73
     1
 44
1.0
  0
POINT
  5
3545
330
17C1
100
AcDbEntity
  8
DEFPOINTS
 62
     0
100
AcDbPoint
 10
-79.80632171295633
 20
-96.08632437305743
 30
0.0
  0
POINT
  5
3546
330
17C1
100
AcDbEntity
  8
DEFPOINTS
 62
     0
100
AcDbPoint
 10
-97.98192117669998
 20
-159.5863243730574
 30
0.0
  0
POINT
  5
3547
330
17C1
100
AcDbEntity
  8
DEFPOINTS
 62
     0
100
AcDbPoint
 10
-110.3261728463829
 20
-159.5863243730574
 30
0.0
  0
ENDBLK
  5
17CB
330
17C1
100
AcDbEntity
  8
0
100
AcDbBlockEnd
  0
BLOCK
  5
1AB9
330
1A83
100
AcDbEntity
  8
0
100
AcDbBlockBegin
  2
*D3
 70
     1
 10
0.0
 20
0.0
 30
0.0
  3
*D3
  1

  0
LINE
  5
3548
330
1A83
100
AcDbEntity
  8
外形線
 62
     2
370
    -2
100
AcDbLine
 10
47.19784118242171
 20
-159.5863243730574
 30
0.0
 11
47.19784118242171
 21
-190.5374065689513
 31
0.0
  0
LINE
  5
3549
330
1A83
100
AcDbEntity
  8
外形線
 62
     2
370
    -2
100
AcDbLine
 10
58.19784118242165
 20
-159.5863243730574
 30
0.0
 11
58.19784118242165
 21
-190.5374065689513
 31
0.0
  0
LINE
  5
354A
330
1A83
100
AcDbEntity
  8
外形線
 62
     2
370
    -2
100
AcDbLine
 10
49.69784118242171
 20
-189.2874065689513
 30
0.0
 11
55.69784118242165
 21
-189.2874065689513
 31
0.0
  0
INSERT
  5
354B
330
1A83
100
AcDbEntity
  8
外形線
 62
     2
370
    -2
100
AcDbBlockReference
  2
_OPEN
 10
47.19784118242171
 20
-189.2874065689513
 30
0.0
 41
2.5
 42
2.5
 43
2.5
 50
180.0
  0
INSERT
  5
354C
330
1A83
100
AcDbEntity
  8
外形線
 62
     2
370
    -2
100
AcDbBlockReference
  2
_OPEN
 10
58.19784118242165
 20
-189.2874065689513
 30
0.0
 41
2.5
 42
2.5
 43
2.5
  0
MTEXT
  5
354D
330
1A83
100
AcDbEntity
  8
外形線
 62
     6
100
AcDbMText
 10
52.69784118242168
 20
-187.4124065689513
 30
0.0
 40
2.5
 41
0.0
 71
     5
 72
     1
  1
\A1;11
  7
STYLE3
 73
     1
 44
1.0
  0
POINT
  5
354E
330
1A83
100
AcDbEntity
  8
DEFPOINTS
 62
     0
100
AcDbPoint
 10
47.19784118242171
 20
-159.5863243730574
 30
0.0
  0
POINT
  5
354F
330
1A83
100
AcDbEntity
  8
DEFPOINTS
 62
     0
100
AcDbPoint
 10
58.19784118242165
 20
-159.5863243730574
 30
0.0
  0
POINT
  5
3550
330
1A83
100
AcDbEntity
  8
DEFPOINTS
 62
     0
100
AcDbPoint
 10
58.19784118242165
 20
-189.2874065689513
 30
0.0
  0
ENDBLK
  5
1AC3
330
1A83
100
AcDbEntity
  8
0
100
AcDbBlockEnd
  0
BLOCK
  5
1B57
330
1B56
100
AcDbEntity
  8
0
100
AcDbBlockBegin
  2
*D4
 70
     1
 10
0.0
 20
0.0
 30
0.0
  3
*D4
  1

  0
LINE
  5
3551
330
1B56
100
AcDbEntity
  8
外形線
 62
     2
370
    -2
100
AcDbLine
 10
-47.98192117669998
 20
-45.58632437305743
 30
0.0
 11
-121.962908795771
 21
-45.58632437305741
 31
0.0
  0
LINE
  5
3552
330
1B56
100
AcDbEntity
  8
外形線
 62
     2
370
    -2
100
AcDbLine
 10
-47.98192117669998
 20
-179.6863243730574
 30
0.0
 11
-121.962908795771
 21
-179.6863243730574
 31
0.0
  0
LINE
  5
3553
330
1B56
100
AcDbEntity
  8
外形線
 62
     2
370
    -2
100
AcDbLine
 10
-120.7129087957709
 20
-48.08632437305741
 30
0.0
 11
-120.712908795771
 21
-177.1863243730574
 31
0.0
  0
INSERT
  5
3554
330
1B56
100
AcDbEntity
  8
外形線
 62
     2
370
    -2
100
AcDbBlockReference
  2
_OPEN
 10
-120.7129087957709
 20
-45.58632437305741
 30
0.0
 41
2.5
 42
2.5
 43
2.5
 50
90.0
  0
INSERT
  5
3555
330
1B56
100
AcDbEntity
  8
外形線
 62
     2
370
    -2
100
AcDbBlockReference
  2
_OPEN
 10
-120.712908795771
 20
-179.6863243730574
 30
0.0
 41
2.5
 42
2.5
 43
2.5
 50
270.0
  0
MTEXT
  5
3556
330
1B56
100
AcDbEntity
  8
外形線
 62
     6
100
AcDbMText
 10
-122.5879087957709
 20
-112.6363243730574
 30
0.0
 40
2.5
 41
0.0
 71
     5
 72
     1
  1
\A1;134.1
  7
STYLE3
 11
0.0000000000000001
 21
1.0
 31
0.0
 73
     1
 44
1.0
  0
POINT
  5
3557
330
1B56
100
AcDbEntity
  8
DEFPOINTS
 62
     0
100
AcDbPoint
 10
-47.98192117669998
 20
-45.58632437305743
 30
0.0
  0
POINT
  5
3558
330
1B56
100
AcDbEntity
  8
DEFPOINTS
 62
     0
100
AcDbPoint
 10
-47.98192117669998
 20
-179.6863243730574
 30
0.0
  0
POINT
  5
3559
330
1B56
100
AcDbEntity
  8
DEFPOINTS
 62
     0
100
AcDbPoint
 10
-120.712908795771
 20
-179.6863243730574
 30
0.0
  0
ENDBLK
  5
1B61
330
1B56
100
AcDbEntity
  8
0
100
AcDbBlockEnd
  0
BLOCK
  5
35D2
330
35C8
100
AcDbEntity
  8
0
100
AcDbBlockBegin
  2
*D27
 70
     1
 10
0.0
 20
0.0
 30
0.0
  3
*D27
  1

  0
LINE
  5
35DD
330
35C8
100
AcDbEntity
  8
外形線
 62
     2
370
    -2
100
AcDbLine
 10
44.29784118242167
 20
-68.58632437305726
 30
0.0
 11
26.93083918812199
 21
-68.58632437305725
 31
0.0
  0
LINE
  5
35DE
330
35C8
100
AcDbEntity
  8
外形線
 62
     2
370
    -2
100
AcDbLine
 10
43.25582094488431
 20
-123.5863243730576
 30
0.0
 11
26.93083918812198
 21
-123.5863243730576
 31
0.0
  0
LINE
  5
35DF
330
35C8
100
AcDbEntity
  8
外形線
 62
     2
370
    -2
100
AcDbLine
 10
28.18083918812199
 20
-71.08632437305725
 30
0.0
 11
28.18083918812198
 21
-121.0863243730576
 31
0.0
  0
INSERT
  5
35E0
330
35C8
100
AcDbEntity
  8
外形線
 62
     2
370
    -2
100
AcDbBlockReference
  2
_OPEN
 10
28.18083918812199
 20
-68.58632437305725
 30
0.0
 41
2.5
 42
2.5
 43
2.5
 50
90.0
  0
INSERT
  5
35E1
330
35C8
100
AcDbEntity
  8
外形線
 62
     2
370
    -2
100
AcDbBlockReference
  2
_OPEN
 10
28.18083918812198
 20
-123.5863243730576
 30
0.0
 41
2.5
 42
2.5
 43
2.5
 50
270.0
  0
MTEXT
  5
35E2
330
35C8
100
AcDbEntity
  8
外形線
 62
     6
100
AcDbMText
 10
26.305839188122
 20
-96.08632437305743
 30
0.0
 40
2.5
 41
0.0
 71
     5
 72
     1
  1
\A1;φ55
  7
STYLE3
 11
0.0000000000000001
 21
1.0
 31
0.0
 73
     1
 44
1.0
  0
POINT
  5
35E3
330
35C8
100
AcDbEntity
  8
DEFPOINTS
 62
     0
100
AcDbPoint
 10
44.29784118242167
 20
-68.58632437305726
 30
0.0
  0
POINT
  5
35E4
330
35C8
100
AcDbEntity
  8
DEFPOINTS
 62
     0
100
AcDbPoint
 10
43.25582094488431
 20
-123.5863243730576
 30
0.0
  0
POINT
  5
35E5
330
35C8
100
AcDbEntity
  8
DEFPOINTS
 62
     0
100
AcDbPoint
 10
28.18083918812198
 20
-123.5863243730576
 30
0.0
  0
ENDBLK
  5
35D3
330
35C8
100
AcDbEntity
  8
0
100
AcDbBlockEnd
  0
ENDSEC
  0
SECTION
  2
ENTITIES
  0
LINE
  5
304
330
18
100
AcDbEntity
  8
中心線
100
AcDbLine
 10
-79.80632171295633
 20
-96.08632437305743
 30
0.0
 11
-16.02620938677467
 21
-96.08632437305743
 31
0.0
  0
LINE
  5
305
330
18
100
AcDbEntity
  8
中心線
100
AcDbLine
 10
-47.98192117669998
 20
-42.51914041034052
 30
0.0
 11
-47.98192117669998
 21
-181.4996458922743
 31
0.0
  0
MTEXT
  5
663
330
18
100
AcDbEntity
  8
DEFPOINTS
  6
Continuous
100
AcDbMText
 10
1007.302375181315
 20
334.9201117568839
 30
0.0
 40
1.0
 41
0.0
 71
     4
 72
     1
  1
\A1;
 73
     1
 44
1.0
  0
MTEXT
  5
6BC
330
18
100
AcDbEntity
  8
文字
100
AcDbMText
 10
574.4415847393145
 20
360.9980939951181
 30
0.0
 40
1.0
 41
6.927999999999999
 71
     1
 72
     5
  1

  7
STYLE3
 73
     1
 44
1.0
  0
MTEXT
  5
71B
330
18
100
AcDbEntity
  8
DEFPOINTS
  6
Continuous
100
AcDbMText
 10
896.177394394456
 20
284.2456452825689
 30
0.0
 40
0.35
 41
0.0
 71
     4
 72
     1
  1
\A1;
 73
     1
 44
1.0
  0
LINE
  5
8EC
330
18
100
AcDbEntity
  8
外形線
100
AcDbLine
 10
-97.98192117669998
 20
-159.5863243730574
 30
0.0
 11
2.018078823300015
 21
-159.5863243730574
 31
0.0
  0
LINE
  5
92B
330
18
100
AcDbEntity
  8
外形線
100
AcDbLine
 10
-97.98192117669998
 20
-151.5863243730574
 30
0.0
 11
-97.98192117669998
 21
-159.5863243730574
 31
0.0
  0
LINE
  5
92C
330
18
100
AcDbEntity
  8
外形線
100
AcDbLine
 10
2.018078823300015
 20
-151.5863243730574
 30
0.0
 11
2.018078823300015
 21
-159.5863243730574
 31
0.0
  0
LINE
  5
92D
330
18
100
AcDbEntity
  8
外形線
100
AcDbLine
 10
-58.98192117669998
 20
-123.5863243730574
 30
0.0
 11
-58.98192117669998
 21
-137.5863243730574
 31
0.0
  0
LINE
  5
92E
330
18
100
AcDbEntity
  8
外形線
100
AcDbLine
 10
-36.98192117669999
 20
-123.5863243730574
 30
0.0
 11
-36.98192117669999
 21
-137.5863243730574
 31
0.0
  0
LINE
  5
92F
330
18
100
AcDbEntity
  8
外形線
100
AcDbLine
 10
-26.98192117669999
 20
-147.5863243730574
 30
0.0
 11
-1.981921176699984
 21
-147.5863243730574
 31
0.0
  0
ARC
  5
930
330
18
100
AcDbEntity
  8
外形線
100
AcDbCircle
 10
-1.981921176699984
 20
-151.5863243730574
 30
0.0
 40
4.0
100
AcDbArc
 50
0.0
 51
90.0
  0
ARC
  5
931
330
18
100
AcDbEntity
  8
外形線
100
AcDbCircle
 10
-93.98192117669998
 20
-151.5863243730574
 30
0.0
 40
4.0
100
AcDbArc
 50
90.0
 51
180.0
  0
ARC
  5
932
330
18
100
AcDbEntity
  8
外形線
100
AcDbCircle
 10
-26.98192117669999
 20
-137.5863243730574
 30
0.0
 40
10.0
100
AcDbArc
 50
180.0
 51
270.0
  0
LINE
  5
933
330
18
100
AcDbEntity
  8
外形線
100
AcDbLine
 10
-93.98192117669998
 20
-147.5863243730574
 30
0.0
 11
-68.98192117669998
 21
-147.5863243730574
 31
0.0
  0
ARC
  5
934
330
18
100
AcDbEntity
  8
外形線
100
AcDbCircle
 10
-68.98192117669998
 20
-137.5863243730574
 30
0.0
 40
10.0
100
AcDbArc
 50
270.0
 51
0.0
  0
LINE
  5
941
330
18
100
AcDbEntity
  8
外形線
100
AcDbLine
 10
-57.34051282964031
 20
-121.9449160259977
 30
0.0
 11
-58.98192117669998
 21
-123.5863243730574
 31
0.0
  0
LINE
  5
942
330
18
100
AcDbEntity
  8
外形線
100
AcDbLine
 10
-38.62332952375965
 20
-121.9449160259977
 30
0.0
 11
-36.98192117669999
 21
-123.5863243730574
 31
0.0
  0
LINE
  5
943
330
18
100
AcDbEntity
  8
中心線
100
AcDbLine
 10
-64.40385614517947
 20
-128.5863243730574
 30
0.0
 11
-31.5599862082205
 21
-128.5863243730574
 31
0.0
  0
LINE
  5
944
330
18
100
AcDbEntity
  8
中心線
100
AcDbLine
 10
-54.98192117669998
 20
-124.5038760536813
 30
0.0
 11
-54.98192117669998
 21
-137.5396397207865
 31
0.0
  0
LINE
  5
945
330
18
100
AcDbEntity
  8
中心線
100
AcDbLine
 10
-40.98192117669998
 20
-123.9862605615782
 30
0.0
 11
-40.98192117669998
 21
-137.1688366179657
 31
0.0
  0
CIRCLE
  5
952
330
18
100
AcDbEntity
  8
外形線
100
AcDbCircle
 10
-54.98192117669998
 20
-128.5863243730574
 30
0.0
 40
3.0
  0
CIRCLE
  5
954
330
18
100
AcDbEntity
  8
外形線
100
AcDbCircle
 10
-40.98192117669998
 20
-128.5863243730574
 30
0.0
 40
3.0
  0
MTEXT
  5
F85
330
18
100
AcDbEntity
  8
DEFPOINTS
  6
Continuous
100
AcDbMText
 10
1282.127955172733
 20
405.3523473174202
 30
0.0
 40
1.0
 41
0.0
 71
     4
 72
     1
  1
\A1;
 73
     1
 44
1.0
  0
MTEXT
  5
F86
330
18
100
AcDbEntity
  8
文字
100
AcDbMText
 10
849.2671647307329
 20
431.4303295556544
 30
0.0
 40
1.0
 41
6.927999999999999
 71
     1
 72
     5
  1

  7
STYLE3
 73
     1
 44
1.0
  0
MTEXT
  5
F87
330
18
100
AcDbEntity
  8
DEFPOINTS
  6
Continuous
100
AcDbMText
 10
1171.002974385874
 20
354.6778808431052
 30
0.0
 40
0.35
 41
0.0
 71
     4
 72
     1
  1
\A1;
 73
     1
 44
1.0
  0
LINE
  5
F96
330
18
100
AcDbEntity
  8
外形線
100
AcDbLine
 10
-46.73192117669998
 20
-161.1863243730574
 30
0.0
 11
-47.98192117669998
 21
-161.1863243730574
 31
0.0
  0
LINE
  5
F97
330
18
100
AcDbEntity
  8
外形線
100
AcDbLine
 10
-45.5413171598758
 20
-166.1863243730573
 30
0.0
 11
-47.98192117669998
 21
-166.1863243730574
 31
0.0
  0
LINE
  5
F98
330
18
100
AcDbEntity
  8
外形線
100
AcDbLine
 10
-45.48192117669998
 20
-166.6863243730574
 30
0.0
 11
-47.98192117669998
 21
-166.6863243730574
 31
0.0
  0
LINE
  5
F99
330
18
100
AcDbEntity
  8
外形線
100
AcDbLine
 10
-46.13192117669996
 20
-178.3863243730574
 30
0.0
 11
-46.43192117670003
 21
-178.3863243730574
 31
0.0
  0
LINE
  5
F9A
330
18
100
AcDbEntity
  8
外形線
100
AcDbLine
 10
-45.48192117670004
 20
-175.9863243730575
 30
0.0
 11
-50.48192117669998
 21
-175.9863243730574
 31
0.0
  0
LINE
  5
F9B
330
18
100
AcDbEntity
  8
外形線
100
AcDbLine
 10
-45.48192117669998
 20
-161.4863243730574
 30
0.0
 11
-45.48192117669998
 21
-166.1863243730574
 31
0.0
  0
LINE
  5
F9C
330
18
100
AcDbEntity
  8
外形線
100
AcDbLine
 10
-45.78192117669999
 20
-161.1863243730574
 30
0.0
 11
-45.48192117669998
 21
-161.4863243730574
 31
0.0
  0
LINE
  5
F9D
330
18
100
AcDbEntity
  8
外形線
100
AcDbLine
 10
-45.48192117669998
 20
-161.4863243730574
 30
0.0
 11
-47.98192117669998
 21
-161.4863243730574
 31
0.0
  0
ARC
  5
F9E
330
18
100
AcDbEntity
  8
外形線
100
AcDbCircle
 10
-45.50814534162202
 20
-166.4341138612802
 30
0.0
 40
0.25
100
AcDbArc
 50
83.19143105406302
 51
276.8085689459369
  0
LINE
  5
F9F
330
18
100
AcDbEntity
  8
外形線
100
AcDbLine
 10
-45.48192117669998
 20
-166.6789339206773
 30
0.0
 11
-45.48192117669998
 21
-175.9863243730574
 31
0.0
  0
LINE
  5
FA0
330
18
100
AcDbEntity
  8
外形線
100
AcDbLine
 10
-45.78192117669999
 20
-161.1863243730574
 30
0.0
 11
-46.73192117669998
 21
-161.1863243730574
 31
0.0
  0
LINE
  5
FA1
330
18
100
AcDbEntity
  8
外形線
100
AcDbLine
 10
-50.18192117670003
 20
-161.1863243730574
 30
0.0
 11
-50.48192117669998
 21
-161.4863243730574
 31
0.0
  0
LINE
  5
FA2
330
18
100
AcDbEntity
  8
外形線
100
AcDbLine
 10
-50.18192117670003
 20
-161.1863243730574
 30
0.0
 11
-49.23192117669998
 21
-161.1863243730574
 31
0.0
  0
LINE
  5
FA3
330
18
100
AcDbEntity
  8
外形線
100
AcDbLine
 10
-50.48192117669998
 20
-161.4863243730574
 30
0.0
 11
-47.98192117669998
 21
-161.4863243730574
 31
0.0
  0
LINE
  5
FA4
330
18
100
AcDbEntity
  8
外形線
100
AcDbLine
 10
-50.48192117669998
 20
-161.4863243730574
 30
0.0
 11
-50.48192117669998
 21
-166.1863243730574
 31
0.0
  0
LINE
  5
FA5
330
18
100
AcDbEntity
  8
外形線
100
AcDbLine
 10
-49.23192117669998
 20
-161.1863243730574
 30
0.0
 11
-47.98192117669998
 21
-161.1863243730574
 31
0.0
  0
LINE
  5
FA6
330
18
100
AcDbEntity
  8
外形線
100
AcDbLine
 10
-50.48192117669998
 20
-166.6789339206773
 30
0.0
 11
-50.48192117669998
 21
-175.9863243730574
 31
0.0
  0
LINE
  5
FA7
330
18
100
AcDbEntity
  8
外形線
100
AcDbLine
 10
-50.48192117669998
 20
-166.6863243730574
 30
0.0
 11
-47.98192117669998
 21
-166.6863243730574
 31
0.0
  0
LINE
  5
FA8
330
18
100
AcDbEntity
  8
外形線
100
AcDbLine
 10
-50.42252519352416
 20
-166.1863243730573
 30
0.0
 11
-47.98192117669998
 21
-166.1863243730574
 31
0.0
  0
ARC
  5
FA9
330
18
100
AcDbEntity
  8
外形線
100
AcDbCircle
 10
-50.45569701177794
 20
-166.4341138612802
 30
0.0
 40
0.25
100
AcDbArc
 50
263.1914310540631
 51
96.80856894593695
  0
ARC
  5
FAA
330
18
100
AcDbEntity
  8
外形線
100
AcDbCircle
 10
-47.98192117669998
 20
-178.1363243730574
 30
0.0
 40
1.55
100
AcDbArc
 50
189.281799086679
 51
350.7182009133209
  0
LINE
  5
FAB
330
18
100
AcDbEntity
  8
外形線
100
AcDbLine
 10
-45.48192117669998
 20
-175.9863243730574
 30
0.0
 11
-46.13192117669996
 21
-178.3863243730574
 31
0.0
  0
LINE
  5
FAC
330
18
100
AcDbEntity
  8
外形線
100
AcDbLine
 10
-50.48192117669998
 20
-175.9863243730574
 30
0.0
 11
-49.8319211767
 21
-178.3863243730574
 31
0.0
  0
LINE
  5
FAD
330
18
100
AcDbEntity
  8
外形線
100
AcDbLine
 10
-49.53192117669994
 20
-178.3863243730574
 30
0.0
 11
-49.8319211767
 21
-178.3863243730574
 31
0.0
  0
MTEXT
  5
102A
330
18
100
AcDbEntity
  8
DEFPOINTS
  6
Continuous
100
AcDbMText
 10
1273.221633483609
 20
403.1275289416742
 30
0.0
 40
1.0
 41
0.0
 71
     4
 72
     1
  1
\A1;
 73
     1
 44
1.0
  0
MTEXT
  5
102D
330
18
100
AcDbEntity
  8
文字
100
AcDbMText
 10
840.3608430416083
 20
429.2055111799085
 30
0.0
 40
1.0
 41
6.927999999999999
 71
     1
 72
     5
  1

  7
STYLE3
 73
     1
 44
1.0
  0
MTEXT
  5
102E
330
18
100
AcDbEntity
  8
DEFPOINTS
  6
Continuous
100
AcDbMText
 10
1162.09665269675
 20
352.4530624673593
 30
0.0
 40
0.35
 41
0.0
 71
     4
 72
     1
  1
\A1;
 73
     1
 44
1.0
  0
LINE
  5
10EA
330
18
100
AcDbEntity
  8
外形線
100
AcDbLine
 10
-49.53192117669994
 20
-178.3863243730574
 30
0.0
 11
-46.43192117670003
 21
-178.3863243730574
 31
0.0
  0
LINE
  5
10EB
330
18
100
AcDbEntity
  8
外形線
100
AcDbLine
 10
-50.18192117670003
 20
-161.1863243730574
 30
0.0
 11
-50.18192117670003
 21
-159.5863243730574
 31
0.0
  0
LINE
  5
10EC
330
18
100
AcDbEntity
  8
外形線
100
AcDbLine
 10
-45.78192117669999
 20
-161.1863243730574
 30
0.0
 11
-45.78192117669999
 21
-159.5863243730574
 31
0.0
  0
LINE
  5
10ED
330
18
100
AcDbEntity
  8
外形線
100
AcDbLine
 10
-50.48192117669998
 20
-161.4863243730574
 30
0.0
 11
-47.98192117669998
 21
-165.0506902452421
 31
0.0
  0
LINE
  5
10EE
330
18
100
AcDbEntity
  8
外形線
100
AcDbLine
 10
-48.03901817523916
 20
-161.4863243730574
 30
0.0
 11
-47.98192117669998
 21
-161.5677302102563
 31
0.0
  0
LINE
  5
10EF
330
18
100
AcDbEntity
  8
外形線
100
AcDbLine
 10
-50.48192117669998
 20
-164.9692844080433
 30
0.0
 11
-49.6283051278317
 21
-166.1863243730574
 31
0.0
  0
LINE
  5
10F0
330
18
100
AcDbEntity
  8
外形線
100
AcDbLine
 10
-50.48192117669998
 20
-163.2278043905504
 30
0.0
 11
-48.41199234229975
 21
-166.1789978686253
 31
0.0
  0
LINE
  5
10F1
330
18
100
AcDbEntity
  8
外形線
100
AcDbLine
 10
-49.2604696759696
 20
-161.4863243730574
 30
0.0
 11
-47.98192117669998
 21
-163.3092102277492
 31
0.0
  0
LINE
  5
10F2
330
18
100
AcDbEntity
  8
外形線
100
AcDbLine
 10
-50.48192117669998
 20
-162.8223994782221
 30
0.0
 11
-48.78118158795212
 21
-161.4863243730574
 31
0.0
  0
LINE
  5
10F3
330
18
100
AcDbEntity
  8
外形線
100
AcDbLine
 10
-50.48192117669998
 20
-164.0940690179973
 30
0.0
 11
-47.98192117669998
 21
-162.1301071128294
 31
0.0
  0
LINE
  5
10F4
330
18
100
AcDbEntity
  8
外形線
100
AcDbLine
 10
-50.48192117669998
 20
-165.3657385577725
 30
0.0
 11
-47.98192117669998
 21
-163.4017766526046
 31
0.0
  0
LINE
  5
10F5
330
18
100
AcDbEntity
  8
外形線
100
AcDbLine
 10
-49.9077199621762
 20
-166.1863243730574
 30
0.0
 11
-47.98192117669998
 21
-164.6734461923798
 31
0.0
  0
LINE
  5
10F6
330
18
100
AcDbEntity
  8
外形線
100
AcDbLine
 10
-48.28896460797489
 20
-166.1863243730574
 30
0.0
 11
-47.98192117669998
 21
-165.945115732155
 31
0.0
  0
MTEXT
  5
10FD
330
18
100
AcDbEntity
  8
DEFPOINTS
  6
Continuous
100
AcDbMText
 10
1276.556772896508
 20
402.0204966256249
 30
0.0
 40
1.0
 41
0.0
 71
     4
 72
     1
  1
\A1;
 73
     1
 44
1.0
  0
MTEXT
  5
1102
330
18
100
AcDbEntity
  8
文字
100
AcDbMText
 10
843.6959824545075
 20
428.0984788638591
 30
0.0
 40
1.0
 41
6.927999999999999
 71
     1
 72
     5
  1

  7
STYLE3
 73
     1
 44
1.0
  0
MTEXT
  5
1103
330
18
100
AcDbEntity
  8
DEFPOINTS
  6
Continuous
100
AcDbMText
 10
1165.431792109649
 20
351.34603015131
 30
0.0
 40
0.35
 41
0.0
 71
     4
 72
     1
  1
\A1;
 73
     1
 44
1.0
  0
MTEXT
  5
14FF
330
18
100
AcDbEntity
  8
DEFPOINTS
  6
Continuous
100
AcDbMText
 10
1274.334923685074
 20
417.5888497791158
 30
0.0
 40
1.0
 41
0.0
 71
     4
 72
     1
  1
\A1;
 73
     1
 44
1.0
  0
MTEXT
  5
1500
330
18
100
AcDbEntity
  8
文字
100
AcDbMText
 10
841.4741332430734
 20
443.6668320173499
 30
0.0
 40
1.0
 41
6.927999999999999
 71
     1
 72
     5
  1

  7
STYLE3
 73
     1
 44
1.0
  0
MTEXT
  5
1501
330
18
100
AcDbEntity
  8
DEFPOINTS
  6
Continuous
100
AcDbMText
 10
1163.209942898215
 20
366.9143833048007
 30
0.0
 40
0.35
 41
0.0
 71
     4
 72
     1
  1
\A1;
 73
     1
 44
1.0
  0
CIRCLE
  5
152A
330
18
100
AcDbEntity
  8
外形線
100
AcDbCircle
 10
-47.98192117669998
 20
-96.08632437305743
 30
0.0
 40
15.5
  0
CIRCLE
  5
152B
330
18
100
AcDbEntity
  8
外形線
100
AcDbCircle
 10
-47.98192117669998
 20
-96.08632437305743
 30
0.0
 40
23.0
  0
LINE
  5
152C
330
18
100
AcDbEntity
  8
目盛
100
AcDbLine
 10
-49.42610312587419
 20
-73.13170961920718
 30
0.0
 11
-49.30052208681548
 21
-75.12776307606372
 31
0.0
  0
LINE
  5
152D
330
18
100
AcDbEntity
  8
目盛
100
AcDbLine
 10
-50.86458554867897
 20
-73.26768624282443
 30
0.0
 11
-50.6139190815503
 21
-75.25191564545344
 31
0.0
  0
LINE
  5
152E
330
18
100
AcDbEntity
  8
目盛
100
AcDbLine
 10
-52.29169141217164
 20
-73.49371760629759
 30
0.0
 11
-51.91692878300012
 21
-75.45829210775497
 31
0.0
  0
LINE
  5
152F
330
18
100
AcDbEntity
  8
目盛
100
AcDbLine
 10
-53.70178858149154
 20
-73.80891166709893
 30
0.0
 11
-53.20440880716194
 21
-75.7460779893562
 31
0.0
  0
LINE
  5
1530
330
18
100
AcDbEntity
  8
目盛
100
AcDbLine
 10
-55.08931204732369
 20
-74.21202449826887
 30
0.0
 11
-54.16226106419902
 21
-77.06519404715436
 31
0.0
  0
LINE
  5
1531
330
18
100
AcDbEntity
  8
目盛
100
AcDbLine
 10
-56.44878588844756
 20
-74.70146519762767
 30
0.0
 11
-55.71253678307823
 21
-76.56101816940418
 31
0.0
  0
LINE
  5
1532
330
18
100
AcDbEntity
  8
目盛
100
AcDbLine
 10
-57.77484488269681
 20
-75.27530216633903
 30
0.0
 11
-56.92328629956648
 21
-77.08495627127104
 31
0.0
  0
LINE
  5
1533
330
18
100
AcDbEntity
  8
目盛
100
AcDbLine
 10
-59.06225568103957
 20
-75.93127073204858
 30
0.0
 11
-58.09874833283595
 21
-77.68388409213628
 31
0.0
  0
LINE
  5
1534
330
18
100
AcDbEntity
  8
目盛
100
AcDbLine
 10
-60.30593746121701
 20
-76.66678208651115
 30
0.0
 11
-59.23428387125898
 21
-78.35543793751515
 31
0.0
  0
LINE
  5
1535
330
18
100
AcDbEntity
  8
目盛
100
AcDbLine
 10
-61.50098197942691
 20
-77.47893350243362
 30
0.0
 11
-59.73762622254946
 21
-79.90598448555846
 31
0.0
  0
LINE
  5
1536
330
18
100
AcDbEntity
  8
目盛
100
AcDbLine
 10
-62.64267294091985
 20
-78.36451978921423
 30
0.0
 11
-61.36782496142257
 21
-79.90554627476581
 31
0.0
  0
LINE
  5
1537
330
18
100
AcDbEntity
  8
目盛
100
AcDbLine
 10
-63.72650461305977
 20
-79.32004594236492
 30
0.0
 11
-62.3574104012024
 21
-80.77798319720773
 31
0.0
  0
LINE
  5
1538
330
18
100
AcDbEntity
  8
目盛
100
AcDbLine
 10
-64.74819960739239
 20
-80.3417409366976
 30
0.0
 11
-63.29026235254957
 21
-81.71083514855496
 31
0.0
  0
LINE
  5
1539
330
18
100
AcDbEntity
  8
目盛
100
AcDbLine
 10
-65.70372576054308
 20
-81.42557260883757
 30
0.0
 11
-64.1626992749915
 21
-82.70042058833496
 31
0.0
  0
LINE
  5
153A
330
18
100
AcDbEntity
  8
目盛
100
AcDbLine
 10
-66.58931204732391
 20
-82.56726357033057
 30
0.0
 11
-64.16226106419902
 21
-84.33061932720802
 31
0.0
  0
LINE
  5
153B
330
18
100
AcDbEntity
  8
目盛
100
AcDbLine
 10
-67.40146346324639
 20
-83.76230808854051
 30
0.0
 11
-65.71280761224227
 21
-84.8339616784985
 31
0.0
  0
LINE
  5
153C
330
18
100
AcDbEntity
  8
目盛
100
AcDbLine
 10
-68.13697481770884
 20
-85.00598986871796
 30
0.0
 11
-66.38436145762113
 21
-85.96949721692141
 31
0.0
  0
LINE
  5
153D
330
18
100
AcDbEntity
  8
目盛
100
AcDbLine
 10
-68.79294338341845
 20
-86.29340066706078
 30
0.0
 11
-66.98328927848649
 21
-87.14495925019093
 31
0.0
  0
LINE
  5
153E
330
18
100
AcDbEntity
  8
目盛
100
AcDbLine
 10
-69.36678035212992
 20
-87.61945966130985
 30
0.0
 11
-67.50722738035335
 21
-88.35570876667919
 31
0.0
  0
LINE
  5
153F
330
18
100
AcDbEntity
  8
目盛
100
AcDbLine
 10
-69.85622105148866
 20
-88.97893350243363
 30
0.0
 11
-67.00305150260317
 21
-89.90598448555846
 31
0.0
  0
LINE
  5
1540
330
18
100
AcDbEntity
  8
目盛
100
AcDbLine
 10
-70.25933388265855
 20
-90.36645696826576
 30
0.0
 11
-68.32216756040122
 21
-90.86383674259549
 31
0.0
  0
LINE
  5
1541
330
18
100
AcDbEntity
  8
目盛
100
AcDbLine
 10
-70.57452794345988
 20
-91.77655413758577
 30
0.0
 11
-68.60995344200239
 21
-92.15131676675724
 31
0.0
  0
LINE
  5
1542
330
18
100
AcDbEntity
  8
目盛
100
AcDbLine
 10
-70.80055930693299
 20
-93.20366000107844
 30
0.0
 11
-68.8163299043041
 21
-93.45432646820706
 31
0.0
  0
LINE
  5
1543
330
18
100
AcDbEntity
  8
目盛
100
AcDbLine
 10
-70.93653593055035
 20
-94.64214242388322
 30
0.0
 11
-68.9404824736938
 21
-94.76772346294183
 31
0.0
  0
LINE
  5
1544
330
18
100
AcDbEntity
  8
目盛
100
AcDbLine
 10
-70.93653593055035
 20
-97.53050632223164
 30
0.0
 11
-68.9404824736938
 21
-97.40492528317304
 31
0.0
  0
LINE
  5
1545
330
18
100
AcDbEntity
  8
目盛
100
AcDbLine
 10
-70.80055930693299
 20
-98.96898874503643
 30
0.0
 11
-68.81632990430387
 21
-98.71832227790783
 31
0.0
  0
LINE
  5
1546
330
18
100
AcDbEntity
  8
目盛
100
AcDbLine
 10
-70.57452794345988
 20
-100.3960946085291
 30
0.0
 11
-68.60995344200262
 21
-100.0213319793576
 31
0.0
  0
LINE
  5
1547
330
18
100
AcDbEntity
  8
目盛
100
AcDbLine
 10
-70.25933388265855
 20
-101.8061917778491
 30
0.0
 11
-68.32216756040122
 21
-101.3088120035194
 31
0.0
  0
LINE
  5
1548
330
18
100
AcDbEntity
  8
目盛
100
AcDbLine
 10
-69.85622105148843
 20
-103.1937152436812
 30
0.0
 11
-67.00305150260317
 21
-102.2666642605564
 31
0.0
  0
LINE
  5
1549
330
18
100
AcDbEntity
  8
目盛
100
AcDbLine
 10
-69.36678035212969
 20
-104.553189084805
 30
0.0
 11
-67.50722738035335
 21
-103.8169399794357
 31
0.0
  0
LINE
  5
154A
330
18
100
AcDbEntity
  8
目盛
100
AcDbLine
 10
-68.79294338341845
 20
-105.8792480790541
 30
0.0
 11
-66.98328927848649
 21
-105.027689495924
 31
0.0
  0
LINE
  5
154B
330
18
100
AcDbEntity
  8
目盛
100
AcDbLine
 10
-68.13697481770884
 20
-107.1666588773969
 30
0.0
 11
-66.38436145762113
 21
-106.2031515291935
 31
0.0
  0
LINE
  5
154C
330
18
100
AcDbEntity
  8
目盛
100
AcDbLine
 10
-67.40146346324639
 20
-108.4103406575743
 30
0.0
 11
-65.71280761224227
 21
-107.3386870676164
 31
0.0
  0
LINE
  5
154D
330
18
100
AcDbEntity
  8
目盛
100
AcDbLine
 10
-66.58931204732368
 20
-109.6053851757843
 30
0.0
 11
-64.16226106419902
 21
-107.8420294189069
 31
0.0
  0
LINE
  5
154E
330
18
100
AcDbEntity
  8
目盛
100
AcDbLine
 10
-65.70372576054308
 20
-110.7470761372773
 30
0.0
 11
-64.1626992749915
 21
-109.4722281577799
 31
0.0
  0
LINE
  5
154F
330
18
100
AcDbEntity
  8
目盛
100
AcDbLine
 10
-64.74819960739239
 20
-111.8309078094173
 30
0.0
 11
-63.29026235254957
 21
-110.4618135975599
 31
0.0
  0
LINE
  5
1550
330
18
100
AcDbEntity
  8
目盛
100
AcDbLine
 10
-63.72650461305977
 20
-112.8526028037499
 30
0.0
 11
-62.3574104012024
 21
-111.3946655489071
 31
0.0
  0
LINE
  5
1551
330
18
100
AcDbEntity
  8
目盛
100
AcDbLine
 10
-62.64267294091985
 20
-113.8081289569006
 30
0.0
 11
-61.36782496142257
 21
-112.267102471349
 31
0.0
  0
LINE
  5
1552
330
18
100
AcDbEntity
  8
目盛
100
AcDbLine
 10
-61.50098197942691
 20
-114.6937152436812
 30
0.0
 11
-59.73762622254946
 21
-112.2666642605564
 31
0.0
  0
LINE
  5
1553
330
18
100
AcDbEntity
  8
目盛
100
AcDbLine
 10
-60.30593746121701
 20
-115.5058666596038
 30
0.0
 11
-59.23428387125898
 21
-113.8172108085998
 31
0.0
  0
LINE
  5
1554
330
18
100
AcDbEntity
  8
目盛
100
AcDbLine
 10
-59.06225568103934
 20
-116.2413780140663
 30
0.0
 11
-58.09874833283595
 21
-114.4887646539786
 31
0.0
  0
LINE
  5
1555
330
18
100
AcDbEntity
  8
目盛
100
AcDbLine
 10
-57.77484488269658
 20
-116.8973465797759
 30
0.0
 11
-56.92328629956648
 21
-115.0876924748438
 31
0.0
  0
LINE
  5
1556
330
18
100
AcDbEntity
  8
目盛
100
AcDbLine
 10
-56.44878588844756
 20
-117.4711835484872
 30
0.0
 11
-55.71253678307823
 21
-115.6116305767107
 31
0.0
  0
LINE
  5
1557
330
18
100
AcDbEntity
  8
目盛
100
AcDbLine
 10
-55.08931204732369
 20
-117.960624247846
 30
0.0
 11
-54.16226106419879
 21
-115.1074546989605
 31
0.0
  0
LINE
  5
1558
330
18
100
AcDbEntity
  8
目盛
100
AcDbLine
 10
-53.70178858149154
 20
-118.3637370790159
 30
0.0
 11
-53.20440880716194
 21
-116.4265707567587
 31
0.0
  0
LINE
  5
1559
330
18
100
AcDbEntity
  8
目盛
100
AcDbLine
 10
-52.29169141217164
 20
-118.6789311398173
 30
0.0
 11
-51.91692878300012
 21
-116.7143566383599
 31
0.0
  0
LINE
  5
155A
330
18
100
AcDbEntity
  8
目盛
100
AcDbLine
 10
-50.86458554867897
 20
-118.9049625032904
 30
0.0
 11
-50.6139190815503
 21
-116.9207331006615
 31
0.0
  0
LINE
  5
155B
330
18
100
AcDbEntity
  8
目盛
100
AcDbLine
 10
-49.42610312587419
 20
-119.0409391269077
 30
0.0
 11
-49.30052208681548
 21
-117.0448856700511
 31
0.0
  0
LINE
  5
155C
330
18
100
AcDbEntity
  8
目盛
100
AcDbLine
 10
-46.53773922752577
 20
-119.0409391269077
 30
0.0
 11
-46.66332026658449
 21
-117.0448856700511
 31
0.0
  0
LINE
  5
155D
330
18
100
AcDbEntity
  8
目盛
100
AcDbLine
 10
-45.09925680472099
 20
-118.9049625032904
 30
0.0
 11
-45.34992327184966
 21
-116.9207331006614
 31
0.0
  0
LINE
  5
155E
330
18
100
AcDbEntity
  8
目盛
100
AcDbLine
 10
-43.67215094122832
 20
-118.6789311398172
 30
0.0
 11
-44.04691357039962
 21
-116.7143566383598
 31
0.0
  0
LINE
  5
155F
330
18
100
AcDbEntity
  8
目盛
100
AcDbLine
 10
-42.26205377190843
 20
-118.3637370790159
 30
0.0
 11
-42.75943354623803
 21
-116.4265707567587
 31
0.0
  0
LINE
  5
1560
330
18
100
AcDbEntity
  8
目盛
100
AcDbLine
 10
-40.87453030607605
 20
-117.9606242478459
 30
0.0
 11
-41.80158128920095
 21
-115.1074546989605
 31
0.0
  0
LINE
  5
1561
330
18
100
AcDbEntity
  8
目盛
100
AcDbLine
 10
-39.51505646495241
 20
-117.4711835484872
 30
0.0
 11
-40.25130557032173
 21
-115.6116305767107
 31
0.0
  0
LINE
  5
1562
330
18
100
AcDbEntity
  8
目盛
100
AcDbLine
 10
-38.18899747070338
 20
-116.8973465797758
 30
0.0
 11
-39.04055605383348
 21
-115.0876924748438
 31
0.0
  0
LINE
  5
1563
330
18
100
AcDbEntity
  8
目盛
100
AcDbLine
 10
-36.90158667236062
 20
-116.2413780140662
 30
0.0
 11
-37.86509402056402
 21
-114.4887646539785
 31
0.0
  0
LINE
  5
1564
330
18
100
AcDbEntity
  8
目盛
100
AcDbLine
 10
-35.65790489218296
 20
-115.5058666596037
 30
0.0
 11
-36.72955848214099
 21
-113.8172108085997
 31
0.0
  0
LINE
  5
1565
330
18
100
AcDbEntity
  8
目盛
100
AcDbLine
 10
-34.46286037397306
 20
-114.6937152436812
 30
0.0
 11
-36.2262161308505
 21
-112.2666642605564
 31
0.0
  0
LINE
  5
1566
330
18
100
AcDbEntity
  8
目盛
100
AcDbLine
 10
-33.32116941248012
 20
-113.8081289569005
 30
0.0
 11
-34.5960173919774
 21
-112.267102471349
 31
0.0
  0
LINE
  5
1567
330
18
100
AcDbEntity
  8
目盛
100
AcDbLine
 10
-32.2373377403402
 20
-112.8526028037498
 30
0.0
 11
-33.60643195219757
 21
-111.394665548907
 31
0.0
  0
LINE
  5
1568
330
18
100
AcDbEntity
  8
目盛
100
AcDbLine
 10
-31.21564274600757
 20
-111.8309078094172
 30
0.0
 11
-32.67358000085039
 21
-110.4618135975598
 31
0.0
  0
LINE
  5
1569
330
18
100
AcDbEntity
  8
目盛
100
AcDbLine
 10
-30.26011659285689
 20
-110.7470761372773
 30
0.0
 11
-31.80114307840848
 21
-109.4722281577799
 31
0.0
  0
LINE
  5
156A
330
18
100
AcDbEntity
  8
目盛
100
AcDbLine
 10
-29.37453030607628
 20
-109.6053851757843
 30
0.0
 11
-31.80158128920095
 21
-107.8420294189068
 31
0.0
  0
LINE
  5
156B
330
18
100
AcDbEntity
  8
目盛
100
AcDbLine
 10
-28.56237889015358
 20
-108.4103406575743
 30
0.0
 11
-30.2510347411577
 21
-107.3386870676163
 31
0.0
  0
LINE
  5
156C
330
18
100
AcDbEntity
  8
目盛
100
AcDbLine
 10
-27.82686753569112
 20
-107.1666588773968
 30
0.0
 11
-29.57948089577883
 21
-106.2031515291934
 31
0.0
  0
LINE
  5
156D
330
18
100
AcDbEntity
  8
目盛
100
AcDbLine
 10
-27.17089896998152
 20
-105.879248079054
 30
0.0
 11
-28.9805530749137
 21
-105.0276894959239
 31
0.0
  0
LINE
  5
156E
330
18
100
AcDbEntity
  8
目盛
100
AcDbLine
 10
-26.59706200127028
 20
-104.553189084805
 30
0.0
 11
-28.45661497304684
 21
-103.8169399794356
 31
0.0
  0
LINE
  5
156F
330
18
100
AcDbEntity
  8
目盛
100
AcDbLine
 10
-26.10762130191154
 20
-103.1937152436812
 30
0.0
 11
-28.96079085079703
 21
-102.2666642605563
 31
0.0
  0
LINE
  5
1570
330
18
100
AcDbEntity
  8
目盛
100
AcDbLine
 10
-25.70450847074142
 20
-101.8061917778491
 30
0.0
 11
-27.64167479299874
 21
-101.3088120035194
 31
0.0
  0
LINE
  5
1571
330
18
100
AcDbEntity
  8
目盛
100
AcDbLine
 10
-25.38931440994009
 20
-100.3960946085291
 30
0.0
 11
-27.35388891139758
 21
-100.0213319793576
 31
0.0
  0
LINE
  5
1572
330
18
100
AcDbEntity
  8
目盛
100
AcDbLine
 10
-25.16328304646697
 20
-98.96898874503637
 30
0.0
 11
-27.14751244909587
 21
-98.71832227790775
 31
0.0
  0
LINE
  5
1573
330
18
100
AcDbEntity
  8
目盛
100
AcDbLine
 10
-25.02730642284985
 20
-97.53050632223164
 30
0.0
 11
-27.02335987970639
 21
-97.40492528317304
 31
0.0
  0
LINE
  5
1574
330
18
100
AcDbEntity
  8
目盛
100
AcDbLine
 10
-25.02730642284985
 20
-94.64214242388328
 30
0.0
 11
-27.02335987970639
 21
-94.76772346294188
 31
0.0
  0
LINE
  5
1575
330
18
100
AcDbEntity
  8
目盛
100
AcDbLine
 10
-25.16328304646697
 20
-93.20366000107838
 30
0.0
 11
-27.1475124490961
 21
-93.454326468207
 31
0.0
  0
LINE
  5
1576
330
18
100
AcDbEntity
  8
目盛
100
AcDbLine
 10
-25.38931440994009
 20
-91.77655413758584
 30
0.0
 11
-27.35388891139758
 21
-92.15131676675724
 31
0.0
  0
LINE
  5
1577
330
18
100
AcDbEntity
  8
目盛
100
AcDbLine
 10
-25.70450847074142
 20
-90.36645696826582
 30
0.0
 11
-27.64167479299874
 21
-90.86383674259554
 31
0.0
  0
LINE
  5
1578
330
18
100
AcDbEntity
  8
目盛
100
AcDbLine
 10
-26.10762130191154
 20
-88.97893350243368
 30
0.0
 11
-28.96079085079703
 21
-89.90598448555846
 31
0.0
  0
LINE
  5
1579
330
18
100
AcDbEntity
  8
目盛
100
AcDbLine
 10
-26.59706200127028
 20
-87.61945966130985
 30
0.0
 11
-28.45661497304684
 21
-88.35570876667924
 31
0.0
  0
LINE
  5
157A
330
18
100
AcDbEntity
  8
目盛
100
AcDbLine
 10
-27.17089896998152
 20
-86.29340066706078
 30
0.0
 11
-28.98055307491347
 21
-87.14495925019093
 31
0.0
  0
LINE
  5
157B
330
18
100
AcDbEntity
  8
目盛
100
AcDbLine
 10
-27.82686753569112
 20
-85.00598986871802
 30
0.0
 11
-29.57948089577883
 21
-85.96949721692146
 31
0.0
  0
LINE
  5
157C
330
18
100
AcDbEntity
  8
目盛
100
AcDbLine
 10
-28.56237889015358
 20
-83.76230808854058
 30
0.0
 11
-30.2510347411577
 21
-84.83396167849855
 31
0.0
  0
LINE
  5
157D
330
18
100
AcDbEntity
  8
目盛
100
AcDbLine
 10
-29.37453030607628
 20
-82.56726357033063
 30
0.0
 11
-31.80158128920095
 21
-84.33061932720802
 31
0.0
  0
LINE
  5
157E
330
18
100
AcDbEntity
  8
目盛
100
AcDbLine
 10
-30.26011659285689
 20
-81.42557260883762
 30
0.0
 11
-31.80114307840848
 21
-82.70042058833501
 31
0.0
  0
LINE
  5
157F
330
18
100
AcDbEntity
  8
目盛
100
AcDbLine
 10
-31.21564274600757
 20
-80.34174093669765
 30
0.0
 11
-32.67358000085039
 21
-81.71083514855501
 31
0.0
  0
LINE
  5
1580
330
18
100
AcDbEntity
  8
目盛
100
AcDbLine
 10
-32.2373377403402
 20
-79.32004594236502
 30
0.0
 11
-33.60643195219757
 21
-80.77798319720784
 31
0.0
  0
LINE
  5
1581
330
18
100
AcDbEntity
  8
目盛
100
AcDbLine
 10
-33.32116941248012
 20
-78.3645197892144
 30
0.0
 11
-34.5960173919774
 21
-79.90554627476592
 31
0.0
  0
LINE
  5
1582
330
18
100
AcDbEntity
  8
目盛
100
AcDbLine
 10
-34.46286037397306
 20
-77.47893350243373
 30
0.0
 11
-36.2262161308505
 21
-79.90598448555852
 31
0.0
  0
LINE
  5
1583
330
18
100
AcDbEntity
  8
目盛
100
AcDbLine
 10
-35.65790489218296
 20
-76.66678208651115
 30
0.0
 11
-36.72955848214099
 21
-78.3554379375152
 31
0.0
  0
LINE
  5
1584
330
18
100
AcDbEntity
  8
目盛
100
AcDbLine
 10
-36.9015866723604
 20
-75.93127073204868
 30
0.0
 11
-37.86509402056379
 21
-77.68388409213639
 31
0.0
  0
LINE
  5
1585
330
18
100
AcDbEntity
  8
目盛
100
AcDbLine
 10
-38.18899747070316
 20
-75.27530216633909
 30
0.0
 11
-39.04055605383326
 21
-77.0849562712711
 31
0.0
  0
LINE
  5
1586
330
18
100
AcDbEntity
  8
目盛
100
AcDbLine
 10
-39.51505646495218
 20
-74.70146519762772
 30
0.0
 11
-40.25130557032173
 21
-76.56101816940424
 31
0.0
  0
LINE
  5
1587
330
18
100
AcDbEntity
  8
目盛
100
AcDbLine
 10
-40.87453030607605
 20
-74.21202449826899
 30
0.0
 11
-41.80158128920095
 21
-77.06519404715442
 31
0.0
  0
LINE
  5
1588
330
18
100
AcDbEntity
  8
目盛
100
AcDbLine
 10
-42.2620537719082
 20
-73.80891166709898
 30
0.0
 11
-42.75943354623779
 21
-75.74607798935625
 31
0.0
  0
LINE
  5
1589
330
18
100
AcDbEntity
  8
目盛
100
AcDbLine
 10
-43.67215094122809
 20
-73.49371760629765
 30
0.0
 11
-44.04691357039962
 21
-75.45829210775503
 31
0.0
  0
LINE
  5
158A
330
18
100
AcDbEntity
  8
目盛
100
AcDbLine
 10
-45.09925680472076
 20
-73.26768624282443
 30
0.0
 11
-45.34992327184943
 21
-75.25191564545344
 31
0.0
  0
LINE
  5
158B
330
18
100
AcDbEntity
  8
目盛
100
AcDbLine
 10
-46.53773922752555
 20
-73.13170961920718
 30
0.0
 11
-46.66332026658426
 21
-75.12776307606372
 31
0.0
  0
LINE
  5
158C
330
18
100
AcDbEntity
  8
目盛
100
AcDbLine
 10
-27.98192117669998
 20
-96.08632437305743
 30
0.0
 11
-24.98192117669999
 21
-96.08632437305743
 31
0.0
  0
LINE
  5
158D
330
18
100
AcDbEntity
  8
目盛
100
AcDbLine
 10
-47.98192117669998
 20
-116.0863243730574
 30
0.0
 11
-47.98192117669998
 21
-119.0863243730574
 31
0.0
  0
LINE
  5
158E
330
18
100
AcDbEntity
  8
目盛
100
AcDbLine
 10
-70.98192117669999
 20
-96.08632437305743
 30
0.0
 11
-67.98192117669998
 21
-96.08632437305743
 31
0.0
  0
LINE
  5
158F
330
18
100
AcDbEntity
  8
目盛
100
AcDbLine
 10
-47.98192117669998
 20
-73.08632437305743
 30
0.0
 11
-47.98192117669998
 21
-76.08632437305743
 31
0.0
  0
TEXT
  5
1590
330
18
100
AcDbEntity
  8
文字
100
AcDbText
 10
-49.19623169914882
 20
-78.96580497854472
 30
0.0
 40
2.5
  1
0
  7
STYLE3
100
AcDbText
  0
TEXT
  5
1591
330
18
100
AcDbEntity
  8
文字
100
AcDbText
 10
-62.38511383168554
 20
-82.69754420854553
 30
0.0
 40
2.5
  1
10
  7
STYLE3
100
AcDbText
  0
TEXT
  5
1592
330
18
100
AcDbEntity
  8
文字
100
AcDbText
 10
-67.95495859409925
 20
-91.67844985507793
 30
0.0
 40
2.5
  1
20
  7
STYLE3
100
AcDbText
  0
TEXT
  5
1593
330
18
100
AcDbEntity
  8
文字
100
AcDbText
 10
-67.4670873754826
 20
-103.3351534440932
 30
0.0
 40
2.5
  1
30
  7
STYLE3
100
AcDbText
  0
TEXT
  5
1594
330
18
100
AcDbEntity
  8
文字
100
AcDbText
 10
-59.98150003121759
 20
-111.9587534795337
 30
0.0
 40
2.5
  1
40
  7
STYLE3
100
AcDbText
  0
TEXT
  5
1595
330
18
100
AcDbEntity
  8
文字
100
AcDbText
 10
-50.2951686438488
 20
-115.7692116464159
 30
0.0
 40
2.5
  1
50
  7
STYLE3
100
AcDbText
  0
TEXT
  5
1596
330
18
100
AcDbEntity
  8
文字
100
AcDbText
 10
-39.84442257041712
 20
-111.8967188616681
 30
0.0
 40
2.5
  1
60
  7
STYLE3
100
AcDbText
  0
TEXT
  5
1597
330
18
100
AcDbEntity
  8
文字
100
AcDbText
 10
-33.73461578600211
 20
-103.3114682588941
 30
0.0
 40
2.5
  1
70
  7
STYLE3
100
AcDbText
  0
TEXT
  5
1598
330
18
100
AcDbEntity
  8
文字
100
AcDbText
 10
-33.85032107745337
 20
-91.57693713408979
 30
0.0
 40
2.5
  1
80
  7
STYLE3
100
AcDbText
  0
TEXT
  5
1599
330
18
100
AcDbEntity
  8
文字
100
AcDbText
 10
-40.49625276132712
 20
-82.67634935950059
 30
0.0
 40
2.5
  1
90
  7
STYLE3
100
AcDbText
  0
TEXT
  5
159A
330
18
100
AcDbEntity
  8
文字
  6
Continuous
 62
     4
100
AcDbText
 10
-48.48849666467856
 20
-80.30894931687038
 30
0.0
 40
1.0
  1
0
  7
STYLE3
100
AcDbText
  0
TEXT
  5
159B
330
18
100
AcDbEntity
  8
文字
  6
Continuous
 62
     4
100
AcDbText
 10
-59.89404273214529
 20
-84.18536724801191
 30
0.0
 40
1.0
  1
90
  7
STYLE3
100
AcDbText
  0
TEXT
  5
159C
330
18
100
AcDbEntity
  8
文字
  6
Continuous
 62
     4
100
AcDbText
 10
-65.57835640519261
 20
-94.28671428392869
 30
0.0
 40
1.0
  1
80
  7
STYLE3
100
AcDbText
  0
TEXT
  5
159D
330
18
100
AcDbEntity
  8
文字
  6
Continuous
 62
     4
100
AcDbText
 10
-64.74851672524312
 20
-100.0068361758647
 30
0.0
 40
1.0
  1
70
  7
STYLE3
100
AcDbText
  0
TEXT
  5
159E
330
18
100
AcDbEntity
  8
文字
  6
Continuous
 62
     4
100
AcDbText
 10
-59.3368990693707
 20
-109.099084253537
 30
0.0
 40
1.0
  1
60
  7
STYLE3
100
AcDbText
  0
TEXT
  5
159F
330
18
100
AcDbEntity
  8
文字
  6
Continuous
 62
     4
100
AcDbText
 10
-48.91589078420759
 20
-112.9477857678705
 30
0.0
 40
1.0
  1
50
  7
STYLE3
100
AcDbText
  0
TEXT
  5
15A0
330
18
100
AcDbEntity
  8
文字
  6
Continuous
 62
     4
100
AcDbText
 10
-38.28552302985122
 20
-109.0291609362278
 30
0.0
 40
1.0
  1
40
  7
STYLE3
100
AcDbText
  0
TEXT
  5
15A1
330
18
100
AcDbEntity
  8
文字
  6
Continuous
 62
     4
100
AcDbText
 10
-32.95233658333643
 20
-100.2450675477537
 30
0.0
 40
1.0
  1
30
  7
STYLE3
100
AcDbText
  0
TEXT
  5
15A2
330
18
100
AcDbEntity
  8
文字
  6
Continuous
 62
     4
100
AcDbText
 10
-32.2098974328892
 20
-93.14219032927912
 30
0.0
 40
1.0
  1
20
  7
STYLE3
100
AcDbText
  0
TEXT
  5
15A3
330
18
100
AcDbEntity
  8
文字
  6
Continuous
 62
     4
100
AcDbText
 10
-37.62726529523832
 20
-84.23486507227591
 30
0.0
 40
1.0
  1
10
  7
STYLE3
100
AcDbText
  0
MTEXT
  5
15A4
330
18
100
AcDbEntity
  8
DEFPOINTS
  6
Continuous
100
AcDbMText
 10
1265.428601995949
 20
415.3640314033698
 30
0.0
 40
1.0
 41
0.0
 71
     4
 72
     1
  1
\A1;
 73
     1
 44
1.0
  0
POINT
  5
15A5
330
18
100
AcDbEntity
  8
DEFPOINTS
  6
ByBlock
 62
     0
100
AcDbPoint
 10
-47.98192117669998
 20
-96.08632437305743
 30
0.0
  0
POINT
  5
15A6
330
18
100
AcDbEntity
  8
DEFPOINTS
  6
ByBlock
 62
     0
100
AcDbPoint
 10
-47.98192117669998
 20
-96.08632437305743
 30
0.0
  0
MTEXT
  5
15A7
330
18
100
AcDbEntity
  8
文字
100
AcDbMText
 10
832.5678115539488
 20
441.442013641604
 30
0.0
 40
1.0
 41
6.927999999999999
 71
     1
 72
     5
  1

  7
STYLE3
 73
     1
 44
1.0
  0
MTEXT
  5
15A8
330
18
100
AcDbEntity
  8
DEFPOINTS
  6
Continuous
100
AcDbMText
 10
1154.30362120909
 20
364.6895649290548
 30
0.0
 40
0.35
 41
0.0
 71
     4
 72
     1
  1
\A1;
 73
     1
 44
1.0
  0
LINE
  5
15A9
102
{ACAD_REACTORS
330
15E7
102
}
330
18
100
AcDbEntity
  8
ROGO
 62
     4
100
AcDbLine
 10
-54.64929729154175
 20
-90.03444558815147
 30
0.0
 11
-53.03679897855658
 21
-90.03444558815147
 31
0.0
  0
LINE
  5
15AA
102
{ACAD_REACTORS
330
15E7
102
}
330
18
100
AcDbEntity
  8
ROGO
 62
     4
100
AcDbLine
 10
-55.66454783163442
 20
-92.08632437305743
 30
0.0
 11
-41.77537056461062
 21
-92.08632437305743
 31
0.0
  0
LINE
  5
15AB
102
{ACAD_REACTORS
330
15E7
102
}
330
18
100
AcDbEntity
  8
ROGO
 62
     4
100
AcDbLine
 10
-54.64929729154175
 20
-90.03444558815147
 30
0.0
 11
-55.66454783163442
 21
-92.0863243730575
 31
0.0
  0
SPLINE
  5
15AC
102
{ACAD_REACTORS
330
15E7
102
}
330
18
100
AcDbEntity
  8
ROGO
 62
     4
100
AcDbSpline
210
0.0
220
0.0
230
1.0
 70
     8
 71
     3
 72
    18
 73
    14
 74
     0
 42
0.0000000001
 43
0.0000000001
 40
0.1087402787915014
 40
0.1087402787915014
 40
0.1087402787915014
 40
0.1087402787915014
 40
0.5992371417938475
 40
1.083176791562496
 40
1.448211145705696
 40
1.714037220764907
 40
2.164002567013297
 40
2.740236056362883
 40
3.395137510199602
 40
4.071816045172726
 40
4.784906178399433
 40
5.506895915094292
 40
6.060470601257719
 40
6.060470601257719
 40
6.060470601257719
 40
6.060470601257719
 10
-53.03679897855658
 20
-90.03444558815141
 30
0.0
 10
-52.98513944092054
 20
-90.05337794299913
 30
0.0
 10
-52.88355149307006
 20
-90.09340383431441
 30
0.0
 10
-52.7595662575228
 20
-90.18475614410579
 30
0.0
 10
-52.69195006359814
 20
-90.29021492127856
 30
0.0
 10
-52.62691085505514
 20
-90.39412566358141
 30
0.0
 10
-52.61780873654413
 20
-90.54320319773784
 30
0.0
 10
-52.63271862159126
 20
-90.73167333330957
 30
0.0
 10
-52.72897549246739
 20
-90.92832247083027
 30
0.0
 10
-52.88347343154885
 20
-91.10031950163209
 30
0.0
 10
-53.0752934046418
 20
-91.23798368197384
 30
0.0
 10
-53.27757418274905
 20
-91.34604651846922
 30
0.0
 10
-53.42216453980256
 20
-91.3471232390778
 30
0.0
 10
-53.48491445669731
 20
-91.34759051870895
 30
0.0
  0
LINE
  5
15AD
102
{ACAD_REACTORS
330
15E7
102
}
330
18
100
AcDbEntity
  8
ROGO
 62
     4
100
AcDbLine
 10
-53.4849144563882
 20
-91.34759051870895
 30
0.0
 11
-54.37652272486946
 21
-91.34759051870895
 31
0.0
  0
LINE
  5
15AE
330
18
100
AcDbEntity
  8
ROGO
 62
     4
100
AcDbLine
 10
-54.01216043620195
 20
-90.54224249936481
 30
0.0
 11
-54.17015823255929
 21
-90.8914641842502
 31
0.0
  0
SPLINE
  5
15AF
330
18
100
AcDbEntity
  8
ROGO
 62
     4
100
AcDbSpline
210
0.0
220
0.0
230
1.0
 70
     8
 71
     3
 72
    15
 73
    11
 74
     9
 42
0.0000000001
 43
0.0000000001
 44
0.0000000001
 40
0.0
 40
0.0
 40
0.0
 40
0.0
 40
0.1539705029176134
 40
0.2241725832588156
 40
0.3038566179397562
 40
0.3581410872475068
 40
0.4439925384673412
 40
0.4954152125470444
 40
0.5836396705646413
 40
0.6130478420066522
 40
0.6130478420066522
 40
0.6130478420066522
 40
0.6130478420066522
 10
-53.60617343710453
 20
-90.54224249936481
 30
0.0
 10
-53.54834510204528
 20
-90.54197761472236
 30
0.0
 10
-53.46415022698713
 20
-90.54159195725265
 30
0.0
 10
-53.41810947062254
 20
-90.64574126118218
 30
0.0
 10
-53.43874713285611
 20
-90.7127971658196
 30
0.0
 10
-53.4646903562801
 20
-90.78164268006743
 30
0.0
 10
-53.51053790782255
 20
-90.82842424533668
 30
0.0
 10
-53.57207203741767
 20
-90.87348277897373
 30
0.0
 10
-53.63022473047337
 20
-90.87893731623324
 30
0.0
 10
-53.66804652944599
 20
-90.8889588096874
 30
0.0
 10
-53.67750198371528
 20
-90.8914641842502
 30
0.0
 11
-53.60617343710453
 21
-90.54224249936481
 31
0.0
 11
-53.4563833661756
 21
-90.57787746000474
 31
0.0
 11
-53.42785186550066
 21
-90.64202015681013
 31
0.0
 11
-53.44211741076151
 21
-90.72041683787153
 31
0.0
 11
-53.46351593372935
 21
-90.77030578276737
 31
0.0
 11
-53.52057893507947
 21
-90.83444847957276
 31
0.0
 11
-53.56337598101527
 21
-90.86295644808467
 31
0.0
 11
-53.64897048304022
 21
-90.88433719212224
 31
0.0
 11
-53.67750198371528
 21
-90.8914641842502
 31
0.0
  0
LINE
  5
15B0
330
18
100
AcDbEntity
  8
ROGO
 62
     4
100
AcDbLine
 10
-53.60617343710441
 20
-90.54224249936481
 30
0.0
 11
-54.01216043620195
 21
-90.54224249936481
 31
0.0
  0
LINE
  5
15B1
330
18
100
AcDbEntity
  8
ROGO
 62
     4
100
AcDbLine
 10
-53.67750198371516
 20
-90.8914641842502
 30
0.0
 11
-54.17015823255929
 21
-90.8914641842502
 31
0.0
  0
LINE
  5
15B2
102
{ACAD_REACTORS
330
15E7
102
}
330
18
100
AcDbEntity
  8
ROGO
 62
     4
100
AcDbLine
 10
-54.37652272486946
 20
-91.34759051870895
 30
0.0
 11
-54.71074687569796
 21
-92.08632437305743
 31
0.0
  0
LINE
  5
15B3
102
{ACAD_REACTORS
330
15E2
102
}
330
18
100
AcDbEntity
  8
ROGO
 62
     4
100
AcDbLine
 10
-52.08417498535107
 20
-90.03444558815147
 30
0.0
 11
-52.73390688461109
 21
-91.34759051870895
 31
0.0
  0
LINE
  5
15B4
102
{ACAD_REACTORS
330
15E2
102
}
330
18
100
AcDbEntity
  8
ROGO
 62
     4
100
AcDbLine
 10
-50.3080918368671
 20
-90.03444558815147
 30
0.0
 11
-50.4569260326017
 21
-90.33524791884355
 31
0.0
  0
LINE
  5
15B5
102
{ACAD_REACTORS
330
15E2
102
}
330
18
100
AcDbEntity
  8
ROGO
 62
     4
100
AcDbLine
 10
-52.73390688461109
 20
-91.34759051870895
 30
0.0
 11
-50.95782373612713
 21
-91.34759051870895
 31
0.0
  0
LINE
  5
15B6
102
{ACAD_REACTORS
330
15E2
102
}
330
18
100
AcDbEntity
  8
ROGO
 62
     4
100
AcDbLine
 10
-51.39039045481957
 20
-90.33524791884355
 30
0.0
 11
-51.50676030089607
 21
-90.57043796202771
 31
0.0
  0
LINE
  5
15B7
102
{ACAD_REACTORS
330
15E2
102
}
330
18
100
AcDbEntity
  8
ROGO
 62
     4
100
AcDbLine
 10
-51.39039045481957
 20
-90.33524791884355
 30
0.0
 11
-50.4569260326017
 21
-90.33524791884355
 31
0.0
  0
LINE
  5
15B8
102
{ACAD_REACTORS
330
15E2
102
}
330
18
100
AcDbEntity
  8
ROGO
 62
     4
100
AcDbLine
 10
-51.50676030089607
 20
-90.57043796202771
 30
0.0
 11
-50.57329587867809
 21
-90.57043796202771
 31
0.0
  0
LINE
  5
15B9
102
{ACAD_REACTORS
330
15E2
102
}
330
18
100
AcDbEntity
  8
ROGO
 62
     4
100
AcDbLine
 10
-51.74246144913627
 20
-91.04680331870889
 30
0.0
 11
-50.80899702691829
 21
-91.04680331870889
 31
0.0
  0
LINE
  5
15BA
102
{ACAD_REACTORS
330
15E2
102
}
330
18
100
AcDbEntity
  8
ROGO
 62
     4
100
AcDbLine
 10
-51.62608667652
 20
-90.81160331870893
 30
0.0
 11
-50.69262225430202
 21
-90.81160331870893
 31
0.0
  0
LINE
  5
15BB
102
{ACAD_REACTORS
330
15E2
102
}
330
18
100
AcDbEntity
  8
ROGO
 62
     4
100
AcDbLine
 10
-50.57329587867809
 20
-90.57043796202771
 30
0.0
 11
-50.69262225430202
 21
-90.81160331870893
 31
0.0
  0
LINE
  5
15BC
102
{ACAD_REACTORS
330
15E2
102
}
330
18
100
AcDbEntity
  8
ROGO
 62
     4
100
AcDbLine
 10
-50.80899702691829
 20
-91.04680331870889
 30
0.0
 11
-50.95782373612713
 21
-91.34759051870895
 31
0.0
  0
LINE
  5
15BD
102
{ACAD_REACTORS
330
15E2
102
}
330
18
100
AcDbEntity
  8
ROGO
 62
     4
100
AcDbLine
 10
-51.62608667652
 20
-90.81160331870893
 30
0.0
 11
-51.74246144913638
 21
-91.04680331870889
 31
0.0
  0
LINE
  5
15BE
330
18
100
AcDbEntity
  8
ROGO
 62
     4
100
AcDbLine
 10
-49.79359757166946
 20
-90.03444558815147
 30
0.0
 11
-50.74053190176858
 21
-91.34759051870895
 31
0.0
  0
LINE
  5
15BF
330
18
100
AcDbEntity
  8
ROGO
 62
     4
100
AcDbLine
 10
-49.31946971503771
 20
-90.3854545651032
 30
0.0
 11
-49.64283645135094
 21
-90.83387783692211
 31
0.0
  0
LINE
  5
15C0
330
18
100
AcDbEntity
  8
ROGO
 62
     4
100
AcDbLine
 10
-49.83299421249603
 20
-91.09757584861814
 30
0.0
 11
-49.00311722371168
 21
-91.09757584861814
 31
0.0
  0
LINE
  5
15C1
330
18
100
AcDbEntity
  8
ROGO
 62
     4
100
AcDbLine
 10
-49.64283645135094
 20
-90.83387783692206
 30
0.0
 11
-49.12026232931225
 21
-90.83387783692206
 31
0.0
  0
LINE
  5
15C2
330
18
100
AcDbEntity
  8
ROGO
 62
     4
100
AcDbLine
 10
-49.83299421249603
 20
-91.09757584861814
 30
0.0
 11
-50.01328465007691
 21
-91.3475905187089
 31
0.0
  0
LINE
  5
15C3
330
18
100
AcDbEntity
  8
ROGO
 62
     4
100
AcDbLine
 10
-50.74053190176858
 20
-91.34759051870895
 30
0.0
 11
-50.01328465007702
 21
-91.34759051870895
 31
0.0
  0
LINE
  5
15C4
330
18
100
AcDbEntity
  8
ROGO
 62
     4
100
AcDbLine
 10
-49.79359757166946
 20
-90.03444558815147
 30
0.0
 11
-48.74319408889789
 21
-90.03444558815141
 31
0.0
  0
LINE
  5
15C5
330
18
100
AcDbEntity
  8
ROGO
 62
     4
100
AcDbLine
 10
-48.15984307851465
 20
-91.3475905187089
 30
0.0
 11
-48.89205080064278
 21
-91.34759051870895
 31
0.0
  0
LINE
  5
15C6
330
18
100
AcDbEntity
  8
ROGO
 62
     4
100
AcDbLine
 10
-47.80022366350886
 20
-91.34759051870895
 30
0.0
 11
-46.66919464850423
 21
-91.34759051870895
 31
0.0
  0
LINE
  5
15C7
330
18
100
AcDbEntity
  8
ROGO
 62
     4
100
AcDbLine
 10
-46.01441817549505
 20
-90.03444558815147
 30
0.0
 11
-46.25803747603561
 21
-90.52302064036831
 31
0.0
  0
LINE
  5
15C8
330
18
100
AcDbEntity
  8
ROGO
 62
     4
100
AcDbLine
 10
-47.07980439938672
 20
-90.52302064036831
 30
0.0
 11
-46.25803747603561
 21
-90.52302064036831
 31
0.0
  0
LINE
  5
15C9
330
18
100
AcDbEntity
  8
ROGO
 62
     4
100
AcDbLine
 10
-47.26525894869758
 20
-90.85902064036833
 30
0.0
 11
-46.42557792782542
 21
-90.85902064036833
 31
0.0
  0
SPLINE
  5
15CA
330
18
100
AcDbEntity
  8
ROGO
 62
     4
100
AcDbSpline
210
0.0
220
0.0
230
1.0
 70
     8
 71
     3
 72
    26
 73
    22
 74
    20
 42
0.0000000001
 43
0.0000000001
 44
0.0000000001
 40
0.0
 40
0.0
 40
0.0
 40
0.0
 40
0.2382195346592458
 40
0.397689067266165
 40
0.5126795869788247
 40
0.5985392873136309
 40
0.709903824925031
 40
0.791189080749497
 40
0.9379713068544484
 40
1.057449928673148
 40
1.138714535893377
 40
1.218398644003578
 40
1.360938021870431
 40
1.461730374800337
 40
1.516014844108087
 40
1.59312432922058
 40
1.64880681859371
 40
1.729472362005597
 40
1.775122082164457
 40
1.874460993765154
 40
1.919820003751323
 40
1.919820003751323
 40
1.919820003751323
 40
1.919820003751323
 10
-47.32945451760122
 20
-90.03444558815147
 30
0.0
 10
-47.41030990835987
 20
-90.03926955941656
 30
0.0
 10
-47.54529172242583
 20
-90.04732280591321
 30
0.0
 10
-47.69350093313768
 20
-90.13735830977166
 30
0.0
 10
-47.80208767754786
 20
-90.18970099511403
 30
0.0
 10
-47.87953161197207
 20
-90.26085641653367
 30
0.0
 10
-47.93629832983962
 20
-90.33435476905497
 30
0.0
 10
-48.00786343453703
 20
-90.42192751718046
 30
0.0
 10
-48.06622273244315
 20
-90.52390243864492
 30
0.0
 10
-48.09594157497619
 20
-90.63629657970825
 30
0.0
 10
-48.12226624362991
 20
-90.7258753622672
 30
0.0
 10
-48.14178905860302
 20
-90.82569922515961
 30
0.0
 10
-48.13682190179007
 20
-90.9335441132819
 30
0.0
 10
-48.12970870590546
 20
-91.0337049242857
 30
0.0
 10
-48.0979500159815
 20
-91.10520474721235
 30
0.0
 10
-48.06178249359148
 20
-91.15610769414173
 30
0.0
 10
-48.01749585773655
 20
-91.21217164684038
 30
0.0
 10
-47.96903659341917
 20
-91.24930262117073
 30
0.0
 10
-47.92895682630839
 20
-91.31656787631118
 30
0.0
 10
-47.85879854604602
 20
-91.32515140798744
 30
0.0
 10
-47.81420315197022
 20
-91.34223519786447
 30
0.0
 10
-47.80022366350874
 20
-91.34759051870895
 30
0.0
 11
-47.32945451760122
 21
-90.03444558815147
 31
0.0
 11
-47.5648390905551
 21
-90.07108777024518
 31
0.0
 11
-47.70749659393016
 21
-90.14235745917858
 31
0.0
 11
-47.80735664121595
 21
-90.19937316385602
 31
0.0
 11
-47.87155221011971
 21
-90.25638910087986
 31
0.0
 11
-47.94288075673046
 21
-90.34191277406922
 31
0.0
 11
-47.99281078037336
 21
-90.4060554708746
 31
0.0
 11
-48.06413973713768
 21
-90.53434109683184
 31
0.0
 11
-48.09980380536638
 21
-90.64837273853305
 31
0.0
 11
-48.12120232833422
 21
-90.72676941959452
 31
0.0
 11
-48.13546828374853
 21
-90.80516610065586
 31
0.0
 11
-48.13546828374853
 21
-90.94770547852272
 31
0.0
 11
-48.12120232833422
 21
-91.04748313596799
 31
0.0
 11
-48.09980380536638
 21
-91.0973720808638
 31
0.0
 11
-48.05700675943057
 21
-91.16151477766932
 31
0.0
 11
-48.02134228104842
 21
-91.20427673043712
 31
0.0
 11
-47.96427968985187
 21
-91.26129243511462
 31
0.0
 11
-47.93574818917671
 21
-91.2969273957545
 31
0.0
 11
-47.84302070944465
 21
-91.33256212404802
 31
0.0
 11
-47.80022366350874
 21
-91.34759051870895
 31
0.0
  0
SPLINE
  5
15CB
330
18
100
AcDbEntity
  8
ROGO
 62
     4
100
AcDbSpline
210
0.0
220
0.0
230
1.0
 70
     8
 71
     3
 72
    16
 73
    12
 74
    10
 42
0.0000000001
 43
0.0000000001
 44
0.0000000001
 40
0.0
 40
0.0
 40
0.0
 40
0.0
 40
0.1255907025629711
 40
0.1869327038470372
 40
0.2171823804790188
 40
0.2490606136884752
 40
0.2947101524738125
 40
0.3362763310931553
 40
0.3796288870083466
 40
0.4523125795610991
 40
0.5242542460841629
 40
0.5242542460841629
 40
0.5242542460841629
 40
0.5242542460841629
 10
-47.07980439938672
 20
-90.52302064036831
 30
0.0
 10
-47.12233510700817
 20
-90.52950473367234
 30
0.0
 10
-47.18563899821951
 20
-90.53915583895784
 30
0.0
 10
-47.24288474961061
 20
-90.58447094593349
 30
0.0
 10
-47.27516737873468
 20
-90.61143041825008
 30
0.0
 10
-47.28615007298637
 20
-90.64713241243216
 30
0.0
 10
-47.31564614084692
 20
-90.67454606346789
 30
0.0
 10
-47.33995929072416
 20
-90.71222124418394
 30
0.0
 10
-47.34576471978597
 20
-90.76396871514317
 30
0.0
 10
-47.3415034019382
 20
-90.83658840428034
 30
0.0
 10
-47.29058668736925
 20
-90.85156884827974
 30
0.0
 10
-47.26525894869758
 20
-90.85902064036833
 30
0.0
 11
-47.07980439938672
 21
-90.52302064036831
 31
0.0
 11
-47.20106296964047
 21
-90.55572207321574
 31
0.0
 11
-47.25099299328337
 21
-90.59135680150928
 31
0.0
 11
-47.27239151625122
 21
-90.61273777789329
 31
0.0
 11
-47.28665747166553
 21
-90.64124574640516
 31
0.0
 11
-47.31518897234048
 21
-90.67688047469863
 31
0.0
 11
-47.33658749530843
 21
-90.7125154353385
 31
0.0
 11
-47.34372047301554
 21
-90.75527715576004
 31
0.0
 11
-47.32945451760122
 21
-90.82654707703978
 31
0.0
 11
-47.26525894869758
 21
-90.85902064036833
 31
0.0
  0
LINE
  5
15CC
330
18
100
AcDbEntity
  8
ROGO
 62
     4
100
AcDbLine
 10
-46.42557792782542
 20
-90.85902064036833
 30
0.0
 11
-46.66919464850423
 21
-91.34759051870895
 31
0.0
  0
LINE
  5
15CD
330
18
100
AcDbEntity
  8
ROGO
 62
     4
100
AcDbLine
 10
-47.32945451760087
 20
-90.03444558815141
 30
0.0
 11
-46.01441817549505
 21
-90.03444558815141
 31
0.0
  0
LINE
  5
15CE
330
18
100
AcDbEntity
  8
ROGO
 62
     4
100
AcDbLine
 10
-43.56915389258108
 20
-91.34759051870895
 30
0.0
 11
-42.43812487757634
 21
-91.34759051870895
 31
0.0
  0
LINE
  5
15CF
330
18
100
AcDbEntity
  8
ROGO
 62
     4
100
AcDbLine
 10
-43.0983847466731
 20
-90.03444558815147
 30
0.0
 11
-41.78334840456716
 21
-90.03444558815147
 31
0.0
  0
SPLINE
  5
15D0
330
18
100
AcDbEntity
  8
ROGO
 62
     4
100
AcDbSpline
210
0.0
220
0.0
230
1.0
 70
     8
 71
     3
 72
    16
 73
    12
 74
    10
 42
0.0000000001
 43
0.0000000001
 44
0.0000000001
 40
0.0
 40
0.0
 40
0.0
 40
0.0
 40
0.1255907025629711
 40
0.1869327038470702
 40
0.217182380479092
 40
0.2490606136884975
 40
0.2947101524738793
 40
0.336276331093222
 40
0.3796288870083573
 40
0.4523125795611433
 40
0.5242542460843084
 40
0.5242542460843084
 40
0.5242542460843084
 40
0.5242542460843084
 10
-42.84873462845882
 20
-90.52302064036831
 30
0.0
 10
-42.89126533608031
 20
-90.5295047336723
 30
0.0
 10
-42.95456922729172
 20
-90.53915583895776
 30
0.0
 10
-43.01181497868265
 20
-90.58447094593367
 30
0.0
 10
-43.04409760780695
 20
-90.61143041825003
 30
0.0
 10
-43.05508030205845
 20
-90.64713241243222
 30
0.0
 10
-43.08457636991903
 20
-90.67454606346792
 30
0.0
 10
-43.10888951979626
 20
-90.71222124418397
 30
0.0
 10
-43.11469494885806
 20
-90.76396871514317
 30
0.0
 10
-43.11043363101048
 20
-90.83658840428046
 30
0.0
 10
-43.05951691644144
 20
-90.85156884827981
 30
0.0
 10
-43.03418917776968
 20
-90.85902064036838
 30
0.0
 11
-42.84873462845882
 21
-90.52302064036831
 31
0.0
 11
-42.96999319871258
 21
-90.55572207321574
 31
0.0
 11
-43.01992322235548
 21
-90.59135680150934
 31
0.0
 11
-43.04132174532344
 21
-90.61273777789329
 31
0.0
 11
-43.05558770073765
 21
-90.64124574640516
 31
0.0
 11
-43.08411920141259
 21
-90.6768804746987
 31
0.0
 11
-43.10551772438055
 21
-90.71251543533856
 31
0.0
 11
-43.11265070208764
 21
-90.75527715576004
 31
0.0
 11
-43.09838474667344
 21
-90.82654707703984
 31
0.0
 11
-43.03418917776968
 21
-90.85902064036838
 31
0.0
  0
SPLINE
  5
15D1
330
18
100
AcDbEntity
  8
ROGO
 62
     4
100
AcDbSpline
210
0.0
220
0.0
230
1.0
 70
     8
 71
     3
 72
    26
 73
    22
 74
    20
 42
0.0000000001
 43
0.0000000001
 44
0.0000000001
 40
0.0
 40
0.0
 40
0.0
 40
0.0
 40
0.2382195346592458
 40
0.3976890672660633
 40
0.512679586978723
 40
0.5985392873135292
 40
0.709903824924973
 40
0.7911890807494641
 40
0.9379713068544097
 40
1.057449928673164
 40
1.138714535893313
 40
1.218398644003493
 40
1.360938021870347
 40
1.461730374800236
 40
1.516014844108084
 40
1.593124329220467
 40
1.648806818593713
 40
1.72947236200556
 40
1.775122082164349
 40
1.874460993765152
 40
1.919820003751213
 40
1.919820003751213
 40
1.919820003751213
 40
1.919820003751213
 10
-43.09838474667344
 20
-90.03444558815147
 30
0.0
 10
-43.17924013743211
 20
-90.03926955941656
 30
0.0
 10
-43.31422195149805
 20
-90.04732280591321
 30
0.0
 10
-43.46243116220981
 20
-90.13735830977166
 30
0.0
 10
-43.57101790661999
 20
-90.18970099511408
 30
0.0
 10
-43.64846184104421
 20
-90.26085641653365
 30
0.0
 10
-43.70522855891167
 20
-90.33435476905507
 30
0.0
 10
-43.77679366360934
 20
-90.42192751718037
 30
0.0
 10
-43.83515296151526
 20
-90.52390243864499
 30
0.0
 10
-43.86487180404822
 20
-90.63629657970833
 30
0.0
 10
-43.89119647270221
 20
-90.7258753622672
 30
0.0
 10
-43.91071928767504
 20
-90.82569922515963
 30
0.0
 10
-43.90575213086211
 20
-90.93354411328187
 30
0.0
 10
-43.89863893497775
 20
-91.03370492428579
 30
0.0
 10
-43.86688024505356
 20
-91.10520474721232
 30
0.0
 10
-43.8307127226637
 20
-91.1561076941418
 30
0.0
 10
-43.78642608680869
 20
-91.21217164684045
 30
0.0
 10
-43.73796682249124
 20
-91.24930262117068
 30
0.0
 10
-43.69788705538063
 20
-91.31656787631129
 30
0.0
 10
-43.62772877511821
 20
-91.3251514079875
 30
0.0
 10
-43.5831333810424
 20
-91.34223519786443
 30
0.0
 10
-43.56915389258097
 20
-91.34759051870895
 30
0.0
 11
-43.09838474667344
 21
-90.03444558815147
 31
0.0
 11
-43.33376931962732
 21
-90.07108777024518
 31
0.0
 11
-43.47642682300227
 21
-90.14235745917858
 31
0.0
 11
-43.57628687028807
 21
-90.19937316385602
 31
0.0
 11
-43.64048243919183
 21
-90.25638910087986
 31
0.0
 11
-43.71181098580257
 21
-90.34191277406927
 31
0.0
 11
-43.76174100944559
 21
-90.4060554708746
 31
0.0
 11
-43.83306996620979
 21
-90.53434109683189
 31
0.0
 11
-43.86873403443849
 21
-90.64837273853317
 31
0.0
 11
-43.89013255740644
 21
-90.72676941959452
 31
0.0
 11
-43.90439851282065
 21
-90.80516610065586
 31
0.0
 11
-43.90439851282065
 21
-90.94770547852272
 31
0.0
 11
-43.89013255740644
 21
-91.04748313596799
 31
0.0
 11
-43.86873403443849
 21
-91.09737208086386
 31
0.0
 11
-43.8259369885028
 21
-91.16151477766932
 31
0.0
 11
-43.79027251012053
 21
-91.20427673043719
 31
0.0
 11
-43.73320991892398
 21
-91.26129243511462
 31
0.0
 11
-43.70467841824893
 21
-91.2969273957545
 31
0.0
 11
-43.61195093851677
 21
-91.33256212404802
 31
0.0
 11
-43.56915389258097
 21
-91.34759051870895
 31
0.0
  0
LINE
  5
15D2
330
18
100
AcDbEntity
  8
ROGO
 62
     4
100
AcDbLine
 10
-42.19450815689754
 20
-90.85902064036833
 30
0.0
 11
-42.43812487757634
 21
-91.34759051870895
 31
0.0
  0
LINE
  5
15D3
330
18
100
AcDbEntity
  8
ROGO
 62
     4
100
AcDbLine
 10
-43.03418917776968
 20
-90.85902064036833
 30
0.0
 11
-42.19450815689754
 21
-90.85902064036833
 31
0.0
  0
LINE
  5
15D4
330
18
100
AcDbEntity
  8
ROGO
 62
     4
100
AcDbLine
 10
-42.84873462845894
 20
-90.52302064036831
 30
0.0
 11
-42.02696770510772
 21
-90.52302064036831
 31
0.0
  0
LINE
  5
15D5
330
18
100
AcDbEntity
  8
ROGO
 62
     4
100
AcDbLine
 10
-41.78334840456716
 20
-90.03444558815147
 30
0.0
 11
-42.02696770510772
 21
-90.52302064036831
 31
0.0
  0
LINE
  5
15D6
330
18
100
AcDbEntity
  8
ROGO
 62
     4
100
AcDbLine
 10
-41.50832127544492
 20
-90.03444558815147
 30
0.0
 11
-40.75223753294074
 21
-90.03444558815147
 31
0.0
  0
LINE
  5
15D7
330
18
100
AcDbEntity
  8
ROGO
 62
     4
100
AcDbLine
 10
-41.50832127544492
 20
-90.03444558815147
 30
0.0
 11
-42.53145430711481
 21
-92.08632437305743
 31
0.0
  0
LINE
  5
15D8
330
18
100
AcDbEntity
  8
ROGO
 62
     4
100
AcDbLine
 10
-40.75223753294074
 20
-90.03444558815147
 30
0.0
 11
-40.8639428398618
 21
-90.25846899697308
 31
0.0
  0
LINE
  5
15D9
330
18
100
AcDbEntity
  8
ROGO
 62
     4
100
AcDbLine
 10
-40.8639428398618
 20
-90.25846899697308
 30
0.0
 11
-40.50992975678298
 21
-90.03444558815147
 31
0.0
  0
LINE
  5
15DA
330
18
100
AcDbEntity
  8
ROGO
 62
     4
100
AcDbLine
 10
-41.50832127544492
 20
-91.5507608109379
 30
0.0
 11
-41.24127198627923
 21
-92.08632437305743
 31
0.0
  0
LINE
  5
15DB
330
18
100
AcDbEntity
  8
ROGO
 62
     4
100
AcDbLine
 10
-40.9967713021142
 20
-91.06038498060446
 30
0.0
 11
-40.48520478627927
 21
-92.08632437305743
 31
0.0
  0
LINE
  5
15DC
330
18
100
AcDbEntity
  8
ROGO
 62
     4
100
AcDbLine
 10
-41.50832127544492
 20
-91.5507608109379
 30
0.0
 11
-41.77537056461062
 21
-92.08632437305743
 31
0.0
  0
LINE
  5
15DD
330
18
100
AcDbEntity
  8
ROGO
 62
     4
100
AcDbLine
 10
-40.9967713021142
 20
-91.06038498060446
 30
0.0
 11
-39.75386255678302
 21
-90.03444558815147
 31
0.0
  0
LINE
  5
15DE
330
18
100
AcDbEntity
  8
ROGO
 62
     4
100
AcDbLine
 10
-40.50992975678298
 20
-90.03444558815147
 30
0.0
 11
-39.75386255678302
 21
-90.03444558815147
 31
0.0
  0
LINE
  5
15DF
330
18
100
AcDbEntity
  8
ROGO
 62
     4
100
AcDbLine
 10
-41.24127198627923
 20
-92.08632437305743
 30
0.0
 11
-40.48520478627927
 21
-92.08632437305743
 31
0.0
  0
LINE
  5
15E0
102
{ACAD_REACTORS
330
15E2
102
}
330
18
100
AcDbEntity
  8
ROGO
 62
     4
100
AcDbLine
 10
-52.08417498535107
 20
-90.03444558815147
 30
0.0
 11
-50.3080918368671
 21
-90.03444558815141
 31
0.0
  0
LINE
  5
15E1
330
18
100
AcDbEntity
  8
ROGO
 62
     4
100
AcDbLine
 10
-54.63195928719267
 20
-91.8806541667662
 30
0.0
 11
-42.42890049972868
 21
-91.8806541667662
 31
0.0
  0
HATCH
  5
15E2
330
18
100
AcDbEntity
  8
ROGO
 62
     4
100
AcDbHatch
 10
0.0
 20
0.0
 30
0.0
210
0.0
220
0.0
230
1.0
  2
SOLID
 70
     1
 71
     1
 91
        1
 92
        1
 93
       12
 72
     1
 10
-52.08417498535107
 20
-90.03444558815147
 11
-50.3080918368671
 21
-90.03444558815141
 72
     1
 10
-50.3080918368671
 20
-90.03444558815147
 11
-50.4569260326017
 21
-90.33524791884355
 72
     1
 10
-50.4569260326017
 20
-90.33524791884355
 11
-51.39039045481957
 21
-90.33524791884355
 72
     1
 10
-51.39039045481957
 20
-90.33524791884355
 11
-51.50676030089607
 21
-90.57043796202771
 72
     1
 10
-51.50676030089607
 20
-90.57043796202771
 11
-50.57329587867809
 21
-90.57043796202771
 72
     1
 10
-50.57329587867809
 20
-90.57043796202771
 11
-50.69262225430202
 21
-90.81160331870893
 72
     1
 10
-50.69262225430202
 20
-90.81160331870893
 11
-51.62608667652
 21
-90.81160331870893
 72
     1
 10
-51.62608667652
 20
-90.81160331870893
 11
-51.74246144913638
 21
-91.04680331870889
 72
     1
 10
-51.74246144913627
 20
-91.04680331870889
 11
-50.80899702691829
 21
-91.04680331870889
 72
     1
 10
-50.80899702691829
 20
-91.04680331870889
 11
-50.95782373612713
 21
-91.34759051870895
 72
     1
 10
-50.95782373612713
 20
-91.34759051870895
 11
-52.73390688461109
 21
-91.34759051870895
 72
     1
 10
-52.73390688461109
 20
-91.34759051870895
 11
-52.08417498535107
 21
-90.03444558815147
 97
       12
330
15E0
330
15B4
330
15B7
330
15B6
330
15B8
330
15BB
330
15BA
330
15BD
330
15B9
330
15BC
330
15B5
330
15B3
 75
     0
 76
     1
 98
        1
 10
-124.7343039640599
 20
-180.8325416362627
450
        0
451
        0
460
0.0
461
0.0
452
        0
462
0.0
453
        0
470

  0
HATCH
  5
15E3
330
18
100
AcDbEntity
  8
ROGO
 62
     4
100
AcDbHatch
 10
0.0
 20
0.0
 30
0.0
210
0.0
220
0.0
230
1.0
  2
SOLID
 70
     1
 71
     0
 91
        1
 92
        5
 93
        8
 72
     1
 10
-46.25803747603561
 20
-90.52302064036831
 11
-46.01441817549502
 21
-90.03444558815141
 72
     1
 10
-46.01441817549502
 20
-90.03444558815141
 11
-47.32945451760111
 21
-90.03444558815141
 72
     4
 94
        3
 73
     0
 74
     0
 95
       26
 96
       22
 40
0.0
 40
0.0
 40
0.0
 40
0.0
 40
0.2382195346592458
 40
0.397689067266165
 40
0.5126795869788247
 40
0.5985392873136309
 40
0.709903824925031
 40
0.791189080749497
 40
0.9379713068544484
 40
1.057449928673148
 40
1.138714535893377
 40
1.218398644003578
 40
1.360938021870431
 40
1.461730374800337
 40
1.516014844108087
 40
1.59312432922058
 40
1.64880681859371
 40
1.729472362005597
 40
1.775122082164457
 40
1.874460993765154
 40
1.919820003751323
 40
1.919820003751323
 40
1.919820003751323
 40
1.919820003751323
 10
-47.32945451760122
 20
-90.03444558815147
 10
-47.41030990835989
 20
-90.03926955941656
 10
-47.54529172242587
 20
-90.0473228059133
 10
-47.69350093313767
 20
-90.13735830977163
 10
-47.80208767754788
 20
-90.18970099511404
 10
-47.87953161197208
 20
-90.26085641653367
 10
-47.93629832983964
 20
-90.33435476905498
 10
-48.007863434537
 20
-90.42192751718046
 10
-48.06622273244312
 20
-90.52390243864488
 10
-48.09594157497622
 20
-90.63629657970825
 10
-48.12226624362989
 20
-90.72587536226718
 10
-48.14178905860302
 20
-90.82569922515961
 10
-48.13682190179008
 20
-90.93354411328197
 10
-48.12970870590544
 20
-91.03370492428567
 10
-48.0979500159815
 20
-91.10520474721235
 10
-48.06178249359152
 20
-91.15610769414173
 10
-48.01749585773655
 20
-91.21217164684043
 10
-47.96903659341916
 20
-91.24930262117073
 10
-47.92895682630839
 20
-91.3165678763112
 10
-47.85879854604604
 20
-91.3251514079875
 10
-47.81420315197022
 20
-91.34223519786445
 10
-47.80022366350874
 20
-91.34759051870895
 72
     1
 10
-47.80022366350874
 20
-91.34759051870895
 11
-46.66919464850423
 21
-91.34759051870895
 72
     1
 10
-46.66919464850423
 20
-91.34759051870895
 11
-46.42557792782542
 21
-90.85902064036833
 72
     1
 10
-46.42557792782542
 20
-90.85902064036833
 11
-47.26525894869758
 21
-90.85902064036833
 72
     4
 94
        3
 73
     0
 74
     0
 95
       16
 96
       12
 40
0.0
 40
0.0
 40
0.0
 40
0.0
 40
0.0719416665230637
 40
0.1446253590758162
 40
0.1879779149910075
 40
0.2295440936103503
 40
0.2751936323956877
 40
0.3070718656051441
 40
0.3373215422371256
 40
0.3986635435211917
 40
0.5242542460841629
 40
0.5242542460841629
 40
0.5242542460841629
 40
0.5242542460841629
 10
-47.26525894869758
 20
-90.85902064036833
 10
-47.29058668736922
 20
-90.85156884827972
 10
-47.34150340193821
 20
-90.83658840428034
 10
-47.34576471978596
 20
-90.76396871514317
 10
-47.33995929072415
 20
-90.71222124418392
 10
-47.31564614084692
 20
-90.67454606346791
 10
-47.28615007298637
 20
-90.64713241243216
 10
-47.27516737873469
 20
-90.6114304182501
 10
-47.24288474961059
 20
-90.58447094593351
 10
-47.18563899821953
 20
-90.53915583895781
 10
-47.12233510700815
 20
-90.5295047336723
 10
-47.07980439938672
 20
-90.52302064036831
 72
     1
 10
-47.07980439938672
 20
-90.52302064036831
 11
-46.25803747603561
 21
-90.52302064036831
 97
        0
 75
     0
 76
     1
 47
0.0514683685270805
 98
        1
 10
-46.86953762039434
 20
-90.32676704449841
450
        0
451
        0
460
0.0
461
0.0
452
        0
462
0.0
453
        0
470

  0
HATCH
  5
15E4
330
18
100
AcDbEntity
  8
ROGO
 62
     4
100
AcDbHatch
 10
0.0
 20
0.0
 30
0.0
210
0.0
220
0.0
230
1.0
  2
SOLID
 70
     1
 71
     0
 91
        1
 92
        5
 93
        8
 72
     4
 94
        3
 73
     0
 74
     0
 95
       26
 96
       22
 40
0.0
 40
0.0
 40
0.0
 40
0.0
 40
0.2382195346592458
 40
0.3976890672660633
 40
0.512679586978723
 40
0.5985392873135292
 40
0.709903824924973
 40
0.7911890807494641
 40
0.9379713068544097
 40
1.057449928673164
 40
1.138714535893313
 40
1.218398644003493
 40
1.360938021870347
 40
1.461730374800236
 40
1.516014844108084
 40
1.593124329220467
 40
1.648806818593713
 40
1.72947236200556
 40
1.775122082164349
 40
1.874460993765152
 40
1.919820003751213
 40
1.919820003751213
 40
1.919820003751213
 40
1.919820003751213
 10
-43.09838474667344
 20
-90.03444558815147
 10
-43.17924013743211
 20
-90.03926955941656
 10
-43.31422195149807
 20
-90.04732280591326
 10
-43.46243116220981
 20
-90.13735830977163
 10
-43.57101790661997
 20
-90.18970099511404
 10
-43.64846184104422
 20
-90.26085641653367
 10
-43.70522855891169
 20
-90.33435476905509
 10
-43.77679366360934
 20
-90.42192751718038
 10
-43.83515296151523
 20
-90.52390243864497
 10
-43.86487180404822
 20
-90.63629657970835
 10
-43.8911964727022
 20
-90.72587536226718
 10
-43.91071928767504
 20
-90.82569922515967
 10
-43.90575213086214
 20
-90.9335441132819
 10
-43.89863893497772
 20
-91.03370492428576
 10
-43.8668802450536
 20
-91.10520474721239
 10
-43.83071272266374
 20
-91.1561076941418
 10
-43.78642608680865
 20
-91.21217164684038
 10
-43.73796682249127
 20
-91.24930262117073
 10
-43.69788705538065
 20
-91.31656787631127
 10
-43.62772877511821
 20
-91.32515140798748
 10
-43.58313338104238
 20
-91.34223519786445
 10
-43.56915389258097
 20
-91.34759051870895
 72
     1
 10
-43.56915389258097
 20
-91.34759051870895
 11
-42.43812487757634
 21
-91.34759051870899
 72
     1
 10
-42.43812487757634
 20
-91.34759051870899
 11
-42.19450815689754
 21
-90.85902064036833
 72
     1
 10
-42.19450815689754
 20
-90.85902064036833
 11
-43.03418917776968
 21
-90.85902064036833
 72
     4
 94
        3
 73
     0
 74
     0
 95
       16
 96
       12
 40
0.0
 40
0.0
 40
0.0
 40
0.0
 40
0.0719416665231652
 40
0.1446253590759511
 40
0.1879779149910863
 40
0.2295440936104291
 40
0.2751936323958108
 40
0.3070718656052164
 40
0.3373215422372382
 40
0.3986635435213372
 40
0.5242542460843084
 40
0.5242542460843084
 40
0.5242542460843084
 40
0.5242542460843084
 10
-43.03418917776968
 20
-90.85902064036838
 10
-43.05951691644142
 20
-90.85156884827979
 10
-43.11043363101046
 20
-90.83658840428043
 10
-43.11469494885804
 20
-90.76396871514317
 10
-43.10888951979626
 20
-90.71222124418397
 10
-43.08457636991903
 20
-90.67454606346791
 10
-43.05508030205845
 20
-90.64713241243223
 10
-43.04409760780695
 20
-90.61143041824999
 10
-43.01181497868265
 20
-90.58447094593367
 10
-42.9545692272917
 20
-90.53915583895776
 10
-42.89126533608029
 20
-90.5295047336723
 10
-42.84873462845882
 20
-90.52302064036831
 72
     1
 10
-42.84873462845877
 20
-90.52302064036831
 11
-42.02696770510772
 21
-90.52302064036831
 72
     1
 10
-42.02696770510772
 20
-90.52302064036831
 11
-41.78334840456713
 21
-90.03444558815147
 72
     1
 10
-41.78334840456713
 20
-90.03444558815147
 11
-43.09838474667347
 21
-90.03444558815147
 97
        0
 75
     0
 76
     1
 47
0.0514683685270805
 98
        1
 10
-42.87146731698851
 20
-90.27488689133054
450
        0
451
        0
460
0.0
461
0.0
452
        0
462
0.0
453
        0
470

  0
HATCH
  5
15E5
330
18
100
AcDbEntity
  8
ROGO
 62
     4
100
AcDbHatch
 10
0.0
 20
0.0
 30
0.0
210
0.0
220
0.0
230
1.0
  2
SOLID
 70
     1
 71
     0
 91
        1
 92
        7
 72
     0
 73
     1
 93
        4
 10
-54.61769584027596
 20
-91.8806541667662
 10
-54.71074687569796
 20
-92.08632437305743
 10
-42.53145430711481
 20
-92.08632437305741
 10
-42.42890049972871
 20
-91.8806541667662
 97
        0
 75
     0
 76
     1
 47
0.0514683685270805
 98
        1
 10
-46.92146057938759
 20
-91.93505063097097
450
        0
451
        0
460
0.0
461
0.0
452
        0
462
0.0
453
        0
470

  0
HATCH
  5
15E6
330
18
100
AcDbEntity
  8
ROGO
 62
     4
100
AcDbHatch
 10
0.0
 20
0.0
 30
0.0
210
0.0
220
0.0
230
1.0
  2
SOLID
 70
     1
 71
     0
 91
        1
 92
        7
 72
     0
 73
     1
 93
       11
 10
-42.53145430711478
 20
-92.08632437305743
 10
-41.77537056461062
 20
-92.08632437305743
 10
-41.50832127544496
 20
-91.55076081093785
 10
-41.24127198627926
 20
-92.08632437305746
 10
-40.4852047862793
 20
-92.08632437305741
 10
-40.99677130211424
 20
-91.06038498060447
 10
-39.75386255678308
 20
-90.03444558815147
 10
-40.50992975678292
 20
-90.03444558815147
 10
-40.8639428398618
 20
-90.25846899697304
 10
-40.75223753294074
 20
-90.03444558815145
 10
-41.50832127544492
 20
-90.0344455881515
 97
        0
 75
     0
 76
     1
 47
0.0514683685270805
 98
        1
 10
-41.57339252184885
 20
-90.91474157159296
450
        0
451
        0
460
0.0
461
0.0
452
        0
462
0.0
453
        0
470

  0
HATCH
  5
15E7
330
18
100
AcDbEntity
  8
ROGO
 62
     4
100
AcDbHatch
 10
0.0
 20
0.0
 30
0.0
210
0.0
220
0.0
230
1.0
  2
SOLID
 70
     1
 71
     1
 91
        1
 92
        5
 93
        6
 72
     1
 10
-55.6645478316344
 20
-92.08632437305743
 11
-54.71074687569796
 21
-92.08632437305743
 72
     1
 10
-54.71074687569796
 20
-92.08632437305743
 11
-54.37652272486946
 21
-91.34759051870895
 72
     1
 10
-54.37652272486946
 20
-91.34759051870895
 11
-53.48491445669733
 21
-91.34759051870895
 72
     4
 94
        3
 73
     0
 74
     0
 95
       18
 96
       14
 40
0.108740278791501
 40
0.108740278791501
 40
0.108740278791501
 40
0.108740278791501
 40
0.6623149649549278
 40
1.384304701649787
 40
2.097394834876493
 40
2.774073369849618
 40
3.428974823686337
 40
4.005208313035923
 40
4.455173659284313
 40
4.720999734343524
 40
5.086034088486724
 40
5.569973738255373
 40
6.060470601257719
 40
6.060470601257719
 40
6.060470601257719
 40
6.060470601257719
 10
-53.48491445669731
 20
-91.34759051870895
 10
-53.42216453980256
 20
-91.3471232390778
 10
-53.27757418274905
 20
-91.34604651846922
 10
-53.0752934046418
 20
-91.23798368197384
 10
-52.88347343154885
 20
-91.10031950163209
 10
-52.72897549246739
 20
-90.92832247083027
 10
-52.63271862159126
 20
-90.73167333330957
 10
-52.61780873654413
 20
-90.54320319773784
 10
-52.62691085505514
 20
-90.39412566358141
 10
-52.69195006359814
 20
-90.29021492127856
 10
-52.7595662575228
 20
-90.18475614410579
 10
-52.88355149307006
 20
-90.09340383431441
 10
-52.98513944092054
 20
-90.05337794299913
 10
-53.03679897855658
 20
-90.03444558815141
 72
     1
 10
-53.03679897855654
 20
-90.03444558815147
 11
-54.64929729154174
 21
-90.03444558815145
 72
     1
 10
-54.64929729154174
 20
-90.03444558815145
 11
-55.6645478316344
 21
-92.08632437305743
 97
        6
330
15AC
330
15A9
330
15AB
330
15AA
330
15B2
330
15AD
 75
     0
 76
     1
 47
0.0514683685270805
 98
        1
 10
-54.6406787382349
 20
-90.67263434504042
450
        0
451
        0
460
0.0
461
0.0
452
        0
462
0.0
453
        0
470

  0
LINE
  5
15E8
330
18
100
AcDbEntity
  8
ROGO
 62
     4
100
AcDbLine
 10
-48.74319408889789
 20
-90.03444558815147
 30
0.0
 11
-48.15984307851465
 21
-91.34759051870895
 31
0.0
  0
LINE
  5
15E9
330
18
100
AcDbEntity
  8
ROGO
 62
     4
100
AcDbLine
 10
-49.3194697150376
 20
-90.3854545651032
 30
0.0
 11
-49.12026232931225
 21
-90.83387783692211
 31
0.0
  0
LINE
  5
15EA
330
18
100
AcDbEntity
  8
ROGO
 62
     4
100
AcDbLine
 10
-49.00311722371168
 20
-91.09757584861814
 30
0.0
 11
-48.89205080064278
 21
-91.34759051870895
 31
0.0
  0
HATCH
  5
15EB
330
18
100
AcDbEntity
  8
ROGO
 62
     4
100
AcDbHatch
 10
0.0
 20
0.0
 30
0.0
210
0.0
220
0.0
230
1.0
  2
SOLID
 70
     1
 71
     0
 91
        2
 92
        7
 72
     0
 73
     1
 93
        8
 10
-48.74319408889792
 20
-90.03444558815141
 10
-49.79359757166946
 20
-90.03444558815147
 10
-50.74053190176858
 20
-91.34759051870895
 10
-50.01328465007697
 20
-91.34759051870892
 10
-49.83299421249603
 20
-91.0975758486181
 10
-49.00311722371168
 20
-91.09757584861814
 10
-48.89205080064281
 20
-91.34759051870892
 10
-48.15984307851469
 20
-91.3475905187089
 97
        0
 92
       22
 72
     0
 73
     1
 93
        3
 10
-49.12026232931228
 20
-90.83387783692206
 10
-49.64283645135092
 20
-90.83387783692208
 10
-49.31946971503762
 20
-90.38545456510311
 97
        0
 75
     0
 76
     1
 47
0.0128389261915577
 98
        2
 10
-48.82544898139371
 20
-90.34948750496051
 10
-48.82544898139371
 20
-90.34948750496051
450
        0
451
        0
460
0.0
461
0.0
452
        0
462
0.0
453
        0
470

  0
SPLINE
  5
15EC
102
{ACAD_REACTORS
330
15F3
102
}
330
18
100
AcDbEntity
  8
ROGO
 62
     4
100
AcDbSpline
210
0.0
220
0.0
230
1.0
 70
     8
 71
     3
 72
    38
 73
    34
 74
    32
 42
0.0000000001
 43
0.0000000001
 44
0.0000000001
 40
0.0
 40
0.0
 40
0.0
 40
0.0
 40
0.1807680148264315
 40
0.2375392910068956
 40
0.3104865209605649
 40
0.371275998244695
 40
0.4225667543873034
 40
0.4906925837207053
 40
0.5255021974951975
 40
0.5647069597052399
 40
0.6224874016818859
 40
0.6879401044674396
 40
0.730398631755179
 40
0.7765228362185655
 40
0.8277951442290374
 40
0.9056034697002331
 40
0.9795294930264308
 40
1.013897332333026
 40
1.053089255536057
 40
1.099518741889677
 40
1.132570569820754
 40
1.160277520290309
 40
1.199836786293901
 40
1.24330564316918
 40
1.286774258017005
 40
1.324809356515716
 40
1.411916492917686
 40
1.446284332224282
 40
1.515020051661241
 40
1.575779369908466
 40
1.692098529536296
 40
1.835624328519119
 40
2.042896467983974
 40
2.042896467983974
 40
2.042896467983974
 40
2.042896467983974
 10
-45.28519285545224
 20
-90.02896836897912
 30
0.0
 10
-45.3454482530779
 20
-90.03322498808001
 30
0.0
 10
-45.42462721869901
 20
-90.03881842386723
 30
0.0
 10
-45.52516599120862
 20
-90.06636305007209
 30
0.0
 10
-45.57997074564951
 20
-90.09917756952999
 30
0.0
 10
-45.63700604696674
 20
-90.12329781423058
 30
0.0
 10
-45.68563395335181
 20
-90.15901511347978
 30
0.0
 10
-45.73482005404772
 20
-90.17741989367317
 30
0.0
 10
-45.76926166742357
 20
-90.2106070020458
 30
0.0
 10
-45.80912502555642
 20
-90.23087912022081
 30
0.0
 10
-45.84086892539174
 20
-90.27625401423513
 30
0.0
 10
-45.87634960192345
 20
-90.31867789589373
 30
0.0
 10
-45.91751165033065
 20
-90.34964543747101
 30
0.0
 10
-45.95129389589001
 20
-90.38217041643351
 30
0.0
 10
-45.98228440881433
 20
-90.4323662316173
 30
0.0
 10
-46.00062598138548
 20
-90.49906160630296
 30
0.0
 10
-46.05232779579478
 20
-90.54117066058813
 30
0.0
 10
-46.06011247027799
 20
-90.59179830826421
 30
0.0
 10
-46.08871032047363
 20
-90.62166776845495
 30
0.0
 10
-46.1011456659296
 20
-90.66022495043993
 30
0.0
 10
-46.10588164405335
 20
-90.69555013976065
 30
0.0
 10
-46.11156594709568
 20
-90.72854142118899
 30
0.0
 10
-46.12643500732843
 20
-90.7632467919268
 30
0.0
 10
-46.12158169476692
 20
-90.80611707086175
 30
0.0
 10
-46.12296425780911
 20
-90.84762978488829
 30
0.0
 10
-46.12215061783586
 20
-90.90367324149973
 30
0.0
 10
-46.12508715718191
 20
-90.95823843841927
 30
0.0
 10
-46.10166940666672
 20
-91.01761831458761
 30
0.0
 10
-46.08781155906404
 20
-91.0705472592542
 30
0.0
 10
-46.04985958912027
 20
-91.14383380150561
 30
0.0
 10
-45.98439323630242
 20
-91.22839062521455
 30
0.0
 10
-45.85990349028492
 20
-91.33102658850734
 30
0.0
 10
-45.74020295972558
 20
-91.34143852922465
 30
0.0
 10
-45.66947681699537
 20
-91.34759051870895
 30
0.0
 11
-45.28519285545224
 21
-90.02896836897912
 31
0.0
 11
-45.46464949239953
 21
-90.05070291843054
 31
0.0
 11
-45.51903027852768
 21
-90.06700346747782
 31
0.0
 11
-45.58428696553562
 21
-90.09960504962748
 31
0.0
 11
-45.63866775166377
 21
-90.12677287340052
 31
0.0
 11
-45.68217220966914
 21
-90.15394093920098
 31
0.0
 11
-45.74199094623724
 21
-90.18654227932314
 31
0.0
 11
-45.76918155292287
 21
-90.20827658674704
 31
0.0
 11
-45.80181011004833
 21
-90.23001113619846
 31
0.0
 11
-45.83987661761375
 21
-90.2734797510463
 31
0.0
 11
-45.88338107561901
 21
-90.32238188224324
 31
0.0
 11
-45.9160096327447
 21
-90.34954994804371
 31
0.0
 11
-45.94863776262707
 21
-90.38215128816586
 31
0.0
 11
-45.97582836931269
 21
-90.42561990301368
 31
0.0
 11
-46.00845649919506
 21
-90.49625658366199
 31
0.0
 11
-46.05196138444353
 21
-90.55602598958461
 31
0.0
 11
-46.06283728532332
 21
-90.5886275717342
 31
0.0
 11
-46.08458951432601
 21
-90.62122891185646
 31
0.0
 11
-46.10090379288874
 21
-90.66469776873168
 31
0.0
 11
-46.10634217057167
 21
-90.69729910885389
 31
0.0
 11
-46.11178012101151
 21
-90.7244671746543
 31
0.0
 11
-46.12265602189142
 21
-90.76250203112563
 31
0.0
 11
-46.12265602189142
 21
-90.80597088800089
 31
0.0
 11
-46.12265602189142
 21
-90.84943950284872
 31
0.0
 11
-46.12265602189142
 21
-90.88747460134744
 31
0.0
 11
-46.11721807145147
 21
-90.97441183104313
 31
0.0
 11
-46.10634217057167
 21
-91.00701341319274
 31
0.0
 11
-46.08458951432601
 21
-91.07221633546448
 31
0.0
 11
-46.05739933488337
 21
-91.12655222503798
 31
0.0
 11
-45.98670427019249
 21
-91.2189229710828
 31
0.0
 11
-45.87250474749623
 21
-91.3058604428059
 31
0.0
 11
-45.66947681699537
 21
-91.34759051870895
 31
0.0
  0
SPLINE
  5
15ED
102
{ACAD_REACTORS
330
15F3
102
}
330
18
100
AcDbEntity
  8
ROGO
 62
     4
100
AcDbSpline
210
0.0
220
0.0
230
1.0
 70
     8
 71
     3
 72
    25
 73
    21
 74
     0
 42
0.0000000001
 43
0.0000000001
 40
0.0
 40
0.0
 40
0.0
 40
0.0
 40
0.4087168505087288
 40
0.6887487002771746
 40
0.9415836120477687
 40
1.17452070575514
 40
1.41154617586699
 40
1.599156012919487
 40
1.80099909059943
 40
2.178735911501585
 40
2.521686161369157
 40
2.762704659361267
 40
3.06256558063785
 40
3.222432137207705
 40
3.399493810628493
 40
3.567459719866414
 40
3.743172740007509
 40
3.995988754699505
 40
4.17170091132118
 40
4.337226830236035
 40
4.337226830236035
 40
4.337226830236035
 40
4.337226830236035
 10
-44.53473903226688
 20
-90.02896836897912
 30
0.0
 10
-44.48551898184132
 20
-90.03054975843525
 30
0.0
 10
-44.40257587412282
 20
-90.03321463494126
 30
0.0
 10
-44.31352621550161
 20
-90.10281732431678
 30
0.0
 10
-44.24538799474237
 20
-90.16052328663176
 30
0.0
 10
-44.19702263988177
 20
-90.23028709296591
 30
0.0
 10
-44.15462905123933
 20
-90.29443119664307
 30
0.0
 10
-44.12669489047004
 20
-90.36215261130918
 30
0.0
 10
-44.08869891279539
 20
-90.44341210684605
 30
0.0
 10
-44.07297045514804
 20
-90.55212523927707
 30
0.0
 10
-44.08359689848476
 20
-90.66449029232263
 30
0.0
 10
-44.11132695398225
 20
-90.7640915760261
 30
0.0
 10
-44.14041355268227
 20
-90.84050334117023
 30
0.0
 10
-44.17469557159961
 20
-90.90702452316083
 30
0.0
 10
-44.21556411890366
 20
-90.95009699365988
 30
0.0
 10
-44.24391707444272
 20
-91.00486322000739
 30
0.0
 10
-44.29837947516
 20
-91.04965905288082
 30
0.0
 10
-44.34252963496658
 20
-91.10493082333482
 30
0.0
 10
-44.39263087160623
 20
-91.15237117167344
 30
0.0
 10
-44.42087817091021
 20
-91.18164129489514
 30
0.0
 10
-44.43577082830393
 20
-91.1939480388408
 30
0.0
  0
LINE
  5
15EE
102
{ACAD_REACTORS
330
15F3
102
}
330
18
100
AcDbEntity
  8
ROGO
 62
     4
100
AcDbLine
 10
-45.28519285545224
 20
-90.02896836897912
 30
0.0
 11
-44.53473903226688
 21
-90.02896836897912
 31
0.0
  0
LINE
  5
15EF
102
{ACAD_REACTORS
330
15F3
102
}
330
18
100
AcDbEntity
  8
ROGO
 62
     4
100
AcDbLine
 10
-45.66947681699537
 20
-91.34759051870895
 30
0.0
 11
-44.91902299381002
 21
-91.34759051870895
 31
0.0
  0
SPLINE
  5
15F0
102
{ACAD_REACTORS
330
15F3
102
}
330
18
100
AcDbEntity
  8
ROGO
 62
     4
100
AcDbSpline
210
0.0
220
0.0
230
1.0
 70
     8
 71
     3
 72
    11
 73
     7
 74
     0
 42
0.0000000001
 43
0.0000000001
 40
0.1647869275458134
 40
0.1647869275458134
 40
0.1647869275458134
 40
0.1647869275458134
 40
0.2895635144633836
 40
0.5387013147903714
 40
0.7953622617455423
 40
0.8850764140209602
 40
0.8850764140209602
 40
0.8850764140209602
 40
0.8850764140209602
 10
-44.66900553519201
 20
-91.31831407180033
 30
0.0
 10
-44.68298407799283
 20
-91.32220500451683
 30
0.0
 10
-44.72632508942706
 20
-91.32913259430074
 30
0.0
 10
-44.79902385656521
 20
-91.3386449886741
 30
0.0
 10
-44.86812039866151
 20
-91.34857151925871
 30
0.0
 10
-44.90855109349001
 20
-91.34779233435194
 30
0.0
 10
-44.91902299381002
 20
-91.34759051870895
 30
0.0
  0
SPLINE
  5
15F1
102
{ACAD_REACTORS
330
15F3
102
}
330
18
100
AcDbEntity
  8
ROGO
 62
     4
100
AcDbSpline
210
0.0
220
0.0
230
1.0
 70
     8
 71
     3
 72
     9
 73
     5
 74
     3
 42
0.0000000001
 43
0.0000000001
 44
0.0000000001
 40
0.0
 40
0.0
 40
0.0
 40
0.0
 40
0.1135793343552172
 40
0.2662938392177403
 40
0.2662938392177403
 40
0.2662938392177403
 40
0.2662938392177403
 10
-44.66900553519201
 20
-91.31831407180033
 30
0.0
 10
-44.63252056687402
 20
-91.30715173207713
 30
0.0
 10
-44.54697928119656
 20
-91.28098092982316
 30
0.0
 10
-44.47630258395977
 20
-91.22566861204871
 30
0.0
 10
-44.43577082830393
 20
-91.1939480388408
 30
0.0
 11
-44.66900553519201
 21
-91.31831407180033
 31
0.0
 11
-44.56225477096734
 21
-91.27952567753061
 31
0.0
 11
-44.43577082830393
 21
-91.1939480388408
 31
0.0
  0
ELLIPSE
  5
15F2
330
18
100
AcDbEntity
  8
ROGO
 62
     4
100
AcDbEllipse
 10
-45.11273446082157
 20
-90.70666436119813
 30
0.0
 11
0.1782847090673272
 21
0.1567790921840611
 31
0.0
210
0.0
220
0.0
230
0.9999999999999998
 40
0.6788083417438792
 41
0.0
 42
6.283185307179586
  0
HATCH
  5
15F3
330
18
100
AcDbEntity
  8
ROGO
 62
     4
100
AcDbHatch
 10
0.0
 20
0.0
 30
0.0
210
0.0
220
0.0
230
1.0
  2
SOLID
 70
     1
 71
     1
 91
        1
 92
        5
 93
        6
 72
     4
 94
        3
 73
     0
 74
     0
 95
       38
 96
       34
 40
0.0
 40
0.0
 40
0.0
 40
0.0
 40
0.1807680148264315
 40
0.2375392910068956
 40
0.3104865209605649
 40
0.371275998244695
 40
0.4225667543873034
 40
0.4906925837207053
 40
0.5255021974951975
 40
0.5647069597052399
 40
0.6224874016818859
 40
0.6879401044674396
 40
0.730398631755179
 40
0.7765228362185655
 40
0.8277951442290374
 40
0.9056034697002331
 40
0.9795294930264308
 40
1.013897332333026
 40
1.053089255536057
 40
1.099518741889677
 40
1.132570569820754
 40
1.160277520290309
 40
1.199836786293901
 40
1.24330564316918
 40
1.286774258017005
 40
1.324809356515716
 40
1.411916492917686
 40
1.446284332224282
 40
1.515020051661241
 40
1.575779369908466
 40
1.692098529536296
 40
1.835624328519119
 40
2.042896467983974
 40
2.042896467983974
 40
2.042896467983974
 40
2.042896467983974
 10
-45.28519285545224
 20
-90.02896836897912
 10
-45.3454482530779
 20
-90.03322498807998
 10
-45.42462721869902
 20
-90.03881842386716
 10
-45.52516599120861
 20
-90.06636305007214
 10
-45.57997074564949
 20
-90.09917756953001
 10
-45.6370060469668
 20
-90.12329781423051
 10
-45.68563395335181
 20
-90.15901511347976
 10
-45.7348200540477
 20
-90.17741989367317
 10
-45.76926166742359
 20
-90.21060700204584
 10
-45.8091250255564
 20
-90.23087912022081
 10
-45.84086892539176
 20
-90.27625401423515
 10
-45.87634960192343
 20
-90.31867789589368
 10
-45.91751165033071
 20
-90.34964543747099
 10
-45.95129389588999
 20
-90.38217041643347
 10
-45.98228440881434
 20
-90.43236623161735
 10
-46.00062598138549
 20
-90.49906160630298
 10
-46.05232779579478
 20
-90.54117066058807
 10
-46.06011247027796
 20
-90.59179830826431
 10
-46.08871032047363
 20
-90.62166776845486
 10
-46.10114566592957
 20
-90.66022495044
 10
-46.10588164405339
 20
-90.69555013976062
 10
-46.11156594709561
 20
-90.72854142118904
 10
-46.12643500732846
 20
-90.76324679192675
 10
-46.12158169476692
 20
-90.80611707086177
 10
-46.12296425780914
 20
-90.84762978488825
 10
-46.12215061783587
 20
-90.90367324149974
 10
-46.12508715718194
 20
-90.95823843841918
 10
-46.1016694066667
 20
-91.01761831458764
 10
-46.08781155906405
 20
-91.0705472592542
 10
-46.04985958912024
 20
-91.14383380150565
 10
-45.98439323630242
 20
-91.22839062521455
 10
-45.85990349028489
 20
-91.33102658850736
 10
-45.74020295972556
 20
-91.34143852922463
 10
-45.66947681699537
 20
-91.34759051870895
 72
     1
 10
-45.66947681699537
 20
-91.34759051870895
 11
-44.91902299381023
 21
-91.34759051870894
 72
     4
 94
        3
 73
     0
 74
     0
 95
       11
 96
        7
 40
0.1647869275458135
 40
0.1647869275458135
 40
0.1647869275458135
 40
0.1647869275458135
 40
0.2545010798212315
 40
0.5111620267764023
 40
0.7602998271033902
 40
0.8850764140209603
 40
0.8850764140209603
 40
0.8850764140209603
 40
0.8850764140209603
 10
-44.91902299381002
 20
-91.34759051870895
 10
-44.90855109349001
 20
-91.34779233435194
 10
-44.86812039866151
 20
-91.34857151925871
 10
-44.79902385656521
 20
-91.3386449886741
 10
-44.72632508942706
 20
-91.32913259430074
 10
-44.68298407799283
 20
-91.32220500451683
 10
-44.66900553519201
 20
-91.31831407180033
 72
     4
 94
        3
 73
     0
 74
     0
 95
        9
 96
        5
 40
0.0
 40
0.0
 40
0.0
 40
0.0
 40
0.1135793343552172
 40
0.2662938392177403
 40
0.2662938392177403
 40
0.2662938392177403
 40
0.2662938392177403
 10
-44.66900553519201
 20
-91.31831407180033
 10
-44.63252056687403
 20
-91.30715173207709
 10
-44.54697928119651
 20
-91.28098092982318
 10
-44.47630258395977
 20
-91.22566861204871
 10
-44.43577082830393
 20
-91.1939480388408
 72
     4
 94
        3
 73
     0
 74
     0
 95
       25
 96
       21
 40
0.0
 40
0.0
 40
0.0
 40
0.0
 40
0.165525918914855
 40
0.3412380755365305
 40
0.5940540902285263
 40
0.7697671103696209
 40
0.9377330196075423
 40
1.11479469302833
 40
1.274661249598185
 40
1.574522170874768
 40
1.815540668866877
 40
2.15849091873445
 40
2.536227739636605
 40
2.738070817316548
 40
2.925680654369045
 40
3.162706124480894
 40
3.395643218188267
 40
3.648478129958861
 40
3.928509979727306
 40
4.337226830236035
 40
4.337226830236035
 40
4.337226830236035
 40
4.337226830236035
 10
-44.43577082830393
 20
-91.1939480388408
 10
-44.42087817091021
 20
-91.18164129489514
 10
-44.39263087160623
 20
-91.15237117167344
 10
-44.34252963496658
 20
-91.10493082333482
 10
-44.29837947516
 20
-91.04965905288082
 10
-44.24391707444272
 20
-91.00486322000739
 10
-44.21556411890366
 20
-90.95009699365988
 10
-44.17469557159961
 20
-90.90702452316083
 10
-44.14041355268227
 20
-90.84050334117023
 10
-44.11132695398225
 20
-90.7640915760261
 10
-44.08359689848476
 20
-90.66449029232263
 10
-44.07297045514804
 20
-90.55212523927707
 10
-44.08869891279539
 20
-90.44341210684605
 10
-44.12669489047004
 20
-90.36215261130918
 10
-44.15462905123933
 20
-90.29443119664307
 10
-44.19702263988177
 20
-90.23028709296591
 10
-44.24538799474237
 20
-90.16052328663176
 10
-44.31352621550161
 20
-90.10281732431678
 10
-44.40257587412282
 20
-90.03321463494126
 10
-44.48551898184132
 20
-90.03054975843525
 10
-44.53473903226688
 20
-90.02896836897912
 72
     1
 10
-44.53473903226689
 20
-90.02896836897912
 11
-45.28519285545224
 21
-90.02896836897914
 97
        6
330
15ED
330
15EE
330
15EC
330
15EF
330
15F0
330
15F1
 75
     0
 76
     1
 47
0.088756267210375
 98
        1
 10
-45.06030318505293
 20
-90.39317709087413
450
        0
451
        0
460
0.0
461
0.0
452
        0
462
0.0
453
        0
470

  0
CIRCLE
  5
15F4
330
18
100
AcDbEntity
  8
針
100
AcDbCircle
 10
-47.98192117669998
 20
-96.08632437305743
 30
0.0
 40
1.9
  0
LINE
  5
15F5
330
18
100
AcDbEntity
  8
針
100
AcDbLine
 10
-60.84038519764078
 20
-78.23504982410224
 30
0.0
 11
-49.3179340928516
 21
-93.22667937972779
 31
0.0
  0
ARC
  5
15F6
330
18
100
AcDbEntity
  8
針
100
AcDbCircle
 10
-46.89088310972681
 20
-91.46332362285034
 30
0.0
 40
3.0
100
AcDbArc
 50
216.0
 51
245.4722791770396
  0
LINE
  5
15F7
330
18
100
AcDbEntity
  8
針
100
AcDbLine
 10
-60.91319672713439
 20
-78.28795049680849
 30
0.0
 11
-60.84038519764078
 21
-78.23504982410224
 31
0.0
  0
ARC
  5
15F8
330
18
100
AcDbEntity
  8
針
100
AcDbCircle
 10
-52.71580546922644
 20
-95.69537743935621
 30
0.0
 40
3.0
100
AcDbArc
 50
6.527720822960354
 51
36.00000000000001
  0
LINE
  5
15F9
330
18
100
AcDbEntity
  8
針
100
AcDbLine
 10
-60.98600825662811
 20
-78.34085116951484
 30
0.0
 11
-50.28875448610176
 21
-93.93202168247881
 31
0.0
  0
LINE
  5
15FA
330
18
100
AcDbEntity
  8
針
100
AcDbLine
 10
-60.9131967271345
 20
-78.28795049680855
 30
0.0
 11
-60.98600825662811
 21
-78.34085116951484
 31
0.0
  0
CIRCLE
  5
15FB
330
18
100
AcDbEntity
  8
針
100
AcDbCircle
 10
-47.98192117669998
 20
-96.08632437305743
 30
0.0
 40
0.475
  0
CIRCLE
  5
15FC
330
18
100
AcDbEntity
  8
針
100
AcDbCircle
 10
-47.98192117669998
 20
-96.08632437305743
 30
0.0
 40
1.5
  0
HATCH
  5
15FD
330
18
100
AcDbEntity
  8
針
100
AcDbHatch
 10
0.0
 20
0.0
 30
0.0
210
0.0
220
0.0
230
1.0
  2
SOLID
 70
     1
 71
     0
 91
        2
 92
        7
 72
     1
 73
     1
 93
        5
 10
-60.84038519764078
 20
-78.23504982410224
 42
0.0
 10
-60.91319672713439
 20
-78.28795049680849
 42
0.0
 10
-60.98600825662811
 20
-78.34085116951484
 42
0.0
 10
-57.30600755043281
 20
-83.70442575874267
 42
-0.0085634322047721
 10
-56.87650539144659
 20
-83.39237417436908
 42
0.0
 97
        0
 92
        7
 72
     1
 73
     1
 93
        6
 10
-56.87650539144659
 20
-83.39237417436908
 42
0.0085634322047721
 10
-57.30600755043281
 20
-83.70442575874267
 42
0.0
 10
-50.28875448610143
 20
-93.93202168247922
 42
-0.1293106770632391
 10
-49.73525456086713
 20
-95.35432570914815
 42
-0.2805221108582334
 10
-48.13628346341761
 20
-94.19260520579967
 42
-0.1293106770632486
 10
-49.31793409285138
 20
-93.22667937972807
 42
0.0
 97
        0
 75
     0
 76
     1
 47
0.0423559757596284
 98
        2
 10
-57.49335087815302
 20
-83.06397398750352
 10
-54.8012646522983
 20
-86.55296487601129
450
        0
451
        0
460
0.0
461
0.0
452
        0
462
0.0
453
        0
470

  0
CIRCLE
  5
15FE
330
18
100
AcDbEntity
  8
外形線
100
AcDbCircle
 10
-47.98192117669998
 20
-96.08632437305743
 30
0.0
 40
27.5
  0
TEXT
  5
15FF
330
18
100
AcDbEntity
  8
文字
100
AcDbText
 10
-48.67445088098543
 20
-85.74453141584184
 30
0.0
 40
1.5
  1
0
  7
STYLE3
100
AcDbText
  0
TEXT
  5
1600
330
18
100
AcDbEntity
  8
文字
100
AcDbText
 10
-51.85897677156072
 20
-86.42818117835929
 30
0.0
 40
1.5
  1
1
  7
STYLE3
100
AcDbText
  0
TEXT
  5
1601
330
18
100
AcDbEntity
  8
文字
100
AcDbText
 10
-55.0912496429961
 20
-88.02909544922142
 30
0.0
 40
1.5
  1
2
  7
STYLE3
100
AcDbText
  0
TEXT
  5
1602
330
18
100
AcDbEntity
  8
文字
100
AcDbText
 10
-57.87517918543483
 20
-90.60898861566142
 30
0.0
 40
1.5
  1
3
  7
STYLE3
100
AcDbText
  0
TEXT
  5
1603
330
18
100
AcDbEntity
  8
文字
100
AcDbText
 10
-59.36887008988515
 20
-93.51666764948772
 30
0.0
 40
1.5
  1
4
  7
STYLE3
100
AcDbText
  0
TEXT
  5
1604
330
18
100
AcDbEntity
  8
文字
100
AcDbText
 10
-59.19972776756026
 20
-96.91077687793409
 30
0.0
 40
1.5
  1
5
  7
STYLE3
100
AcDbText
  0
TEXT
  5
1605
330
18
100
AcDbEntity
  8
文字
100
AcDbText
 10
-59.05719040102701
 20
-100.1129832499305
 30
0.0
 40
1.5
  1
6
  7
STYLE3
100
AcDbText
  0
TEXT
  5
1606
330
18
100
AcDbEntity
  8
文字
100
AcDbText
 10
-57.54553200276916
 20
-103.1850794135014
 30
0.0
 40
1.5
  1
7
  7
STYLE3
100
AcDbText
  0
TEXT
  5
1607
330
18
100
AcDbEntity
  8
文字
100
AcDbText
 10
-55.22953478568513
 20
-105.6958804252377
 30
0.0
 40
1.5
  1
8
  7
STYLE3
100
AcDbText
  0
TEXT
  5
1608
330
18
100
AcDbEntity
  8
文字
100
AcDbText
 10
-51.96554946124047
 20
-107.1992806119403
 30
0.0
 40
1.5
  1
9
  7
STYLE3
100
AcDbText
  0
TEXT
  5
1609
330
18
100
AcDbEntity
  8
文字
100
AcDbText
 10
-49.40771267823504
 20
-107.8291539140667
 30
0.0
 40
1.5
  1
10
  7
STYLE3
100
AcDbText
  0
ARC
  5
160A
330
18
100
AcDbEntity
  8
針
100
AcDbCircle
 10
-47.98192117669998
 20
-96.08632437305743
 30
0.0
 40
2.25
100
AcDbArc
 50
106.1215319403884
 51
73.87846805961146
  0
LINE
  5
160B
330
18
100
AcDbEntity
  8
針
100
AcDbLine
 10
-47.98192117669998
 20
-81.58632437305755
 30
0.0
 11
-47.88192117669995
 21
-81.58632437305744
 31
0.0
  0
LINE
  5
160C
330
18
100
AcDbEntity
  8
針
100
AcDbLine
 10
-47.71826545253816
 20
-93.45136437478414
 30
0.0
 11
-47.88192117669995
 21
-81.58632437305744
 31
0.0
  0
ARC
  5
160D
330
18
100
AcDbEntity
  8
針
100
AcDbCircle
 10
-47.2183130081786
 20
-93.44446847899986
 30
0.0
 40
0.5
100
AcDbArc
 50
180.7902365024304
 51
253.8784680596089
  0
LINE
  5
160E
330
18
100
AcDbEntity
  8
針
100
AcDbLine
 10
-48.2455769008618
 20
-93.45136437478414
 30
0.0
 11
-48.08192117670012
 21
-81.58632437305744
 31
0.0
  0
ARC
  5
160F
330
18
100
AcDbEntity
  8
針
100
AcDbCircle
 10
-48.74552934522148
 20
-93.44446847899991
 30
0.0
 40
0.5
100
AcDbArc
 50
286.121531940391
 51
359.2097634975695
  0
LINE
  5
1610
330
18
100
AcDbEntity
  8
針
100
AcDbLine
 10
-47.98192117669998
 20
-81.58632437305755
 30
0.0
 11
-48.08192117670012
 21
-81.58632437305744
 31
0.0
  0
HATCH
  5
1611
330
18
100
AcDbEntity
  8
針
100
AcDbHatch
 10
0.0
 20
0.0
 30
0.0
210
0.0
220
0.0
230
1.0
  2
SOLID
 70
     1
 71
     0
 91
        1
 92
        7
 72
     1
 73
     1
 93
       13
 10
-50.18198060658392
 20
-95.61490258211154
 42
0.0451637842092326
 10
-49.72380643270117
 20
-95.32748594827557
 42
-0.4382411104070623
 10
-47.08407472344879
 20
-94.41184781413403
 42
-1.000000154483609
 10
-48.87976762995117
 20
-97.76080093198096
 42
-0.0991965089619077
 10
-49.45557315786891
 20
-97.2856366086313
 42
0.0451637842092322
 10
-49.97416140083919
 20
-97.13201978249641
 42
1.513476680661748
 10
-47.35715085700064
 20
-93.924805914283
 42
-0.3301774454167336
 10
-47.71826545253816
 20
-93.45136437478402
 42
0.0
 10
-47.88192117669985
 20
-81.58632437305739
 42
0.0
 10
-47.98192117669998
 20
-81.58632437305755
 42
0.0
 10
-48.08192117670012
 20
-81.58632437305744
 42
0.0
 10
-48.24557690086192
 20
-93.45136437478407
 42
-0.3301774454167854
 10
-48.60669149639955
 20
-93.92480591428313
 42
0.2763107710147353
 97
        0
 75
     0
 76
     1
 47
0.0351216412536765
 98
        1
 10
-48.90282209242662
 20
-94.25267769046014
450
        0
451
        0
460
0.0
461
0.0
452
        0
462
0.0
453
        0
470

  0
LINE
  5
1612
330
18
100
AcDbEntity
  8
外形線
  6
Continuous
100
AcDbLine
 10
-51.98192117669987
 20
-47.11418841805778
 30
0.0
 11
-51.98192117669998
 21
-68.87878865223183
 31
0.0
  0
LINE
  5
1613
330
18
100
AcDbEntity
  8
外形線
  6
Continuous
100
AcDbLine
 10
-43.98192117669998
 20
-47.11418841805789
 30
0.0
 11
-43.98192117669998
 21
-68.87878865223183
 31
0.0
  0
LINE
  5
1614
330
18
100
AcDbEntity
  8
外形線
100
AcDbLine
 10
-51.98192117669987
 20
-47.11418841805778
 30
0.0
 11
-43.98192117669998
 21
-47.11418841805789
 31
0.0
  0
ARC
  5
1615
330
18
100
AcDbEntity
  8
外形線
100
AcDbCircle
 10
-47.98192117669998
 20
-51.58632437305744
 30
0.0
 40
6.0
100
AcDbArc
 50
48.18968510422154
 51
131.8103148957773
  0
POINT
  5
1616
330
18
100
AcDbEntity
  8
DEFPOINTS
  6
ByBlock
 62
     0
100
AcDbPoint
 10
-47.98192117669998
 20
-45.58632437305743
 30
0.0
  0
CIRCLE
  5
1617
330
18
100
AcDbEntity
  8
目盛
100
AcDbCircle
 10
-47.98192117669998
 20
-96.08632437305743
 30
0.0
 40
14.25
  0
LINE
  5
1618
330
18
100
AcDbEntity
  8
目盛
100
AcDbLine
 10
-47.98192117669998
 20
-81.83632437305744
 30
0.0
 11
-47.98192117669998
 21
-83.83632437305744
 31
0.0
  0
LINE
  5
1619
330
18
100
AcDbEntity
  8
目盛
100
AcDbLine
 10
-52.38541334654292
 20
-82.53376901585154
 30
0.0
 11
-51.76737935779295
 21
-84.43588204844184
 31
0.0
  0
LINE
  5
161A
330
18
100
AcDbEntity
  8
目盛
100
AcDbLine
 10
-56.35786102186774
 20
-84.55783220321439
 30
0.0
 11
-55.18229051728269
 21
-86.17586619196424
 31
0.0
  0
LINE
  5
161B
330
18
100
AcDbEntity
  8
目盛
100
AcDbLine
 10
-59.51041334654291
 20
-87.71038452788962
 30
0.0
 11
-57.89237935779306
 21
-88.88595503247461
 31
0.0
  0
LINE
  5
161C
330
18
100
AcDbEntity
  8
目盛
100
AcDbLine
 10
-61.53447653390583
 20
-91.68283220321439
 30
0.0
 11
-59.63236350131558
 21
-92.30086619196425
 31
0.0
  0
LINE
  5
161D
330
18
100
AcDbEntity
  8
目盛
100
AcDbLine
 10
-62.23192117669999
 20
-96.08632437305738
 30
0.0
 11
-60.23192117669998
 21
-96.08632437305738
 31
0.0
  0
LINE
  5
161E
330
18
100
AcDbEntity
  8
目盛
100
AcDbLine
 10
-61.53447653390606
 20
-100.4898165429003
 30
0.0
 11
-59.6323635013157
 21
-99.87178255415052
 31
0.0
  0
LINE
  5
161F
330
18
100
AcDbEntity
  8
目盛
100
AcDbLine
 10
-59.51041334654303
 20
-104.4622642182252
 30
0.0
 11
-57.89237935779306
 21
-103.2866937136402
 31
0.0
  0
LINE
  5
1620
330
18
100
AcDbEntity
  8
目盛
100
AcDbLine
 10
-56.35786102186784
 20
-107.6148165429004
 30
0.0
 11
-55.18229051728292
 21
-105.9967825541505
 31
0.0
  0
LINE
  5
1621
330
18
100
AcDbEntity
  8
目盛
100
AcDbLine
 10
-52.38541334654303
 20
-109.6388797302633
 30
0.0
 11
-51.76737935779318
 21
-107.736766697673
 31
0.0
  0
LINE
  5
1622
330
18
100
AcDbEntity
  8
目盛
100
AcDbLine
 10
-47.98192117670009
 20
-110.3363243730574
 30
0.0
 11
-47.98192117670009
 21
-108.3363243730574
 31
0.0
  0
LINE
  5
1623
330
18
100
AcDbEntity
  8
目盛
100
AcDbLine
 10
-43.57842900685716
 20
-109.6388797302634
 30
0.0
 11
-44.19646299560702
 21
-107.7367666976731
 31
0.0
  0
LINE
  5
1624
330
18
100
AcDbEntity
  8
目盛
100
AcDbLine
 10
-39.60598133153224
 20
-107.6148165429005
 30
0.0
 11
-40.78155183611727
 21
-105.9967825541505
 31
0.0
  0
LINE
  5
1625
330
18
100
AcDbEntity
  8
目盛
100
AcDbLine
 10
-36.45342900685694
 20
-104.4622642182253
 30
0.0
 11
-38.07146299560691
 21
-103.2866937136403
 31
0.0
  0
LINE
  5
1626
330
18
100
AcDbEntity
  8
目盛
100
AcDbLine
 10
-34.42936581949414
 20
-100.4898165429005
 30
0.0
 11
-36.33147885208439
 21
-99.87178255415063
 31
0.0
  0
LINE
  5
1627
330
18
100
AcDbEntity
  8
目盛
100
AcDbLine
 10
-33.73192117669999
 20
-96.08632437305743
 30
0.0
 11
-35.73192117669999
 21
-96.08632437305743
 31
0.0
  0
LINE
  5
1628
330
18
100
AcDbEntity
  8
目盛
100
AcDbLine
 10
-34.42936581949402
 20
-91.6828322032145
 30
0.0
 11
-36.33147885208428
 21
-92.30086619196441
 31
0.0
  0
LINE
  5
1629
330
18
100
AcDbEntity
  8
目盛
100
AcDbLine
 10
-36.45342900685694
 20
-87.71038452788975
 30
0.0
 11
-38.07146299560691
 21
-88.88595503247467
 31
0.0
  0
LINE
  5
162A
330
18
100
AcDbEntity
  8
目盛
100
AcDbLine
 10
-39.60598133153224
 20
-84.5578322032145
 30
0.0
 11
-40.78155183611705
 21
-86.17586619196435
 31
0.0
  0
LINE
  5
162B
330
18
100
AcDbEntity
  8
目盛
100
AcDbLine
 10
-43.57842900685693
 20
-82.53376901585159
 30
0.0
 11
-44.19646299560679
 21
-84.43588204844184
 31
0.0
  0
TEXT
  5
162C
330
18
100
AcDbEntity
  8
文字
100
AcDbText
 10
-46.19018652890031
 20
-106.8997921079356
 30
0.0
 40
1.5
  1
11
  7
STYLE3
100
AcDbText
  0
TEXT
  5
162D
330
18
100
AcDbEntity
  8
文字
100
AcDbText
 10
-43.26019399885251
 20
-105.6426511561934
 30
0.0
 40
1.5
  1
12
  7
STYLE3
100
AcDbText
  0
TEXT
  5
162E
330
18
100
AcDbEntity
  8
文字
100
AcDbText
 10
-40.80807170518926
 20
-103.4251224668057
 30
0.0
 40
1.5
  1
13
  7
STYLE3
100
AcDbText
  0
TEXT
  5
162F
330
18
100
AcDbEntity
  8
文字
100
AcDbText
 10
-39.34746419427688
 20
-100.4110976830914
 30
0.0
 40
1.5
  1
14
  7
STYLE3
100
AcDbText
  0
TEXT
  5
1630
330
18
100
AcDbEntity
  8
文字
100
AcDbText
 10
-39.65321870505113
 20
-96.96341585728868
 30
0.0
 40
1.5
  1
15
  7
STYLE3
100
AcDbText
  0
TEXT
  5
1631
330
18
100
AcDbEntity
  8
文字
100
AcDbText
 10
-39.19694738922692
 20
-93.82529148868769
 30
0.0
 40
1.5
  1
16
  7
STYLE3
100
AcDbText
  0
TEXT
  5
1632
330
18
100
AcDbEntity
  8
文字
100
AcDbText
 10
-40.19251242620543
 20
-90.78024123362121
 30
0.0
 40
1.5
  1
17
  7
STYLE3
100
AcDbText
  0
TEXT
  5
1633
330
18
100
AcDbEntity
  8
文字
100
AcDbText
 10
-43.09618037644248
 20
-88.41231779934361
 30
0.0
 40
1.5
  1
18
  7
STYLE3
100
AcDbText
  0
TEXT
  5
1634
330
18
100
AcDbEntity
  8
文字
100
AcDbText
 10
-45.84460982839357
 20
-86.52256917579501
 30
0.0
 40
1.5
  1
19
  7
STYLE3
100
AcDbText
  0
TEXT
  5
1635
330
18
100
AcDbEntity
  8
文字
100
AcDbText
 10
-53.77112799574627
 20
-100.3801323034011
 30
0.0
 40
1.3
  1
NO.207WF-T
  7
STYLE3
100
AcDbText
  0
HATCH
  5
1636
330
18
100
AcDbEntity
  8
針
100
AcDbHatch
 10
0.0
 20
0.0
 30
0.0
210
0.0
220
0.0
230
1.0
  2
SOLID
 70
     1
 71
     0
 91
        2
 92
        7
 72
     1
 73
     1
 93
        4
 10
-49.88192117669996
 20
-96.08632437305743
 42
0.0
 10
-50.23192117669998
 20
-96.08632437305743
 42
0.4142135623730913
 10
-47.98192117669998
 20
-98.33632437305737
 42
0.0
 10
-47.98192117669998
 20
-97.98632437305744
 42
-0.4142135623730968
 97
        0
 92
        7
 72
     1
 73
     1
 93
        4
 10
-49.73525456086702
 20
-95.35432570914792
 42
0.0451637842092276
 10
-49.84493079256691
 20
-94.82470035173122
 42
0.1499226670973565
 10
-50.23192117669998
 20
-96.08632437305743
 42
0.0
 10
-49.88192117669996
 20
-96.08632437305743
 42
-0.0991965089619315
 97
        0
 75
     0
 76
     1
 47
0.0389134658665618
 98
        2
 10
-49.87999422152279
 20
-96.64962963255625
 10
-49.95788142249307
 20
-95.79353363041702
450
        0
451
        0
460
0.0
461
0.0
452
        0
462
0.0
453
        0
470

  0
POINT
  5
1637
330
18
100
AcDbEntity
  8
DEFPOINTS
  6
ByBlock
 62
     0
100
AcDbPoint
 10
-47.98192117669998
 20
-73.08632437305743
 30
0.0
  0
POINT
  5
1638
330
18
100
AcDbEntity
  8
DEFPOINTS
  6
ByBlock
 62
     0
100
AcDbPoint
 10
-47.98192117669998
 20
-119.0863243730574
 30
0.0
  0
POINT
  5
163A
330
18
100
AcDbEntity
  8
DEFPOINTS
  6
ByBlock
 62
     0
100
AcDbPoint
 10
-47.98192117669998
 20
-45.58632437305743
 30
0.0
  0
LINE
  5
163B
102
{ACAD_REACTORS
330
163E
102
}
330
18
100
AcDbEntity
  8
外形線
100
AcDbLine
 10
-45.22720024524256
 20
-102.1442716668605
 30
0.0
 11
-46.22720024524255
 21
-102.1442716668605
 31
0.0
  0
LINE
  5
163C
102
{ACAD_REACTORS
330
163E
102
}
330
18
100
AcDbEntity
  8
外形線
100
AcDbLine
 10
-45.22720024524256
 20
-102.3234383335272
 30
0.0
 11
-46.22720024524255
 21
-102.3234383335271
 31
0.0
  0
TEXT
  5
163D
330
18
100
AcDbEntity
  8
文字
100
AcDbText
 10
-50.99745386245627
 20
-104.7201452346063
 30
0.0
 40
1.0
  1
0.01mm
  7
STYLE3
100
AcDbText
  0
HATCH
  5
163E
330
18
100
AcDbEntity
  8
外形線
100
AcDbHatch
 10
0.0
 20
0.0
 30
0.0
210
0.0
220
0.0
230
1.0
  2
SOLID
 70
     1
 71
     1
 91
        2
 92
        1
 93
        7
 72
     1
 10
-47.39386691190929
 20
-102.2338550001938
 11
-46.22720024524255
 21
-102.6584869401711
 72
     1
 10
-46.22720024524255
 20
-102.658486940171
 11
-46.22720024524255
 21
-102.3234383335271
 72
     1
 10
-46.22720024524255
 20
-102.3234383335271
 11
-45.22720024524256
 21
-102.3234383335272
 72
     1
 10
-45.22720024524256
 20
-102.3234383335272
 11
-45.22720024524256
 21
-102.1442716668605
 72
     1
 10
-45.22720024524256
 20
-102.1442716668605
 11
-46.22720024524255
 21
-102.1442716668605
 72
     1
 10
-46.22720024524255
 20
-102.1442716668605
 11
-46.22720024524255
 21
-101.8092230602166
 72
     1
 10
-46.22720024524255
 20
-101.8092230602166
 11
-47.39386691190929
 21
-102.2338550001938
 97
        7
330
1647
330
164A
330
163C
330
1663
330
163B
330
1646
330
164D
 92
        1
 93
        4
 72
     1
 10
-47.39386691190929
 20
-101.4838550001938
 11
-47.39386691190929
 21
-102.9838550001938
 72
     1
 10
-47.39386691190929
 20
-102.9838550001938
 11
-47.56053357857592
 21
-102.9838550001938
 72
     1
 10
-47.56053357857592
 20
-102.9838550001938
 11
-47.56053357857592
 21
-101.4838550001938
 72
     1
 10
-47.56053357857592
 20
-101.4838550001938
 11
-47.39386691190929
 21
-101.4838550001938
 97
        4
330
164C
330
1659
330
164B
330
1643
 75
     0
 76
     1
 98
        1
 10
-139.7234236183896
 20
-170.8960058073748
450
        0
451
        0
460
0.0
461
0.0
452
        0
462
0.0
453
        0
470

  0
LINE
  5
163F
102
{ACAD_REACTORS
330
1641
102
}
330
18
100
AcDbEntity
  8
外形線
100
AcDbLine
 10
-50.72720024524255
 20
-102.1442716668605
 30
0.0
 11
-49.72720024524256
 21
-102.1442716668605
 31
0.0
  0
LINE
  5
1640
102
{ACAD_REACTORS
330
1641
102
}
330
18
100
AcDbEntity
  8
外形線
100
AcDbLine
 10
-50.72720024524255
 20
-102.3234383335272
 30
0.0
 11
-49.72720024524256
 21
-102.3234383335271
 31
0.0
  0
HATCH
  5
1641
330
18
100
AcDbEntity
  8
外形線
100
AcDbHatch
 10
0.0
 20
0.0
 30
0.0
210
0.0
220
0.0
230
1.0
  2
SOLID
 70
     1
 71
     1
 91
        2
 92
        1
 93
        7
 72
     1
 10
-48.56053357857581
 20
-102.2338550001938
 11
-49.72720024524256
 21
-102.6584869401711
 72
     1
 10
-49.72720024524256
 20
-102.658486940171
 11
-49.72720024524256
 21
-102.3234383335271
 72
     1
 10
-49.72720024524256
 20
-102.3234383335271
 11
-50.72720024524255
 21
-102.3234383335272
 72
     1
 10
-50.72720024524255
 20
-102.3234383335272
 11
-50.72720024524255
 21
-102.1442716668605
 72
     1
 10
-50.72720024524255
 20
-102.1442716668605
 11
-49.72720024524256
 21
-102.1442716668605
 72
     1
 10
-49.72720024524256
 20
-102.1442716668605
 11
-49.72720024524256
 21
-101.8092230602166
 72
     1
 10
-49.72720024524256
 20
-101.8092230602166
 11
-48.56053357857581
 21
-102.2338550001938
 97
        7
330
1655
330
1652
330
1640
330
1642
330
163F
330
164F
330
1656
 92
        1
 93
        4
 72
     1
 10
-48.56053357857581
 20
-101.4838550001938
 11
-48.56053357857581
 21
-102.9838550001938
 72
     1
 10
-48.56053357857581
 20
-102.9838550001938
 11
-48.3938669119093
 21
-102.9838550001938
 72
     1
 10
-48.3938669119093
 20
-102.9838550001938
 11
-48.3938669119093
 21
-101.4838550001938
 72
     1
 10
-48.3938669119093
 20
-101.4838550001938
 11
-48.56053357857581
 21
-101.4838550001938
 97
        4
330
1657
330
1662
330
1658
330
164E
 75
     0
 76
     1
 98
        1
 10
43.76902312790446
 20
-170.8960058073748
450
        0
451
        0
460
0.0
461
0.0
452
        0
462
0.0
453
        0
470

  0
LINE
  5
1642
102
{ACAD_REACTORS
330
1641
102
}
330
18
100
AcDbEntity
  8
外形線
100
AcDbLine
 10
-50.72720024524255
 20
-102.1442716668605
 30
0.0
 11
-50.72720024524255
 21
-102.3234383335272
 31
0.0
  0
LINE
  5
1643
102
{ACAD_REACTORS
330
163E
102
}
330
18
100
AcDbEntity
  8
外形線
100
AcDbLine
 10
-47.56053357857592
 20
-101.4838550001938
 30
0.0
 11
-47.39386691190929
 21
-101.4838550001938
 31
0.0
  0
POINT
  5
1644
330
18
100
AcDbEntity
  8
DEFPOINTS
  6
ByBlock
 62
     0
100
AcDbPoint
 10
-46.22720024524255
 20
-101.8092230602166
 30
0.0
  0
POINT
  5
1645
330
18
100
AcDbEntity
  8
DEFPOINTS
  6
ByBlock
 62
     0
100
AcDbPoint
 10
-46.22720024524255
 20
-101.8092230602166
 30
0.0
  0
LINE
  5
1646
102
{ACAD_REACTORS
330
163E
102
}
330
18
100
AcDbEntity
  8
外形線
100
AcDbLine
 10
-46.22720024524255
 20
-101.8092230602166
 30
0.0
 11
-46.22720024524255
 21
-102.1442716668605
 31
0.0
  0
LINE
  5
1647
102
{ACAD_REACTORS
330
163E
102
}
330
18
100
AcDbEntity
  8
外形線
100
AcDbLine
 10
-47.39386691190929
 20
-102.2338550001938
 30
0.0
 11
-46.22720024524255
 21
-102.6584869401711
 31
0.0
  0
POINT
  5
1648
330
18
100
AcDbEntity
  8
DEFPOINTS
  6
ByBlock
 62
     0
100
AcDbPoint
 10
-46.22720024524255
 20
-102.6584869401711
 30
0.0
  0
POINT
  5
1649
330
18
100
AcDbEntity
  8
DEFPOINTS
  6
ByBlock
 62
     0
100
AcDbPoint
 10
-46.22720024524255
 20
-102.6584869401711
 30
0.0
  0
LINE
  5
164A
102
{ACAD_REACTORS
330
163E
102
}
330
18
100
AcDbEntity
  8
外形線
100
AcDbLine
 10
-46.22720024524255
 20
-102.3234383335271
 30
0.0
 11
-46.22720024524255
 21
-102.658486940171
 31
0.0
  0
LINE
  5
164B
102
{ACAD_REACTORS
330
163E
102
}
330
18
100
AcDbEntity
  8
外形線
100
AcDbLine
 10
-47.56053357857592
 20
-101.4838550001938
 30
0.0
 11
-47.56053357857592
 21
-102.9838550001938
 31
0.0
  0
LINE
  5
164C
102
{ACAD_REACTORS
330
163E
102
}
330
18
100
AcDbEntity
  8
外形線
100
AcDbLine
 10
-47.39386691190929
 20
-101.4838550001938
 30
0.0
 11
-47.39386691190929
 21
-102.9838550001938
 31
0.0
  0
LINE
  5
164D
102
{ACAD_REACTORS
330
163E
102
}
330
18
100
AcDbEntity
  8
外形線
100
AcDbLine
 10
-47.39386691190929
 20
-102.2338550001938
 30
0.0
 11
-46.22720024524255
 21
-101.8092230602166
 31
0.0
  0
LINE
  5
164E
102
{ACAD_REACTORS
330
1641
102
}
330
18
100
AcDbEntity
  8
外形線
100
AcDbLine
 10
-48.3938669119093
 20
-101.4838550001938
 30
0.0
 11
-48.56053357857581
 21
-101.4838550001938
 31
0.0
  0
LINE
  5
164F
102
{ACAD_REACTORS
330
1641
102
}
330
18
100
AcDbEntity
  8
外形線
100
AcDbLine
 10
-49.72720024524256
 20
-101.8092230602166
 30
0.0
 11
-49.72720024524256
 21
-102.1442716668605
 31
0.0
  0
POINT
  5
1650
330
18
100
AcDbEntity
  8
DEFPOINTS
  6
ByBlock
 62
     0
100
AcDbPoint
 10
-49.72720024524256
 20
-101.8092230602166
 30
0.0
  0
POINT
  5
1651
330
18
100
AcDbEntity
  8
DEFPOINTS
  6
ByBlock
 62
     0
100
AcDbPoint
 10
-49.72720024524256
 20
-101.8092230602166
 30
0.0
  0
LINE
  5
1652
102
{ACAD_REACTORS
330
1641
102
}
330
18
100
AcDbEntity
  8
外形線
100
AcDbLine
 10
-49.72720024524256
 20
-102.3234383335271
 30
0.0
 11
-49.72720024524256
 21
-102.658486940171
 31
0.0
  0
POINT
  5
1653
330
18
100
AcDbEntity
  8
DEFPOINTS
  6
ByBlock
 62
     0
100
AcDbPoint
 10
-49.72720024524256
 20
-102.6584869401711
 30
0.0
  0
POINT
  5
1654
330
18
100
AcDbEntity
  8
DEFPOINTS
  6
ByBlock
 62
     0
100
AcDbPoint
 10
-49.72720024524256
 20
-102.6584869401711
 30
0.0
  0
LINE
  5
1655
102
{ACAD_REACTORS
330
1641
102
}
330
18
100
AcDbEntity
  8
外形線
100
AcDbLine
 10
-48.56053357857581
 20
-102.2338550001938
 30
0.0
 11
-49.72720024524256
 21
-102.6584869401711
 31
0.0
  0
LINE
  5
1656
102
{ACAD_REACTORS
330
1641
102
}
330
18
100
AcDbEntity
  8
外形線
100
AcDbLine
 10
-48.56053357857581
 20
-102.2338550001938
 30
0.0
 11
-49.72720024524256
 21
-101.8092230602166
 31
0.0
  0
LINE
  5
1657
102
{ACAD_REACTORS
330
1641
102
}
330
18
100
AcDbEntity
  8
外形線
100
AcDbLine
 10
-48.56053357857581
 20
-101.4838550001938
 30
0.0
 11
-48.56053357857581
 21
-102.9838550001938
 31
0.0
  0
LINE
  5
1658
102
{ACAD_REACTORS
330
1641
102
}
330
18
100
AcDbEntity
  8
外形線
100
AcDbLine
 10
-48.3938669119093
 20
-101.4838550001938
 30
0.0
 11
-48.3938669119093
 21
-102.9838550001938
 31
0.0
  0
LINE
  5
1659
102
{ACAD_REACTORS
330
163E
102
}
330
18
100
AcDbEntity
  8
外形線
100
AcDbLine
 10
-47.56053357857592
 20
-102.9838550001938
 30
0.0
 11
-47.39386691190929
 21
-102.9838550001938
 31
0.0
  0
POINT
  5
165A
330
18
100
AcDbEntity
  8
DEFPOINTS
  6
ByBlock
 62
     0
100
AcDbPoint
 10
-47.39386691190929
 20
-102.9838550001938
 30
0.0
  0
POINT
  5
165B
330
18
100
AcDbEntity
  8
DEFPOINTS
  6
ByBlock
 62
     0
100
AcDbPoint
 10
-47.56053357857592
 20
-102.9838550001938
 30
0.0
  0
POINT
  5
165C
330
18
100
AcDbEntity
  8
DEFPOINTS
  6
ByBlock
 62
     0
100
AcDbPoint
 10
-47.39386691190929
 20
-102.9838550001938
 30
0.0
  0
POINT
  5
165D
330
18
100
AcDbEntity
  8
DEFPOINTS
  6
ByBlock
 62
     0
100
AcDbPoint
 10
-47.56053357857592
 20
-102.9838550001938
 30
0.0
  0
POINT
  5
165E
330
18
100
AcDbEntity
  8
DEFPOINTS
  6
ByBlock
 62
     0
100
AcDbPoint
 10
-48.3938669119093
 20
-102.9838550001938
 30
0.0
  0
POINT
  5
165F
330
18
100
AcDbEntity
  8
DEFPOINTS
  6
ByBlock
 62
     0
100
AcDbPoint
 10
-48.56053357857581
 20
-102.9838550001938
 30
0.0
  0
POINT
  5
1660
330
18
100
AcDbEntity
  8
DEFPOINTS
  6
ByBlock
 62
     0
100
AcDbPoint
 10
-48.3938669119093
 20
-102.9838550001938
 30
0.0
  0
POINT
  5
1661
330
18
100
AcDbEntity
  8
DEFPOINTS
  6
ByBlock
 62
     0
100
AcDbPoint
 10
-48.56053357857581
 20
-102.9838550001938
 30
0.0
  0
LINE
  5
1662
102
{ACAD_REACTORS
330
1641
102
}
330
18
100
AcDbEntity
  8
外形線
100
AcDbLine
 10
-48.3938669119093
 20
-102.9838550001938
 30
0.0
 11
-48.56053357857581
 21
-102.9838550001938
 31
0.0
  0
LINE
  5
1663
102
{ACAD_REACTORS
330
163E
102
}
330
18
100
AcDbEntity
  8
外形線
100
AcDbLine
 10
-45.22720024524256
 20
-102.1442716668605
 30
0.0
 11
-45.22720024524256
 21
-102.3234383335272
 31
0.0
  0
MTEXT
  5
1677
330
18
100
AcDbEntity
  8
DEFPOINTS
  6
Continuous
100
AcDbMText
 10
1268.763741408849
 20
414.2569990873205
 30
0.0
 40
1.0
 41
0.0
 71
     4
 72
     1
  1
\A1;
 73
     1
 44
1.0
  0
MTEXT
  5
167C
330
18
100
AcDbEntity
  8
文字
100
AcDbMText
 10
835.9029509668481
 20
440.3349813255546
 30
0.0
 40
1.0
 41
6.927999999999999
 71
     1
 72
     5
  1

  7
STYLE3
 73
     1
 44
1.0
  0
MTEXT
  5
167D
330
18
100
AcDbEntity
  8
DEFPOINTS
  6
Continuous
100
AcDbMText
 10
1157.638760621989
 20
363.5825326130055
 30
0.0
 40
0.35
 41
0.0
 71
     4
 72
     1
  1
\A1;
 73
     1
 44
1.0
  0
DIMENSION
  5
17C0
330
18
100
AcDbEntity
  8
外形線
100
AcDbDimension
  2
*D1
 10
-110.3261728463829
 20
-96.08632437305743
 30
0.0
 11
-112.2011728463829
 21
-70.83632437305744
 31
0.0
 70
    32
 71
     5
 42
50.5
  3
STYLE3
100
AcDbAlignedDimension
 13
-47.98192117669998
 23
-45.58632437305743
 33
0.0
 14
-79.80632171295633
 24
-96.08632437305743
 34
0.0
 50
90.0
100
AcDbRotatedDimension
1001
ACAD
1000
DSTYLE
1002
{
1070
   271
1070
     2
1002
}
  0
DIMENSION
  5
17CC
330
18
100
AcDbEntity
  8
外形線
100
AcDbDimension
  2
*D2
 10
-110.3261728463829
 20
-159.5863243730574
 30
0.0
 11
-112.2011728463829
 21
-127.8363243730574
 31
0.0
 70
    32
 71
     5
 42
63.50000000000001
  3
STYLE3
100
AcDbAlignedDimension
 13
-79.80632171295633
 23
-96.08632437305743
 33
0.0
 14
-97.98192117669998
 24
-159.5863243730574
 34
0.0
 50
90.0
100
AcDbRotatedDimension
1001
ACAD
1000
DSTYLE
1002
{
1070
    75
1070
     1
1070
   271
1070
     2
1070
   279
1070
     1
1002
}
  0
LINE
  5
17E6
330
18
100
AcDbEntity
  8
0
  6
ByBlock
 62
     2
100
AcDbLine
 10
-47.98192117669998
 20
-179.6863243730574
 30
0.0
 11
-111.5761728463829
 21
-179.6863243730574
 31
0.0
  0
LINE
  5
17E7
330
18
100
AcDbEntity
  8
0
  6
ByBlock
 62
     2
100
AcDbLine
 10
-110.3261728463829
 20
-162.0863243730574
 30
0.0
 11
-110.3261728463829
 21
-177.1863243730574
 31
0.0
  0
INSERT
  5
17E8
330
18
100
AcDbEntity
  8
0
  6
ByBlock
 62
     2
100
AcDbBlockReference
  2
_OPEN
 10
-110.3261728463829
 20
-159.5863243730574
 30
0.0
 41
2.5
 42
2.5
 43
2.5
 50
90.0
  0
INSERT
  5
17E9
330
18
100
AcDbEntity
  8
0
  6
ByBlock
 62
     2
100
AcDbBlockReference
  2
_OPEN
 10
-110.3261728463829
 20
-179.6863243730574
 30
0.0
 41
2.5
 42
2.5
 43
2.5
 50
270.0
  0
MTEXT
  5
17EA
330
18
100
AcDbEntity
  8
0
  6
ByBlock
 62
     6
100
AcDbMText
 10
-112.201172846383
 20
-169.6363243730574
 30
0.0
 40
2.5
 41
0.0
 71
     5
 72
     1
  1
\A1;20.1
  7
STYLE3
 11
0.0000000000000001
 21
1.0
 31
0.0
 73
     1
 44
1.0
  0
POINT
  5
17EB
330
18
100
AcDbEntity
  8
DEFPOINTS
  6
ByBlock
 62
     0
100
AcDbPoint
 10
-97.98192117669998
 20
-159.5863243730574
 30
0.0
  0
POINT
  5
17EC
330
18
100
AcDbEntity
  8
DEFPOINTS
  6
ByBlock
 62
     0
100
AcDbPoint
 10
-47.98192117669998
 20
-179.6863243730574
 30
0.0
  0
POINT
  5
17ED
330
18
100
AcDbEntity
  8
DEFPOINTS
  6
ByBlock
 62
     0
100
AcDbPoint
 10
-110.3261728463829
 20
-179.6863243730574
 30
0.0
  0
MTEXT
  5
17EE
330
18
100
AcDbEntity
  8
0
  6
ByBlock
 62
     6
100
AcDbMText
 10
-107.7480126043763
 20
-169.6363243730574
 30
0.0
 40
2.0
 41
0.0
 71
     5
 72
     1
  1
(20～220）
  7
STYLE3
 11
0.0000000000000001
 21
1.0
 31
0.0
 73
     1
 44
1.0
  0
MTEXT
  5
1854
330
18
100
AcDbEntity
  8
DEFPOINTS
  6
Continuous
100
AcDbMText
 10
1285.83892234467
 20
407.206362645166
 30
0.0
 40
1.0
 41
0.0
 71
     4
 72
     1
  1
\A1;
 73
     1
 44
1.0
  0
MTEXT
  5
1855
330
18
100
AcDbEntity
  8
文字
100
AcDbMText
 10
852.9781319026698
 20
433.2843448834001
 30
0.0
 40
1.0
 41
6.927999999999999
 71
     1
 72
     5
  1

  7
STYLE3
 73
     1
 44
1.0
  0
MTEXT
  5
1856
330
18
100
AcDbEntity
  8
DEFPOINTS
  6
Continuous
100
AcDbMText
 10
1174.713941557811
 20
356.531896170851
 30
0.0
 40
0.35
 41
0.0
 71
     4
 72
     1
  1
\A1;
 73
     1
 44
1.0
  0
MTEXT
  5
18F9
330
18
100
AcDbEntity
  8
DEFPOINTS
  6
Continuous
100
AcDbMText
 10
1276.932600655546
 20
404.9815442694201
 30
0.0
 40
1.0
 41
0.0
 71
     4
 72
     1
  1
\A1;
 73
     1
 44
1.0
  0
MTEXT
  5
18FC
330
18
100
AcDbEntity
  8
文字
100
AcDbMText
 10
844.0718102135452
 20
431.0595265076542
 30
0.0
 40
1.0
 41
6.927999999999999
 71
     1
 72
     5
  1

  7
STYLE3
 73
     1
 44
1.0
  0
MTEXT
  5
18FD
330
18
100
AcDbEntity
  8
DEFPOINTS
  6
Continuous
100
AcDbMText
 10
1165.807619868687
 20
354.307077795105
 30
0.0
 40
0.35
 41
0.0
 71
     4
 72
     1
  1
\A1;
 73
     1
 44
1.0
  0
MTEXT
  5
19CC
330
18
100
AcDbEntity
  8
DEFPOINTS
  6
Continuous
100
AcDbMText
 10
1280.267740068445
 20
403.8745119533707
 30
0.0
 40
1.0
 41
0.0
 71
     4
 72
     1
  1
\A1;
 73
     1
 44
1.0
  0
LINE
  5
19CD
330
18
100
AcDbEntity
  8
中心線
100
AcDbLine
 10
52.69784118242147
 20
-42.51914041034052
 30
0.0
 11
52.69784118242171
 21
-181.4996458922743
 31
0.0
  0
MTEXT
  5
19D1
330
18
100
AcDbEntity
  8
文字
100
AcDbMText
 10
847.4069496264444
 20
429.9524941916049
 30
0.0
 40
1.0
 41
6.927999999999999
 71
     1
 72
     5
  1

  7
STYLE3
 73
     1
 44
1.0
  0
MTEXT
  5
19D2
330
18
100
AcDbEntity
  8
DEFPOINTS
  6
Continuous
100
AcDbMText
 10
1169.142759281586
 20
353.2000454790558
 30
0.0
 40
0.35
 41
0.0
 71
     4
 72
     1
  1
\A1;
 73
     1
 44
1.0
  0
DIMENSION
  5
1A2D
330
18
100
AcDbEntity
  8
外形線
100
AcDbDimension
  2
*D3
 10
58.19784118242165
 20
-189.2874065689513
 30
0.0
 11
52.69784118242168
 21
-187.4124065689513
 31
0.0
 70
    32
 71
     5
 42
10.99999999999994
  3
STYLE3
100
AcDbAlignedDimension
 13
47.19784118242171
 23
-159.5863243730574
 33
0.0
 14
58.19784118242165
 24
-159.5863243730574
 34
0.0
100
AcDbRotatedDimension
1001
ACAD
1000
DSTYLE
1002
{
1070
   271
1070
     2
1002
}
  0
LINE
  5
1AF1
330
18
100
AcDbEntity
  8
0
  6
ByBlock
 62
     2
100
AcDbLine
 10
-97.98192117669998
 20
-159.5863243730574
 30
0.0
 11
-97.98192117669998
 21
-191.6617872292841
 31
0.0
  0
LINE
  5
1AF2
330
18
100
AcDbEntity
  8
0
  6
ByBlock
 62
     2
100
AcDbLine
 10
2.018078823300015
 20
-159.5863243730574
 30
0.0
 11
2.018078823300015
 21
-191.6617872292841
 31
0.0
  0
LINE
  5
1AF3
330
18
100
AcDbEntity
  8
0
  6
ByBlock
 62
     2
100
AcDbLine
 10
-95.48192117669998
 20
-190.411787229284
 30
0.0
 11
-0.4819211766999843
 21
-190.411787229284
 31
0.0
  0
INSERT
  5
1AF4
330
18
100
AcDbEntity
  8
0
  6
ByBlock
 62
     2
100
AcDbBlockReference
  2
_OPEN
 10
-97.98192117669998
 20
-190.411787229284
 30
0.0
 41
2.5
 42
2.5
 43
2.5
 50
180.0
  0
INSERT
  5
1AF5
330
18
100
AcDbEntity
  8
0
  6
ByBlock
 62
     2
100
AcDbBlockReference
  2
_OPEN
 10
2.018078823300015
 20
-190.411787229284
 30
0.0
 41
2.5
 42
2.5
 43
2.5
  0
MTEXT
  5
1AF6
330
18
100
AcDbEntity
  8
0
  6
ByBlock
 62
     6
100
AcDbMText
 10
-47.98192117669998
 20
-188.5367872292841
 30
0.0
 40
2.5
 41
0.0
 71
     5
 72
     1
  1
\A1;100
  7
STYLE3
 73
     1
 44
1.0
  0
POINT
  5
1AF7
330
18
100
AcDbEntity
  8
DEFPOINTS
  6
ByBlock
 62
     0
100
AcDbPoint
 10
-97.98192117669998
 20
-159.5863243730574
 30
0.0
  0
POINT
  5
1AF8
330
18
100
AcDbEntity
  8
DEFPOINTS
  6
ByBlock
 62
     0
100
AcDbPoint
 10
2.018078823300015
 20
-159.5863243730574
 30
0.0
  0
POINT
  5
1AF9
330
18
100
AcDbEntity
  8
DEFPOINTS
  6
ByBlock
 62
     0
100
AcDbPoint
 10
2.018078823300015
 20
-190.411787229284
 30
0.0
  0
LWPOLYLINE
  5
1B23
330
18
100
AcDbEntity
  8
外形線
100
AcDbPolyline
 90
        6
 70
     1
 43
0.0
 10
-55.99228414778181
 20
-126.8363243730574
 10
-57.00264711886368
 20
-128.5863243730574
 10
-55.99228414778181
 20
-130.3363243730574
 10
-53.97155820561815
 20
-130.3363243730574
 10
-52.96119523453629
 20
-128.5863243730574
 10
-53.97155820561812
 20
-126.8363243730574
  0
LWPOLYLINE
  5
1B24
330
18
100
AcDbEntity
  8
外形線
100
AcDbPolyline
 90
        6
 70
     1
 43
0.0
 10
-41.99228414778182
 20
-126.8363243730574
 10
-43.00264711886367
 20
-128.5863243730574
 10
-41.99228414778182
 20
-130.3363243730574
 10
-39.97155820561815
 20
-130.3363243730574
 10
-38.96119523453629
 20
-128.5863243730574
 10
-39.97155820561813
 20
-126.8363243730574
  0
DIMENSION
  5
1B62
330
18
100
AcDbEntity
  8
外形線
100
AcDbDimension
  2
*D4
 10
-120.712908795771
 20
-179.6863243730574
 30
0.0
 11
-122.5879087957709
 21
-112.6363243730574
 31
0.0
 70
    32
 71
     5
 42
134.1
  3
STYLE3
100
AcDbAlignedDimension
 13
-47.98192117669998
 23
-45.58632437305743
 33
0.0
 14
-47.98192117669998
 24
-179.6863243730574
 34
0.0
 50
90.0
100
AcDbRotatedDimension
1001
ACAD
1000
DSTYLE
1002
{
1070
   271
1070
     2
1002
}
  0
LINE
  5
32E1
330
18
100
AcDbEntity
  8
外形線
100
AcDbLine
 10
47.19784118242166
 20
-147.5863243730574
 30
0.0
 11
58.1978411824216
 21
-147.5863243730574
 31
0.0
  0
LINE
  5
32E2
330
18
100
AcDbEntity
  8
外形線
100
AcDbLine
 10
47.19784118242171
 20
-159.5863243730574
 30
0.0
 11
58.19784118242165
 21
-159.5863243730574
 31
0.0
  0
LINE
  5
32E3
330
18
100
AcDbEntity
  8
外形線
 48
0.5
100
AcDbLine
 10
47.19784118242159
 20
-121.5863243730574
 30
0.0
 11
47.19784118242171
 21
-159.5863243730574
 31
0.0
  0
LINE
  5
32E4
330
18
100
AcDbEntity
  8
外形線
 48
0.5
100
AcDbLine
 10
58.1978411824216
 20
-121.5863243730574
 30
0.0
 11
58.19784118242165
 21
-159.5863243730574
 31
0.0
  0
LINE
  5
32E5
330
18
100
AcDbEntity
  8
外形線
100
AcDbLine
 10
50.77204239694549
 20
-166.1863243730574
 30
0.0
 11
52.69784118242171
 21
-164.6734461923798
 31
0.0
  0
LINE
  5
32E6
330
18
100
AcDbEntity
  8
外形線
100
AcDbLine
 10
50.19784118242165
 20
-164.9692844080433
 30
0.0
 11
51.05145723128993
 21
-166.1863243730574
 31
0.0
  0
LINE
  5
32E7
330
18
100
AcDbEntity
  8
外形線
100
AcDbLine
 10
50.19784118242165
 20
-163.2278043905504
 30
0.0
 11
52.26777001682194
 21
-166.1789978686253
 31
0.0
  0
LINE
  5
32E8
330
18
100
AcDbEntity
  8
外形線
100
AcDbLine
 10
55.19784118242165
 20
-161.4863243730574
 30
0.0
 11
55.19784118242165
 21
-166.1863243730574
 31
0.0
  0
LINE
  5
32E9
330
18
100
AcDbEntity
  8
外形線
100
AcDbLine
 10
50.19784118242165
 20
-161.4863243730574
 30
0.0
 11
50.19784118242165
 21
-166.1863243730574
 31
0.0
  0
ARC
  5
32EA
330
18
100
AcDbEntity
  8
外形線
100
AcDbCircle
 10
52.69784118242171
 20
-178.1363243730574
 30
0.0
 40
1.55
100
AcDbArc
 50
189.2817990866789
 51
350.7182009133211
  0
LINE
  5
32EB
330
18
100
AcDbEntity
  8
外形線
100
AcDbLine
 10
51.1478411824217
 20
-178.3863243730575
 30
0.0
 11
54.24784118242166
 21
-178.3863243730575
 31
0.0
  0
LINE
  5
32EC
330
18
100
AcDbEntity
  8
外形線
100
AcDbLine
 10
55.19784118242165
 20
-175.9863243730575
 30
0.0
 11
50.19784118242165
 21
-175.9863243730574
 31
0.0
  0
LINE
  5
32ED
330
18
100
AcDbEntity
  8
外形線
100
AcDbLine
 10
50.25723716559753
 20
-166.1863243730573
 30
0.0
 11
52.69784118242165
 21
-166.1863243730574
 31
0.0
  0
LINE
  5
32EE
330
18
100
AcDbEntity
  8
外形線
100
AcDbLine
 10
50.19784118242171
 20
-166.6863243730574
 30
0.0
 11
52.69784118242165
 21
-166.6863243730574
 31
0.0
  0
LINE
  5
32EF
330
18
100
AcDbEntity
  8
外形線
100
AcDbLine
 10
50.19784118242165
 20
-175.9863243730574
 30
0.0
 11
50.84784118242168
 21
-178.3863243730574
 31
0.0
  0
LINE
  5
32F0
330
18
100
AcDbEntity
  8
外形線
100
AcDbLine
 10
51.1478411824217
 20
-178.3863243730574
 30
0.0
 11
50.84784118242168
 21
-178.3863243730574
 31
0.0
  0
LINE
  5
32F1
330
18
100
AcDbEntity
  8
外形線
100
AcDbLine
 10
50.19784118242165
 20
-166.6789339206774
 30
0.0
 11
50.19784118242165
 21
-175.9863243730574
 31
0.0
  0
ARC
  5
32F2
330
18
100
AcDbEntity
  8
外形線
100
AcDbCircle
 10
50.22406534734369
 20
-166.4341138612802
 30
0.0
 40
0.25
100
AcDbArc
 50
263.1914310540631
 51
96.80856894593695
  0
LINE
  5
32F3
330
18
100
AcDbEntity
  8
外形線
100
AcDbLine
 10
55.19784118242165
 20
-175.9863243730574
 30
0.0
 11
54.54784118242168
 21
-178.3863243730575
 31
0.0
  0
LINE
  5
32F4
330
18
100
AcDbEntity
  8
外形線
100
AcDbLine
 10
54.54784118242168
 20
-178.3863243730575
 30
0.0
 11
54.24784118242166
 21
-178.3863243730575
 31
0.0
  0
LINE
  5
32F5
330
18
100
AcDbEntity
  8
外形線
100
AcDbLine
 10
55.19784118242165
 20
-166.6789339206774
 30
0.0
 11
55.19784118242165
 21
-175.9863243730574
 31
0.0
  0
LINE
  5
32F6
330
18
100
AcDbEntity
  8
外形線
100
AcDbLine
 10
52.39079775114681
 20
-166.1863243730574
 30
0.0
 11
52.69784118242171
 21
-165.945115732155
 31
0.0
  0
ARC
  5
32F7
330
18
100
AcDbEntity
  8
外形線
100
AcDbCircle
 10
55.17161701749967
 20
-166.4341138612802
 30
0.0
 40
0.25
100
AcDbArc
 50
83.19143105406304
 51
276.8085689459369
  0
LINE
  5
32F8
330
18
100
AcDbEntity
  8
外形線
100
AcDbLine
 10
55.19784118242165
 20
-166.6863243730574
 30
0.0
 11
52.69784118242165
 21
-166.6863243730574
 31
0.0
  0
LINE
  5
32F9
330
18
100
AcDbEntity
  8
外形線
100
AcDbLine
 10
55.13844519924584
 20
-166.1863243730573
 30
0.0
 11
52.69784118242165
 21
-166.1863243730574
 31
0.0
  0
LINE
  5
32FA
330
18
100
AcDbEntity
  8
外形線
100
AcDbLine
 10
50.19784118242165
 20
-164.0940690179973
 30
0.0
 11
52.69784118242171
 21
-162.1301071128294
 31
0.0
  0
LINE
  5
32FB
330
18
100
AcDbEntity
  8
外形線
100
AcDbLine
 10
50.19784118242165
 20
-165.3657385577725
 30
0.0
 11
52.69784118242171
 21
-163.4017766526046
 31
0.0
  0
LINE
  5
32FC
330
18
100
AcDbEntity
  8
外形線
100
AcDbLine
 10
51.41929268315209
 20
-161.4863243730574
 30
0.0
 11
52.69784118242171
 21
-163.3092102277492
 31
0.0
  0
LINE
  5
32FD
330
18
100
AcDbEntity
  8
外形線
100
AcDbLine
 10
50.19784118242165
 20
-161.4863243730574
 30
0.0
 11
52.69784118242171
 21
-165.0506902452421
 31
0.0
  0
LINE
  5
32FE
330
18
100
AcDbEntity
  8
外形線
100
AcDbLine
 10
51.44784118242165
 20
-161.1863243730574
 30
0.0
 11
52.69784118242165
 21
-161.1863243730574
 31
0.0
  0
LINE
  5
32FF
330
18
100
AcDbEntity
  8
外形線
100
AcDbLine
 10
50.19784118242165
 20
-161.4863243730574
 30
0.0
 11
52.69784118242165
 21
-161.4863243730574
 31
0.0
  0
LINE
  5
3300
330
18
100
AcDbEntity
  8
外形線
100
AcDbLine
 10
50.49784118242166
 20
-161.1863243730574
 30
0.0
 11
50.49784118242166
 21
-159.5863243730574
 31
0.0
  0
LINE
  5
3301
330
18
100
AcDbEntity
  8
外形線
100
AcDbLine
 10
50.19784118242165
 20
-162.8223994782221
 30
0.0
 11
51.89858077116952
 21
-161.4863243730574
 31
0.0
  0
LINE
  5
3302
330
18
100
AcDbEntity
  8
外形線
100
AcDbLine
 10
50.49784118242166
 20
-161.1863243730574
 30
0.0
 11
50.19784118242165
 21
-161.4863243730574
 31
0.0
  0
LINE
  5
3303
330
18
100
AcDbEntity
  8
外形線
100
AcDbLine
 10
50.49784118242166
 20
-161.1863243730574
 30
0.0
 11
51.44784118242171
 21
-161.1863243730574
 31
0.0
  0
LINE
  5
3304
330
18
100
AcDbEntity
  8
外形線
100
AcDbLine
 10
54.89784118242164
 20
-161.1863243730574
 30
0.0
 11
54.89784118242164
 21
-159.5863243730574
 31
0.0
  0
LINE
  5
3305
330
18
100
AcDbEntity
  8
外形線
100
AcDbLine
 10
52.64074418388247
 20
-161.4863243730574
 30
0.0
 11
52.69784118242171
 21
-161.5677302102563
 31
0.0
  0
LINE
  5
3306
330
18
100
AcDbEntity
  8
外形線
100
AcDbLine
 10
54.89784118242164
 20
-161.1863243730574
 30
0.0
 11
55.19784118242165
 21
-161.4863243730574
 31
0.0
  0
LINE
  5
3307
330
18
100
AcDbEntity
  8
外形線
100
AcDbLine
 10
53.94784118242165
 20
-161.1863243730574
 30
0.0
 11
52.69784118242165
 21
-161.1863243730574
 31
0.0
  0
LINE
  5
3308
330
18
100
AcDbEntity
  8
外形線
100
AcDbLine
 10
55.19784118242165
 20
-161.4863243730574
 30
0.0
 11
52.69784118242165
 21
-161.4863243730574
 31
0.0
  0
LINE
  5
3309
330
18
100
AcDbEntity
  8
外形線
100
AcDbLine
 10
54.89784118242164
 20
-161.1863243730574
 30
0.0
 11
53.94784118242165
 21
-161.1863243730574
 31
0.0
  0
LINE
  5
330A
330
18
100
AcDbEntity
  8
外形線
 48
0.5
100
AcDbLine
 10
51.94784118242165
 20
-121.5863243730574
 30
0.0
 11
51.94784118242165
 21
-145.5863243730574
 31
0.0
  0
LINE
  5
330B
330
18
100
AcDbEntity
  8
外形線
 48
0.5
100
AcDbLine
 10
53.44784118242159
 20
-121.5863243730574
 30
0.0
 11
53.44784118242166
 21
-145.5863243730574
 31
0.0
  0
LINE
  5
330C
330
18
100
AcDbEntity
  8
外形線
100
AcDbLine
 10
47.19784118242159
 20
-121.5863243730574
 30
0.0
 11
51.94784118242165
 21
-121.5863243730574
 31
0.0
  0
LINE
  5
330D
330
18
100
AcDbEntity
  8
外形線
100
AcDbLine
 10
51.94784118242165
 20
-145.5863243730574
 30
0.0
 11
53.44784118242166
 21
-145.5863243730574
 31
0.0
  0
LINE
  5
330E
330
18
100
AcDbEntity
  8
外形線
100
AcDbLine
 10
53.44784118242159
 20
-121.5863243730574
 30
0.0
 11
58.1978411824216
 21
-121.5863243730574
 31
0.0
  0
LINE
  5
330F
330
18
100
AcDbEntity
  8
中心線
 48
0.5
100
AcDbLine
 10
43.63735387191309
 20
-128.5863243730574
 30
0.0
 11
62.19060373437628
 21
-128.5863243730574
 31
0.0
  0
LINE
  5
3310
330
18
100
AcDbEntity
  8
中心線
100
AcDbLine
 10
51.94784118242171
 20
-125.5863243730574
 30
0.0
 11
53.44784118242159
 21
-125.5863243730574
 31
0.0
  0
LINE
  5
3311
330
18
100
AcDbEntity
  8
中心線
100
AcDbLine
 10
51.94784118242171
 20
-131.5863243730574
 30
0.0
 11
53.44784118242159
 21
-131.5863243730574
 31
0.0
  0
LINE
  5
3312
330
18
100
AcDbEntity
  8
中心線
100
AcDbLine
 10
51.94784118242171
 20
-126.8363243730574
 30
0.0
 11
53.44784118242159
 21
-126.8363243730574
 31
0.0
  0
LINE
  5
3313
330
18
100
AcDbEntity
  8
中心線
100
AcDbLine
 10
51.94784118242171
 20
-130.3363243730574
 30
0.0
 11
53.44784118242159
 21
-130.3363243730574
 31
0.0
  0
LINE
  5
3314
330
18
100
AcDbEntity
  8
外形線
100
AcDbLine
 10
47.19784118242159
 20
-123.5863243730574
 30
0.0
 11
51.94784118242165
 21
-123.5863243730574
 31
0.0
  0
LINE
  5
3315
330
18
100
AcDbEntity
  8
外形線
100
AcDbLine
 10
53.44784118242159
 20
-123.5863243730574
 30
0.0
 11
58.1978411824216
 21
-123.5863243730574
 31
0.0
  0
ARC
  5
3318
330
18
100
AcDbEntity
  8
外形線
  6
Continuous
100
AcDbCircle
 10
144.064507849088
 20
-96.08632437305727
 30
0.0
 40
105.6666666666664
100
AcDbArc
 50
166.3144531747376
 51
193.6855468252623
  0
LINE
  5
3319
330
18
100
AcDbEntity
  8
外形線
  6
Continuous
100
AcDbLine
 10
59.19784118242148
 20
-71.58632437305744
 30
0.0
 11
59.19784118242148
 21
-120.5863243730574
 31
0.0
  0
LINE
  5
331A
330
18
100
AcDbEntity
  8
外形線
100
AcDbLine
 10
52.6978411824216
 20
-120.5863243730574
 30
0.0
 11
59.19784118242148
 21
-120.5863243730574
 31
0.0
  0
LINE
  5
331B
330
18
100
AcDbEntity
  8
外形線
100
AcDbLine
 10
52.69784118242154
 20
-71.58632437305744
 30
0.0
 11
59.19784118242148
 21
-71.58632437305744
 31
0.0
  0
LINE
  5
331C
330
18
100
AcDbEntity
  8
中心線
100
AcDbLine
 10
34.72114143646752
 20
-96.08632437305743
 30
0.0
 11
63.34158409828694
 21
-96.08632437305743
 31
0.0
  0
LINE
  5
331D
330
18
100
AcDbEntity
  8
外形線
100
AcDbLine
 10
59.19784118242148
 20
-72.98632437305747
 30
0.0
 11
59.39784118242153
 21
-72.98632437305752
 31
0.0
  0
POINT
  5
331E
330
18
100
AcDbEntity
  8
DEFPOINTS
  6
ByBlock
 62
     0
100
AcDbPoint
 10
59.19784118242148
 20
-71.58632437305744
 30
0.0
  0
LINE
  5
331F
330
18
100
AcDbEntity
  8
外形線
100
AcDbLine
 10
42.64784118242164
 20
-68.58632437305726
 30
0.0
 11
45.94784118242171
 21
-68.58632437305726
 31
0.0
  0
LINE
  5
3320
330
18
100
AcDbEntity
  8
外形線
100
AcDbLine
 10
41.39784118242164
 20
-70.58632437305726
 30
0.0
 11
41.39784118242164
 21
-121.5863243730576
 31
0.0
  0
LINE
  5
3321
330
18
100
AcDbEntity
  8
外形線
100
AcDbLine
 10
42.39784118242164
 20
-68.83632437305727
 30
0.0
 11
42.39784118242164
 21
-70.0363243730572
 31
0.0
  0
LINE
  5
3322
330
18
100
AcDbEntity
  8
外形線
100
AcDbLine
 10
41.39784118242164
 20
-70.58632437305726
 30
0.0
 11
42.39784118242153
 21
-70.0363243730572
 31
0.0
  0
LINE
  5
3323
330
18
100
AcDbEntity
  8
外形線
 48
0.5
100
AcDbLine
 10
42.39784118242164
 20
-68.83632437305727
 30
0.0
 11
42.64784118242164
 21
-68.58632437305726
 31
0.0
  0
LINE
  5
3324
330
18
100
AcDbEntity
  8
外形線
100
AcDbLine
 10
46.1978411824216
 20
-68.83632437305727
 30
0.0
 11
46.1978411824216
 21
-70.28632437305731
 31
0.0
  0
LINE
  5
3325
330
18
100
AcDbEntity
  8
外形線
 48
0.5
100
AcDbLine
 10
46.19784118242171
 20
-68.83632437305727
 30
0.0
 11
45.94784118242171
 21
-68.58632437305726
 31
0.0
  0
LINE
  5
3326
330
18
100
AcDbEntity
  8
外形線
100
AcDbLine
 10
42.64784118242164
 20
-123.5863243730576
 30
0.0
 11
45.94784118242171
 21
-123.5863243730576
 31
0.0
  0
LINE
  5
3327
330
18
100
AcDbEntity
  8
外形線
 48
0.5
100
AcDbLine
 10
42.39784118242176
 20
-123.3363243730576
 30
0.0
 11
42.64784118242175
 21
-123.5863243730576
 31
0.0
  0
LINE
  5
3328
330
18
100
AcDbEntity
  8
外形線
100
AcDbLine
 10
41.39784118242175
 20
-121.5863243730576
 30
0.0
 11
42.39784118242164
 21
-122.1363243730577
 31
0.0
  0
LINE
  5
3329
330
18
100
AcDbEntity
  8
外形線
100
AcDbLine
 10
42.39784118242176
 20
-123.3363243730576
 30
0.0
 11
42.39784118242176
 21
-122.8363243730576
 31
0.0
  0
LINE
  5
332A
330
18
100
AcDbEntity
  8
外形線
 48
0.5
100
AcDbLine
 10
46.19784118242182
 20
-123.3363243730576
 30
0.0
 11
45.94784118242182
 21
-123.5863243730576
 31
0.0
  0
LINE
  5
332B
330
18
100
AcDbEntity
  8
外形線
100
AcDbLine
 10
46.19784118242171
 20
-123.3363243730576
 30
0.0
 11
46.19784118242171
 21
-122.8363243730576
 31
0.0
  0
LINE
  5
332C
330
18
100
AcDbEntity
  8
外形線
100
AcDbLine
 10
42.39784118242153
 20
-70.0363243730572
 30
0.0
 11
42.39784118242153
 21
-122.8363243730577
 31
0.0
  0
LINE
  5
332D
330
18
100
AcDbEntity
  8
外形線
100
AcDbLine
 10
46.1978411824216
 20
-70.28632437305731
 30
0.0
 11
46.19784118242171
 21
-122.8363243730576
 31
0.0
  0
LINE
  5
332E
330
18
100
AcDbEntity
  8
外形線
100
AcDbLine
 10
42.64784118242164
 20
-68.58632437305726
 30
0.0
 11
42.64784118242153
 21
-123.5863243730576
 31
0.0
  0
LINE
  5
332F
330
18
100
AcDbEntity
  8
外形線
100
AcDbLine
 10
45.94784118242171
 20
-68.58632437305726
 30
0.0
 11
45.94784118242159
 21
-123.5863243730576
 31
0.0
  0
LINE
  5
3330
330
18
100
AcDbEntity
  8
外形線
 62
     4
100
AcDbLine
 10
42.64784118242164
 20
-69.48632437305724
 30
0.0
 11
45.94784118242171
 21
-69.48632437305724
 31
0.0
  0
LINE
  5
3331
330
18
100
AcDbEntity
  8
外形線
 62
     4
100
AcDbLine
 10
42.64784118242164
 20
-70.38632437305722
 30
0.0
 11
45.94784118242171
 21
-70.38632437305722
 31
0.0
  0
LINE
  5
3332
330
18
100
AcDbEntity
  8
外形線
 62
     4
100
AcDbLine
 10
42.64784118242164
 20
-71.38632437305722
 30
0.0
 11
45.94784118242171
 21
-71.38632437305722
 31
0.0
  0
LINE
  5
3333
330
18
100
AcDbEntity
  8
外形線
 62
     4
100
AcDbLine
 10
42.64784118242164
 20
-72.5863243730572
 30
0.0
 11
45.94784118242171
 21
-72.5863243730572
 31
0.0
  0
LINE
  5
3334
330
18
100
AcDbEntity
  8
外形線
 62
     4
100
AcDbLine
 10
42.64784118242164
 20
-73.88632437305722
 30
0.0
 11
45.94784118242171
 21
-73.88632437305722
 31
0.0
  0
LINE
  5
3335
330
18
100
AcDbEntity
  8
外形線
 62
     4
100
AcDbLine
 10
42.64784118242164
 20
-118.2863243730576
 30
0.0
 11
45.94784118242171
 21
-118.2863243730576
 31
0.0
  0
LINE
  5
3336
330
18
100
AcDbEntity
  8
外形線
 62
     4
100
AcDbLine
 10
42.64784118242164
 20
-119.5863243730576
 30
0.0
 11
45.94784118242171
 21
-119.5863243730576
 31
0.0
  0
LINE
  5
3337
330
18
100
AcDbEntity
  8
外形線
 62
     4
100
AcDbLine
 10
42.64784118242164
 20
-120.7863243730576
 30
0.0
 11
45.94784118242171
 21
-120.7863243730576
 31
0.0
  0
LINE
  5
3338
330
18
100
AcDbEntity
  8
外形線
 62
     4
100
AcDbLine
 10
42.64784118242164
 20
-121.7863243730576
 30
0.0
 11
45.94784118242171
 21
-121.7863243730576
 31
0.0
  0
LINE
  5
3339
330
18
100
AcDbEntity
  8
外形線
 62
     4
100
AcDbLine
 10
42.64784118242164
 20
-122.6863243730576
 30
0.0
 11
45.94784118242171
 21
-122.6863243730576
 31
0.0
  0
LINE
  5
333A
330
18
100
AcDbEntity
  8
外形線
 62
     4
100
AcDbLine
 10
40.44784118242148
 20
-96.08632437305743
 30
0.0
 11
43.74784118242144
 21
-96.08632437305743
 31
0.0
  0
LINE
  5
333B
330
18
100
AcDbEntity
  8
外形線
 62
     4
100
AcDbLine
 10
42.64784118242164
 20
-94.78632437305742
 30
0.0
 11
45.94784118242159
 21
-94.78632437305742
 31
0.0
  0
LINE
  5
333C
330
18
100
AcDbEntity
  8
外形線
 62
     4
100
AcDbLine
 10
42.64784118242164
 20
-97.38632437305746
 30
0.0
 11
45.94784118242159
 21
-97.38632437305746
 31
0.0
  0
LINE
  5
333D
330
18
100
AcDbEntity
  8
外形線
 62
     4
100
AcDbLine
 10
42.64784118242164
 20
-93.68632437305739
 30
0.0
 11
45.94784118242159
 21
-93.68632437305739
 31
0.0
  0
LINE
  5
333E
330
18
100
AcDbEntity
  8
外形線
 62
     4
100
AcDbLine
 10
42.64784118242164
 20
-98.48632437305747
 30
0.0
 11
45.94784118242159
 21
-98.48632437305747
 31
0.0
  0
LINE
  5
333F
330
18
100
AcDbEntity
  8
外形線
 62
     4
100
AcDbLine
 10
42.64784118242164
 20
-92.6863243730574
 30
0.0
 11
45.94784118242159
 21
-92.6863243730574
 31
0.0
  0
LINE
  5
3340
330
18
100
AcDbEntity
  8
外形線
 62
     4
100
AcDbLine
 10
42.64784118242164
 20
-99.48632437305747
 30
0.0
 11
45.94784118242159
 21
-99.48632437305747
 31
0.0
  0
LINE
  5
3341
330
18
100
AcDbEntity
  8
外形線
  6
Continuous
100
AcDbLine
 10
48.69784118242171
 20
-47.11418841805778
 30
0.0
 11
48.69784118242148
 21
-71.58632437305744
 31
0.0
  0
LINE
  5
3342
330
18
100
AcDbEntity
  8
外形線
  6
Continuous
100
AcDbLine
 10
56.69784118242148
 20
-47.11418841805789
 30
0.0
 11
56.69784118242148
 21
-71.58632437305744
 31
0.0
  0
ARC
  5
3343
330
18
100
AcDbEntity
  8
外形線
100
AcDbCircle
 10
52.69784118242148
 20
-51.58632437305744
 30
0.0
 40
6.0
100
AcDbArc
 50
48.18968510422037
 51
131.8103148957772
  0
LINE
  5
3344
330
18
100
AcDbEntity
  8
外形線
100
AcDbLine
 10
48.69784118242171
 20
-47.11418841805778
 30
0.0
 11
56.69784118242148
 21
-47.11418841805789
 31
0.0
  0
POINT
  5
3345
330
18
100
AcDbEntity
  8
DEFPOINTS
  6
ByBlock
 62
     0
100
AcDbPoint
 10
42.64784118242164
 20
-68.58632437305726
 30
0.0
  0
POINT
  5
3346
330
18
100
AcDbEntity
  8
DEFPOINTS
  6
ByBlock
 62
     0
100
AcDbPoint
 10
43.12130600854345
 20
-123.5863243730576
 30
0.0
  0
POINT
  5
3347
330
18
100
AcDbEntity
  8
DEFPOINTS
  6
ByBlock
 62
     0
100
AcDbPoint
 10
43.12130600854345
 20
-123.5863243730576
 30
0.0
  0
LINE
  5
3348
330
18
100
AcDbEntity
  8
外形線
 48
0.5
100
AcDbLine
 10
48.6978411824216
 20
-120.5863243730574
 30
0.0
 11
48.6978411824216
 21
-121.5863243730574
 31
0.0
  0
LINE
  5
3349
330
18
100
AcDbEntity
  8
外形線
 48
0.5
100
AcDbLine
 10
56.69784118242159
 20
-120.5863243730574
 30
0.0
 11
56.69784118242159
 21
-121.5863243730574
 31
0.0
  0
LINE
  5
334A
330
18
100
AcDbEntity
  8
外形線
100
AcDbLine
 10
59.39784118242153
 20
-72.98632437305752
 30
0.0
 11
60.18977680164823
 21
-72.98632437305752
 31
0.0
  0
LINE
  5
334B
330
18
100
AcDbEntity
  8
外形線
100
AcDbLine
 10
60.18977680164823
 20
-72.98632437305752
 30
0.0
 11
60.18977680164823
 21
-119.4025639294771
 31
0.0
  0
LINE
  5
334C
330
18
100
AcDbEntity
  8
外形線
100
AcDbLine
 10
60.18977680164823
 20
-119.4025639294771
 30
0.0
 11
59.19784118242148
 21
-119.4025639294771
 31
0.0
  0
LINE
  5
334D
330
18
100
AcDbEntity
  8
外形線
100
AcDbLine
 10
52.6978411824216
 20
-120.5863243730574
 30
0.0
 11
46.19784118242171
 21
-120.5863243730574
 31
0.0
  0
LINE
  5
334E
330
18
100
AcDbEntity
  8
外形線
  6
Continuous
100
AcDbLine
 10
46.1978411824216
 20
-71.58632437305744
 30
0.0
 11
46.19784118242171
 21
-120.5863243730574
 31
0.0
  0
LINE
  5
334F
330
18
100
AcDbEntity
  8
外形線
100
AcDbLine
 10
52.69784118242154
 20
-71.58632437305744
 30
0.0
 11
46.1978411824216
 21
-71.58632437305744
 31
0.0
  0
DIMENSION
  5
35C7
330
18
100
AcDbEntity
  8
外形線
100
AcDbDimension
  2
*D27
 10
28.18083918812198
 20
-123.5863243730576
 30
0.0
 11
26.305839188122
 21
-96.08632437305743
 31
0.0
 70
    32
  1
φ55
 71
     5
 42
55.00000000000034
  3
STYLE3
100
AcDbAlignedDimension
 13
44.29784118242167
 23
-68.58632437305726
 33
0.0
 14
43.25582094488431
 24
-123.5863243730576
 34
0.0
 50
90.0
100
AcDbRotatedDimension
1001
ACAD
1000
DSTYLE
1002
{
1070
   271
1070
     2
1002
}
  0
LINE
  5
3663
330
18
100
AcDbEntity
  8
外形線
100
AcDbLine
 10
-69.62579034729376
 20
-34.19411274711559
 30
0.0
 11
30.37420965270624
 21
-34.19411274711559
 31
0.0
  0
LINE
  5
3664
330
18
100
AcDbEntity
  8
外形線
100
AcDbLine
 10
-69.62579034729376
 20
-33.19411274711558
 30
0.0
 11
30.37420965270624
 21
-33.19411274711558
 31
0.0
  0
TEXT
  5
3665
330
18
100
AcDbEntity
  8
文字
100
AcDbText
 10
-68.62692334729377
 20
-31.29919774711553
 30
0.0
 40
4.0
  1
Model No.T-1W Dial Depth Gauge
  7
STYLE3
100
AcDbText
  0
LINE
  5
3666
330
18
100
AcDbEntity
  8
外形線
100
AcDbLine
 10
-39.09426534729376
 20
-198.7271337471155
 30
0.0
 11
101.6971516527062
 21
-198.7271337471155
 31
0.0
  0
TEXT
  5
3667
330
18
100
AcDbEntity
  8
0
  6
Continuous
100
AcDbText
 10
-37.34530434729378
 20
-203.6802017471155
 30
0.0
 40
3.5
  1
仕様及び外観は予告なく変更される場合がございますのでご了承下さい。
  7
STYLE3
100
AcDbText
  0
LINE
  5
3668
330
18
100
AcDbEntity
  8
外形線
100
AcDbLine
 10
62.92850065270624
 20
-209.5073397471156
 30
0.0
 11
62.92850065270624
 21
-219.1221177471156
 31
0.0
  0
LINE
  5
3669
330
18
100
AcDbEntity
  8
外形線
100
AcDbLine
 10
33.19615165270625
 20
-209.5073397471156
 30
0.0
 11
33.19615165270625
 21
-219.1221177471156
 31
0.0
  0
TEXT
  5
366A
330
18
100
AcDbEntity
  8
0
  6
Continuous
100
AcDbText
 10
34.74474165270624
 20
-214.0408917471155
 30
0.0
 40
3.0
  1
日 付
  7
STYLE3
100
AcDbText
  0
TEXT
  5
366B
330
18
100
AcDbEntity
  8
0
  6
Continuous
100
AcDbText
 10
35.12810265270625
 20
-217.3739747471155
 30
0.0
 40
2.1
  1
Date
  7
STYLE3
100
AcDbText
  0
LINE
  5
366C
330
18
100
AcDbEntity
  8
外形線
100
AcDbLine
 10
13.66607965270623
 20
-209.5073397471156
 30
0.0
 11
13.66607965270623
 21
-219.1221177471156
 31
0.0
  0
TEXT
  5
366D
330
18
100
AcDbEntity
  8
0
  6
Continuous
100
AcDbText
 10
14.95182665270624
 20
-214.1630967471156
 30
0.0
 40
3.0
  1
尺 度
  7
STYLE3
100
AcDbText
  0
TEXT
  5
366E
330
18
100
AcDbEntity
  8
0
  6
Continuous
100
AcDbText
 10
15.41504265270623
 20
-217.0826187471156
 30
0.0
 40
2.1
  1
Scale
  7
STYLE3
100
AcDbText
  0
TEXT
  5
366F
330
18
100
AcDbEntity
  8
0
  6
Continuous
100
AcDbText
 10
25.03433065270625
 20
-215.3344767471156
 30
0.0
 40
2.399999999999999
  1
1/1
  7
STYLE3
100
AcDbText
  0
TEXT
  5
3670
330
18
100
AcDbEntity
  8
0
  6
Continuous
100
AcDbText
 10
43.87290965270625
 20
-215.6258347471156
 30
0.0
 40
2.1
  1
2010.06.23
  7
STYLE3
100
AcDbText
  0
TEXT
  5
3671
330
18
100
AcDbEntity
  8
0
  6
Continuous
100
AcDbText
 10
65.15194365270625
 20
-217.3739767471156
 30
0.0
 40
2.1
  1
OZAKI MFG. CO., LTD.
  7
STYLE3
100
AcDbText
  0
TEXT
  5
3672
330
18
100
AcDbEntity
  8
0
  6
Continuous
100
AcDbText
 10
64.27746465270624
 20
-213.5863367471156
 30
0.0
 40
3.0
  1
株式会社　尾崎製作所
  7
STYLE3
100
AcDbText
  0
LINE
  5
3673
330
18
100
AcDbEntity
  8
外形線
100
AcDbLine
 10
-3.823538347293748
 20
-209.5073397471156
 30
0.0
 11
-3.823538347293748
 21
-219.1221177471156
 31
0.0
  0
TEXT
  5
3674
330
18
100
AcDbEntity
  8
0
  6
Continuous
100
AcDbText
 10
-2.366068347293776
 20
-213.8717397471156
 30
0.0
 40
3.0
  1
単位
  7
STYLE3
100
AcDbText
  0
TEXT
  5
3675
330
18
100
AcDbEntity
  8
0
  6
Continuous
100
AcDbText
 10
-2.194347347293756
 20
-217.3739757471156
 30
0.0
 40
2.1
  1
Unit
  7
STYLE3
100
AcDbText
  0
TEXT
  5
3676
330
18
100
AcDbEntity
  8
0
  6
Continuous
100
AcDbText
 10
-37.92828934729376
 20
-217.3739767471156
 30
0.0
 40
2.1
  1
3RD Angle Projection
  7
STYLE3
100
AcDbText
  0
TEXT
  5
3677
330
18
100
AcDbEntity
  8
0
  6
Continuous
100
AcDbText
 10
-35.30484734729376
 20
-213.8776937471156
 30
0.0
 40
3.0
  1
三　　角　　法
  7
STYLE3
100
AcDbText
  0
LINE
  5
3678
330
18
100
AcDbEntity
  8
外形線
100
AcDbLine
 10
-39.09426534729376
 20
-209.5073397471156
 30
0.0
 11
101.6971516527062
 21
-209.5073397471156
 31
0.0
  0
TEXT
  5
3679
330
18
100
AcDbEntity
  8
0
  6
Continuous
100
AcDbText
 10
5.675978652706248
 20
-215.6258337471156
 30
0.0
 40
2.399999999999999
  1
mm
  7
STYLE3
100
AcDbText
  0
TEXT
  5
367A
330
18
100
AcDbEntity
  8
0
  6
Continuous
100
AcDbText
 10
-37.63679834729376
 20
-207.6093497471156
 30
0.0
 40
2.1
  1
Design and specifications are subject to change without notice for future improvement.
  7
STYLE3
100
AcDbText
  0
LINE
  5
367B
330
18
100
AcDbEntity
  8
外形線
100
AcDbLine
 10
-39.09426534729376
 20
-219.1221177471156
 30
0.0
 11
-39.09426534729376
 21
-198.7271337471155
 31
0.0
  0
LWPOLYLINE
  5
367C
330
18
100
AcDbEntity
  8
C
100
AcDbPolyline
 90
        5
 70
     0
 43
0.4
 10
-152.7199123472938
 20
-24.11543374711556
 10
102.2800876527062
 20
-24.11543374711556
 10
102.2800876527062
 20
-219.1154337471155
 10
-152.7199123472938
 20
-219.1154337471155
 10
-152.7199123472938
 20
-24.11543374711556
  0
VIEWPORT
  5
177
330
15
100
AcDbEntity
 67
     1
  8
0
100
AcDbViewport
 10
127.5041203589828
 20
97.49391214526822
 30
0.0
 40
418.3086347473814
 41
243.0346063651093
 68
     1
 69
     1
 12
127.5041203589828
 22
97.49391214526822
 13
0.0
 23
0.0
 14
10.0
 24
10.0
 15
10.0
 25
10.0
 16
0.0
 26
0.0
 36
1.0
 17
0.0
 27
0.0
 37
0.0
 42
50.0
 43
0.0
 44
0.0
 45
243.0346063651093
 50
0.0
 51
0.0
 72
   100
 90
    32800
  1

281
     0
 71
     1
 74
     0
110
0.0
120
0.0
130
0.0
111
1.0
121
0.0
131
0.0
112
0.0
122
1.0
132
0.0
 79
     0
146
0.0
170
     0
  0
ENDSEC
  0
SECTION
  2
OBJECTS
  0
DICTIONARY
  5
C
330
0
100
AcDbDictionary
281
     1
  3
ACAD_COLOR
350
235C
  3
ACAD_GROUP
350
D
  3
ACAD_IMAGE_DICT
350
5E8
  3
ACAD_LAYOUT
350
235F
  3
ACAD_MATERIAL
350
235B
  3
ACAD_MLINESTYLE
350
1B
  3
ACAD_PLOTSETTINGS
350
2360
  3
ACAD_PLOTSTYLENAME
350
2359
  3
ACAD_TABLESTYLE
350
235D
  3
AcDbVariableDictionary
350
2369
  0
DICTIONARY
  5
2CD0
330
18
100
AcDbDictionary
280
     1
281
     1
  3
ACAD_SORTENTS
360
2CD1
  0
DICTIONARY
  5
235C
102
{ACAD_REACTORS
330
C
102
}
330
C
100
AcDbDictionary
281
     1
  0
DICTIONARY
  5
D
102
{ACAD_REACTORS
330
C
102
}
330
C
100
AcDbDictionary
281
     1
  0
DICTIONARY
  5
5E8
102
{ACAD_REACTORS
330
C
102
}
330
C
100
AcDbDictionary
281
     1
  3
ROGO01
350
5E9
  0
DICTIONARY
  5
235F
102
{ACAD_REACTORS
330
C
102
}
330
C
100
AcDbDictionary
281
     1
  3
Model
350
2361
  3
レイアウト1
350
2362
  0
DICTIONARY
  5
235B
102
{ACAD_REACTORS
330
C
102
}
330
C
100
AcDbDictionary
281
     1
  0
DICTIONARY
  5
1B
102
{ACAD_REACTORS
330
C
102
}
330
C
100
AcDbDictionary
281
     1
  3
STANDARD
350
1C
  0
DICTIONARY
  5
2360
102
{ACAD_REACTORS
330
C
102
}
330
C
100
AcDbDictionary
281
     1
  0
ACDBDICTIONARYWDFLT
  5
2359
102
{ACAD_REACTORS
330
C
102
}
330
C
100
AcDbDictionary
281
     1
  3
Normal
350
235A
100
AcDbDictionaryWithDefault
340
235A
  0
DICTIONARY
  5
235D
102
{ACAD_REACTORS
330
C
102
}
330
C
100
AcDbDictionary
281
     1
  3
Standard
350
235E
  0
DICTIONARY
  5
2369
102
{ACAD_REACTORS
330
C
102
}
330
C
100
AcDbDictionary
281
     1
  3
CTABLESTYLE
350
236A
  0
SORTENTSTABLE
  5
2CD1
102
{ACAD_REACTORS
330
2CD0
102
}
330
2CD0
100
AcDbSortentsTable
330
18
331
165E
  5
165E
331
1BB3
  5
1BB3
331
17ED
  5
17ED
331
1855
  5
1855
331
1BBB
  5
1BBB
331
1AEC
  5
1AEC
331
3332
  5
3334
331
32FB
  5
32FD
331
2994
  5
2996
331
333A
  5
333C
331
3303
  5
3305
331
299C
  5
299E
331
2568
  5
256A
331
2570
  5
2572
331
3342
  5
3344
331
330B
  5
330D
331
29A4
  5
29A6
331
2539
  5
253B
331
2578
  5
257A
331
334A
  5
334C
331
2541
  5
2543
331
2580
  5
2582
331
296D
  5
296F
331
1600
  5
1600
331
158A
  5
158A
331
154B
  5
154B
331
15C1
  5
15C1
331
1608
  5
1608
331
1553
  5
1553
331
F9D
  5
F9D
331
1592
  5
1592
331
15C9
  5
15C9
331
15D1
  5
15D1
331
155B
  5
155B
331
92E
  5
92E
331
2EF
  5
2EF
331
FA5
  5
FA5
331
159A
  5
159A
331
1610
  5
1610
331
15A2
  5
15A2
331
152C
  5
152C
331
FAD
  5
FAD
331
1563
  5
1563
331
15D9
  5
15D9
331
1618
  5
1618
331
1BC3
  5
1BC3
331
18FD
  5
18FD
331
163F
  5
163F
331
1AF4
  5
1AF4
331
1AFC
  5
1AFC
331
19CD
  5
19CD
331
1647
  5
1647
331
1BCB
  5
1BCB
331
164F
  5
164F
331
1B24
  5
1B24
331
1BD3
  5
1BD3
331
1657
  5
1657
331
1A2D
  5
1A2D
331
3313
  5
3315
331
2975
  5
2977
331
331B
  5
331D
331
32E4
  5
32E6
331
297D
  5
297F
331
2549
  5
254B
331
2588
  5
258A
331
2590
  5
2592
331
3323
  5
3325
331
32EC
  5
32EE
331
2985
  5
2987
331
2551
  5
2553
331
332B
  5
332D
331
32F4
  5
32F6
331
298D
  5
298F
331
251A
  5
251C
331
2559
  5
255B
331
2522
  5
2524
331
2561
  5
2563
331
1620
  5
1620
331
156B
  5
156B
331
102D
  5
102D
331
1534
  5
1534
331
15AA
  5
15AA
331
15E1
  5
15E1
331
15E9
  5
15E9
331
1573
  5
1573
331
10ED
  5
10ED
331
153C
  5
153C
331
15B2
  5
15B2
331
1628
  5
1628
331
15F1
  5
15F1
331
1544
  5
1544
331
F86
  5
F86
331
10F5
  5
10F5
331
157B
  5
157B
331
15BA
  5
15BA
331
1630
  5
1630
331
15F9
  5
15F9
331
10FD
  5
10FD
331
1583
  5
1583
331
17E6
  5
17E6
331
165F
  5
165F
331
1BB4
  5
1BB4
331
17EE
  5
17EE
331
1677
  5
1677
331
1856
  5
1856
331
1BBC
  5
1BBC
331
3333
  5
3335
331
32FC
  5
32FE
331
2995
  5
2997
331
333B
  5
333D
331
3304
  5
3306
331
299D
  5
299F
331
2569
  5
256B
331
2571
  5
2573
331
3343
  5
3345
331
330C
  5
330E
331
29A5
  5
2B85
331
253A
  5
253C
331
2579
  5
257B
331
334B
  5
334D
331
2542
  5
2544
331
2581
  5
2583
331
296E
  5
2970
331
158B
  5
158B
331
154C
  5
154C
331
F96
  5
F96
331
15C2
  5
15C2
331
1601
  5
1601
331
1609
  5
1609
331
1593
  5
1593
331
1554
  5
1554
331
F9E
  5
F9E
331
15CA
  5
15CA
331
1611
  5
1611
331
159B
  5
159B
331
92F
  5
92F
331
2F0
  5
2F0
331
FA6
  5
FA6
331
155C
  5
155C
331
15D2
  5
15D2
331
1638
  5
1638
331
1619
  5
1619
331
152D
  5
152D
331
1564
  5
1564
331
15A3
  5
15A3
331
15DA
  5
15DA
331
1640
  5
1640
331
1AF5
  5
1AF5
331
1BC4
  5
1BC4
331
1BCC
  5
1BCC
331
1648
  5
1648
331
1BD4
  5
1BD4
331
1650
  5
1650
331
3314
  5
3318
331
2976
  5
2978
331
331C
  5
331E
331
32E5
  5
32E7
331
297E
  5
2980
331
2589
  5
258B
331
2591
  5
2593
331
3324
  5
3326
331
32ED
  5
32EF
331
2986
  5
2988
331
2552
  5
2554
331
255A
  5
255C
331
332C
  5
332E
331
298E
  5
2990
331
32F5
  5
32F7
331
251B
  5
251D
331
2523
  5
2525
331
2562
  5
2564
331
15E2
  5
15E2
331
1535
  5
1535
331
102E
  5
102E
331
156C
  5
156C
331
15AB
  5
15AB
331
1621
  5
1621
331
15B3
  5
15B3
331
10EE
  5
10EE
331
153D
  5
153D
331
1574
  5
1574
331
15EA
  5
15EA
331
1629
  5
1629
331
1631
  5
1631
331
157C
  5
157C
331
F87
  5
F87
331
10F6
  5
10F6
331
1545
  5
1545
331
15BB
  5
15BB
331
15F2
  5
15F2
331
1658
  5
1658
331
15FA
  5
15FA
331
1584
  5
1584
331
1660
  5
1660
331
17E7
  5
17E7
331
1BB5
  5
1BB5
331
1BBD
  5
1BBD
331
3334
  5
3336
331
2996
  5
2998
331
32FD
  5
32FF
331
333C
  5
333E
331
299E
  5
29A0
331
3305
  5
3307
331
256A
  5
256C
331
2572
  5
2574
331
3344
  5
3346
331
29A6
  5
2BA8
331
330D
  5
330F
331
253B
  5
253D
331
257A
  5
257C
331
334C
  5
334E
331
2543
  5
2545
331
2967
  5
2969
331
2582
  5
2584
331
296F
  5
2971
331
1602
  5
1602
331
158C
  5
158C
331
F97
  5
F97
331
154D
  5
154D
331
15C3
  5
15C3
331
160A
  5
160A
331
1555
  5
1555
331
F9F
  5
F9F
331
1594
  5
1594
331
15CB
  5
15CB
331
159C
  5
159C
331
155D
  5
155D
331
930
  5
930
331
2F1
  5
2F1
331
FA7
  5
FA7
331
15D3
  5
15D3
331
1612
  5
1612
331
161A
  5
161A
331
15A4
  5
15A4
331
152E
  5
152E
331
1565
  5
1565
331
15DB
  5
15DB
331
1BC5
  5
1BC5
331
1641
  5
1641
331
1AF6
  5
1AF6
331
17C0
  5
17C0
331
1649
  5
1649
331
1BCD
  5
1BCD
331
1651
  5
1651
331
1BD5
  5
1BD5
331
2977
  5
2979
331
3315
  5
3319
331
331D
  5
331F
331
297F
  5
2981
331
32E6
  5
32E8
331
35E9
  5
2BAA
331
254B
  5
254D
331
258A
  5
258C
331
2592
  5
2594
331
3325
  5
3327
331
2987
  5
2989
331
32EE
  5
32F0
331
2553
  5
2555
331
332D
  5
332F
331
298F
  5
2991
331
32F6
  5
32F8
331
251C
  5
251E
331
255B
  5
255D
331
2524
  5
2526
331
2563
  5
2565
331
1622
  5
1622
331
156D
  5
156D
331
1536
  5
1536
331
15AC
  5
15AC
331
15E3
  5
15E3
331
15EB
  5
15EB
331
153E
  5
153E
331
10EF
  5
10EF
331
1575
  5
1575
331
15B4
  5
15B4
331
162A
  5
162A
331
15F3
  5
15F3
331
1546
  5
1546
331
157D
  5
157D
331
15BC
  5
15BC
331
1632
  5
1632
331
1659
  5
1659
331
15FB
  5
15FB
331
1585
  5
1585
331
17E8
  5
17E8
331
1661
  5
1661
331
1BFD
  5
1BFD
331
1BB6
  5
1BB6
331
1BBE
  5
1BBE
331
1AEF
  5
1AEF
331
3335
  5
3337
331
2997
  5
2999
331
32FE
  5
3300
331
333D
  5
333F
331
299F
  5
29A1
331
3306
  5
3308
331
256B
  5
256D
331
2573
  5
2575
331
3345
  5
3347
331
330E
  5
3310
331
253C
  5
253E
331
334D
  5
334F
331
257B
  5
257D
331
2968
  5
296A
331
2583
  5
2585
331
158D
  5
158D
331
154E
  5
154E
331
F98
  5
F98
331
15C4
  5
15C4
331
1603
  5
1603
331
160B
  5
160B
331
1595
  5
1595
331
FA0
  5
FA0
331
14FF
  5
14FF
331
1556
  5
1556
331
15CC
  5
15CC
331
1613
  5
1613
331
159D
  5
159D
331
931
  5
931
331
FA8
  5
FA8
331
155E
  5
155E
331
15D4
  5
15D4
331
163A
  5
163A
331
161B
  5
161B
331
152F
  5
152F
331
1566
  5
1566
331
15A5
  5
15A5
331
15DC
  5
15DC
331
1BC6
  5
1BC6
331
1642
  5
1642
331
1AF7
  5
1AF7
331
1BCE
  5
1BCE
331
164A
  5
164A
331
1BD6
  5
1BD6
331
1652
  5
1652
331
2970
  5
2972
331
2978
  5
297A
331
258B
  5
258D
331
331E
  5
3320
331
2980
  5
2982
331
32E7
  5
32E9
331
35EA
  5
2BAB
331
254C
  5
254E
331
3326
  5
3328
331
2988
  5
298A
331
32EF
  5
32F1
331
2554
  5
2556
331
2593
  5
2595
331
255C
  5
255E
331
332E
  5
3330
331
32F7
  5
32F9
331
251D
  5
251F
331
2525
  5
2527
331
2564
  5
2566
331
941
  5
941
331
15AD
  5
15AD
331
1537
  5
1537
331
156E
  5
156E
331
15E4
  5
15E4
331
1623
  5
1623
331
162B
  5
162B
331
15B5
  5
15B5
331
10F0
  5
10F0
331
153F
  5
153F
331
1576
  5
1576
331
15EC
  5
15EC
331
1633
  5
1633
331
157E
  5
157E
331
1547
  5
1547
331
15BD
  5
15BD
331
15F4
  5
15F4
331
165A
  5
165A
331
15FC
  5
15FC
331
1586
  5
1586
331
1BFE
  5
1BFE
331
1662
  5
1662
331
17E9
  5
17E9
331
1BB7
  5
1BB7
331
1BBF
  5
1BBF
331
2990
  5
2992
331
3336
  5
3338
331
2998
  5
299A
331
32FF
  5
3301
331
333E
  5
3340
331
29A0
  5
29A2
331
3307
  5
3309
331
256C
  5
256E
331
2574
  5
2576
331
3346
  5
3348
331
2BA8
  5
2CA9
331
330F
  5
3311
331
253D
  5
253F
331
334E
  5
35C7
331
257C
  5
257E
331
2969
  5
296B
331
2584
  5
2586
331
1604
  5
1604
331
154F
  5
154F
331
F99
  5
F99
331
158E
  5
158E
331
15C5
  5
15C5
331
160C
  5
160C
331
1500
  5
1500
331
FA1
  5
FA1
331
1557
  5
1557
331
1596
  5
1596
331
15CD
  5
15CD
331
159E
  5
159E
331
155F
  5
155F
331
932
  5
932
331
FA9
  5
FA9
331
15D5
  5
15D5
331
1614
  5
1614
331
18F9
  5
18F9
331
161C
  5
161C
331
15A6
  5
15A6
331
1567
  5
1567
331
15DD
  5
15DD
331
163B
  5
163B
331
1BC7
  5
1BC7
331
1643
  5
1643
331
1AF8
  5
1AF8
331
19D1
  5
19D1
331
164B
  5
164B
331
1BCF
  5
1BCF
331
1BD7
  5
1BD7
331
1653
  5
1653
331
2971
  5
2973
331
2979
  5
297B
331
331F
  5
3321
331
2981
  5
2983
331
32E8
  5
32EA
331
254D
  5
254F
331
258C
  5
258E
331
2594
  5
2596
331
3327
  5
3329
331
2989
  5
298B
331
32F0
  5
32F2
331
2555
  5
2557
331
332F
  5
3331
331
251E
  5
2520
331
255D
  5
255F
331
2565
  5
2567
331
2526
  5
2528
331
1530
  5
1530
331
942
  5
942
331
1624
  5
1624
331
156F
  5
156F
331
952
  5
952
331
1538
  5
1538
331
15AE
  5
15AE
331
15E5
  5
15E5
331
15ED
  5
15ED
331
1540
  5
1540
331
663
  5
663
331
10F1
  5
10F1
331
1577
  5
1577
331
15B6
  5
15B6
331
162C
  5
162C
331
15BE
  5
15BE
331
157F
  5
157F
331
15F5
  5
15F5
331
1634
  5
1634
331
15FD
  5
15FD
331
1587
  5
1587
331
165B
  5
165B
331
17EA
  5
17EA
331
1663
  5
1663
331
1BFF
  5
1BFF
331
1BB8
  5
1BB8
331
2991
  5
2993
331
32F8
  5
32FA
331
3337
  5
3339
331
2999
  5
299B
331
3300
  5
3302
331
333F
  5
3341
331
29A1
  5
29A3
331
3308
  5
330A
331
256D
  5
256F
331
2575
  5
2577
331
2BA9
  5
2CAA
331
3347
  5
3349
331
253E
  5
2540
331
334F
  5
35E6
331
257D
  5
257F
331
296A
  5
296C
331
2585
  5
2587
331
1548
  5
1548
331
71B
  5
71B
331
158F
  5
158F
331
1550
  5
1550
331
F9A
  5
F9A
331
15C6
  5
15C6
331
1605
  5
1605
331
160D
  5
160D
331
1597
  5
1597
331
FA2
  5
FA2
331
92B
  5
92B
331
1501
  5
1501
331
1558
  5
1558
331
15CE
  5
15CE
331
1615
  5
1615
331
1560
  5
1560
331
933
  5
933
331
FAA
  5
FAA
331
159F
  5
159F
331
15D6
  5
15D6
331
161D
  5
161D
331
15A7
  5
15A7
331
15DE
  5
15DE
331
163C
  5
163C
331
1AF1
  5
1AF1
331
1BC0
  5
1BC0
331
1BC8
  5
1BC8
331
1644
  5
1644
331
1AF9
  5
1AF9
331
19D2
  5
19D2
331
164C
  5
164C
331
1BD0
  5
1BD0
331
1BD8
  5
1BD8
331
1654
  5
1654
331
2972
  5
2974
331
3310
  5
3312
331
3318
  5
331A
331
297A
  5
297C
331
32E1
  5
32E3
331
258D
  5
258F
331
32E9
  5
32EB
331
2982
  5
2984
331
3320
  5
3322
331
254E
  5
2550
331
2556
  5
2558
331
3328
  5
332A
331
32F1
  5
32F3
331
298A
  5
298C
331
2517
  5
2519
331
2595
  5
2967
331
255E
  5
2560
331
251F
  5
2521
331
2527
  5
2529
331
2566
  5
2568
331
1531
  5
1531
331
304
  5
304
331
943
  5
943
331
102A
  5
102A
331
1568
  5
1568
331
15AF
  5
15AF
331
10EA
  5
10EA
331
1539
  5
1539
331
1570
  5
1570
331
15E6
  5
15E6
331
1625
  5
1625
331
162D
  5
162D
331
15B7
  5
15B7
331
10F2
  5
10F2
331
1541
  5
1541
331
1578
  5
1578
331
15EE
  5
15EE
331
1635
  5
1635
331
1580
  5
1580
331
6BC
  5
6BC
331
15BF
  5
15BF
331
15F6
  5
15F6
331
165C
  5
165C
331
15FE
  5
15FE
331
1BB1
  5
1BB1
331
17EB
  5
17EB
331
1BB9
  5
1BB9
331
1AEA
  5
1AEA
331
167C
  5
167C
331
3330
  5
3332
331
32F9
  5
32FB
331
2992
  5
2994
331
3338
  5
333A
331
3301
  5
3303
331
299A
  5
299C
331
256E
  5
2570
331
3340
  5
3342
331
3309
  5
330B
331
29A2
  5
29A4
331
2576
  5
2578
331
3348
  5
334A
331
2BAA
  5
32E1
331
253F
  5
2541
331
257E
  5
2580
331
2547
  5
2549
331
296B
  5
296D
331
2586
  5
2588
331
1588
  5
1588
331
1102
  5
1102
331
1549
  5
1549
331
1606
  5
1606
331
1551
  5
1551
331
8EC
  5
8EC
331
F9B
  5
F9B
331
1590
  5
1590
331
15C7
  5
15C7
331
15CF
  5
15CF
331
1559
  5
1559
331
92C
  5
92C
331
FA3
  5
FA3
331
1598
  5
1598
331
160E
  5
160E
331
15A0
  5
15A0
331
152A
  5
152A
331
934
  5
934
331
FAB
  5
FAB
331
1561
  5
1561
331
15D7
  5
15D7
331
1616
  5
1616
331
1BC1
  5
1BC1
331
163D
  5
163D
331
1AF2
  5
1AF2
331
161E
  5
161E
331
15DF
  5
15DF
331
1AFA
  5
1AFA
331
1645
  5
1645
331
1BC9
  5
1BC9
331
164D
  5
164D
331
1BD1
  5
1BD1
331
1655
  5
1655
331
17CC
  5
17CC
331
3311
  5
3313
331
2973
  5
2975
331
3319
  5
331B
331
32E2
  5
32E4
331
297B
  5
297D
331
3321
  5
3323
331
32EA
  5
32EC
331
2983
  5
2985
331
254F
  5
2551
331
258E
  5
2590
331
2596
  5
2968
331
2557
  5
2559
331
3329
  5
332B
331
32F2
  5
32F4
331
298B
  5
298D
331
2518
  5
251A
331
2520
  5
2522
331
255F
  5
2561
331
2567
  5
2569
331
1569
  5
1569
331
1532
  5
1532
331
305
  5
305
331
944
  5
944
331
15A8
  5
15A8
331
15E7
  5
15E7
331
1571
  5
1571
331
954
  5
954
331
10EB
  5
10EB
331
153A
  5
153A
331
15B0
  5
15B0
331
1626
  5
1626
331
15EF
  5
15EF
331
1542
  5
1542
331
10F3
  5
10F3
331
1579
  5
1579
331
15B8
  5
15B8
331
162E
  5
162E
331
15F7
  5
15F7
331
1581
  5
1581
331
1636
  5
1636
331
165D
  5
165D
331
1B62
  5
1B62
331
15FF
  5
15FF
331
1BB2
  5
1BB2
331
17EC
  5
17EC
331
1854
  5
1854
331
1BBA
  5
1BBA
331
1AEB
  5
1AEB
331
167D
  5
167D
331
3331
  5
3333
331
32FA
  5
32FC
331
2993
  5
2995
331
3339
  5
333B
331
3302
  5
3304
331
299B
  5
299D
331
2528
  5
252A
331
3341
  5
3343
331
330A
  5
330C
331
29A3
  5
29A5
331
256F
  5
2571
331
2577
  5
2579
331
3349
  5
334B
331
2BAB
  5
32E2
331
2540
  5
2542
331
257F
  5
2581
331
296C
  5
296E
331
2587
  5
2589
331
15C0
  5
15C0
331
1103
  5
1103
331
154A
  5
154A
331
1589
  5
1589
331
1591
  5
1591
331
1552
  5
1552
331
F9C
  5
F9C
331
15C8
  5
15C8
331
1607
  5
1607
331
160F
  5
160F
331
1599
  5
1599
331
92D
  5
92D
331
FA4
  5
FA4
331
155A
  5
155A
331
15D0
  5
15D0
331
1617
  5
1617
331
1562
  5
1562
331
FAC
  5
FAC
331
152B
  5
152B
331
15A1
  5
15A1
331
15D8
  5
15D8
331
1AF3
  5
1AF3
331
163E
  5
163E
331
18FC
  5
18FC
331
1BC2
  5
1BC2
331
161F
  5
161F
331
19CC
  5
19CC
331
1646
  5
1646
331
1BCA
  5
1BCA
331
1BD2
  5
1BD2
331
164E
  5
164E
331
1B23
  5
1B23
331
1656
  5
1656
331
3312
  5
3314
331
2974
  5
2976
331
331A
  5
331C
331
32E3
  5
32E5
331
297C
  5
297E
331
35E6
  5
35EA
331
2548
  5
254A
331
258F
  5
2591
331
3322
  5
3324
331
32EB
  5
32ED
331
2984
  5
2986
331
2550
  5
2552
331
2558
  5
255A
331
332A
  5
332C
331
32F3
  5
32F5
331
298C
  5
298E
331
2519
  5
251B
331
35C7
  5
35E9
331
2521
  5
2523
331
2560
  5
2562
331
15E0
  5
15E0
331
1533
  5
1533
331
945
  5
945
331
156A
  5
156A
331
15A9
  5
15A9
331
15B1
  5
15B1
331
10EC
  5
10EC
331
153B
  5
153B
331
1572
  5
1572
331
15E8
  5
15E8
331
1627
  5
1627
331
162F
  5
162F
331
157A
  5
157A
331
10F4
  5
10F4
331
F85
  5
F85
331
1543
  5
1543
331
15B9
  5
15B9
331
15F0
  5
15F0
331
15F8
  5
15F8
331
1582
  5
1582
331
1637
  5
1637
  0
IMAGEDEF
  5
5E9
102
{ACAD_REACTORS
330
5E8
102
}
330
5E8
100
AcDbRasterImageDef
 90
        0
  1
D:\ﾃｽﾄ\rogo01.TIF
 10
3388.0
 20
4668.0
 11
0.0635
 21
0.0635
280
     1
281
     5
  0
LAYOUT
  5
2361
102
{ACAD_REACTORS
330
235F
102
}
330
235F
100
AcDbPlotSettings
  1

  2
none_device
  4
ISO_A4_(210.00_x_297.00_MM)
  6

 40
7.5
 41
20.0
 42
7.5
 43
20.0
 44
210.0
 45
297.0
 46
0.0
 47
0.0
 48
0.0
 49
0.0
140
0.0
141
0.0
142
1.0
143
1.693126189613644
 70
 11952
 72
     1
 73
     1
 74
     0
  7
monochrome.ctb
 75
     0
147
0.5906234314573983
 76
     0
 77
     2
 78
   300
148
190.7696202134806
149
264.3892960094774
100
AcDbLayout
  1
Model
 70
     1
 71
     0
 10
0.0
 20
0.0
 11
12.0
 21
9.0
 12
0.0
 22
0.0
 32
0.0
 14
0.0
 24
0.0
 34
0.0
 15
0.0
 25
0.0
 35
0.0
146
0.0
 13
0.0
 23
0.0
 33
0.0
 16
1.0
 26
0.0
 36
0.0
 17
0.0
 27
1.0
 37
0.0
 76
     0
330
18
1001
ACAD_PSEXT
1000
なし
1000
なし
1000
適切ではありません
1000
新しいプロッタ環境設定名を選択しない限り、レイアウトは印刷されません。
1070
     0
  0
LAYOUT
  5
2362
102
{ACAD_REACTORS
330
235F
102
}
330
235F
100
AcDbPlotSettings
  1

  2
C:\Documents and Settings\佐藤\Application Data\Autodesk\AutoCAD LT 2005\R10\jpn\plotters\PEACOCK EPSON LP-6100.pc3
  4

  6

 40
0.0
 41
0.0
 42
0.0
 43
0.0
 44
0.0
 45
0.0
 46
0.0
 47
0.0
 48
0.0
 49
0.0
140
0.0
141
0.0
142
1.0
143
1.0
 70
   688
 72
     0
 73
     0
 74
     5
  7
monochrome.ctb
 75
    16
147
1.0
 76
     0
 77
     2
 78
   300
148
0.0
149
0.0
100
AcDbLayout
  1
レイアウト1
 70
     1
 71
     1
 10
0.0
 20
0.0
 11
420.0
 21
297.0
 12
0.0
 22
0.0
 32
0.0
 14
-0.2
 24
-0.2
 34
0.0
 15
255.2
 25
195.2
 35
0.0
146
0.0
 13
0.0
 23
0.0
 33
0.0
 16
1.0
 26
0.0
 36
0.0
 17
0.0
 27
1.0
 37
0.0
 76
     0
330
15
331
177
  0
MLINESTYLE
  5
1C
102
{ACAD_REACTORS
330
1B
102
}
330
1B
100
AcDbMlineStyle
  2
STANDARD
 70
     0
  3

 62
   256
 51
90.0
 52
90.0
 71
     2
 49
0.5
 62
   256
  6
BYLAYER
 49
-0.5
 62
   256
  6
BYLAYER
  0
ACDBPLACEHOLDER
  5
235A
102
{ACAD_REACTORS
330
2359
102
}
330
2359
  0
ACAD_PROXY_OBJECT
  5
235E
102
{ACAD_REACTORS
330
235D
102
}
330
235D
100
AcDbProxyObject
 90
      499
 91
      504
 95
  2555929
 70
     0
 93
     1849
310
4214DD185B99185C992420000000000000F83F0000000000003E0FC00000000000004901028000000C1008070000C3001FDFF8000000C1003FBFF000000182007F7FE00000030400FEFFC00000060801FDFF8000000C1003FBFF000000182000000000000000C2020B0000001820100E000186003FBFF000000182007F7FE0
310
0000030400FEFFC00000060801FDFF8000000C1003FBFF000000182007F7FE0000003040000000000000012404160000003040201C00030C007F7FE00000030400FEFFC00000060801FDFF8000000C1003FBFF000000182007F7FE00000030400FEFFC000000608000
340
F
340
F
340
F
 94
        0
  0
DICTIONARYVAR
  5
236A
102
{ACAD_REACTORS
330
2369
102
}
330
2369
100
DictionaryVariables
280
     0
  1
STANDARD
  0
ENDSEC
  0
EOF
