  0
SECTION
  2
HEADER
  9
$ACADVER
  1
AC1018
  9
$ACADMAINTVER
 70
     0
  9
$DWGCODEPAGE
  3
ANSI_932
  9
$INSBASE
 10
0.0
 20
0.0
 30
0.0
  9
$EXTMIN
 10
-0.2192307289083146
 20
-0.2136015531452813
 30
-0.0000000000000128
  9
$EXTMAX
 10
255.2285122392454
 20
195.2214160090128
 30
0.0000000000000025
  9
$LIMMIN
 10
0.0
 20
0.0
  9
$LIMMAX
 10
420.0
 20
297.0
  9
$ORTHOMODE
 70
     0
  9
$REGENMODE
 70
     1
  9
$FILLMODE
 70
     1
  9
$QTEXTMODE
 70
     0
  9
$MIRRTEXT
 70
     1
  9
$LTSCALE
 40
1.0
  9
$ATTMODE
 70
     1
  9
$TEXTSIZE
 40
3.0
  9
$TRACEWID
 40
1.0
  9
$TEXTSTYLE
  7
STYLE3
  9
$CLAYER
  8
外形線
  9
$CELTYPE
  6
BYLAYER
  9
$CECOLOR
 62
   256
  9
$CELTSCALE
 40
1.0
  9
$DISPSILH
 70
     0
  9
$DIMSCALE
 40
1.0
  9
$DIMASZ
 40
2.5
  9
$DIMEXO
 40
0.0
  9
$DIMDLI
 40
3.75
  9
$DIMRND
 40
0.0
  9
$DIMDLE
 40
0.0
  9
$DIMEXE
 40
1.25
  9
$DIMTP
 40
0.0
  9
$DIMTM
 40
0.0
  9
$DIMTXT
 40
2.5
  9
$DIMCEN
 40
2.5
  9
$DIMTSZ
 40
0.0
  9
$DIMTOL
 70
     0
  9
$DIMLIM
 70
     0
  9
$DIMTIH
 70
     0
  9
$DIMTOH
 70
     0
  9
$DIMSE1
 70
     0
  9
$DIMSE2
 70
     0
  9
$DIMTAD
 70
     1
  9
$DIMZIN
 70
     8
  9
$DIMBLK
  1

  9
$DIMASO
 70
     1
  9
$DIMSHO
 70
     1
  9
$DIMPOST
  1

  9
$DIMAPOST
  1

  9
$DIMALT
 70
     0
  9
$DIMALTD
 70
     4
  9
$DIMALTF
 40
0.0394
  9
$DIMLFAC
 40
1.0
  9
$DIMTOFL
 70
     1
  9
$DIMTVP
 40
0.0
  9
$DIMTIX
 70
     0
  9
$DIMSOXD
 70
     0
  9
$DIMSAH
 70
     1
  9
$DIMBLK1
  1
OPEN
  9
$DIMBLK2
  1
OPEN
  9
$DIMSTYLE
  2
STYLE3
  9
$DIMCLRD
 70
     2
  9
$DIMCLRE
 70
     2
  9
$DIMCLRT
 70
     6
  9
$DIMTFAC
 40
1.0
  9
$DIMGAP
 40
0.625
  9
$DIMJUST
 70
     0
  9
$DIMSD1
 70
     0
  9
$DIMSD2
 70
     0
  9
$DIMTOLJ
 70
     1
  9
$DIMTZIN
 70
     0
  9
$DIMALTZ
 70
     0
  9
$DIMALTTZ
 70
     0
  9
$DIMUPT
 70
     0
  9
$DIMDEC
 70
     2
  9
$DIMTDEC
 70
     4
  9
$DIMALTU
 70
     8
  9
$DIMALTTD
 70
     4
  9
$DIMTXSTY
  7
STYLE3
  9
$DIMAUNIT
 70
     0
  9
$DIMADEC
 70
     0
  9
$DIMALTRND
 40
0.0
  9
$DIMAZIN
 70
     0
  9
$DIMDSEP
 70
    46
  9
$DIMATFIT
 70
     3
  9
$DIMFRAC
 70
     0
  9
$DIMLDRBLK
  1

  9
$DIMLUNIT
 70
     2
  9
$DIMLWD
 70
    -2
  9
$DIMLWE
 70
    -2
  9
$DIMTMOVE
 70
     0
  9
$LUNITS
 70
     2
  9
$LUPREC
 70
     4
  9
$SKETCHINC
 40
1.0
  9
$FILLETRAD
 40
0.0
  9
$AUNITS
 70
     0
  9
$AUPREC
 70
     0
  9
$MENU
  1
.
  9
$ELEVATION
 40
0.0
  9
$PELEVATION
 40
0.0
  9
$THICKNESS
 40
0.0
  9
$LIMCHECK
 70
     0
  9
$CHAMFERA
 40
10.0
  9
$CHAMFERB
 40
10.0
  9
$CHAMFERC
 40
20.0
  9
$CHAMFERD
 40
0.0
  9
$SKPOLY
 70
     0
  9
$TDCREATE
 40
2451431.386432524
  9
$TDUCREATE
 40
2451431.011432524
  9
$TDUPDATE
 40
2455379.474520208
  9
$TDUUPDATE
 40
2455379.099520208
  9
$TDINDWG
 40
0.8872927894
  9
$TDUSRTIMER
 40
0.8872927894
  9
$USRTIMER
 70
     1
  9
$ANGBASE
 50
0.0
  9
$ANGDIR
 70
     0
  9
$PDMODE
 70
     0
  9
$PDSIZE
 40
0.0
  9
$PLINEWID
 40
0.0
  9
$SPLFRAME
 70
     0
  9
$SPLINETYPE
 70
     6
  9
$SPLINESEGS
 70
     8
  9
$HANDSEED
  5
28BF
  9
$SURFTAB1
 70
     6
  9
$SURFTAB2
 70
     6
  9
$SURFTYPE
 70
     6
  9
$SURFU
 70
     6
  9
$SURFV
 70
     6
  9
$UCSBASE
  2

  9
$UCSNAME
  2

  9
$UCSORG
 10
0.0
 20
0.0
 30
0.0
  9
$UCSXDIR
 10
1.0
 20
0.0
 30
0.0
  9
$UCSYDIR
 10
0.0
 20
1.0
 30
0.0
  9
$UCSORTHOREF
  2

  9
$UCSORTHOVIEW
 70
     0
  9
$UCSORGTOP
 10
0.0
 20
0.0
 30
0.0
  9
$UCSORGBOTTOM
 10
0.0
 20
0.0
 30
0.0
  9
$UCSORGLEFT
 10
0.0
 20
0.0
 30
0.0
  9
$UCSORGRIGHT
 10
0.0
 20
0.0
 30
0.0
  9
$UCSORGFRONT
 10
0.0
 20
0.0
 30
0.0
  9
$UCSORGBACK
 10
0.0
 20
0.0
 30
0.0
  9
$PUCSBASE
  2

  9
$PUCSNAME
  2

  9
$PUCSORG
 10
0.0
 20
0.0
 30
0.0
  9
$PUCSXDIR
 10
1.0
 20
0.0
 30
0.0
  9
$PUCSYDIR
 10
0.0
 20
1.0
 30
0.0
  9
$PUCSORTHOREF
  2

  9
$PUCSORTHOVIEW
 70
     0
  9
$PUCSORGTOP
 10
0.0
 20
0.0
 30
0.0
  9
$PUCSORGBOTTOM
 10
0.0
 20
0.0
 30
0.0
  9
$PUCSORGLEFT
 10
0.0
 20
0.0
 30
0.0
  9
$PUCSORGRIGHT
 10
0.0
 20
0.0
 30
0.0
  9
$PUCSORGFRONT
 10
0.0
 20
0.0
 30
0.0
  9
$PUCSORGBACK
 10
0.0
 20
0.0
 30
0.0
  9
$USERI1
 70
     0
  9
$USERI2
 70
     0
  9
$USERI3
 70
     0
  9
$USERI4
 70
     0
  9
$USERI5
 70
     0
  9
$USERR1
 40
0.0
  9
$USERR2
 40
0.0
  9
$USERR3
 40
0.0
  9
$USERR4
 40
0.0
  9
$USERR5
 40
0.0
  9
$WORLDVIEW
 70
     1
  9
$SHADEDGE
 70
     3
  9
$SHADEDIF
 70
    70
  9
$TILEMODE
 70
     1
  9
$MAXACTVP
 70
    48
  9
$PINSBASE
 10
0.0
 20
0.0
 30
0.0
  9
$PLIMCHECK
 70
     0
  9
$PEXTMIN
 10
-0.2
 20
-0.2
 30
0.0
  9
$PEXTMAX
 10
255.2
 20
195.2
 30
0.0
  9
$PLIMMIN
 10
0.0
 20
0.0
  9
$PLIMMAX
 10
420.0
 20
297.0
  9
$UNITMODE
 70
     0
  9
$VISRETAIN
 70
     1
  9
$PLINEGEN
 70
     0
  9
$PSLTSCALE
 70
     1
  9
$TREEDEPTH
 70
  3020
  9
$CMLSTYLE
  2
STANDARD
  9
$CMLJUST
 70
     0
  9
$CMLSCALE
 40
20.0
  9
$PROXYGRAPHICS
 70
     1
  9
$MEASUREMENT
 70
     1
  9
$CELWEIGHT
370
    -1
  9
$ENDCAPS
280
     0
  9
$JOINSTYLE
280
     0
  9
$LWDISPLAY
290
     0
  9
$INSUNITS
 70
     0
  9
$HYPERLINKBASE
  1

  9
$STYLESHEET
  1
AutoCAD LT 98.ctb
  9
$XEDIT
290
     1
  9
$CEPSNTYPE
380
     0
  9
$PSTYLEMODE
290
     1
  9
$FINGERPRINTGUID
  2
{4FE821F0-B4A5-482C-97D8-EA735BC1D616}
  9
$VERSIONGUID
  2
{16AD24F0-82AF-4CA5-A012-68AE055E72CF}
  9
$EXTNAMES
290
     1
  9
$PSVPSCALE
 40
0.0
  9
$OLESTARTUP
290
     0
  9
$SORTENTS
280
   127
  9
$INDEXCTL
280
     0
  9
$HIDETEXT
280
     0
  9
$XCLIPFRAME
290
     0
  9
$HALOGAP
280
     0
  9
$OBSCOLOR
 70
   257
  9
$OBSLTYPE
280
     0
  9
$INTERSECTIONDISPLAY
280
     0
  9
$INTERSECTIONCOLOR
 70
   257
  9
$DIMASSOC
280
     1
  9
$PROJECTNAME
  1

  0
ENDSEC
  0
SECTION
  2
CLASSES
  0
CLASS
  1
HATCH
  2
AcDbHatch
  3
ObjectDBX Classes
 90
        0
 91
        8
280
     0
281
     1
  0
CLASS
  1
IMAGEDEF
  2
AcDbRasterImageDef
  3
ISM
 90
        0
 91
        1
280
     0
281
     0
  0
CLASS
  1
LWPOLYLINE
  2
AcDbPolyline
  3
ObjectDBX Classes
 90
        0
 91
        4
280
     0
281
     1
  0
CLASS
  1
ACDBDICTIONARYWDFLT
  2
AcDbDictionaryWithDefault
  3
ObjectDBX Classes
 90
        0
 91
        1
280
     0
281
     0
  0
CLASS
  1
TABLESTYLE
  2
AcDbTableStyle
  3
ObjectDBX Classes
 90
     2047
 91
        1
280
     0
281
     0
  0
CLASS
  1
DICTIONARYVAR
  2
AcDbDictionaryVar
  3
ObjectDBX Classes
 90
        0
 91
        1
280
     0
281
     0
  0
ENDSEC
  0
SECTION
  2
TABLES
  0
TABLE
  2
VPORT
  5
8
330
0
100
AcDbSymbolTable
 70
     2
  0
VPORT
  5
28BE
330
8
100
AcDbSymbolTableRecord
100
AcDbViewportTableRecord
  2
*Active
 70
     0
 10
0.0
 20
0.0
 11
1.0
 21
1.0
 12
127.5046407551685
 22
97.50390722793376
 13
0.0
 23
0.0
 14
10.0
 24
10.0
 15
10.0
 25
10.0
 16
0.0
 26
0.0
 36
1.0
 17
0.0
 27
0.0
 37
0.0
 40
196.9212154143418
 41
1.530456852791878
 42
50.0
 43
0.0
 44
0.0
 50
0.0
 51
0.0
 71
     0
 72
   100
 73
     1
 74
     1
 75
     0
 76
     0
 77
     0
 78
     0
281
     0
 65
     1
110
0.0
120
0.0
130
0.0
111
1.0
121
0.0
131
0.0
112
0.0
122
1.0
132
0.0
 79
     0
146
0.0
  0
ENDTAB
  0
TABLE
  2
LTYPE
  5
5
330
0
100
AcDbSymbolTable
 70
    12
  0
LTYPE
  5
12
330
5
100
AcDbSymbolTableRecord
100
AcDbLinetypeTableRecord
  2
BYBLOCK
 70
     0
  3

 72
    65
 73
     0
 40
0.0
  0
LTYPE
  5
13
330
5
100
AcDbSymbolTableRecord
100
AcDbLinetypeTableRecord
  2
BYLAYER
 70
     0
  3

 72
    65
 73
     0
 40
0.0
  0
LTYPE
  5
14
330
5
100
AcDbSymbolTableRecord
100
AcDbLinetypeTableRecord
  2
CONTINUOUS
 70
     0
  3
Solid line
 72
    65
 73
     0
 40
0.0
  0
LTYPE
  5
22
330
5
100
AcDbSymbolTableRecord
100
AcDbLinetypeTableRecord
  2
CENTER2
 70
     0
  3
Center (.5x) ___ _ ___ _ ___ _ ___ _ ___ _ ___
 72
    65
 73
     4
 40
28.575
 49
19.05
 74
     0
 49
-3.174999999999999
 74
     0
 49
3.174999999999999
 74
     0
 49
-3.174999999999999
 74
     0
  0
ENDTAB
  0
TABLE
  2
LAYER
  5
2
330
0
100
AcDbSymbolTable
 70
    16
  0
LAYER
  5
E
330
2
100
AcDbSymbolTableRecord
100
AcDbLayerTableRecord
  2
0
 70
     0
 62
     7
  6
CONTINUOUS
370
    -3
390
21BA
  0
LAYER
  5
25
330
2
100
AcDbSymbolTableRecord
100
AcDbLayerTableRecord
  2
外形線
 70
     0
 62
     7
  6
CONTINUOUS
370
    -3
390
21BA
  0
LAYER
  5
26
330
2
100
AcDbSymbolTableRecord
100
AcDbLayerTableRecord
  2
寸法線
 70
     0
 62
     2
  6
CONTINUOUS
370
    -3
390
21BA
  0
LAYER
  5
27
330
2
100
AcDbSymbolTableRecord
100
AcDbLayerTableRecord
  2
中心線
 70
     0
 62
     4
  6
CENTER2
370
    -3
390
21BA
  0
LAYER
  5
2B
330
2
100
AcDbSymbolTableRecord
100
AcDbLayerTableRecord
  2
文字
 70
     0
 62
     6
  6
CONTINUOUS
370
    -3
390
21BA
  0
LAYER
  5
53
330
2
100
AcDbSymbolTableRecord
100
AcDbLayerTableRecord
  2
DEFPOINTS
 70
     0
 62
     7
  6
CONTINUOUS
290
     0
370
    -3
390
21BA
  0
LAYER
  5
A5
330
2
100
AcDbSymbolTableRecord
100
AcDbLayerTableRecord
  2
C
 70
     0
 62
     7
  6
CONTINUOUS
370
    -3
390
21BA
  0
LAYER
  5
2BB
330
2
100
AcDbSymbolTableRecord
100
AcDbLayerTableRecord
  2
ROGO
 70
     0
 62
     6
  6
CONTINUOUS
370
    -3
390
21BA
  0
ENDTAB
  0
TABLE
  2
STYLE
  5
3
330
0
100
AcDbSymbolTable
 70
     8
  0
STYLE
  5
F
330
3
100
AcDbSymbolTableRecord
100
AcDbTextStyleTableRecord
  2
STANDARD
 70
     0
 40
0.0
 41
1.0
 50
0.0
 71
     0
 42
2.5
  3
txt
  4

  0
STYLE
  5
3F
330
3
100
AcDbSymbolTableRecord
100
AcDbTextStyleTableRecord
  2
STYLE3
 70
     0
 40
0.0
 41
1.0
 50
0.0
 71
     0
 42
3.0
  3
romans.shx
  4
bigfont.shx
  0
STYLE
  5
1B1C
330
3
100
AcDbSymbolTableRecord
100
AcDbTextStyleTableRecord
  2
STYLE4
 70
     0
 40
0.0
 41
1.0
 50
0.0
 71
     0
 42
5.0
  3
romans.shx
  4
bigfont.shx
  0
ENDTAB
  0
TABLE
  2
VIEW
  5
6
330
0
100
AcDbSymbolTable
 70
     0
  0
ENDTAB
  0
TABLE
  2
UCS
  5
7
330
0
100
AcDbSymbolTable
 70
     0
  0
ENDTAB
  0
TABLE
  2
APPID
  5
9
330
0
100
AcDbSymbolTable
 70
     2
  0
APPID
  5
10
330
9
100
AcDbSymbolTableRecord
100
AcDbRegAppTableRecord
  2
ACAD
 70
     0
  0
APPID
  5
227C
330
9
100
AcDbSymbolTableRecord
100
AcDbRegAppTableRecord
  2
ACAD_PSEXT
 70
     0
  0
ENDTAB
  0
TABLE
  2
DIMSTYLE
  5
A
330
0
100
AcDbSymbolTable
 70
     6
100
AcDbDimStyleTable
 71
     1
340
8F
  0
DIMSTYLE
105
1D
330
A
100
AcDbSymbolTableRecord
100
AcDbDimStyleTableRecord
  2
STANDARD
 70
     0
 41
2.5
 42
0.625
 43
3.75
 44
1.25
 73
     0
 74
     0
 77
     1
 78
     8
140
2.5
141
2.5
143
0.0394
147
0.625
171
     4
172
     1
273
     8
274
     4
277
     6
340
F
  0
DIMSTYLE
105
8F
102
{ACAD_REACTORS
330
18FC
330
1909
330
1916
330
2086
330
2092
330
209F
330
279E
102
}
330
A
100
AcDbSymbolTableRecord
100
AcDbDimStyleTableRecord
  2
STYLE3
 70
     0
 41
2.5
 42
0.0
 43
3.75
 44
1.25
 73
     0
 74
     0
 77
     1
 78
     8
140
2.5
141
2.5
143
0.0394
147
0.625
171
     4
172
     1
173
     1
176
     2
177
     2
178
     6
271
     1
273
     8
274
     4
340
3F
341
45
343
45
344
45
  0
ENDTAB
  0
TABLE
  2
BLOCK_RECORD
  5
1
330
0
100
AcDbSymbolTable
 70
    13
  0
BLOCK_RECORD
  5
18
330
1
100
AcDbSymbolTableRecord
100
AcDbBlockTableRecord
  2
*MODEL_SPACE
340
21C1
  0
BLOCK_RECORD
  5
15
330
1
100
AcDbSymbolTableRecord
100
AcDbBlockTableRecord
  2
*PAPER_SPACE
340
21C2
  0
BLOCK_RECORD
  5
45
330
1
100
AcDbSymbolTableRecord
100
AcDbBlockTableRecord
  2
_OPEN
340
0
102
{BLKREFS
331
1962
331
1967
331
2878
331
2879
331
2881
331
2882
331
2889
331
288A
331
2892
331
2893
331
289B
331
289C
331
28A4
331
28A5
331
28AD
331
28AE
102
}
  0
BLOCK_RECORD
  5
18F0
330
1
100
AcDbSymbolTableRecord
100
AcDbBlockTableRecord
  2
*D2
340
0
  0
BLOCK_RECORD
  5
18FD
330
1
100
AcDbSymbolTableRecord
100
AcDbBlockTableRecord
  2
*D3
340
0
  0
BLOCK_RECORD
  5
190A
330
1
100
AcDbSymbolTableRecord
100
AcDbBlockTableRecord
  2
*D4
340
0
  0
BLOCK_RECORD
  5
207A
330
1
100
AcDbSymbolTableRecord
100
AcDbBlockTableRecord
  2
*D5
340
0
  0
BLOCK_RECORD
  5
2087
330
1
100
AcDbSymbolTableRecord
100
AcDbBlockTableRecord
  2
*D6
340
0
  0
BLOCK_RECORD
  5
2093
330
1
100
AcDbSymbolTableRecord
100
AcDbBlockTableRecord
  2
*D7
340
0
  0
BLOCK_RECORD
  5
279F
330
1
100
AcDbSymbolTableRecord
100
AcDbBlockTableRecord
  2
*D10
340
0
  0
ENDTAB
  0
ENDSEC
  0
SECTION
  2
BLOCKS
  0
BLOCK
  5
19
330
18
100
AcDbEntity
  8
0
100
AcDbBlockBegin
  2
*MODEL_SPACE
 70
     0
 10
0.0
 20
0.0
 30
0.0
  3
*MODEL_SPACE
  1

  0
ENDBLK
  5
1A
330
18
100
AcDbEntity
  8
0
100
AcDbBlockEnd
  0
BLOCK
  5
16
330
15
100
AcDbEntity
 67
     1
  8
0
100
AcDbBlockBegin
  2
*PAPER_SPACE
 70
     0
 10
0.0
 20
0.0
 30
0.0
  3
*PAPER_SPACE
  1

  0
ENDBLK
  5
17
330
15
100
AcDbEntity
 67
     1
  8
0
100
AcDbBlockEnd
  0
BLOCK
  5
46
330
45
100
AcDbEntity
  8
0
100
AcDbBlockBegin
  2
_OPEN
 70
     0
 10
0.0
 20
0.0
 30
0.0
  3
_OPEN
  1

  0
LINE
  5
47
330
45
100
AcDbEntity
  8
0
  6
ByBlock
 62
     0
100
AcDbLine
 10
-1.0
 20
0.1666666666666666
 30
0.0
 11
0.0
 21
0.0
 31
0.0
  0
LINE
  5
48
330
45
100
AcDbEntity
  8
0
  6
ByBlock
 62
     0
100
AcDbLine
 10
0.0
 20
0.0
 30
0.0
 11
-1.0
 21
-0.1666666666666666
 31
0.0
  0
LINE
  5
49
330
45
100
AcDbEntity
  8
0
  6
ByBlock
 62
     0
100
AcDbLine
 10
0.0
 20
0.0
 30
0.0
 11
-1.0
 21
0.0
 31
0.0
  0
ENDBLK
  5
4A
330
45
100
AcDbEntity
  8
0
100
AcDbBlockEnd
  0
BLOCK
  5
18F1
330
18F0
100
AcDbEntity
  8
0
100
AcDbBlockBegin
  2
*D2
 70
     1
 10
0.0
 20
0.0
 30
0.0
  3
*D2
  1

  0
LINE
  5
28AA
330
18F0
100
AcDbEntity
  8
外形線
 62
     2
370
    -2
100
AcDbLine
 10
43.29703927422883
 20
50.94411785218781
 30
0.0
 11
45.79703927422884
 21
50.94411785218781
 31
0.0
  0
LINE
  5
28AB
330
18F0
100
AcDbEntity
  8
外形線
 62
     2
370
    -2
100
AcDbLine
 10
91.13968250826969
 20
40.84411785218781
 30
0.0
 11
43.29703927422883
 21
40.84411785218782
 31
0.0
  0
LINE
  5
28AC
330
18F0
100
AcDbEntity
  8
外形線
 62
     2
370
    -2
100
AcDbLine
 10
44.54703927422884
 20
48.44411785218781
 30
0.0
 11
44.54703927422883
 21
43.34411785218782
 31
0.0
  0
INSERT
  5
28AD
330
18F0
100
AcDbEntity
  8
外形線
 62
     2
370
    -2
100
AcDbBlockReference
  2
_OPEN
 10
44.54703927422884
 20
50.94411785218781
 30
0.0
 41
2.5
 42
2.5
 43
2.5
 50
90.0
  0
INSERT
  5
28AE
330
18F0
100
AcDbEntity
  8
外形線
 62
     2
370
    -2
100
AcDbBlockReference
  2
_OPEN
 10
44.54703927422883
 20
40.84411785218782
 30
0.0
 41
2.5
 42
2.5
 43
2.5
 50
270.0
  0
MTEXT
  5
28AF
330
18F0
100
AcDbEntity
  8
外形線
 62
     6
100
AcDbMText
 10
42.67203927422882
 20
45.89411785218783
 30
0.0
 40
2.5
 41
0.0
 71
     5
 72
     1
  1
\A1;10.1
  7
STYLE3
 11
0.0000000000000001
 21
1.0
 31
0.0
 73
     1
 44
1.0
  0
POINT
  5
28B0
330
18F0
100
AcDbEntity
  8
DEFPOINTS
 62
     0
100
AcDbPoint
 10
43.29703927422883
 20
50.94411785218781
 30
0.0
  0
POINT
  5
28B1
330
18F0
100
AcDbEntity
  8
DEFPOINTS
 62
     0
100
AcDbPoint
 10
91.13968250826969
 20
40.84411785218781
 30
0.0
  0
POINT
  5
28B2
330
18F0
100
AcDbEntity
  8
DEFPOINTS
 62
     0
100
AcDbPoint
 10
44.54703927422883
 20
40.84411785218782
 30
0.0
  0
ENDBLK
  5
18FB
330
18F0
100
AcDbEntity
  8
0
100
AcDbBlockEnd
  0
BLOCK
  5
2121
330
18FD
100
AcDbEntity
  8
0
100
AcDbBlockBegin
  2
*D3
 70
     1
 10
0.0
 20
0.0
 30
0.0
  3
*D3
  1

  0
LINE
  5
28A1
330
18FD
100
AcDbEntity
  8
外形線
 62
     2
370
    -2
100
AcDbLine
 10
61.63968250826965
 20
50.94411785218781
 30
0.0
 11
61.63968250826965
 21
25.59133928704199
 31
0.0
  0
LINE
  5
28A2
330
18FD
100
AcDbEntity
  8
外形線
 62
     2
370
    -2
100
AcDbLine
 10
121.6396825082697
 20
50.94411785218781
 30
0.0
 11
121.6396825082697
 21
25.59133928704199
 31
0.0
  0
LINE
  5
28A3
330
18FD
100
AcDbEntity
  8
外形線
 62
     2
370
    -2
100
AcDbLine
 10
64.13968250826965
 20
26.84133928704199
 30
0.0
 11
119.1396825082697
 21
26.84133928704199
 31
0.0
  0
INSERT
  5
28A4
330
18FD
100
AcDbEntity
  8
外形線
 62
     2
370
    -2
100
AcDbBlockReference
  2
_OPEN
 10
61.63968250826965
 20
26.84133928704199
 30
0.0
 41
2.5
 42
2.5
 43
2.5
 50
180.0
  0
INSERT
  5
28A5
330
18FD
100
AcDbEntity
  8
外形線
 62
     2
370
    -2
100
AcDbBlockReference
  2
_OPEN
 10
121.6396825082697
 20
26.84133928704199
 30
0.0
 41
2.5
 42
2.5
 43
2.5
  0
MTEXT
  5
28A6
330
18FD
100
AcDbEntity
  8
外形線
 62
     6
100
AcDbMText
 10
91.63968250826966
 20
28.71633928704199
 30
0.0
 40
2.5
 41
0.0
 71
     5
 72
     1
  1
\A1;60
  7
STYLE3
 73
     1
 44
1.0
  0
POINT
  5
28A7
330
18FD
100
AcDbEntity
  8
DEFPOINTS
 62
     0
100
AcDbPoint
 10
61.63968250826965
 20
50.94411785218781
 30
0.0
  0
POINT
  5
28A8
330
18FD
100
AcDbEntity
  8
DEFPOINTS
 62
     0
100
AcDbPoint
 10
121.6396825082697
 20
50.94411785218781
 30
0.0
  0
POINT
  5
28A9
330
18FD
100
AcDbEntity
  8
DEFPOINTS
 62
     0
100
AcDbPoint
 10
121.6396825082697
 20
26.84133928704199
 30
0.0
  0
ENDBLK
  5
212B
330
18FD
100
AcDbEntity
  8
0
100
AcDbBlockEnd
  0
BLOCK
  5
2143
330
190A
100
AcDbEntity
  8
0
100
AcDbBlockBegin
  2
*D4
 70
     1
 10
0.0
 20
0.0
 30
0.0
  3
*D4
  1

  0
LINE
  5
2898
330
190A
100
AcDbEntity
  8
外形線
 62
     2
370
    -2
100
AcDbLine
 10
180.4563559524018
 20
50.94411785218781
 30
0.0
 11
180.4563559524018
 21
24.32128366871876
 31
0.0
  0
LINE
  5
2899
330
190A
100
AcDbEntity
  8
外形線
 62
     2
370
    -2
100
AcDbLine
 10
194.4563559524018
 20
50.94411785218781
 30
0.0
 11
194.4563559524018
 21
24.32128366871876
 31
0.0
  0
LINE
  5
289A
330
190A
100
AcDbEntity
  8
外形線
 62
     2
370
    -2
100
AcDbLine
 10
182.9563559524018
 20
25.57128366871876
 30
0.0
 11
191.9563559524018
 21
25.57128366871876
 31
0.0
  0
INSERT
  5
289B
330
190A
100
AcDbEntity
  8
外形線
 62
     2
370
    -2
100
AcDbBlockReference
  2
_OPEN
 10
180.4563559524018
 20
25.57128366871876
 30
0.0
 41
2.5
 42
2.5
 43
2.5
 50
180.0
  0
INSERT
  5
289C
330
190A
100
AcDbEntity
  8
外形線
 62
     2
370
    -2
100
AcDbBlockReference
  2
_OPEN
 10
194.4563559524018
 20
25.57128366871876
 30
0.0
 41
2.5
 42
2.5
 43
2.5
  0
MTEXT
  5
289D
330
190A
100
AcDbEntity
  8
外形線
 62
     6
100
AcDbMText
 10
187.4563559524018
 20
27.44628366871876
 30
0.0
 40
2.5
 41
0.0
 71
     5
 72
     1
  1
\A1;14
  7
STYLE3
 73
     1
 44
1.0
  0
POINT
  5
289E
330
190A
100
AcDbEntity
  8
DEFPOINTS
 62
     0
100
AcDbPoint
 10
180.4563559524018
 20
50.94411785218781
 30
0.0
  0
POINT
  5
289F
330
190A
100
AcDbEntity
  8
DEFPOINTS
 62
     0
100
AcDbPoint
 10
194.4563559524018
 20
50.94411785218781
 30
0.0
  0
POINT
  5
28A0
330
190A
100
AcDbEntity
  8
DEFPOINTS
 62
     0
100
AcDbPoint
 10
194.4563559524018
 20
25.57128366871876
 30
0.0
  0
ENDBLK
  5
214D
330
190A
100
AcDbEntity
  8
0
100
AcDbBlockEnd
  0
BLOCK
  5
20FF
330
207A
100
AcDbEntity
  8
0
100
AcDbBlockBegin
  2
*D5
 70
     1
 10
0.0
 20
0.0
 30
0.0
  3
*D5
  1

  0
LINE
  5
288F
330
207A
100
AcDbEntity
  8
外形線
 62
     2
370
    -2
100
AcDbLine
 10
51.08556388785451
 20
50.94411785218781
 30
0.0
 11
49.21260734034205
 21
50.94411785218781
 31
0.0
  0
LINE
  5
2890
330
207A
100
AcDbEntity
  8
外形線
 62
     2
370
    -2
100
AcDbLine
 10
57.67550617256381
 20
122.8441178521878
 30
0.0
 11
49.21260734034206
 21
122.8441178521878
 31
0.0
  0
LINE
  5
2891
330
207A
100
AcDbEntity
  8
外形線
 62
     2
370
    -2
100
AcDbLine
 10
50.46260734034205
 20
53.44411785218781
 30
0.0
 11
50.46260734034206
 21
120.3441178521878
 31
0.0
  0
INSERT
  5
2892
330
207A
100
AcDbEntity
  8
外形線
 62
     2
370
    -2
100
AcDbBlockReference
  2
_OPEN
 10
50.46260734034205
 20
50.94411785218781
 30
0.0
 41
2.5
 42
2.5
 43
2.5
 50
270.0
  0
INSERT
  5
2893
330
207A
100
AcDbEntity
  8
外形線
 62
     2
370
    -2
100
AcDbBlockReference
  2
_OPEN
 10
50.46260734034206
 20
122.8441178521878
 30
0.0
 41
2.5
 42
2.5
 43
2.5
 50
90.0
  0
MTEXT
  5
2894
330
207A
100
AcDbEntity
  8
外形線
 62
     6
100
AcDbMText
 10
48.58760734034204
 20
86.89411785218783
 30
0.0
 40
2.5
 41
0.0
 71
     5
 72
     1
  1
\A1;71.9
  7
STYLE3
 11
0.0000000000000001
 21
1.0
 31
0.0
 73
     1
 44
1.0
  0
POINT
  5
2895
330
207A
100
AcDbEntity
  8
DEFPOINTS
 62
     0
100
AcDbPoint
 10
51.08556388785451
 20
50.94411785218781
 30
0.0
  0
POINT
  5
2896
330
207A
100
AcDbEntity
  8
DEFPOINTS
 62
     0
100
AcDbPoint
 10
57.67550617256381
 20
122.8441178521878
 30
0.0
  0
POINT
  5
2897
330
207A
100
AcDbEntity
  8
DEFPOINTS
 62
     0
100
AcDbPoint
 10
50.46260734034206
 20
122.8441178521878
 30
0.0
  0
ENDBLK
  5
2109
330
207A
100
AcDbEntity
  8
0
100
AcDbBlockEnd
  0
BLOCK
  5
2088
330
2087
100
AcDbEntity
  8
0
100
AcDbBlockBegin
  2
*D6
 70
     1
 10
0.0
 20
0.0
 30
0.0
  3
*D6
  1

  0
LINE
  5
2887
330
2087
100
AcDbEntity
  8
外形線
 62
     2
370
    -2
100
AcDbLine
 10
88.13968250826963
 20
176.2441178521878
 30
0.0
 11
49.21260734034206
 21
176.2441178521878
 31
0.0
  0
LINE
  5
2888
330
2087
100
AcDbEntity
  8
外形線
 62
     2
370
    -2
100
AcDbLine
 10
50.46260734034205
 20
125.3441178521878
 30
0.0
 11
50.46260734034206
 21
173.7441178521878
 31
0.0
  0
INSERT
  5
2889
330
2087
100
AcDbEntity
  8
外形線
 62
     2
370
    -2
100
AcDbBlockReference
  2
_OPEN
 10
50.46260734034205
 20
122.8441178521878
 30
0.0
 41
2.5
 42
2.5
 43
2.5
 50
270.0
  0
INSERT
  5
288A
330
2087
100
AcDbEntity
  8
外形線
 62
     2
370
    -2
100
AcDbBlockReference
  2
_OPEN
 10
50.46260734034206
 20
176.2441178521878
 30
0.0
 41
2.5
 42
2.5
 43
2.5
 50
90.0
  0
MTEXT
  5
288B
330
2087
100
AcDbEntity
  8
外形線
 62
     6
100
AcDbMText
 10
48.58760734034202
 20
149.5441178521878
 30
0.0
 40
2.5
 41
0.0
 71
     5
 72
     1
  1
\A1;53.4
  7
STYLE3
 11
0.0000000000000001
 21
1.0
 31
0.0
 73
     1
 44
1.0
  0
POINT
  5
288C
330
2087
100
AcDbEntity
  8
DEFPOINTS
 62
     0
100
AcDbPoint
 10
57.67550617256381
 20
122.8441178521878
 30
0.0
  0
POINT
  5
288D
330
2087
100
AcDbEntity
  8
DEFPOINTS
 62
     0
100
AcDbPoint
 10
88.13968250826963
 20
176.2441178521878
 30
0.0
  0
POINT
  5
288E
330
2087
100
AcDbEntity
  8
DEFPOINTS
 62
     0
100
AcDbPoint
 10
50.46260734034206
 20
176.2441178521878
 30
0.0
  0
ENDBLK
  5
2091
330
2087
100
AcDbEntity
  8
0
100
AcDbBlockEnd
  0
BLOCK
  5
20F4
330
2093
100
AcDbEntity
  8
0
100
AcDbBlockBegin
  2
*D7
 70
     1
 10
0.0
 20
0.0
 30
0.0
  3
*D7
  1

  0
LINE
  5
287E
330
2093
100
AcDbEntity
  8
外形線
 62
     2
370
    -2
100
AcDbLine
 10
48.70484066942276
 20
50.94411785218782
 30
0.0
 11
43.29703927422881
 21
50.94411785218783
 31
0.0
  0
LINE
  5
287F
330
2093
100
AcDbEntity
  8
外形線
 62
     2
370
    -2
100
AcDbLine
 10
49.21260734034206
 20
176.2441178521878
 30
0.0
 11
43.29703927422883
 21
176.2441178521878
 31
0.0
  0
LINE
  5
2880
330
2093
100
AcDbEntity
  8
外形線
 62
     2
370
    -2
100
AcDbLine
 10
44.54703927422881
 20
53.44411785218783
 30
0.0
 11
44.54703927422882
 21
173.7441178521878
 31
0.0
  0
INSERT
  5
2881
330
2093
100
AcDbEntity
  8
外形線
 62
     2
370
    -2
100
AcDbBlockReference
  2
_OPEN
 10
44.54703927422881
 20
50.94411785218783
 30
0.0
 41
2.5
 42
2.5
 43
2.5
 50
270.0
  0
INSERT
  5
2882
330
2093
100
AcDbEntity
  8
外形線
 62
     2
370
    -2
100
AcDbBlockReference
  2
_OPEN
 10
44.54703927422883
 20
176.2441178521878
 30
0.0
 41
2.5
 42
2.5
 43
2.5
 50
90.0
  0
MTEXT
  5
2883
330
2093
100
AcDbEntity
  8
外形線
 62
     6
100
AcDbMText
 10
42.6720392742288
 20
113.5941178521878
 30
0.0
 40
2.5
 41
0.0
 71
     5
 72
     1
  1
\A1;125.3
  7
STYLE3
 11
0.0000000000000001
 21
1.0
 31
0.0
 73
     1
 44
1.0
  0
POINT
  5
2884
330
2093
100
AcDbEntity
  8
DEFPOINTS
 62
     0
100
AcDbPoint
 10
48.70484066942276
 20
50.94411785218782
 30
0.0
  0
POINT
  5
2885
330
2093
100
AcDbEntity
  8
DEFPOINTS
 62
     0
100
AcDbPoint
 10
49.21260734034206
 20
176.2441178521878
 30
0.0
  0
POINT
  5
2886
330
2093
100
AcDbEntity
  8
DEFPOINTS
 62
     0
100
AcDbPoint
 10
44.54703927422883
 20
176.2441178521878
 30
0.0
  0
ENDBLK
  5
20FE
330
2093
100
AcDbEntity
  8
0
100
AcDbBlockEnd
  0
BLOCK
  5
27AB
330
279F
100
AcDbEntity
  8
0
100
AcDbBlockBegin
  2
*D10
 70
     1
 10
0.0
 20
0.0
 30
0.0
  3
*D10
  1

  0
LINE
  5
2873
330
279F
100
AcDbEntity
  8
外形線
 62
     2
370
    -2
100
AcDbLine
 10
184.9563559524018
 20
46.25102087213457
 30
0.0
 11
184.9563559524018
 21
31.7503344119549
 31
0.0
  0
LINE
  5
2874
330
279F
100
AcDbEntity
  8
外形線
 62
     2
370
    -2
100
AcDbLine
 10
189.9563559524018
 20
46.87605318741964
 30
0.0
 11
189.9563559524018
 21
31.7503344119549
 31
0.0
  0
LINE
  5
2875
330
279F
100
AcDbEntity
  8
外形線
 62
     2
370
    -2
100
AcDbLine
 10
182.4563559524018
 20
33.0003344119549
 30
0.0
 11
179.9563559524018
 21
33.0003344119549
 31
0.0
  0
LINE
  5
2876
330
279F
100
AcDbEntity
  8
外形線
 62
     2
370
    -2
100
AcDbLine
 10
192.4563559524018
 20
33.0003344119549
 30
0.0
 11
194.9563559524018
 21
33.0003344119549
 31
0.0
  0
LINE
  5
2877
330
279F
100
AcDbEntity
  8
外形線
 62
     2
370
    -2
100
AcDbLine
 10
184.9563559524018
 20
33.0003344119549
 30
0.0
 11
189.9563559524018
 21
33.0003344119549
 31
0.0
  0
INSERT
  5
2878
330
279F
100
AcDbEntity
  8
外形線
 62
     2
370
    -2
100
AcDbBlockReference
  2
_OPEN
 10
184.9563559524018
 20
33.0003344119549
 30
0.0
 41
2.5
 42
2.5
 43
2.5
  0
INSERT
  5
2879
330
279F
100
AcDbEntity
  8
外形線
 62
     2
370
    -2
100
AcDbBlockReference
  2
_OPEN
 10
189.9563559524018
 20
33.0003344119549
 30
0.0
 41
2.5
 42
2.5
 43
2.5
 50
180.0
  0
MTEXT
  5
287A
330
279F
100
AcDbEntity
  8
外形線
 62
     6
100
AcDbMText
 10
187.4563559524018
 20
34.8753344119549
 30
0.0
 40
2.5
 41
0.0
 71
     5
 72
     1
  1
\A1;%%C5
  7
STYLE3
 73
     1
 44
1.0
  0
POINT
  5
287B
330
279F
100
AcDbEntity
  8
DEFPOINTS
 62
     0
100
AcDbPoint
 10
184.9563559524018
 20
46.25102087213457
 30
0.0
  0
POINT
  5
287C
330
279F
100
AcDbEntity
  8
DEFPOINTS
 62
     0
100
AcDbPoint
 10
189.9563559524018
 20
46.87605318741964
 30
0.0
  0
POINT
  5
287D
330
279F
100
AcDbEntity
  8
DEFPOINTS
 62
     0
100
AcDbPoint
 10
189.9563559524018
 20
33.0003344119549
 30
0.0
  0
ENDBLK
  5
27AC
330
279F
100
AcDbEntity
  8
0
100
AcDbBlockEnd
  0
ENDSEC
  0
SECTION
  2
ENTITIES
  0
LWPOLYLINE
  5
26C
330
18
100
AcDbEntity
  8
C
100
AcDbPolyline
 90
        5
 70
     0
 43
0.4
 10
0.0
 20
195.0
 10
255.0
 20
195.0
 10
255.0
 20
0.0
 10
0.0
 20
0.0
 10
0.0
 20
195.0
  0
LINE
  5
57B
330
18
100
AcDbEntity
  8
中心線
100
AcDbLine
 10
57.67550617256381
 20
122.8441178521878
 30
0.0
 11
126.1066243221692
 21
122.8441178521878
 31
0.0
  0
LINE
  5
57C
330
18
100
AcDbEntity
  8
中心線
100
AcDbLine
 10
91.63968250826957
 20
179.9883529770437
 30
0.0
 11
91.63968250826963
 21
35.66967777195892
 31
0.0
  0
MTEXT
  5
651
330
18
100
AcDbEntity
  8
DEFPOINTS
  6
Continuous
100
AcDbMText
 10
1003.622173382302
 20
353.0775560069975
 30
0.0
 40
1.0
 41
0.0
 71
     4
 72
     1
  1
\A1;
 73
     1
 44
1.0
  0
MTEXT
  5
6AB
330
18
100
AcDbEntity
  8
文字
100
AcDbMText
 10
570.7613829403022
 20
379.1555382452316
 30
0.0
 40
1.0
 41
6.927999999999999
 71
     1
 72
     5
  1

  7
STYLE3
 73
     1
 44
1.0
  0
MTEXT
  5
70A
330
18
100
AcDbEntity
  8
DEFPOINTS
  6
Continuous
100
AcDbMText
 10
892.4971925954436
 20
302.4030895326824
 30
0.0
 40
0.35
 41
0.0
 71
     4
 72
     1
  1
\A1;
 73
     1
 44
1.0
  0
MTEXT
  5
765
330
18
100
AcDbEntity
  8
DEFPOINTS
  6
Continuous
100
AcDbMText
 10
1504.060820754403
 20
528.2907445159992
 30
0.0
 40
1.0
 41
0.0
 71
     4
 72
     1
  1
\A1;
 73
     1
 44
1.0
  0
MTEXT
  5
766
330
18
100
AcDbEntity
  8
文字
100
AcDbMText
 10
1071.200030312402
 20
554.3687267542331
 30
0.0
 40
1.0
 41
6.927999999999999
 71
     1
 72
     5
  1

  7
STYLE3
 73
     1
 44
1.0
  0
MTEXT
  5
767
330
18
100
AcDbEntity
  8
DEFPOINTS
  6
Continuous
100
AcDbMText
 10
1392.935839967544
 20
477.616278041684
 30
0.0
 40
0.35
 41
0.0
 71
     4
 72
     1
  1
\A1;
 73
     1
 44
1.0
  0
LINE
  5
858
330
18
100
AcDbEntity
  8
外形線
100
AcDbLine
 10
121.6396825082697
 20
50.94411785218781
 30
0.0
 11
61.63968250826965
 21
50.94411785218781
 31
0.0
  0
LINE
  5
868
330
18
100
AcDbEntity
  8
外形線
 48
0.5
100
AcDbLine
 10
121.6396825082696
 20
56.34766072988265
 30
0.0
 11
121.6396825082697
 21
50.94411785218781
 31
0.0
  0
LINE
  5
869
330
18
100
AcDbEntity
  8
外形線
 48
0.5
100
AcDbLine
 10
61.63968250826965
 20
56.34766072988265
 30
0.0
 11
61.63968250826965
 21
50.94411785218781
 31
0.0
  0
LINE
  5
86B
330
18
100
AcDbEntity
  8
外形線
100
AcDbLine
 10
99.63968250826964
 20
62.94411785218781
 30
0.0
 11
83.63968250826962
 21
62.94411785218781
 31
0.0
  0
LINE
  5
86E
330
18
100
AcDbEntity
  8
外形線
100
AcDbLine
 10
83.63968250826962
 20
62.94411785218781
 30
0.0
 11
63.19644030109171
 21
58.29792644146556
 31
0.0
  0
LINE
  5
86F
330
18
100
AcDbEntity
  8
外形線
100
AcDbLine
 10
99.63968250826964
 20
62.94411785218781
 30
0.0
 11
120.0829247154475
 21
58.29792644146557
 31
0.0
  0
ARC
  5
871
330
18
100
AcDbEntity
  8
外形線
 48
0.5
100
AcDbCircle
 10
119.6396825082696
 20
56.34766072988265
 30
0.0
 40
2.0
100
AcDbArc
 50
0.0000000000000509
 51
77.19573393471325
  0
LINE
  5
11CF
330
18
100
AcDbEntity
  8
中心線
100
AcDbLine
 10
187.4563559524018
 20
178.3034826048108
 30
0.0
 11
187.4563559524018
 21
38.22726611572199
 31
0.0
  0
LINE
  5
11D0
330
18
100
AcDbEntity
  8
外形線
100
AcDbLine
 10
194.4563559524018
 20
62.94411785218781
 30
0.0
 11
194.4563559524018
 21
50.94411785218781
 31
0.0
  0
LINE
  5
11D1
330
18
100
AcDbEntity
  8
外形線
100
AcDbLine
 10
180.4563559524018
 20
62.94411785218781
 30
0.0
 11
180.4563559524018
 21
50.94411785218781
 31
0.0
  0
LINE
  5
11DD
330
18
100
AcDbEntity
  8
外形線
100
AcDbLine
 10
193.4563559524018
 20
78.74411785218786
 30
0.0
 11
187.456355952402
 21
78.74411785218786
 31
0.0
  0
LINE
  5
11E1
330
18
100
AcDbEntity
  8
外形線
100
AcDbLine
 10
193.4563559524018
 20
89.9441178521879
 30
0.0
 11
193.4563559524018
 21
78.74411785218786
 31
0.0
  0
LINE
  5
11E2
330
18
100
AcDbEntity
  8
外形線
100
AcDbLine
 10
181.4563559524018
 20
89.94411785218787
 30
0.0
 11
181.4563559524018
 21
78.74411785218786
 31
0.0
  0
LINE
  5
11E3
330
18
100
AcDbEntity
  8
外形線
100
AcDbLine
 10
193.4563559524018
 20
89.9441178521879
 30
0.0
 11
187.456355952402
 21
89.94411785218789
 31
0.0
  0
LINE
  5
11E7
330
18
100
AcDbEntity
  8
外形線
100
AcDbLine
 10
187.456355952402
 20
89.94411785218781
 30
0.0
 11
181.4563559524018
 21
89.94411785218787
 31
0.0
  0
LINE
  5
11E8
330
18
100
AcDbEntity
  8
外形線
100
AcDbLine
 10
187.456355952402
 20
78.74411785218786
 30
0.0
 11
181.4563559524018
 21
78.74411785218786
 31
0.0
  0
LINE
  5
11E9
330
18
100
AcDbEntity
  8
外形線
100
AcDbLine
 10
174.4563559524022
 20
91.84411785218829
 30
0.0
 11
174.4563559524023
 21
79.84411785218823
 31
0.0
  0
LINE
  5
11EA
330
18
100
AcDbEntity
  8
外形線
100
AcDbLine
 10
173.9563559524019
 20
76.34411785218825
 30
0.0
 11
173.9563559524023
 21
92.3441178521883
 31
0.0
  0
LINE
  5
11EB
330
18
100
AcDbEntity
  8
外形線
100
AcDbLine
 10
170.4563559524018
 20
76.34411785218834
 30
0.0
 11
170.4563559524023
 21
92.3441178521884
 31
0.0
  0
LINE
  5
11EC
330
18
100
AcDbEntity
  8
外形線
100
AcDbLine
 10
169.9563559524019
 20
76.84411785218836
 30
0.0
 11
169.9563559524023
 21
91.84411785218841
 31
0.0
  0
LINE
  5
11ED
330
18
100
AcDbEntity
  8
外形線
100
AcDbLine
 10
170.4563559524023
 20
92.3441178521884
 30
0.0
 11
173.9563559524023
 21
92.34411785218824
 31
0.0
  0
LINE
  5
11EE
330
18
100
AcDbEntity
  8
外形線
100
AcDbLine
 10
169.9563559524023
 20
91.84411785218841
 30
0.0
 11
170.4563559524023
 21
92.3441178521884
 31
0.0
  0
ARC
  5
11EF
330
18
100
AcDbEntity
  8
外形線
100
AcDbCircle
 10
175.4563559524022
 20
88.84411785218828
 30
0.0
 40
1.0
100
AcDbArc
 50
179.9999999999988
 51
269.9999999999984
  0
LINE
  5
11F0
330
18
100
AcDbEntity
  8
外形線
100
AcDbLine
 10
173.9563559524023
 20
92.34411785218824
 30
0.0
 11
174.4563559524023
 21
91.84411785218824
 31
0.0
  0
LINE
  5
11F1
330
18
100
AcDbEntity
  8
外形線
 62
     4
100
AcDbLine
 10
173.9563559524023
 20
91.79249112400086
 30
0.0
 11
173.0009104323685
 21
92.34411785218838
 31
0.0
  0
LINE
  5
11F2
330
18
100
AcDbEntity
  8
外形線
 62
     4
100
AcDbLine
 10
173.9563559524023
 20
90.63779058562161
 30
0.0
 11
171.0009104323686
 21
92.34411785218844
 31
0.0
  0
LINE
  5
11F3
330
18
100
AcDbEntity
  8
外形線
 62
     4
100
AcDbLine
 10
170.4563559524023
 20
91.76392945310915
 30
0.0
 11
171.4612717375696
 21
92.34411785218844
 31
0.0
  0
LINE
  5
11F4
330
18
100
AcDbEntity
  8
外形線
 62
     4
100
AcDbLine
 10
170.4563559524022
 20
90.60922891472985
 30
0.0
 11
173.4612717375696
 21
92.34411785218831
 31
0.0
  0
LINE
  5
11F5
330
18
100
AcDbEntity
  8
外形線
100
AcDbLine
 10
173.9563559524017
 20
76.3441178521883
 30
0.0
 11
174.4563559524017
 21
76.84411785218829
 31
0.0
  0
LINE
  5
11F6
330
18
100
AcDbEntity
  8
外形線
100
AcDbLine
 10
169.9563559524019
 20
76.84411785218836
 30
0.0
 11
170.4563559524018
 21
76.34411785218834
 31
0.0
  0
LINE
  5
11F7
330
18
100
AcDbEntity
  8
外形線
 62
     4
100
AcDbLine
 10
173.9563559524022
 20
89.48309004724237
 30
0.0
 11
170.4563559524023
 21
91.50381598940613
 31
0.0
  0
LINE
  5
11F8
330
18
100
AcDbEntity
  8
外形線
 62
     4
100
AcDbLine
 10
173.9563559524021
 20
84.86428789372538
 30
0.0
 11
170.4563559524022
 21
86.88501383588926
 31
0.0
  0
LINE
  5
11F9
330
18
100
AcDbEntity
  8
外形線
 62
     4
100
AcDbLine
 10
173.9563559524022
 20
86.01898843210463
 30
0.0
 11
170.4563559524021
 21
88.0397143742684
 31
0.0
  0
LINE
  5
11FA
330
18
100
AcDbEntity
  8
外形線
 62
     4
100
AcDbLine
 10
173.9563559524022
 20
87.17368897048388
 30
0.0
 11
170.4563559524022
 21
89.19441491264782
 31
0.0
  0
LINE
  5
11FB
330
18
100
AcDbEntity
  8
外形線
 62
     4
100
AcDbLine
 10
173.9563559524022
 20
88.32838950886301
 30
0.0
 11
170.4563559524022
 21
90.34911545102678
 31
0.0
  0
LINE
  5
11FC
330
18
100
AcDbEntity
  8
外形線
 62
     4
100
AcDbLine
 10
170.4563559524021
 20
89.45452837635061
 30
0.0
 11
173.9563559524023
 21
91.47525431851423
 31
0.0
  0
LINE
  5
11FD
330
18
100
AcDbEntity
  8
外形線
 62
     4
100
AcDbLine
 10
170.4563559524021
 20
88.29982783797142
 30
0.0
 11
173.9563559524023
 21
90.32055378013499
 31
0.0
  0
LINE
  5
11FE
330
18
100
AcDbEntity
  8
外形線
 62
     4
100
AcDbLine
 10
170.4563559524022
 20
87.14512729959217
 30
0.0
 11
173.9563559524022
 21
89.1658532417558
 31
0.0
  0
LINE
  5
11FF
330
18
100
AcDbEntity
  8
外形線
 62
     4
100
AcDbLine
 10
170.4563559524021
 20
85.99042676121293
 30
0.0
 11
173.9563559524022
 21
88.01115270337655
 31
0.0
  0
LINE
  5
1200
330
18
100
AcDbEntity
  8
外形線
 62
     4
100
AcDbLine
 10
170.4563559524021
 20
84.83572622283373
 30
0.0
 11
173.9563559524022
 21
86.85645216499731
 31
0.0
  0
LINE
  5
1201
330
18
100
AcDbEntity
  8
外形線
 62
     4
100
AcDbLine
 10
171.6048652770181
 20
84.34411785218836
 30
0.0
 11
173.9563559524021
 21
85.70175162661811
 31
0.0
  0
LINE
  5
1202
330
18
100
AcDbEntity
  8
外形線
 62
     4
100
AcDbLine
 10
170.8573168929198
 20
84.3441178521884
 30
0.0
 11
170.4563559524021
 21
84.57561275913089
 31
0.0
  0
LINE
  5
1203
330
18
100
AcDbEntity
  8
外形線
 62
     4
100
AcDbLine
 10
172.8573168929198
 20
84.34411785218832
 30
0.0
 11
170.4563559524022
 21
85.73031329751001
 31
0.0
  0
LINE
  5
1204
330
18
100
AcDbEntity
  8
外形線
 62
     4
100
AcDbLine
 10
173.6048652770181
 20
84.34411785218836
 30
0.0
 11
173.9563559524021
 21
84.54705108823887
 31
0.0
  0
ARC
  5
1205
330
18
100
AcDbEntity
  8
外形線
100
AcDbCircle
 10
175.4563559524019
 20
79.84411785218829
 30
0.0
 40
1.0
100
AcDbArc
 50
89.99999999999834
 51
179.9999999999979
  0
LINE
  5
1206
330
18
100
AcDbEntity
  8
外形線
100
AcDbLine
 10
174.4563559524017
 20
76.84411785218829
 30
0.0
 11
174.4563559524019
 21
79.84411785218829
 31
0.0
  0
LINE
  5
1207
330
18
100
AcDbEntity
  8
外形線
100
AcDbLine
 10
170.4563559524018
 20
76.34411785218834
 30
0.0
 11
173.9563559524017
 21
76.3441178521883
 31
0.0
  0
LINE
  5
1208
330
18
100
AcDbEntity
  8
外形線
100
AcDbLine
 10
180.9563559524021
 20
80.34411785218805
 30
0.0
 11
180.9563559524023
 21
88.3441178521881
 31
0.0
  0
LINE
  5
1209
330
18
100
AcDbEntity
  8
外形線
100
AcDbLine
 10
175.4563559524022
 20
87.84411785218827
 30
0.0
 11
180.4563559524022
 21
87.84411785218813
 31
0.0
  0
LINE
  5
120A
330
18
100
AcDbEntity
  8
外形線
100
AcDbLine
 10
180.9563559524023
 20
88.3441178521881
 30
0.0
 11
181.4563559524022
 21
88.34411785218803
 31
0.0
  0
ARC
  5
120B
330
18
100
AcDbEntity
  8
外形線
100
AcDbCircle
 10
180.4563559524022
 20
87.34411785218815
 30
0.0
 40
0.5
100
AcDbArc
 50
359.9999999999984
 51
89.99999999999834
  0
LINE
  5
120C
330
18
100
AcDbEntity
  8
外形線
100
AcDbLine
 10
175.456355952402
 20
80.84411785218826
 30
0.0
 11
180.456355952402
 21
80.84411785218811
 31
0.0
  0
LINE
  5
120D
330
18
100
AcDbEntity
  8
外形線
100
AcDbLine
 10
180.9563559524021
 20
80.34411785218805
 30
0.0
 11
181.456355952402
 21
80.34411785218802
 31
0.0
  0
ARC
  5
120E
330
18
100
AcDbEntity
  8
外形線
100
AcDbCircle
 10
180.456355952402
 20
81.34411785218814
 30
0.0
 40
0.5
100
AcDbArc
 50
269.9999999999984
 51
359.9999999999984
  0
LINE
  5
120F
330
18
100
AcDbEntity
  8
中心線
100
AcDbLine
 10
199.5256865607429
 20
84.3441178521879
 30
0.0
 11
166.6589266686741
 21
84.34411785218792
 31
0.0
  0
LINE
  5
12E6
330
18
100
AcDbEntity
  8
外形線
 48
0.5
100
AcDbLine
 10
94.13968250826957
 20
50.94411785218781
 30
0.0
 11
94.13968250826963
 21
45.86989591923358
 31
0.0
  0
LINE
  5
12E7
330
18
100
AcDbEntity
  8
外形線
 48
0.5
100
AcDbLine
 10
89.13968250826963
 20
50.94411785218781
 30
0.0
 11
89.13968250826963
 21
45.86989591923355
 31
0.0
  0
LINE
  5
12E8
330
18
100
AcDbEntity
  8
外形線
100
AcDbLine
 10
92.13968250826964
 20
40.84411785218779
 30
0.0
 11
94.13968250826963
 21
45.86989591923358
 31
0.0
  0
LINE
  5
12E9
330
18
100
AcDbEntity
  8
外形線
100
AcDbLine
 10
91.13968250826962
 20
40.84411785218779
 30
0.0
 11
89.13968250826963
 21
45.86989591923355
 31
0.0
  0
LINE
  5
12EA
330
18
100
AcDbEntity
  8
外形線
100
AcDbLine
 10
92.13968250826964
 20
40.84411785218779
 30
0.0
 11
91.13968250826962
 21
40.84411785218779
 31
0.0
  0
LINE
  5
12EB
330
18
100
AcDbEntity
  8
外形線
100
AcDbLine
 10
89.13968250826963
 20
45.86989591923355
 30
0.0
 11
94.13968250826963
 21
45.86989591923355
 31
0.0
  0
LINE
  5
12EC
330
18
100
AcDbEntity
  8
外形線
100
AcDbLine
 10
194.4563559524018
 20
50.94411785218781
 30
0.0
 11
180.4563559524018
 21
50.94411785218781
 31
0.0
  0
LINE
  5
12ED
330
18
100
AcDbEntity
  8
外形線
100
AcDbLine
 10
194.4563559524018
 20
57.94411785218783
 30
0.0
 11
180.4563559524018
 21
57.94411785218783
 31
0.0
  0
LINE
  5
12EE
330
18
100
AcDbEntity
  8
外形線
100
AcDbLine
 10
194.4563559524018
 20
62.94411785218781
 30
0.0
 11
180.4563559524018
 21
62.94411785218781
 31
0.0
  0
LINE
  5
12F0
330
18
100
AcDbEntity
  8
中心線
100
AcDbLine
 10
187.4563559524018
 20
68.94411785218778
 30
0.0
 11
187.4563559524018
 21
86.32158037965799
 31
0.0
  0
MTEXT
  5
1689
330
18
100
AcDbEntity
  8
DEFPOINTS
  6
Continuous
100
AcDbMText
 10
645.4935690273964
 20
340.0454593423085
 30
0.0
 40
1.0
 41
0.0
 71
     4
 72
     1
  1
\A1;
 73
     1
 44
1.0
  0
LINE
  5
16B9
330
18
100
AcDbEntity
  8
中心線
100
AcDbLine
 10
160.0970626003933
 20
122.8441178521878
 30
0.0
 11
202.4266365056892
 21
122.8441178521878
 31
0.0
  0
MTEXT
  5
16E3
330
18
100
AcDbEntity
  8
文字
100
AcDbMText
 10
212.6327785853959
 20
366.1234415805426
 30
0.0
 40
1.0
 41
6.927999999999999
 71
     1
 72
     5
  1

  7
STYLE3
 73
     1
 44
1.0
  0
MTEXT
  5
1742
330
18
100
AcDbEntity
  8
DEFPOINTS
  6
Continuous
100
AcDbMText
 10
534.3685882405374
 20
289.3709928679935
 30
0.0
 40
0.35
 41
0.0
 71
     4
 72
     1
  1
\A1;
 73
     1
 44
1.0
  0
MTEXT
  5
179D
330
18
100
AcDbEntity
  8
DEFPOINTS
  6
Continuous
100
AcDbMText
 10
1145.932216399497
 20
515.2586478513102
 30
0.0
 40
1.0
 41
0.0
 71
     4
 72
     1
  1
\A1;
 73
     1
 44
1.0
  0
MTEXT
  5
179E
330
18
100
AcDbEntity
  8
文字
100
AcDbMText
 10
713.0714259574967
 20
541.3366300895443
 30
0.0
 40
1.0
 41
6.927999999999999
 71
     1
 72
     5
  1

  7
STYLE3
 73
     1
 44
1.0
  0
MTEXT
  5
179F
330
18
100
AcDbEntity
  8
DEFPOINTS
  6
Continuous
100
AcDbMText
 10
1034.807235612638
 20
464.5841813769951
 30
0.0
 40
0.35
 41
0.0
 71
     4
 72
     1
  1
\A1;
 73
     1
 44
1.0
  0
LINE
  5
186C
330
18
100
AcDbEntity
  8
外形線
 48
0.5
100
AcDbLine
 10
183.456355952402
 20
91.84411785218783
 30
0.0
 11
183.456355952402
 21
89.94411785218785
 31
0.0
  0
LINE
  5
186D
330
18
100
AcDbEntity
  8
外形線
 48
0.5
100
AcDbLine
 10
191.456355952402
 20
91.84411785218783
 30
0.0
 11
191.456355952402
 21
89.9441178521879
 31
0.0
  0
DIMENSION
  5
18FC
330
18
100
AcDbEntity
  8
外形線
100
AcDbDimension
  2
*D2
 10
44.54703927422883
 20
40.84411785218782
 30
0.0
 11
42.67203927422882
 21
45.89411785218783
 31
0.0
 70
    32
 71
     5
 42
10.09999999999998
  3
STYLE3
100
AcDbAlignedDimension
 13
43.29703927422883
 23
50.94411785218781
 33
0.0
 14
91.13968250826969
 24
40.84411785218781
 34
0.0
 50
90.0
100
AcDbRotatedDimension
1001
ACAD
1000
DSTYLE
1002
{
1070
   271
1070
     2
1002
}
  0
DIMENSION
  5
1909
330
18
100
AcDbEntity
  8
外形線
100
AcDbDimension
  2
*D3
 10
121.6396825082697
 20
26.84133928704199
 30
0.0
 11
91.63968250826966
 21
28.71633928704199
 31
0.0
 70
    32
 71
     5
 42
60.00000000000003
  3
STYLE3
100
AcDbAlignedDimension
 13
61.63968250826965
 23
50.94411785218781
 33
0.0
 14
121.6396825082697
 24
50.94411785218781
 34
0.0
100
AcDbRotatedDimension
1001
ACAD
1000
DSTYLE
1002
{
1070
   271
1070
     2
1002
}
  0
DIMENSION
  5
1916
330
18
100
AcDbEntity
  8
外形線
100
AcDbDimension
  2
*D4
 10
194.4563559524018
 20
25.57128366871876
 30
0.0
 11
187.4563559524018
 21
27.44628366871876
 31
0.0
 70
    32
 71
     5
 42
14.0
  3
STYLE3
100
AcDbAlignedDimension
 13
180.4563559524018
 23
50.94411785218781
 33
0.0
 14
194.4563559524018
 24
50.94411785218781
 34
0.0
100
AcDbRotatedDimension
1001
ACAD
1000
DSTYLE
1002
{
1070
   271
1070
     2
1002
}
  0
LINE
  5
1947
330
18
100
AcDbEntity
  8
0
  6
ByBlock
 62
     2
100
AcDbLine
 10
44.54703927422883
 20
50.94411785218781
 30
0.0
 11
61.63968250826965
 21
50.94411785218781
 31
0.0
  0
POINT
  5
194D
330
18
100
AcDbEntity
  8
DEFPOINTS
  6
ByBlock
 62
     0
100
AcDbPoint
 10
44.54703927422883
 20
50.94411785218781
 30
0.0
  0
POINT
  5
194E
330
18
100
AcDbEntity
  8
DEFPOINTS
  6
ByBlock
 62
     0
100
AcDbPoint
 10
53.45205582347569
 20
50.94411785218781
 30
0.0
  0
LINE
  5
1950
330
18
100
AcDbEntity
  8
0
  6
ByBlock
 62
     2
100
AcDbLine
 10
43.29703927422883
 20
50.94411785218781
 30
0.0
 11
45.79703927422883
 21
50.94411785218781
 31
0.0
  0
POINT
  5
1956
330
18
100
AcDbEntity
  8
DEFPOINTS
  6
ByBlock
 62
     0
100
AcDbPoint
 10
43.29703927422883
 20
50.94411785218781
 30
0.0
  0
POINT
  5
1957
330
18
100
AcDbEntity
  8
DEFPOINTS
  6
ByBlock
 62
     0
100
AcDbPoint
 10
44.54703927422883
 20
50.94411785218781
 30
0.0
  0
LINE
  5
195D
330
18
100
AcDbEntity
  8
寸法線
100
AcDbLine
 10
91.13968250826969
 20
40.84411785218782
 30
0.0
 11
88.67474578365341
 21
32.41787564327888
 31
0.0
  0
LINE
  5
195E
330
18
100
AcDbEntity
  8
寸法線
100
AcDbLine
 10
92.13968250826969
 20
40.84411785218782
 30
0.0
 11
89.69304067022703
 21
32.41787564327888
 31
0.0
  0
LINE
  5
195F
330
18
100
AcDbEntity
  8
寸法線
100
AcDbLine
 10
79.05046629087064
 20
33.27613935159821
 30
0.0
 11
92.10655909098637
 21
33.27613935159821
 31
0.0
  0
INSERT
  5
1962
330
18
100
AcDbEntity
  8
0
  6
ByBlock
 62
     2
100
AcDbBlockReference
  2
_OPEN
 10
88.92581449039019
 20
33.27613935159821
 30
0.0
 41
2.5
 42
2.5
 43
2.5
  0
POINT
  5
1963
330
18
100
AcDbEntity
  8
DEFPOINTS
  6
ByBlock
 62
     0
100
AcDbPoint
 10
88.92581449039019
 20
33.27613935159821
 30
0.0
  0
POINT
  5
1966
330
18
100
AcDbEntity
  8
DEFPOINTS
  6
ByBlock
 62
     0
100
AcDbPoint
 10
88.92581449039019
 20
33.27613935159821
 30
0.0
  0
INSERT
  5
1967
330
18
100
AcDbEntity
  8
0
  6
ByBlock
 62
     2
100
AcDbBlockReference
  2
_OPEN
 10
89.94224593216783
 20
33.27613935159821
 30
0.0
 41
2.5
 42
2.5
 43
2.5
 50
180.0
  0
POINT
  5
1968
330
18
100
AcDbEntity
  8
DEFPOINTS
  6
ByBlock
 62
     0
100
AcDbPoint
 10
89.94224593216783
 20
33.27613935159821
 30
0.0
  0
LINE
  5
196A
330
18
100
AcDbEntity
  8
寸法線
100
AcDbLine
 10
92.44224593216783
 20
33.27613935159821
 30
0.0
 11
93.54955595514354
 21
33.27613935159821
 31
0.0
  0
TEXT
  5
196B
330
18
100
AcDbEntity
  8
文字
100
AcDbText
 10
79.38384481342279
 20
33.94035407335534
 30
0.0
 40
3.0
  1
%%c1
  7
STYLE3
100
AcDbText
  0
ARC
  5
196D
330
18
100
AcDbEntity
  8
外形線
 48
0.5
100
AcDbCircle
 10
63.63968250826966
 20
56.34766072988265
 30
0.0
 40
2.0
100
AcDbArc
 50
102.8042660652867
 51
180.0
  0
CIRCLE
  5
1D29
330
18
100
AcDbEntity
  8
外形線
100
AcDbCircle
 10
91.63968250826963
 20
122.8441178521878
 30
0.0
 40
30.0
  0
ARC
  5
1D2A
330
18
100
AcDbEntity
  8
外形線
100
AcDbCircle
 10
91.63968250826963
 20
122.8441178521878
 30
0.0
 40
29.0
100
AcDbArc
 50
0.0
 51
180.0
  0
LINE
  5
1D2B
330
18
100
AcDbEntity
  8
外形線
100
AcDbLine
 10
71.13968250826963
 20
134.3441178521878
 30
0.0
 11
112.1396825082696
 21
134.3441178521878
 31
0.0
  0
LINE
  5
1D2C
330
18
100
AcDbEntity
  8
外形線
100
AcDbLine
 10
71.13968250826963
 20
111.3441178521878
 30
0.0
 11
112.1396825082696
 21
111.3441178521878
 31
0.0
  0
LINE
  5
1D2D
330
18
100
AcDbEntity
  8
外形線
100
AcDbLine
 10
113.6396825082696
 20
132.8441178521878
 30
0.0
 11
113.6396825082696
 21
112.8441178521878
 31
0.0
  0
LINE
  5
1D2E
330
18
100
AcDbEntity
  8
外形線
100
AcDbLine
 10
69.63968250826963
 20
132.8441178521878
 30
0.0
 11
69.63968250826963
 21
112.8441178521878
 31
0.0
  0
ARC
  5
1D2F
330
18
100
AcDbEntity
  8
外形線
100
AcDbCircle
 10
71.13968250826963
 20
132.8441178521878
 30
0.0
 40
1.5
100
AcDbArc
 50
90.0
 51
180.0
  0
ARC
  5
1D30
330
18
100
AcDbEntity
  8
外形線
100
AcDbCircle
 10
112.1396825082696
 20
132.8441178521878
 30
0.0
 40
1.5
100
AcDbArc
 50
0.0
 51
90.0
  0
ARC
  5
1D31
330
18
100
AcDbEntity
  8
外形線
100
AcDbCircle
 10
112.1396825082696
 20
112.8441178521878
 30
0.0
 40
1.5
100
AcDbArc
 50
270.0
 51
0.0
  0
ARC
  5
1D32
330
18
100
AcDbEntity
  8
外形線
100
AcDbCircle
 10
71.13968250826963
 20
112.8441178521878
 30
0.0
 40
1.5
100
AcDbArc
 50
180.0
 51
270.0
  0
LINE
  5
1D33
330
18
100
AcDbEntity
  8
外形線
100
AcDbLine
 10
62.63968250826962
 20
122.8441178521878
 30
0.0
 11
69.63968250826963
 21
122.8441178521878
 31
0.0
  0
LINE
  5
1D34
330
18
100
AcDbEntity
  8
外形線
100
AcDbLine
 10
113.6396825082696
 20
122.8441178521878
 30
0.0
 11
120.6396825082696
 21
122.8441178521878
 31
0.0
  0
LINE
  5
1D3D
330
18
100
AcDbEntity
  8
外形線
100
AcDbLine
 10
88.13968250826963
 20
176.2441178521878
 30
0.0
 11
95.13968250826962
 21
176.2441178521878
 31
0.0
  0
ARC
  5
1D3E
330
18
100
AcDbEntity
  8
外形線
100
AcDbCircle
 10
91.63968250826963
 20
122.8441178521878
 30
0.0
 40
31.0
100
AcDbArc
 50
69.21644040415431
 51
110.7835595958456
  0
LINE
  5
1D3F
330
18
100
AcDbEntity
  8
外形線
100
AcDbLine
 10
102.6396825082696
 20
151.8268713445667
 30
0.0
 11
102.6396825082696
 21
150.7546893260935
 31
0.0
  0
LINE
  5
1D40
330
18
100
AcDbEntity
  8
外形線
100
AcDbLine
 10
80.63968250826963
 20
151.8268713445667
 30
0.0
 11
80.63968250826963
 21
150.7546893260935
 31
0.0
  0
LINE
  5
1D41
330
18
100
AcDbEntity
  8
外形線
100
AcDbLine
 10
97.63968250826962
 20
158.6441178521878
 30
0.0
 11
97.63968250826962
 21
153.2579305036789
 31
0.0
  0
LINE
  5
1D42
330
18
100
AcDbEntity
  8
外形線
100
AcDbLine
 10
85.63968250826963
 20
158.6441178521879
 30
0.0
 11
85.63968250826963
 21
153.2579305036789
 31
0.0
  0
LINE
  5
1D43
330
18
100
AcDbEntity
  8
外形線
100
AcDbLine
 10
86.63968250826963
 20
159.6441178521879
 30
0.0
 11
96.63968250826963
 21
159.6441178521878
 31
0.0
  0
LINE
  5
1D44
330
18
100
AcDbEntity
  8
外形線
100
AcDbLine
 10
85.63968250826963
 20
158.6441178521879
 30
0.0
 11
86.63968250826963
 21
159.6441178521879
 31
0.0
  0
LINE
  5
1D45
330
18
100
AcDbEntity
  8
外形線
100
AcDbLine
 10
96.63968250826963
 20
159.6441178521878
 30
0.0
 11
97.63968250826962
 21
158.6441178521878
 31
0.0
  0
LINE
  5
1D46
330
18
100
AcDbEntity
  8
外形線
100
AcDbLine
 10
85.63968250826963
 20
158.6441178521879
 30
0.0
 11
97.63968250826962
 21
158.6441178521878
 31
0.0
  0
LINE
  5
1D47
330
18
100
AcDbEntity
  8
外形線
100
AcDbLine
 10
86.63968250826963
 20
160.1441178521879
 30
0.0
 11
96.63968250826963
 21
160.1441178521878
 31
0.0
  0
LINE
  5
1D48
330
18
100
AcDbEntity
  8
外形線
100
AcDbLine
 10
96.63968250826963
 20
174.7441178521878
 30
0.0
 11
96.63968250826963
 21
173.2441178521877
 31
0.0
  0
LINE
  5
1D49
330
18
100
AcDbEntity
  8
外形線
100
AcDbLine
 10
86.63968250826963
 20
174.7441178521878
 30
0.0
 11
86.63968250826963
 21
173.2441178521878
 31
0.0
  0
LINE
  5
1D4A
330
18
100
AcDbEntity
  8
外形線
100
AcDbLine
 10
95.63968250826963
 20
173.2441178521878
 30
0.0
 11
95.63968250826963
 21
172.2441178521878
 31
0.0
  0
LINE
  5
1D4B
330
18
100
AcDbEntity
  8
外形線
100
AcDbLine
 10
87.63968250826952
 20
173.2441178521878
 30
0.0
 11
87.63968250826952
 21
172.2441178521878
 31
0.0
  0
LINE
  5
1D4C
330
18
100
AcDbEntity
  8
外形線
100
AcDbLine
 10
86.63968250826963
 20
167.1441178521879
 30
0.0
 11
96.63968250826963
 21
167.1441178521878
 31
0.0
  0
LINE
  5
1D4D
330
18
100
AcDbEntity
  8
外形線
100
AcDbLine
 10
95.63968250826963
 20
160.1441178521878
 30
0.0
 11
95.63968250826963
 21
159.6441178521878
 31
0.0
  0
LINE
  5
1D4E
330
18
100
AcDbEntity
  8
外形線
100
AcDbLine
 10
87.63968250826962
 20
160.1441178521878
 30
0.0
 11
87.63968250826962
 21
159.6441178521879
 31
0.0
  0
LINE
  5
1D4F
330
18
100
AcDbEntity
  8
外形線
100
AcDbLine
 10
86.63968250826963
 20
168.6441178521879
 30
0.0
 11
96.63968250826963
 21
168.6441178521878
 31
0.0
  0
LINE
  5
1D50
330
18
100
AcDbEntity
  8
外形線
100
AcDbLine
 10
96.63968250826963
 20
167.1441178521878
 30
0.0
 11
96.63968250826963
 21
160.1441178521878
 31
0.0
  0
LINE
  5
1D51
330
18
100
AcDbEntity
  8
外形線
100
AcDbLine
 10
86.63968250826963
 20
167.1441178521879
 30
0.0
 11
86.63968250826963
 21
160.1441178521878
 31
0.0
  0
LINE
  5
1D52
330
18
100
AcDbEntity
  8
外形線
100
AcDbLine
 10
86.63968250826963
 20
169.9441178521879
 30
0.0
 11
96.63968250826963
 21
169.9441178521878
 31
0.0
  0
LINE
  5
1D53
330
18
100
AcDbEntity
  8
外形線
100
AcDbLine
 10
86.63968250826963
 20
170.9441178521879
 30
0.0
 11
96.63968250826963
 21
170.9441178521878
 31
0.0
  0
LINE
  5
1D54
330
18
100
AcDbEntity
  8
外形線
100
AcDbLine
 10
86.63968250826963
 20
172.2441178521879
 30
0.0
 11
96.63968250826963
 21
172.2441178521878
 31
0.0
  0
LINE
  5
1D55
330
18
100
AcDbEntity
  8
外形線
100
AcDbLine
 10
86.63968250826963
 20
173.2441178521879
 30
0.0
 11
96.63968250826963
 21
173.2441178521878
 31
0.0
  0
LINE
  5
1D56
330
18
100
AcDbEntity
  8
外形線
100
AcDbLine
 10
95.63968250826963
 20
168.6441178521878
 30
0.0
 11
95.63968250826963
 21
167.1441178521878
 31
0.0
  0
LINE
  5
1D57
330
18
100
AcDbEntity
  8
外形線
100
AcDbLine
 10
87.63968250826962
 20
168.6441178521879
 30
0.0
 11
87.63968250826962
 21
167.1441178521878
 31
0.0
  0
LINE
  5
1D58
330
18
100
AcDbEntity
  8
外形線
100
AcDbLine
 10
86.63968250826963
 20
169.9441178521879
 30
0.0
 11
86.63968250826963
 21
168.6441178521879
 31
0.0
  0
LINE
  5
1D59
330
18
100
AcDbEntity
  8
外形線
100
AcDbLine
 10
96.63968250826963
 20
169.9441178521878
 30
0.0
 11
96.63968250826963
 21
168.6441178521878
 31
0.0
  0
LINE
  5
1D5A
330
18
100
AcDbEntity
  8
外形線
100
AcDbLine
 10
95.63968250826963
 20
170.9441178521878
 30
0.0
 11
95.63968250826963
 21
169.9441178521878
 31
0.0
  0
LINE
  5
1D5B
330
18
100
AcDbEntity
  8
外形線
100
AcDbLine
 10
87.63968250826952
 20
170.9441178521878
 30
0.0
 11
87.63968250826962
 21
169.9441178521878
 31
0.0
  0
LINE
  5
1D5C
330
18
100
AcDbEntity
  8
外形線
100
AcDbLine
 10
86.63968250826963
 20
172.2441178521878
 30
0.0
 11
86.63968250826963
 21
170.9441178521879
 31
0.0
  0
LINE
  5
1D5D
330
18
100
AcDbEntity
  8
外形線
100
AcDbLine
 10
96.63968250826963
 20
172.2441178521878
 30
0.0
 11
96.63968250826963
 21
170.9441178521878
 31
0.0
  0
ARC
  5
1D5E
330
18
100
AcDbEntity
  8
外形線
100
AcDbCircle
 10
88.13968250826963
 20
174.7441178521878
 30
0.0
 40
1.5
100
AcDbArc
 50
90.0
 51
180.0
  0
ARC
  5
1D5F
330
18
100
AcDbEntity
  8
外形線
100
AcDbCircle
 10
95.13968250826962
 20
174.7441178521878
 30
0.0
 40
1.5
100
AcDbArc
 50
0.0
 51
90.0
  0
LINE
  5
1D60
330
18
100
AcDbEntity
  8
外形線
100
AcDbLine
 10
85.92356468968461
 20
91.84411785218783
 30
0.0
 11
97.63968250826962
 21
91.84411785218783
 31
0.0
  0
LINE
  5
1D63
330
18
100
AcDbEntity
  8
外形線
100
AcDbLine
 10
97.63968250826962
 20
93.4502409387897
 30
0.0
 11
97.63968250826962
 21
91.84411785218783
 31
0.0
  0
LINE
  5
1D64
330
18
100
AcDbEntity
  8
外形線
100
AcDbLine
 10
85.63968250826963
 20
93.4502409387897
 30
0.0
 11
85.63968250826963
 21
91.94345992897314
 31
0.0
  0
LINE
  5
1D88
330
18
100
AcDbEntity
  8
外形線
100
AcDbLine
 10
180.9563559524018
 20
152.2441178521878
 30
0.0
 11
196.9563559524018
 21
152.2441178521877
 31
0.0
  0
LINE
  5
1D89
330
18
100
AcDbEntity
  8
外形線
100
AcDbLine
 10
180.9563559524018
 20
93.44411785218779
 30
0.0
 11
196.9563559524018
 21
93.44411785218785
 31
0.0
  0
LINE
  5
1D8A
330
18
100
AcDbEntity
  8
外形線
100
AcDbLine
 10
196.9563559524018
 20
152.2441178521877
 30
0.0
 11
196.9563559524018
 21
93.44411785218785
 31
0.0
  0
LINE
  5
1D8B
330
18
100
AcDbEntity
  8
外形線
100
AcDbLine
 10
165.9563559524018
 20
152.8441178521878
 30
0.0
 11
165.9563559524018
 21
92.84411785218782
 31
0.0
  0
LINE
  5
1D8C
330
18
100
AcDbEntity
  8
外形線
100
AcDbLine
 10
195.4563559524018
 20
152.2441178521877
 30
0.0
 11
195.4563559524018
 21
93.44411785218785
 31
0.0
  0
LINE
  5
1D8D
330
18
100
AcDbEntity
  8
外形線
100
AcDbLine
 10
194.4563559524018
 20
152.2441178521877
 30
0.0
 11
194.4563559524018
 21
93.44411785218785
 31
0.0
  0
LINE
  5
1D8E
330
18
100
AcDbEntity
  8
外形線
100
AcDbLine
 10
178.9563559524018
 20
153.8441178521878
 30
0.0
 11
178.9563559524019
 21
149.3441178521878
 31
0.0
  0
LINE
  5
1D8F
330
18
100
AcDbEntity
  8
外形線
100
AcDbLine
 10
173.4563559524018
 20
153.8441178521878
 30
0.0
 11
173.4563559524018
 21
149.3441178521879
 31
0.0
  0
LINE
  5
1D90
330
18
100
AcDbEntity
  8
外形線
100
AcDbLine
 10
165.9563559524018
 20
152.8441178521877
 30
0.0
 11
173.4563559524018
 21
152.8441178521878
 31
0.0
  0
LINE
  5
1D91
330
18
100
AcDbEntity
  8
外形線
100
AcDbLine
 10
165.9563559524018
 20
92.84411785218782
 30
0.0
 11
178.9563559524021
 21
92.84411785218782
 31
0.0
  0
LINE
  5
1D92
330
18
100
AcDbEntity
  8
外形線
100
AcDbLine
 10
173.4563559524018
 20
153.8441178521878
 30
0.0
 11
178.9563559524018
 21
153.8441178521878
 31
0.0
  0
LINE
  5
1D93
330
18
100
AcDbEntity
  8
外形線
100
AcDbLine
 10
173.4563559524018
 20
150.3441178521878
 30
0.0
 11
178.9563559524018
 21
150.3441178521878
 31
0.0
  0
LINE
  5
1D94
330
18
100
AcDbEntity
  8
外形線
100
AcDbLine
 10
173.4563559524018
 20
149.3441178521879
 30
0.0
 11
178.9563559524019
 21
149.3441178521878
 31
0.0
  0
LINE
  5
1D95
330
18
100
AcDbEntity
  8
外形線
100
AcDbLine
 10
178.9563559524019
 20
149.3441178521878
 30
0.0
 11
178.9563559524019
 21
92.84411785218777
 31
0.0
  0
LINE
  5
1D96
330
18
100
AcDbEntity
  8
外形線
100
AcDbLine
 10
177.9563559524021
 20
95.34411785218782
 30
0.0
 11
177.9563559524019
 21
92.84411785218777
 31
0.0
  0
LINE
  5
1D97
330
18
100
AcDbEntity
  8
外形線
100
AcDbLine
 10
172.4563559524018
 20
95.34411785218777
 30
0.0
 11
172.4563559524019
 21
92.84411785218777
 31
0.0
  0
LINE
  5
1D98
330
18
100
AcDbEntity
  8
外形線
100
AcDbLine
 10
172.4563559524018
 20
95.34411785218777
 30
0.0
 11
177.9563559524021
 21
95.34411785218782
 31
0.0
  0
LINE
  5
1D99
330
18
100
AcDbEntity
  8
外形線
100
AcDbLine
 10
164.9563559524018
 20
122.8441178521878
 30
0.0
 11
164.9563559524018
 21
111.3441178521878
 31
0.0
  0
LINE
  5
1D9A
330
18
100
AcDbEntity
  8
外形線
100
AcDbLine
 10
163.3563559524018
 20
111.3441178521878
 30
0.0
 11
164.9563559524018
 21
111.3441178521878
 31
0.0
  0
ARC
  5
1D9B
330
18
100
AcDbEntity
  8
外形線
100
AcDbCircle
 10
344.5736101927283
 20
127.3549245099894
 30
0.0
 40
181.9206400838717
100
AcDbArc
 50
185.0491250177036
 51
187.1079812663738
  0
LINE
  5
1D9C
330
18
100
AcDbEntity
  8
外形線
100
AcDbLine
 10
163.3588940168832
 20
104.8441178521878
 30
0.0
 11
164.3588940168832
 21
104.8441178521878
 31
0.0
  0
LINE
  5
1D9D
330
18
100
AcDbEntity
  8
外形線
100
AcDbLine
 10
163.3588940168832
 20
100.8441178521878
 30
0.0
 11
165.3588940168832
 21
100.8441178521878
 31
0.0
  0
LINE
  5
1D9E
330
18
100
AcDbEntity
  8
外形線
100
AcDbLine
 10
164.9563559524018
 20
122.8441178521878
 30
0.0
 11
165.9563559524018
 21
122.8441178521878
 31
0.0
  0
LINE
  5
1D9F
330
18
100
AcDbEntity
  8
外形線
100
AcDbLine
 10
163.3588940168832
 20
104.8441178521878
 30
0.0
 11
163.3588940168832
 21
100.8441178521878
 31
0.0
  0
LINE
  5
1DA0
330
18
100
AcDbEntity
  8
外形線
100
AcDbLine
 10
164.3588940168832
 20
104.8441178521878
 30
0.0
 11
165.3588940168832
 21
100.8441178521878
 31
0.0
  0
ARC
  5
1DA1
330
18
100
AcDbEntity
  8
外形線
100
AcDbCircle
 10
344.5736101927283
 20
127.3549245099894
 30
0.0
 40
181.9206400838717
100
AcDbArc
 50
188.3793987252573
 51
190.9354250164132
  0
LINE
  5
1DA2
330
18
100
AcDbEntity
  8
外形線
100
AcDbLine
 10
182.4563559524018
 20
174.7441178521878
 30
0.0
 11
182.4563559524018
 21
173.2441178521878
 31
0.0
  0
LINE
  5
1DA3
330
18
100
AcDbEntity
  8
外形線
100
AcDbLine
 10
192.4563559524018
 20
174.7441178521878
 30
0.0
 11
192.4563559524018
 21
173.2441178521877
 31
0.0
  0
LINE
  5
1DA4
330
18
100
AcDbEntity
  8
外形線
100
AcDbLine
 10
182.4563559524018
 20
173.2441178521879
 30
0.0
 11
192.4563559524018
 21
173.2441178521878
 31
0.0
  0
LINE
  5
1DA5
330
18
100
AcDbEntity
  8
外形線
100
AcDbLine
 10
182.4563559524018
 20
172.2441178521879
 30
0.0
 11
192.4563559524018
 21
172.2441178521878
 31
0.0
  0
LINE
  5
1DA6
330
18
100
AcDbEntity
  8
外形線
100
AcDbLine
 10
182.4563559524018
 20
170.9441178521879
 30
0.0
 11
192.4563559524018
 21
170.9441178521878
 31
0.0
  0
LINE
  5
1DA7
330
18
100
AcDbEntity
  8
外形線
100
AcDbLine
 10
182.4563559524018
 20
169.9441178521879
 30
0.0
 11
192.4563559524018
 21
169.9441178521878
 31
0.0
  0
LINE
  5
1DA8
330
18
100
AcDbEntity
  8
外形線
100
AcDbLine
 10
182.4563559524018
 20
168.6441178521879
 30
0.0
 11
192.4563559524018
 21
168.6441178521878
 31
0.0
  0
LINE
  5
1DA9
330
18
100
AcDbEntity
  8
外形線
100
AcDbLine
 10
182.4563559524018
 20
167.1441178521879
 30
0.0
 11
192.4563559524018
 21
167.1441178521878
 31
0.0
  0
LINE
  5
1DAA
330
18
100
AcDbEntity
  8
外形線
100
AcDbLine
 10
182.4563559524018
 20
160.1441178521879
 30
0.0
 11
192.4563559524018
 21
160.1441178521878
 31
0.0
  0
LINE
  5
1DAB
330
18
100
AcDbEntity
  8
外形線
100
AcDbLine
 10
181.4563559524018
 20
158.6441178521879
 30
0.0
 11
193.4563559524018
 21
158.6441178521878
 31
0.0
  0
LINE
  5
1DAC
330
18
100
AcDbEntity
  8
外形線
100
AcDbLine
 10
182.4563559524018
 20
159.6441178521879
 30
0.0
 11
192.4563559524018
 21
159.6441178521878
 31
0.0
  0
LINE
  5
1DAD
330
18
100
AcDbEntity
  8
外形線
100
AcDbLine
 10
182.4563559524018
 20
167.1441178521879
 30
0.0
 11
182.4563559524018
 21
160.1441178521878
 31
0.0
  0
LINE
  5
1DAE
330
18
100
AcDbEntity
  8
外形線
100
AcDbLine
 10
181.4563559524018
 20
158.6441178521879
 30
0.0
 11
182.4563559524018
 21
159.6441178521879
 31
0.0
  0
LINE
  5
1DAF
330
18
100
AcDbEntity
  8
外形線
100
AcDbLine
 10
181.4563559524018
 20
158.6441178521879
 30
0.0
 11
181.4563559524018
 21
152.2441178521878
 31
0.0
  0
LINE
  5
1DB0
330
18
100
AcDbEntity
  8
外形線
100
AcDbLine
 10
183.4563559524018
 20
160.1441178521878
 30
0.0
 11
183.4563559524018
 21
159.6441178521879
 31
0.0
  0
LINE
  5
1DB1
330
18
100
AcDbEntity
  8
外形線
100
AcDbLine
 10
183.4563559524018
 20
168.6441178521879
 30
0.0
 11
183.4563559524018
 21
167.1441178521878
 31
0.0
  0
LINE
  5
1DB2
330
18
100
AcDbEntity
  8
外形線
100
AcDbLine
 10
182.4563559524018
 20
172.2441178521878
 30
0.0
 11
182.4563559524018
 21
170.9441178521879
 31
0.0
  0
LINE
  5
1DB3
330
18
100
AcDbEntity
  8
外形線
100
AcDbLine
 10
183.4563559524017
 20
170.9441178521878
 30
0.0
 11
183.4563559524018
 21
169.9441178521878
 31
0.0
  0
LINE
  5
1DB4
330
18
100
AcDbEntity
  8
外形線
100
AcDbLine
 10
182.4563559524018
 20
169.9441178521879
 30
0.0
 11
182.4563559524018
 21
168.6441178521879
 31
0.0
  0
LINE
  5
1DB5
330
18
100
AcDbEntity
  8
外形線
100
AcDbLine
 10
183.4563559524017
 20
173.2441178521878
 30
0.0
 11
183.4563559524017
 21
172.2441178521878
 31
0.0
  0
LINE
  5
1DB6
330
18
100
AcDbEntity
  8
外形線
100
AcDbLine
 10
192.4563559524018
 20
167.1441178521878
 30
0.0
 11
192.4563559524018
 21
160.1441178521878
 31
0.0
  0
LINE
  5
1DB7
330
18
100
AcDbEntity
  8
外形線
100
AcDbLine
 10
193.4563559524018
 20
158.6441178521878
 30
0.0
 11
193.4563559524018
 21
152.2441178521877
 31
0.0
  0
LINE
  5
1DB8
330
18
100
AcDbEntity
  8
外形線
100
AcDbLine
 10
191.4563559524018
 20
160.1441178521878
 30
0.0
 11
191.4563559524018
 21
159.6441178521878
 31
0.0
  0
LINE
  5
1DB9
330
18
100
AcDbEntity
  8
外形線
100
AcDbLine
 10
192.4563559524018
 20
159.6441178521878
 30
0.0
 11
193.4563559524018
 21
158.6441178521878
 31
0.0
  0
LINE
  5
1DBA
330
18
100
AcDbEntity
  8
外形線
100
AcDbLine
 10
191.4563559524018
 20
168.6441178521878
 30
0.0
 11
191.4563559524018
 21
167.1441178521878
 31
0.0
  0
LINE
  5
1DBB
330
18
100
AcDbEntity
  8
外形線
100
AcDbLine
 10
192.4563559524018
 20
172.2441178521878
 30
0.0
 11
192.4563559524018
 21
170.9441178521878
 31
0.0
  0
LINE
  5
1DBC
330
18
100
AcDbEntity
  8
外形線
100
AcDbLine
 10
191.4563559524018
 20
170.9441178521878
 30
0.0
 11
191.4563559524018
 21
169.9441178521878
 31
0.0
  0
LINE
  5
1DBD
330
18
100
AcDbEntity
  8
外形線
100
AcDbLine
 10
192.4563559524018
 20
169.9441178521878
 30
0.0
 11
192.4563559524018
 21
168.6441178521878
 31
0.0
  0
LINE
  5
1DBE
330
18
100
AcDbEntity
  8
外形線
100
AcDbLine
 10
191.4563559524018
 20
173.2441178521878
 30
0.0
 11
191.4563559524018
 21
172.2441178521878
 31
0.0
  0
LINE
  5
1DBF
330
18
100
AcDbEntity
  8
外形線
100
AcDbLine
 10
183.9563559524018
 20
176.2441178521878
 30
0.0
 11
190.9563559524018
 21
176.2441178521878
 31
0.0
  0
ARC
  5
1DC0
330
18
100
AcDbEntity
  8
外形線
100
AcDbCircle
 10
183.9563559524018
 20
174.7441178521878
 30
0.0
 40
1.5
100
AcDbArc
 50
90.0
 51
180.0
  0
ARC
  5
1DC1
330
18
100
AcDbEntity
  8
外形線
100
AcDbCircle
 10
190.9563559524018
 20
174.7441178521878
 30
0.0
 40
1.5
100
AcDbArc
 50
0.0
 51
90.0
  0
LINE
  5
1DC2
330
18
100
AcDbEntity
  8
外形線
100
AcDbLine
 10
180.9563559524018
 20
152.2441178521878
 30
0.0
 11
180.9563559524018
 21
93.44411785218779
 31
0.0
  0
LINE
  5
1DC3
330
18
100
AcDbEntity
  8
外形線
100
AcDbLine
 10
178.9563559524021
 20
92.84411785218782
 30
0.0
 11
180.9563559524018
 21
93.44411785218779
 31
0.0
  0
LINE
  5
1DD0
330
18
100
AcDbEntity
  8
外形線
100
AcDbLine
 10
181.4563559524018
 20
91.84411785218783
 30
0.0
 11
193.4563559524018
 21
91.84411785218783
 31
0.0
  0
LINE
  5
1DD1
330
18
100
AcDbEntity
  8
外形線
100
AcDbLine
 10
181.4563559524018
 20
93.44411785218772
 30
0.0
 11
181.4563559524018
 21
91.84411785218783
 31
0.0
  0
LINE
  5
1DD2
330
18
100
AcDbEntity
  8
外形線
100
AcDbLine
 10
193.4563559524018
 20
93.44411785218779
 30
0.0
 11
193.4563559524018
 21
91.84411785218783
 31
0.0
  0
POINT
  5
1E21
330
18
100
AcDbEntity
  8
DEFPOINTS
  6
ByBlock
 62
     0
100
AcDbPoint
 10
86.63968250826963
 20
159.6441178521879
 30
0.0
  0
LINE
  5
1E2C
330
18
100
AcDbEntity
  8
外形線
100
AcDbLine
 10
180.9563559524018
 20
152.2441178521878
 30
0.0
 11
178.9563559524018
 21
152.8441178521878
 31
0.0
  0
HATCH
  5
1E55
330
18
100
AcDbEntity
  8
ROGO
 62
     4
100
AcDbHatch
 10
0.0
 20
0.0
 30
0.0
210
0.0
220
0.0
230
1.0
  2
SOLID
 70
     1
 71
     1
 91
        2
 92
        5
 93
        6
 72
     1
 10
81.3559357005038
 20
137.348893385569
 11
82.58225121527926
 21
137.348893385569
 72
     1
 10
82.58225121527926
 20
137.348893385569
 11
83.01196798063017
 21
138.2986940554457
 72
     1
 10
83.01196798063017
 20
138.2986940554457
 11
84.15832146828009
 21
138.2986940554457
 72
     4
 94
        3
 73
     0
 74
     0
 95
       18
 96
       14
 40
0.108740278791501
 40
0.108740278791501
 40
0.108740278791501
 40
0.108740278791501
 40
0.6623149649549278
 40
1.384304701649787
 40
2.097394834876493
 40
2.774073369849618
 40
3.428974823686337
 40
4.005208313035923
 40
4.455173659284313
 40
4.720999734343524
 40
5.086034088486724
 40
5.569973738255373
 40
6.060470601257719
 40
6.060470601257719
 40
6.060470601257719
 40
6.060470601257719
 10
84.15832146828007
 20
138.2986940554457
 10
84.23899993285898
 20
138.2992948435429
 10
84.42490182049926
 20
138.3006791986111
 10
84.68497710663712
 20
138.4396171312481
 10
84.93160278632819
 20
138.6166139345445
 10
85.13024299371853
 20
138.8377529741469
 10
85.25400182770216
 20
139.0905875795307
 10
85.27317167990554
 20
139.3329063252657
 10
85.26146895610578
 20
139.5245774406098
 10
85.17784711655043
 20
139.6581769664277
 10
85.09091201007572
 20
139.7937668227926
 10
84.93150242151513
 20
139.9112197925245
 10
84.80088934570733
 20
139.9626816527869
 10
84.73446994017525
 20
139.9870232518769
 72
     1
 10
84.73446994017542
 20
139.9870232518768
 11
82.66125782348012
 21
139.9870232518768
 72
     1
 10
82.66125782348012
 20
139.9870232518768
 11
81.3559357005038
 21
137.348893385569
 97
        6
330
1E58
330
1E5A
330
1E61
330
1E59
330
1E5B
330
1E60
 92
       20
 93
        4
 72
     1
 10
83.27729375645743
 20
138.8851421997498
 11
83.48043378034558
 21
139.3341415088881
 72
     1
 10
83.48043378034558
 20
139.3341415088881
 11
84.00241706489945
 21
139.3341415088882
 72
     4
 94
        3
 73
     0
 74
     0
 95
       15
 96
       11
 40
0.0
 40
0.0
 40
0.0
 40
0.0
 40
0.1979620751796092
 40
0.2882218927611821
 40
0.390672794493828
 40
0.4604671121752228
 40
0.570847549457819
 40
0.6369624161317818
 40
0.7503938621545029
 40
0.7882043682941406
 40
0.7882043682941406
 40
0.7882043682941406
 40
0.7882043682941406
 10
84.00241706489941
 20
139.3341415088882
 10
84.07676778140407
 20
139.334482074857
 10
84.18501833505017
 20
139.3349779201751
 10
84.2442135932333
 20
139.2010716722659
 10
84.2176794560758
 20
139.114856937732
 10
84.18432388310217
 20
139.0263412765563
 10
84.12537703111906
 20
138.9661935497815
 10
84.04626172163956
 20
138.9082611493909
 10
83.97149397342507
 20
138.9012481729146
 10
83.92286594617457
 20
138.8883633956163
 10
83.91070893354266
 20
138.8851421997498
 72
     1
 10
83.91070893354237
 20
138.8851421997497
 11
83.27729375645743
 21
138.8851421997498
 97
        4
330
1E5F
330
1E5D
330
1E5E
330
1E5C
 75
     0
 76
     1
 47
0.0514683685270805
 98
        2
 10
82.67233882058894
 20
139.1664948501624
 10
82.67233882058894
 20
139.1664948501624
450
        0
451
        0
460
0.0
461
0.0
452
        0
462
0.0
453
        0
470

  0
HATCH
  5
1E56
330
18
100
AcDbEntity
  8
ROGO
 62
     4
100
AcDbHatch
 10
0.0
 20
0.0
 30
0.0
210
0.0
220
0.0
230
1.0
  2
SOLID
 70
     1
 71
     0
 91
        1
 92
        7
 72
     0
 73
     1
 93
        4
 10
82.70188826082183
 20
137.6133265079435
 10
82.58225121527926
 20
137.348893385569
 10
98.24134166060037
 20
137.348893385569
 10
98.37319655581113
 20
137.6133265079435
 97
        0
 75
     0
 76
     1
 47
0.0514683685270805
 98
        1
 10
92.59704788196392
 20
137.5433881968231
450
        0
451
        0
460
0.0
461
0.0
452
        0
462
0.0
453
        0
470

  0
LINE
  5
1E57
330
18
100
AcDbEntity
  8
ROGO
 62
     4
100
AcDbLine
 10
82.68354954335746
 20
137.6133265079435
 30
0.0
 11
98.3731965558111
 21
137.6133265079435
 31
0.0
  0
SPLINE
  5
1E58
102
{ACAD_REACTORS
330
1E55
102
}
330
18
100
AcDbEntity
  8
ROGO
 62
     4
100
AcDbSpline
210
0.0
220
0.0
230
1.0
 70
     8
 71
     3
 72
    18
 73
    14
 74
     0
 42
0.0000000001
 43
0.0000000001
 40
0.1087402787915014
 40
0.1087402787915014
 40
0.1087402787915014
 40
0.1087402787915014
 40
0.5992371417938475
 40
1.083176791562496
 40
1.448211145705696
 40
1.714037220764907
 40
2.164002567013297
 40
2.740236056362883
 40
3.395137510199602
 40
4.071816045172726
 40
4.784906178399433
 40
5.506895915094292
 40
6.060470601257719
 40
6.060470601257719
 40
6.060470601257719
 40
6.060470601257719
 10
84.73446994017525
 20
139.9870232518769
 30
0.0
 10
84.80088934570733
 20
139.9626816527869
 30
0.0
 10
84.93150242151513
 20
139.9112197925245
 30
0.0
 10
85.09091201007572
 20
139.7937668227926
 30
0.0
 10
85.17784711655043
 20
139.6581769664277
 30
0.0
 10
85.26146895610578
 20
139.5245774406098
 30
0.0
 10
85.27317167990554
 20
139.3329063252657
 30
0.0
 10
85.25400182770216
 20
139.0905875795307
 30
0.0
 10
85.13024299371853
 20
138.8377529741469
 30
0.0
 10
84.93160278632819
 20
138.6166139345445
 30
0.0
 10
84.68497710663712
 20
138.4396171312481
 30
0.0
 10
84.42490182049926
 20
138.3006791986111
 30
0.0
 10
84.23899993285898
 20
138.2992948435429
 30
0.0
 10
84.15832146828007
 20
138.2986940554457
 30
0.0
  0
LINE
  5
1E59
102
{ACAD_REACTORS
330
1E55
330
1E8C
102
}
330
18
100
AcDbEntity
  8
ROGO
 62
     4
100
AcDbLine
 10
81.35593570050378
 20
137.348893385569
 30
0.0
 11
99.21344932953434
 21
137.348893385569
 31
0.0
  0
LINE
  5
1E5A
102
{ACAD_REACTORS
330
1E55
102
}
330
18
100
AcDbEntity
  8
ROGO
 62
     4
100
AcDbLine
 10
82.66125782348012
 20
139.9870232518768
 30
0.0
 11
84.73446994017525
 21
139.9870232518768
 31
0.0
  0
LINE
  5
1E5B
102
{ACAD_REACTORS
330
1E55
102
}
330
18
100
AcDbEntity
  8
ROGO
 62
     4
100
AcDbLine
 10
83.01196798063017
 20
138.2986940554457
 30
0.0
 11
82.58225121527926
 21
137.348893385569
 31
0.0
  0
LINE
  5
1E5C
102
{ACAD_REACTORS
330
1E55
102
}
330
18
100
AcDbEntity
  8
ROGO
 62
     4
100
AcDbLine
 10
83.91070893354276
 20
138.8851421997497
 30
0.0
 11
83.27729375645743
 21
138.8851421997498
 31
0.0
  0
LINE
  5
1E5D
102
{ACAD_REACTORS
330
1E55
102
}
330
18
100
AcDbEntity
  8
ROGO
 62
     4
100
AcDbLine
 10
84.00241706489941
 20
139.3341415088882
 30
0.0
 11
83.4804337803456
 21
139.3341415088882
 31
0.0
  0
SPLINE
  5
1E5E
102
{ACAD_REACTORS
330
1E55
102
}
330
18
100
AcDbEntity
  8
ROGO
 62
     4
100
AcDbSpline
210
0.0
220
0.0
230
1.0
 70
     8
 71
     3
 72
    15
 73
    11
 74
     9
 42
0.0000000001
 43
0.0000000001
 44
0.0000000001
 40
0.0
 40
0.0
 40
0.0
 40
0.0
 40
0.1979620751796092
 40
0.2882218927611821
 40
0.390672794493828
 40
0.4604671121752228
 40
0.570847549457819
 40
0.6369624161317818
 40
0.7503938621545029
 40
0.7882043682941406
 40
0.7882043682941406
 40
0.7882043682941406
 40
0.7882043682941406
 10
84.00241706489941
 20
139.3341415088882
 30
0.0
 10
84.07676778140407
 20
139.334482074857
 30
0.0
 10
84.18501833505017
 20
139.3349779201751
 30
0.0
 10
84.2442135932333
 20
139.2010716722659
 30
0.0
 10
84.2176794560758
 20
139.114856937732
 30
0.0
 10
84.18432388310217
 20
139.0263412765563
 30
0.0
 10
84.12537703111906
 20
138.9661935497815
 30
0.0
 10
84.04626172163956
 20
138.9082611493909
 30
0.0
 10
83.97149397342507
 20
138.9012481729146
 30
0.0
 10
83.92286594617457
 20
138.8883633956163
 30
0.0
 10
83.91070893354266
 20
138.8851421997498
 30
0.0
 11
84.00241706489941
 21
139.3341415088882
 31
0.0
 11
84.19500429895071
 21
139.2883251309226
 31
0.0
 11
84.23168765696141
 21
139.2058559493156
 31
0.0
 11
84.21334624162602
 21
139.1050602165224
 31
0.0
 11
84.1858338549531
 21
139.0409172873706
 31
0.0
 11
84.11246713893161
 21
138.9584481057637
 31
0.0
 11
84.05744236558552
 21
138.9217950033912
 31
0.0
 11
83.94739229155334
 21
138.8943054753429
 31
0.0
 11
83.91070893354266
 21
138.8851421997498
 31
0.0
  0
LINE
  5
1E5F
102
{ACAD_REACTORS
330
1E55
102
}
330
18
100
AcDbEntity
  8
ROGO
 62
     4
100
AcDbLine
 10
83.4804337803456
 20
139.3341415088882
 30
0.0
 11
83.27729375645743
 21
138.8851421997498
 31
0.0
  0
LINE
  5
1E60
102
{ACAD_REACTORS
330
1E55
102
}
330
18
100
AcDbEntity
  8
ROGO
 62
     4
100
AcDbLine
 10
84.15832146867741
 20
138.2986940554457
 30
0.0
 11
83.01196798063017
 21
138.2986940554457
 31
0.0
  0
LINE
  5
1E61
102
{ACAD_REACTORS
330
1E55
102
}
330
18
100
AcDbEntity
  8
ROGO
 62
     4
100
AcDbLine
 10
82.66125782348012
 20
139.9870232518768
 30
0.0
 11
81.35593570050378
 21
137.348893385569
 31
0.0
  0
TEXT
  5
1E62
330
18
100
AcDbEntity
  8
文字
100
AcDbText
 10
86.75267657050415
 20
142.1873374229995
 30
0.0
 40
2.0
  1
T2-127
 51
10.0
  7
STYLE3
100
AcDbText
  0
HATCH
  5
1E63
330
18
100
AcDbEntity
  8
ROGO
 62
     4
100
AcDbHatch
 10
0.0
 20
0.0
 30
0.0
210
0.0
220
0.0
230
1.0
  2
SOLID
 70
     1
 71
     1
 91
        2
 92
        5
 93
        6
 72
     4
 94
        3
 73
     0
 74
     0
 95
       38
 96
       34
 40
0.0
 40
0.0
 40
0.0
 40
0.0
 40
0.2324160190625641
 40
0.3054076598660179
 40
0.3991969555208118
 40
0.4773548548861183
 40
0.5433001127836845
 40
0.6308904647837286
 40
0.6756456824938584
 40
0.7260518053353911
 40
0.8003409450195571
 40
0.884494420029689
 40
0.9390839551137702
 40
0.9983865037096219
 40
1.064308042580248
 40
1.164347318186099
 40
1.259395062462607
 40
1.303582284428296
 40
1.353971899974848
 40
1.413666953858189
 40
1.456162161198055
 40
1.491785383230425
 40
1.542647296663551
 40
1.598535826931799
 40
1.654424046021893
 40
1.703326315520178
 40
1.815321205179844
 40
1.859508427145426
 40
1.947882923564461
 40
2.026002047025105
 40
2.175555252260891
 40
2.360088422381767
 40
2.626581173122162
 40
2.626581173122162
 40
2.626581173122162
 40
2.626581173122162
 10
94.70082066988084
 20
139.9940653908126
 10
94.62334944436213
 20
139.9885925948258
 10
94.521547917135
 20
139.981401034528
 10
94.39228378105115
 20
139.9459865151217
 10
94.32182052534139
 20
139.9037964186758
 10
94.24848942364782
 20
139.8727846754894
 10
94.18596782972421
 20
139.8268624335975
 10
94.12272855740086
 20
139.8031991447776
 10
94.07844648306065
 20
139.760530005441
 10
94.02719359403254
 20
139.734465853502
 10
93.98638000852999
 20
139.6761267040548
 10
93.94076199584636
 20
139.6215817133511
 10
93.88783936218013
 20
139.5817663027515
 10
93.84440504646079
 20
139.5399484726571
 10
93.80456010127241
 20
139.475410995992
 10
93.78097807939525
 20
139.3896597999676
 10
93.71450431801177
 20
139.3355195873154
 10
93.70449545081921
 20
139.270426897446
 10
93.66772678628194
 20
139.2320233057723
 10
93.65173848498148
 20
139.1824497860773
 10
93.64564937025084
 20
139.1370316855221
 10
93.63834098062481
 20
139.0946143236857
 10
93.61922361746874
 20
139.049993132737
 10
93.62546359076198
 20
138.9948742026779
 10
93.62368600970775
 20
138.9415007132151
 10
93.62473211824484
 20
138.869444840429
 10
93.62095656765704
 20
138.7992895872468
 10
93.65106510403357
 20
138.7229440321731
 10
93.66888233666584
 20
138.6548925318876
 10
93.71767772659325
 20
138.5606669775643
 10
93.801848751645
 20
138.4519510613671
 10
93.96190699652454
 20
138.3199905371335
 10
94.11580767867228
 20
138.3066037562113
 10
94.20674129075393
 20
138.2986940554457
 72
     1
 10
94.20674129075392
 20
138.2986940554457
 11
95.17161049199193
 21
138.2986940554457
 72
     4
 94
        3
 73
     0
 74
     0
 95
       11
 96
        7
 40
0.1647869275458135
 40
0.1647869275458135
 40
0.1647869275458135
 40
0.1647869275458135
 40
0.2545010798212315
 40
0.5111620267764023
 40
0.7602998271033902
 40
0.8850764140209603
 40
0.8850764140209603
 40
0.8850764140209603
 40
0.8850764140209603
 10
95.17161049199229
 20
138.2986940554457
 10
95.1850743638322
 20
138.2984345781904
 10
95.23705668575463
 20
138.2974327690246
 10
95.32589509702143
 20
138.3101954512048
 10
95.41936494048469
 20
138.322425672542
 10
95.47508909804287
 20
138.3313325736928
 10
95.49306151021539
 20
138.336335201471
 72
     4
 94
        3
 73
     0
 74
     0
 95
        9
 96
        5
 40
0.0
 40
0.0
 40
0.0
 40
0.0
 40
0.146030572742497
 40
0.3423777932799819
 40
0.3423777932799819
 40
0.3423777932799819
 40
0.3423777932799819
 10
95.49306151021539
 20
138.336335201471
 10
95.5399707551957
 20
138.3506867811151
 10
95.64995240820957
 20
138.3843349554417
 10
95.740822447514
 20
138.4554507925803
 10
95.7929347047858
 20
138.4962343867047
 72
     4
 94
        3
 73
     0
 74
     0
 95
       25
 96
       21
 40
0.0
 40
0.0
 40
0.0
 40
0.0
 40
0.165525918914855
 40
0.3412380755365305
 40
0.5940540902285263
 40
0.7697671103696209
 40
0.9377330196075423
 40
1.11479469302833
 40
1.274661249598185
 40
1.574522170874768
 40
1.815540668866877
 40
2.15849091873445
 40
2.536227739636605
 40
2.738070817316548
 40
2.925680654369045
 40
3.162706124480894
 40
3.395643218188267
 40
3.648478129958861
 40
3.928509979727306
 40
4.337226830236035
 40
4.337226830236035
 40
4.337226830236035
 40
4.337226830236035
 10
95.7929347047858
 20
138.4962343867047
 10
95.8120824071492
 20
138.5120573432063
 10
95.84840036339711
 20
138.5496903587771
 10
95.91281623907661
 20
138.6106850923553
 10
95.96958073025666
 20
138.6817487972247
 10
96.03960381689308
 20
138.7393434394906
 10
96.07605761687171
 20
138.8097571590803
 10
96.12860289197705
 20
138.8651360497219
 10
96.17267977344226
 20
138.9506632837098
 10
96.21007682891367
 20
139.0489069817522
 10
96.24572975741045
 20
139.1769657750853
 10
96.25939232741473
 20
139.321435129001
 10
96.23917002472547
 20
139.4612091564123
 10
96.19031805342935
 20
139.5656856506741
 10
96.15440270386887
 20
139.652756040959
 10
96.09989666132868
 20
139.735227031401
 10
96.0377126336507
 20
139.8249233538306
 10
95.95010634981724
 20
139.8991167339499
 10
95.83561393159016
 20
139.9886059060042
 10
95.72897279309485
 20
139.9920321757976
 10
95.66568987111919
 20
139.9940653908126
 72
     1
 10
95.66568987111915
 20
139.9940653908126
 11
94.70082066988089
 21
139.9940653908126
 97
        6
330
1E8E
330
1E65
330
1E69
330
1E68
330
1E67
330
1E64
 92
       20
 93
        1
 72
     3
 10
94.92255289154888
 20
139.1227419722453
 11
0.2292231973722778
 21
0.2015731185223643
 40
0.6788083417438792
 50
0.0
 51
360.0
 73
     1
 97
        1
330
1E66
 75
     0
 76
     1
 47
0.088756267210375
 98
        2
 10
94.98996453182291
 20
139.5257970340905
 10
94.98996453182291
 20
139.5257970340905
450
        0
451
        0
460
0.0
461
0.0
452
        0
462
0.0
453
        0
470

  0
SPLINE
  5
1E64
102
{ACAD_REACTORS
330
1E63
102
}
330
18
100
AcDbEntity
  8
ROGO
 62
     4
100
AcDbSpline
210
0.0
220
0.0
230
1.0
 70
     8
 71
     3
 72
     9
 73
     5
 74
     3
 42
0.0000000001
 43
0.0000000001
 44
0.0000000001
 40
0.0
 40
0.0
 40
0.0
 40
0.0
 40
0.146030572742497
 40
0.3423777932799819
 40
0.3423777932799819
 40
0.3423777932799819
 40
0.3423777932799819
 10
95.49306151021539
 20
138.336335201471
 30
0.0
 10
95.5399707551957
 20
138.3506867811151
 30
0.0
 10
95.64995240820957
 20
138.3843349554417
 30
0.0
 10
95.740822447514
 20
138.4554507925803
 30
0.0
 10
95.7929347047858
 20
138.4962343867047
 30
0.0
 11
95.49306151021539
 21
138.336335201471
 31
0.0
 11
95.63031249279005
 21
138.3862059941036
 31
0.0
 11
95.7929347047858
 21
138.4962343867047
 31
0.0
  0
LINE
  5
1E65
102
{ACAD_REACTORS
330
1E63
102
}
330
18
100
AcDbEntity
  8
ROGO
 62
     4
100
AcDbLine
 10
94.70082066988084
 20
139.9940653908126
 30
0.0
 11
95.66568987111919
 21
139.9940653908126
 31
0.0
  0
ELLIPSE
  5
1E66
102
{ACAD_REACTORS
330
1E63
102
}
330
18
100
AcDbEntity
  8
ROGO
 62
     4
100
AcDbEllipse
 10
94.92255289154888
 20
139.1227419722453
 30
0.0
 11
0.2292231973722778
 21
0.2015731185223643
 31
0.0
210
0.0
220
0.0
230
1.0
 40
0.6788083417438792
 41
0.0
 42
6.283185307179586
  0
SPLINE
  5
1E67
102
{ACAD_REACTORS
330
1E63
102
}
330
18
100
AcDbEntity
  8
ROGO
 62
     4
100
AcDbSpline
210
0.0
220
0.0
230
1.0
 70
     8
 71
     3
 72
    11
 73
     7
 74
     0
 42
0.0000000001
 43
0.0000000001
 40
0.1647869275458134
 40
0.1647869275458134
 40
0.1647869275458134
 40
0.1647869275458134
 40
0.2895635144633836
 40
0.5387013147903714
 40
0.7953622617455423
 40
0.8850764140209602
 40
0.8850764140209602
 40
0.8850764140209602
 40
0.8850764140209602
 10
95.49306151021539
 20
138.336335201471
 30
0.0
 10
95.47508909804287
 20
138.3313325736928
 30
0.0
 10
95.41936494048469
 20
138.322425672542
 30
0.0
 10
95.32589509702143
 20
138.3101954512048
 30
0.0
 10
95.23705668575463
 20
138.2974327690246
 30
0.0
 10
95.1850743638322
 20
138.2984345781904
 30
0.0
 10
95.17161049199229
 20
138.2986940554457
 30
0.0
  0
LINE
  5
1E68
102
{ACAD_REACTORS
330
1E63
102
}
330
18
100
AcDbEntity
  8
ROGO
 62
     4
100
AcDbLine
 10
94.20674129075393
 20
138.2986940554457
 30
0.0
 11
95.17161049199229
 21
138.2986940554457
 31
0.0
  0
SPLINE
  5
1E69
102
{ACAD_REACTORS
330
1E63
102
}
330
18
100
AcDbEntity
  8
ROGO
 62
     4
100
AcDbSpline
210
0.0
220
0.0
230
1.0
 70
     8
 71
     3
 72
    38
 73
    34
 74
    32
 42
0.0000000001
 43
0.0000000001
 44
0.0000000001
 40
0.0
 40
0.0
 40
0.0
 40
0.0
 40
0.2324160190625641
 40
0.3054076598660179
 40
0.3991969555208118
 40
0.4773548548861183
 40
0.5433001127836845
 40
0.6308904647837286
 40
0.6756456824938584
 40
0.7260518053353911
 40
0.8003409450195571
 40
0.884494420029689
 40
0.9390839551137702
 40
0.9983865037096219
 40
1.064308042580248
 40
1.164347318186099
 40
1.259395062462607
 40
1.303582284428296
 40
1.353971899974848
 40
1.413666953858189
 40
1.456162161198055
 40
1.491785383230425
 40
1.542647296663551
 40
1.598535826931799
 40
1.654424046021893
 40
1.703326315520178
 40
1.815321205179844
 40
1.859508427145426
 40
1.947882923564461
 40
2.026002047025105
 40
2.175555252260891
 40
2.360088422381767
 40
2.626581173122162
 40
2.626581173122162
 40
2.626581173122162
 40
2.626581173122162
 10
94.70082066988084
 20
139.9940653908126
 30
0.0
 10
94.62334944436213
 20
139.9885925948258
 30
0.0
 10
94.521547917135
 20
139.981401034528
 30
0.0
 10
94.39228378105115
 20
139.9459865151217
 30
0.0
 10
94.32182052534139
 20
139.9037964186758
 30
0.0
 10
94.24848942364782
 20
139.8727846754894
 30
0.0
 10
94.18596782972421
 20
139.8268624335975
 30
0.0
 10
94.12272855740086
 20
139.8031991447776
 30
0.0
 10
94.07844648306065
 20
139.760530005441
 30
0.0
 10
94.02719359403254
 20
139.734465853502
 30
0.0
 10
93.98638000852999
 20
139.6761267040548
 30
0.0
 10
93.94076199584636
 20
139.6215817133511
 30
0.0
 10
93.88783936218013
 20
139.5817663027515
 30
0.0
 10
93.84440504646079
 20
139.5399484726571
 30
0.0
 10
93.80456010127241
 20
139.475410995992
 30
0.0
 10
93.78097807939525
 20
139.3896597999676
 30
0.0
 10
93.71450431801177
 20
139.3355195873154
 30
0.0
 10
93.70449545081921
 20
139.270426897446
 30
0.0
 10
93.66772678628194
 20
139.2320233057723
 30
0.0
 10
93.65173848498148
 20
139.1824497860773
 30
0.0
 10
93.64564937025084
 20
139.1370316855221
 30
0.0
 10
93.63834098062481
 20
139.0946143236857
 30
0.0
 10
93.61922361746874
 20
139.049993132737
 30
0.0
 10
93.62546359076198
 20
138.9948742026779
 30
0.0
 10
93.62368600970775
 20
138.9415007132151
 30
0.0
 10
93.62473211824484
 20
138.869444840429
 30
0.0
 10
93.62095656765704
 20
138.7992895872468
 30
0.0
 10
93.65106510403357
 20
138.7229440321731
 30
0.0
 10
93.66888233666584
 20
138.6548925318876
 30
0.0
 10
93.71767772659325
 20
138.5606669775643
 30
0.0
 10
93.801848751645
 20
138.4519510613671
 30
0.0
 10
93.96190699652454
 20
138.3199905371335
 30
0.0
 10
94.11580767867228
 20
138.3066037562113
 30
0.0
 10
94.20674129075393
 20
138.2986940554457
 30
0.0
 11
94.70082066988084
 21
139.9940653908126
 31
0.0
 11
94.47009070809144
 21
139.9661209700894
 31
0.0
 11
94.40017255449811
 21
139.9451631213143
 31
0.0
 11
94.31627109977354
 21
139.9032468014076
 31
0.0
 11
94.24635294618019
 21
139.8683167422709
 31
0.0
 11
94.19041864303052
 21
139.833386371956
 31
0.0
 11
94.11350883887156
 21
139.7914703632276
 31
0.0
 11
94.07854948741862
 21
139.7635262536824
 31
0.0
 11
94.03659848540007
 21
139.7355818329592
 31
0.0
 11
93.98765583281601
 21
139.6796936138692
 31
0.0
 11
93.93172152966632
 21
139.6168194451873
 31
0.0
 11
93.88977052764778
 21
139.5818890748724
 31
0.0
 11
93.84782007494175
 21
139.539973066144
 31
0.0
 11
93.81286072348883
 21
139.4840848470539
 31
0.0
 11
93.77091027078291
 21
139.3932662576489
 31
0.0
 11
93.71497541832059
 21
139.3164198786056
 31
0.0
 11
93.70099211718946
 21
139.2745035586989
 31
0.0
 11
93.67302496561467
 21
139.2325875499704
 31
0.0
 11
93.6520494646054
 21
139.1766990197022
 31
0.0
 11
93.64505726472726
 21
139.1347830109737
 31
0.0
 11
93.63806561416163
 21
139.0998526406588
 31
0.0
 11
93.62408231303049
 21
139.0509506823386
 31
0.0
 11
93.62408231303049
 21
138.9950621520704
 31
0.0
 11
93.62408231303049
 21
138.9391739329802
 31
0.0
 11
93.62408231303049
 21
138.890271663482
 31
0.0
 11
93.63107396359612
 21
138.7784952253018
 31
0.0
 11
93.64505726472726
 21
138.7365789053952
 31
0.0
 11
93.67302496561467
 21
138.65274657676
 31
0.0
 11
93.70798376775509
 21
138.5828861473084
 31
0.0
 11
93.79887742235769
 21
138.4641237595365
 31
0.0
 11
93.94570538011009
 21
138.3523470101782
 31
0.0
 11
94.20674129075393
 21
138.2986940554457
 31
0.0
  0
HATCH
  5
1E6A
330
18
100
AcDbEntity
  8
ROGO
 62
     4
100
AcDbHatch
 10
0.0
 20
0.0
 30
0.0
210
0.0
220
0.0
230
1.0
  2
SOLID
 70
     1
 71
     1
 91
        2
 92
        7
 72
     0
 73
     1
 93
        8
 10
90.25481908402207
 20
139.9870232518767
 10
88.90430032045879
 20
139.9870232518768
 10
87.68681332461699
 20
138.2986940554457
 10
88.62184550536328
 20
138.2986940554457
 10
88.85364749653879
 20
138.6201414884196
 10
89.92063219640431
 20
138.6201414884196
 10
90.06343188320728
 20
138.2986940554457
 10
91.00484181165775
 20
138.2986940554459
 97
        8
330
1E7A
330
1E80
330
1E7B
330
1E7C
330
1E7E
330
1E6B
330
1E79
330
1E6D
 92
       22
 72
     0
 73
     1
 93
        3
 10
89.77001706063218
 20
138.9591817891717
 10
89.09813604658248
 20
138.9591817891717
 10
89.51389327898525
 20
139.5357259957961
 97
        3
330
1E7D
330
1E7F
330
1E6C
 75
     0
 76
     1
 47
0.0128389261915577
 98
        2
 10
90.14906279367039
 20
139.5819693588366
 10
90.14906279367039
 20
139.5819693588366
450
        0
451
        0
460
0.0
461
0.0
452
        0
462
0.0
453
        0
470

  0
LINE
  5
1E6B
102
{ACAD_REACTORS
330
1E6A
102
}
330
18
100
AcDbEntity
  8
ROGO
 62
     4
100
AcDbLine
 10
89.92063219640431
 20
138.6201414884196
 30
0.0
 11
90.06343188320727
 21
138.2986940554457
 31
0.0
  0
LINE
  5
1E6C
102
{ACAD_REACTORS
330
1E6A
102
}
330
18
100
AcDbEntity
  8
ROGO
 62
     4
100
AcDbLine
 10
89.51389327898528
 20
139.5357259957959
 30
0.0
 11
89.77001706063219
 21
138.9591817891717
 31
0.0
  0
LINE
  5
1E6D
102
{ACAD_REACTORS
330
1E6A
102
}
330
18
100
AcDbEntity
  8
ROGO
 62
     4
100
AcDbLine
 10
90.25481908402207
 20
139.9870232518768
 30
0.0
 11
91.0048418116578
 21
138.2986940554457
 31
0.0
  0
HATCH
  5
1E6E
330
18
100
AcDbEntity
  8
ROGO
 62
     4
100
AcDbHatch
 10
0.0
 20
0.0
 30
0.0
210
0.0
220
0.0
230
1.0
  2
SOLID
 70
     1
 71
     1
 91
        1
 92
        5
 93
        8
 72
     1
 10
93.45002044341656
 20
139.358855327598
 11
93.7632452583974
 21
139.9870232518769
 72
     1
 10
93.7632452583974
 20
139.9870232518769
 11
92.07248424711824
 21
139.9870232518769
 72
     4
 94
        3
 73
     0
 74
     0
 95
       26
 96
       22
 40
0.0
 40
0.0
 40
0.0
 40
0.0
 40
0.306282258847545
 40
0.5113145150563467
 40
0.6591594689727181
 40
0.7695505122602936
 40
0.9127334891892449
 40
1.017243103820777
 40
1.205963108812785
 40
1.359578479722587
 40
1.464061546148638
 40
1.566512542290269
 40
1.749777456690453
 40
1.879367624743226
 40
1.949161942424621
 40
2.048302708997833
 40
2.119894481049029
 40
2.223607322578598
 40
2.282299819925661
 40
2.410021277698012
 40
2.468340004823004
 40
2.468340004823004
 40
2.468340004823004
 40
2.468340004823004
 10
92.07248424711782
 20
139.9870232518768
 10
91.9685273161424
 20
139.9808210031073
 10
91.79497926948622
 20
139.9704668290401
 10
91.60442456999961
 20
139.854706895508
 10
91.4648130414722
 20
139.7874091572107
 10
91.36524226864096
 20
139.6959236153854
 10
91.29225648852566
 20
139.6014257335723
 10
91.20024421105734
 20
139.4888322002681
 10
91.12521082803555
 20
139.3577215869566
 10
91.08700088763567
 20
139.2132148341609
 10
91.05315488508097
 20
139.098042113728
 10
91.02805412297287
 20
138.969697147152
 10
91.03444046744662
 20
138.8310394338519
 10
91.04358600501241
 20
138.7022612482756
 10
91.08441860634318
 20
138.6103329045127
 10
91.13091970655899
 20
138.5448862584608
 10
91.1878596669438
 20
138.4728040335623
 10
91.25016443535207
 20
138.4250642094235
 10
91.30169556449422
 20
138.3385803099569
 10
91.39189906768878
 20
138.3275443406591
 10
91.4492360029291
 20
138.3055794679601
 10
91.46720963095095
 20
138.2986940554457
 72
     1
 10
91.46720963095098
 20
138.2986940554457
 11
92.92138979309971
 21
138.2986940554457
 72
     1
 10
92.92138979309971
 20
138.2986940554457
 11
93.23461129111539
 21
138.9268553275979
 72
     1
 10
93.23461129111539
 20
138.9268553275979
 11
92.15502140713693
 21
138.9268553275979
 72
     4
 94
        3
 73
     0
 74
     0
 95
       16
 96
       12
 40
0.0
 40
0.0
 40
0.0
 40
0.0
 40
0.092496428386945
 40
0.1859468902404647
 40
0.2416858907028242
 40
0.2951281203562815
 40
0.3538203845089407
 40
0.3948066843496557
 40
0.4336991257336609
 40
0.512567413098898
 40
0.6740411735369377
 40
0.6740411735369377
 40
0.6740411735369377
 40
0.6740411735369377
 10
92.15502140713693
 20
138.9268553275979
 10
92.12245717170187
 20
138.9364362031404
 10
92.05699282439885
 20
138.9556967739967
 10
92.05151398716592
 20
139.0490649457446
 10
92.05897811024561
 20
139.1155974084064
 10
92.09023787437329
 20
139.16403692647
 10
92.12816139019441
 20
139.19928304923
 10
92.14228199708889
 20
139.2451856131787
 10
92.18378823453445
 20
139.2798477918712
 10
92.25738991489425
 20
139.3381100722687
 10
92.33878063216602
 20
139.3505186362071
 10
92.39346297053646
 20
139.3588553275979
 72
     1
 10
92.39346297053641
 20
139.3588553275979
 11
93.45002044341656
 21
139.358855327598
 97
        8
330
1E71
330
1E74
330
1E78
330
1E72
330
1E75
330
1E73
330
1E76
330
1E77
 75
     0
 76
     1
 47
0.0514683685270805
 98
        1
 10
92.6638059720982
 20
139.6111813794306
450
        0
451
        0
460
0.0
461
0.0
452
        0
462
0.0
453
        0
470

  0
HATCH
  5
1E6F
330
18
100
AcDbEntity
  8
ROGO
 62
     4
100
AcDbHatch
 10
0.0
 20
0.0
 30
0.0
210
0.0
220
0.0
230
1.0
  2
SOLID
 70
     1
 71
     1
 91
        1
 92
        1
 93
       12
 72
     1
 10
85.95927221715385
 20
139.9870232518768
 11
88.24280769377606
 21
139.9870232518769
 72
     1
 10
88.24280769377606
 20
139.9870232518768
 11
88.05144944211736
 21
139.6002773981297
 72
     1
 10
88.05144944211736
 20
139.6002773981297
 11
86.85128089926559
 21
139.6002773981297
 72
     1
 10
86.85128089926559
 20
139.6002773981297
 11
86.70166252573869
 21
139.2978901997501
 72
     1
 10
86.70166252573869
 20
139.2978901997501
 11
87.90183106859036
 21
139.2978901997501
 72
     1
 10
87.90183106859036
 20
139.2978901997501
 11
87.74841144278832
 21
138.9878204554457
 72
     1
 10
87.74841144278832
 20
138.9878204554458
 11
86.54824289993667
 21
138.9878204554457
 72
     1
 10
86.54824289993667
 20
138.9878204554457
 11
86.39861819228702
 21
138.6854204554457
 72
     1
 10
86.39861819228702
 20
138.6854204554457
 11
87.59878673513867
 21
138.6854204554457
 72
     1
 10
87.59878673513867
 20
138.6854204554457
 11
87.40743810901301
 21
138.2986940554457
 72
     1
 10
87.40743810901301
 20
138.2986940554457
 11
85.12390263239092
 21
138.2986940554457
 72
     1
 10
85.12390263239092
 20
138.2986940554457
 11
85.95927221715385
 21
139.9870232518768
 97
       12
330
1E70
330
1E8A
330
1E87
330
1E88
330
1E86
330
1E83
330
1E84
330
1E81
330
1E85
330
1E82
330
1E89
330
1E8B
 75
     0
 76
     1
 98
        1
 10
-7.448036469757653
 20
23.24661404716226
450
        0
451
        0
460
0.0
461
0.0
452
        0
462
0.0
453
        0
470

  0
LINE
  5
1E70
102
{ACAD_REACTORS
330
1E6F
102
}
330
18
100
AcDbEntity
  8
ROGO
 62
     4
100
AcDbLine
 10
85.95927221715385
 20
139.9870232518768
 30
0.0
 11
88.24280769377606
 21
139.9870232518769
 31
0.0
  0
LINE
  5
1E71
102
{ACAD_REACTORS
330
1E6E
102
}
330
18
100
AcDbEntity
  8
ROGO
 62
     4
100
AcDbLine
 10
92.07248424711826
 20
139.9870232518769
 30
0.0
 11
93.76324525839732
 21
139.9870232518769
 31
0.0
  0
LINE
  5
1E72
102
{ACAD_REACTORS
330
1E6E
102
}
330
18
100
AcDbEntity
  8
ROGO
 62
     4
100
AcDbLine
 10
93.23461129111535
 20
138.9268553275979
 30
0.0
 11
92.92138979309971
 21
138.2986940554457
 31
0.0
  0
SPLINE
  5
1E73
102
{ACAD_REACTORS
330
1E6E
102
}
330
18
100
AcDbEntity
  8
ROGO
 62
     4
100
AcDbSpline
210
0.0
220
0.0
230
1.0
 70
     8
 71
     3
 72
    16
 73
    12
 74
    10
 42
0.0000000001
 43
0.0000000001
 44
0.0000000001
 40
0.0
 40
0.0
 40
0.0
 40
0.0
 40
0.1614737604380397
 40
0.2403420478032769
 40
0.279234489187282
 40
0.320220789027997
 40
0.3789130531806562
 40
0.4323552828341136
 40
0.488094283296473
 40
0.5815447451499928
 40
0.6740411735369377
 40
0.6740411735369377
 40
0.6740411735369377
 40
0.6740411735369377
 10
92.39346297053646
 20
139.3588553275979
 30
0.0
 10
92.33878063216602
 20
139.3505186362071
 30
0.0
 10
92.25738991489425
 20
139.3381100722687
 30
0.0
 10
92.18378823453445
 20
139.2798477918712
 30
0.0
 10
92.14228199708889
 20
139.2451856131787
 30
0.0
 10
92.12816139019441
 20
139.19928304923
 30
0.0
 10
92.09023787437329
 20
139.16403692647
 30
0.0
 10
92.05897811024561
 20
139.1155974084064
 30
0.0
 10
92.05151398716592
 20
139.0490649457446
 30
0.0
 10
92.05699282439885
 20
138.9556967739967
 30
0.0
 10
92.12245717170187
 20
138.9364362031404
 30
0.0
 10
92.15502140713693
 20
138.9268553275979
 30
0.0
 11
92.39346297053646
 21
139.3588553275979
 31
0.0
 11
92.23755909449597
 21
139.3168106282227
 31
0.0
 11
92.17336334981224
 21
139.2709945489882
 31
0.0
 11
92.14585096313919
 21
139.2435047222088
 31
0.0
 11
92.12750902046389
 21
139.2068516198363
 31
0.0
 11
92.09082566245308
 21
139.1610355406018
 31
0.0
 11
92.06331327578004
 21
139.1152191626362
 31
0.0
 11
92.05414230444228
 21
139.0602398078086
 31
0.0
 11
92.07248424711782
 21
138.9686070518775
 31
0.0
 11
92.15502140713693
 21
138.9268553275979
 31
0.0
  0
SPLINE
  5
1E74
102
{ACAD_REACTORS
330
1E6E
102
}
330
18
100
AcDbEntity
  8
ROGO
 62
     4
100
AcDbSpline
210
0.0
220
0.0
230
1.0
 70
     8
 71
     3
 72
    26
 73
    22
 74
    20
 42
0.0000000001
 43
0.0000000001
 44
0.0000000001
 40
0.0
 40
0.0
 40
0.0
 40
0.0
 40
0.306282258847545
 40
0.5113145150563467
 40
0.6591594689727181
 40
0.7695505122602936
 40
0.9127334891892449
 40
1.017243103820777
 40
1.205963108812785
 40
1.359578479722587
 40
1.464061546148638
 40
1.566512542290269
 40
1.749777456690453
 40
1.879367624743226
 40
1.949161942424621
 40
2.048302708997833
 40
2.119894481049029
 40
2.223607322578598
 40
2.282299819925661
 40
2.410021277698012
 40
2.468340004823004
 40
2.468340004823004
 40
2.468340004823004
 40
2.468340004823004
 10
92.07248424711782
 20
139.9870232518768
 30
0.0
 10
91.9685273161424
 20
139.9808210031073
 30
0.0
 10
91.79497926948622
 20
139.9704668290401
 30
0.0
 10
91.60442456999961
 20
139.854706895508
 30
0.0
 10
91.4648130414722
 20
139.7874091572107
 30
0.0
 10
91.36524226864096
 20
139.6959236153854
 30
0.0
 10
91.29225648852566
 20
139.6014257335723
 30
0.0
 10
91.20024421105734
 20
139.4888322002681
 30
0.0
 10
91.12521082803555
 20
139.3577215869566
 30
0.0
 10
91.08700088763567
 20
139.2132148341609
 30
0.0
 10
91.05315488508097
 20
139.098042113728
 30
0.0
 10
91.02805412297287
 20
138.969697147152
 30
0.0
 10
91.03444046744662
 20
138.8310394338519
 30
0.0
 10
91.04358600501241
 20
138.7022612482756
 30
0.0
 10
91.08441860634318
 20
138.6103329045127
 30
0.0
 10
91.13091970655899
 20
138.5448862584608
 30
0.0
 10
91.1878596669438
 20
138.4728040335623
 30
0.0
 10
91.25016443535207
 20
138.4250642094235
 30
0.0
 10
91.30169556449422
 20
138.3385803099569
 30
0.0
 10
91.39189906768878
 20
138.3275443406591
 30
0.0
 10
91.4492360029291
 20
138.3055794679601
 30
0.0
 10
91.46720963095095
 20
138.2986940554457
 30
0.0
 11
92.07248424711782
 21
139.9870232518768
 31
0.0
 11
91.76984693903433
 21
139.9399118748991
 31
0.0
 11
91.58643014898075
 21
139.8482794176991
 31
0.0
 11
91.45803865961317
 21
139.7749735116852
 31
0.0
 11
91.37550149959407
 21
139.7016673069403
 31
0.0
 11
91.28379336823741
 21
139.591708298554
 31
0.0
 11
91.21959762355357
 21
139.5092391169471
 31
0.0
 11
91.12788896485676
 21
139.344300455002
 31
0.0
 11
91.08203516284834
 21
139.1976883442433
 31
0.0
 11
91.05452277617542
 21
139.0968926114499
 31
0.0
 11
91.03618083349999
 21
138.9960968786568
 31
0.0
 11
91.03618083349999
 21
138.8128319642566
 31
0.0
 11
91.05452277617542
 21
138.6845464046841
 31
0.0
 11
91.08203516284834
 21
138.6204034755323
 31
0.0
 11
91.13705993619442
 21
138.5379342939252
 31
0.0
 11
91.18291426554288
 21
138.4829546403666
 31
0.0
 11
91.25628045422422
 21
138.4096487343527
 31
0.0
 11
91.29296381223502
 21
138.3638323563871
 31
0.0
 11
91.41218485760488
 21
138.3180162771527
 31
0.0
 11
91.46720963095095
 21
138.2986940554457
 31
0.0
  0
LINE
  5
1E75
102
{ACAD_REACTORS
330
1E6E
102
}
330
18
100
AcDbEntity
  8
ROGO
 62
     4
100
AcDbLine
 10
92.15502140713681
 20
138.9268553275979
 30
0.0
 11
93.23461129111535
 21
138.9268553275979
 31
0.0
  0
LINE
  5
1E76
102
{ACAD_REACTORS
330
1E6E
102
}
330
18
100
AcDbEntity
  8
ROGO
 62
     4
100
AcDbLine
 10
92.39346297053646
 20
139.3588553275979
 30
0.0
 11
93.45002044341653
 21
139.358855327598
 31
0.0
  0
LINE
  5
1E77
102
{ACAD_REACTORS
330
1E6E
102
}
330
18
100
AcDbEntity
  8
ROGO
 62
     4
100
AcDbLine
 10
93.76324525839732
 20
139.9870232518768
 30
0.0
 11
93.45002044341653
 21
139.3588553275979
 31
0.0
  0
LINE
  5
1E78
102
{ACAD_REACTORS
330
1E6E
102
}
330
18
100
AcDbEntity
  8
ROGO
 62
     4
100
AcDbLine
 10
91.46720963095082
 20
138.2986940554457
 30
0.0
 11
92.92138979309971
 21
138.2986940554457
 31
0.0
  0
LINE
  5
1E79
102
{ACAD_REACTORS
330
1E6A
102
}
330
18
100
AcDbEntity
  8
ROGO
 62
     4
100
AcDbLine
 10
91.0048418116578
 20
138.2986940554459
 30
0.0
 11
90.06343188320727
 21
138.2986940554457
 31
0.0
  0
LINE
  5
1E7A
102
{ACAD_REACTORS
330
1E6A
102
}
330
18
100
AcDbEntity
  8
ROGO
 62
     4
100
AcDbLine
 10
88.90430032045879
 20
139.9870232518768
 30
0.0
 11
90.25481908402207
 21
139.9870232518768
 31
0.0
  0
LINE
  5
1E7B
102
{ACAD_REACTORS
330
1E6A
102
}
330
18
100
AcDbEntity
  8
ROGO
 62
     4
100
AcDbLine
 10
87.68681332461699
 20
138.2986940554457
 30
0.0
 11
88.62184550536335
 21
138.2986940554457
 31
0.0
  0
LINE
  5
1E7C
102
{ACAD_REACTORS
330
1E6A
102
}
330
18
100
AcDbEntity
  8
ROGO
 62
     4
100
AcDbLine
 10
88.85364749653877
 20
138.6201414884196
 30
0.0
 11
88.62184550536335
 21
138.2986940554459
 31
0.0
  0
LINE
  5
1E7D
102
{ACAD_REACTORS
330
1E6A
102
}
330
18
100
AcDbEntity
  8
ROGO
 62
     4
100
AcDbLine
 10
89.09813604658257
 20
138.9591817891717
 30
0.0
 11
89.77001706063219
 21
138.9591817891717
 31
0.0
  0
LINE
  5
1E7E
102
{ACAD_REACTORS
330
1E6A
102
}
330
18
100
AcDbEntity
  8
ROGO
 62
     4
100
AcDbLine
 10
88.85364749653877
 20
138.6201414884196
 30
0.0
 11
89.92063219640431
 21
138.6201414884196
 31
0.0
  0
LINE
  5
1E7F
102
{ACAD_REACTORS
330
1E6A
102
}
330
18
100
AcDbEntity
  8
ROGO
 62
     4
100
AcDbLine
 10
89.51389327898516
 20
139.5357259957959
 30
0.0
 11
89.09813604658245
 21
138.9591817891717
 31
0.0
  0
LINE
  5
1E80
102
{ACAD_REACTORS
330
1E6A
102
}
330
18
100
AcDbEntity
  8
ROGO
 62
     4
100
AcDbLine
 10
88.90430032045879
 20
139.9870232518768
 30
0.0
 11
87.68681332461699
 21
138.2986940554457
 31
0.0
  0
LINE
  5
1E81
102
{ACAD_REACTORS
330
1E6F
102
}
330
18
100
AcDbEntity
  8
ROGO
 62
     4
100
AcDbLine
 10
86.54824289993667
 20
138.9878204554457
 30
0.0
 11
86.39861819228702
 21
138.6854204554457
 31
0.0
  0
LINE
  5
1E82
102
{ACAD_REACTORS
330
1E6F
102
}
330
18
100
AcDbEntity
  8
ROGO
 62
     4
100
AcDbLine
 10
87.59878673513867
 20
138.6854204554457
 30
0.0
 11
87.40743810901301
 21
138.2986940554457
 31
0.0
  0
LINE
  5
1E83
102
{ACAD_REACTORS
330
1E6F
102
}
330
18
100
AcDbEntity
  8
ROGO
 62
     4
100
AcDbLine
 10
87.90183106859036
 20
139.2978901997501
 30
0.0
 11
87.74841144278832
 21
138.9878204554457
 31
0.0
  0
LINE
  5
1E84
102
{ACAD_REACTORS
330
1E6F
102
}
330
18
100
AcDbEntity
  8
ROGO
 62
     4
100
AcDbLine
 10
86.54824289993667
 20
138.9878204554457
 30
0.0
 11
87.74841144278832
 21
138.9878204554458
 31
0.0
  0
LINE
  5
1E85
102
{ACAD_REACTORS
330
1E6F
102
}
330
18
100
AcDbEntity
  8
ROGO
 62
     4
100
AcDbLine
 10
86.39861819228702
 20
138.6854204554457
 30
0.0
 11
87.59878673513867
 21
138.6854204554457
 31
0.0
  0
LINE
  5
1E86
102
{ACAD_REACTORS
330
1E6F
102
}
330
18
100
AcDbEntity
  8
ROGO
 62
     4
100
AcDbLine
 10
86.70166252573869
 20
139.2978901997501
 30
0.0
 11
87.90183106859036
 21
139.2978901997501
 31
0.0
  0
LINE
  5
1E87
102
{ACAD_REACTORS
330
1E6F
102
}
330
18
100
AcDbEntity
  8
ROGO
 62
     4
100
AcDbLine
 10
86.85128089926559
 20
139.6002773981297
 30
0.0
 11
88.05144944211736
 21
139.6002773981297
 31
0.0
  0
LINE
  5
1E88
102
{ACAD_REACTORS
330
1E6F
102
}
330
18
100
AcDbEntity
  8
ROGO
 62
     4
100
AcDbLine
 10
86.85128089926559
 20
139.6002773981297
 30
0.0
 11
86.70166252573869
 21
139.2978901997501
 31
0.0
  0
LINE
  5
1E89
102
{ACAD_REACTORS
330
1E6F
102
}
330
18
100
AcDbEntity
  8
ROGO
 62
     4
100
AcDbLine
 10
85.12390263239092
 20
138.2986940554457
 30
0.0
 11
87.40743810901301
 21
138.2986940554457
 31
0.0
  0
LINE
  5
1E8A
102
{ACAD_REACTORS
330
1E6F
102
}
330
18
100
AcDbEntity
  8
ROGO
 62
     4
100
AcDbLine
 10
88.24280769377606
 20
139.9870232518768
 30
0.0
 11
88.05144944211736
 21
139.6002773981297
 31
0.0
  0
LINE
  5
1E8B
102
{ACAD_REACTORS
330
1E6F
102
}
330
18
100
AcDbEntity
  8
ROGO
 62
     4
100
AcDbLine
 10
85.95927221715385
 20
139.9870232518768
 30
0.0
 11
85.12390263239092
 21
138.2986940554457
 31
0.0
  0
HATCH
  5
1E8C
330
18
100
AcDbEntity
  8
ROGO
 62
     4
100
AcDbHatch
 10
0.0
 20
0.0
 30
0.0
210
0.0
220
0.0
230
1.0
  2
SOLID
 70
     1
 71
     1
 91
        1
 92
        7
 72
     0
 73
     1
 93
       11
 10
100.2917381368504
 20
139.5113862963125
 10
100.5289060845384
 20
139.9870232518768
 10
99.55679841560447
 20
139.9870232518768
 10
98.24134166060037
 20
137.348893385569
 10
99.21344932953431
 20
137.348893385569
 10
99.55679841560446
 20
138.0374751082942
 10
99.9001475016746
 20
137.348893385569
 10
100.8722339016745
 20
137.348893385569
 10
100.2145055241725
 20
138.6679583187229
 10
101.8125310538842
 20
139.9870232518768
 10
100.8404446538842
 20
139.9870232518767
 97
       11
330
1E91
330
1E8D
330
1E96
330
1E98
330
1E97
330
1E59
330
1E93
330
1E95
330
1E90
330
1E94
330
1E92
 75
     0
 76
     1
 47
0.015942268611278
 98
        1
 10
100.0815492973942
 20
139.131163176083
450
        0
451
        0
460
0.0
461
0.0
452
        0
462
0.0
453
        0
470

  0
LINE
  5
1E8D
102
{ACAD_REACTORS
330
1E8C
102
}
330
18
100
AcDbEntity
  8
ROGO
 62
     4
100
AcDbLine
 10
100.2917381368505
 20
139.5113862963126
 30
0.0
 11
100.8404446538842
 21
139.9870232518768
 31
0.0
  0
SPLINE
  5
1E8E
102
{ACAD_REACTORS
330
1E63
102
}
330
18
100
AcDbEntity
  8
ROGO
 62
     4
100
AcDbSpline
210
0.0
220
0.0
230
1.0
 70
     8
 71
     3
 72
    25
 73
    21
 74
     0
 42
0.0000000001
 43
0.0000000001
 40
0.0
 40
0.0
 40
0.0
 40
0.0
 40
0.4087168505087288
 40
0.6887487002771746
 40
0.9415836120477687
 40
1.17452070575514
 40
1.41154617586699
 40
1.599156012919487
 40
1.80099909059943
 40
2.178735911501585
 40
2.521686161369157
 40
2.762704659361267
 40
3.06256558063785
 40
3.222432137207705
 40
3.399493810628493
 40
3.567459719866414
 40
3.743172740007509
 40
3.995988754699505
 40
4.17170091132118
 40
4.337226830236035
 40
4.337226830236035
 40
4.337226830236035
 40
4.337226830236035
 10
95.66568987111919
 20
139.9940653908126
 30
0.0
 10
95.72897279309485
 20
139.9920321757976
 30
0.0
 10
95.83561393159016
 20
139.9886059060042
 30
0.0
 10
95.95010634981724
 20
139.8991167339499
 30
0.0
 10
96.0377126336507
 20
139.8249233538306
 30
0.0
 10
96.09989666132868
 20
139.735227031401
 30
0.0
 10
96.15440270386887
 20
139.652756040959
 30
0.0
 10
96.19031805342935
 20
139.5656856506741
 30
0.0
 10
96.23917002472547
 20
139.4612091564123
 30
0.0
 10
96.25939232741473
 20
139.321435129001
 30
0.0
 10
96.24572975741045
 20
139.1769657750853
 30
0.0
 10
96.21007682891367
 20
139.0489069817522
 30
0.0
 10
96.17267977344226
 20
138.9506632837098
 30
0.0
 10
96.12860289197705
 20
138.8651360497219
 30
0.0
 10
96.07605761687171
 20
138.8097571590803
 30
0.0
 10
96.03960381689308
 20
138.7393434394906
 30
0.0
 10
95.96958073025666
 20
138.6817487972247
 30
0.0
 10
95.91281623907661
 20
138.6106850923553
 30
0.0
 10
95.84840036339711
 20
138.5496903587771
 30
0.0
 10
95.8120824071492
 20
138.5120573432063
 30
0.0
 10
95.7929347047858
 20
138.4962343867047
 30
0.0
  0
HATCH
  5
1E8F
330
18
100
AcDbEntity
  8
ROGO
 62
     4
100
AcDbHatch
 10
0.0
 20
0.0
 30
0.0
210
0.0
220
0.0
230
1.0
  2
SOLID
 70
     1
 71
     1
 91
        1
 92
        5
 93
        8
 72
     4
 94
        3
 73
     0
 74
     0
 95
       26
 96
       22
 40
0.0
 40
0.0
 40
0.0
 40
0.0
 40
0.306282258847545
 40
0.5113145150563467
 40
0.6591594689727181
 40
0.7695505122602936
 40
0.9127334891893321
 40
1.017243103820775
 40
1.205963108812882
 40
1.359578479722684
 40
1.464061546148625
 40
1.566512542290257
 40
1.74977745669044
 40
1.879367624743214
 40
1.949161942424609
 40
2.048302708997821
 40
2.119894481049017
 40
2.223607322578586
 40
2.282299819925649
 40
2.41002127769804
 40
2.468340004822995
 40
2.468340004822995
 40
2.468340004822995
 40
2.468340004822995
 10
97.51243109545363
 20
139.9870232518768
 10
97.4084741644782
 20
139.9808210031073
 10
97.23492611782203
 20
139.9704668290401
 10
97.04437141833542
 20
139.854706895508
 10
96.904759889808
 20
139.7874091572106
 10
96.80518911697678
 20
139.6959236153854
 10
96.73220333686158
 20
139.6014257335721
 10
96.64019105939306
 20
139.4888322002682
 10
96.56515767637138
 20
139.3577215869565
 10
96.52694773597151
 20
139.2132148341608
 10
96.49310173341675
 20
139.0980421137279
 10
96.46800097130871
 20
138.969697147152
 10
96.47438731578244
 20
138.8310394338519
 10
96.4835328533482
 20
138.7022612482756
 10
96.52436545467899
 20
138.6103329045127
 10
96.5708665548948
 20
138.5448862584608
 10
96.62780651527961
 20
138.4728040335623
 10
96.69011128368786
 20
138.4250642094235
 10
96.74164241283005
 20
138.338580309957
 10
96.83184591602454
 20
138.3275443406589
 10
96.8891828512649
 20
138.3055794679601
 10
96.90715647928676
 20
138.2986940554457
 72
     1
 10
96.90715647928676
 20
138.2986940554457
 11
98.36133664143552
 21
138.2986940554457
 72
     1
 10
98.36133664143552
 20
138.2986940554457
 11
98.67455813945118
 21
138.9268553275979
 72
     1
 10
98.67455813945118
 20
138.9268553275979
 11
97.59496825547273
 21
138.9268553275979
 72
     4
 94
        3
 73
     0
 74
     0
 95
       16
 96
       12
 40
0.0
 40
0.0
 40
0.0
 40
0.0
 40
0.0924964283868937
 40
0.185946890240525
 40
0.2416858907028844
 40
0.2951281203562444
 40
0.3538203845089212
 40
0.3948066843497379
 40
0.4336991257335823
 40
0.5125674130988856
 40
0.6740411735369252
 40
0.6740411735369252
 40
0.6740411735369252
 40
0.6740411735369252
 10
97.59496825547273
 20
138.9268553275979
 10
97.56240402003768
 20
138.9364362031404
 10
97.49693967273461
 20
138.9556967739966
 10
97.49146083550179
 20
139.0490649457446
 10
97.49892495858135
 20
139.1155974084064
 10
97.53018472270921
 20
139.1640369264699
 10
97.56810823852994
 20
139.19928304923
 10
97.58222884542487
 20
139.2451856131786
 10
97.62373508287026
 20
139.2798477918712
 10
97.69733676323003
 20
139.3381100722687
 10
97.77872748050183
 20
139.3505186362071
 10
97.83340981887228
 20
139.3588553275979
 72
     1
 10
97.83340981887226
 20
139.3588553275979
 11
98.88996729175232
 21
139.3588553275979
 72
     1
 10
98.88996729175232
 20
139.3588553275979
 11
99.2031921067331
 21
139.9870232518767
 72
     1
 10
99.2031921067331
 20
139.9870232518767
 11
97.51243109545368
 21
139.9870232518768
 97
        8
330
1E9F
330
1E9D
330
1EA0
330
1E9C
330
1E9B
330
1E9E
330
1E9A
330
1E99
 75
     0
 76
     1
 47
0.0514683685270805
 98
        1
 10
97.80418207647699
 20
139.6778844335037
450
        0
451
        0
460
0.0
461
0.0
452
        0
462
0.0
453
        0
470

  0
LINE
  5
1E90
102
{ACAD_REACTORS
330
1E8C
102
}
330
18
100
AcDbEntity
  8
ROGO
 62
     4
100
AcDbLine
 10
99.9001475016746
 20
137.348893385569
 30
0.0
 11
100.8722339016745
 21
137.348893385569
 31
0.0
  0
LINE
  5
1E91
102
{ACAD_REACTORS
330
1E8C
102
}
330
18
100
AcDbEntity
  8
ROGO
 62
     4
100
AcDbLine
 10
100.8404446538842
 20
139.9870232518768
 30
0.0
 11
101.8125310538842
 21
139.9870232518768
 31
0.0
  0
LINE
  5
1E92
102
{ACAD_REACTORS
330
1E8C
102
}
330
18
100
AcDbEntity
  8
ROGO
 62
     4
100
AcDbLine
 10
100.2145055241725
 20
138.6679583187229
 30
0.0
 11
101.8125310538842
 21
139.9870232518768
 31
0.0
  0
LINE
  5
1E93
102
{ACAD_REACTORS
330
1E8C
102
}
330
18
100
AcDbEntity
  8
ROGO
 62
     4
100
AcDbLine
 10
99.55679841560447
 20
138.0374751082942
 30
0.0
 11
99.21344932953434
 21
137.348893385569
 31
0.0
  0
LINE
  5
1E94
102
{ACAD_REACTORS
330
1E8C
102
}
330
18
100
AcDbEntity
  8
ROGO
 62
     4
100
AcDbLine
 10
100.2145055241725
 20
138.6679583187229
 30
0.0
 11
100.8722339016745
 21
137.348893385569
 31
0.0
  0
LINE
  5
1E95
102
{ACAD_REACTORS
330
1E8C
102
}
330
18
100
AcDbEntity
  8
ROGO
 62
     4
100
AcDbLine
 10
99.55679841560447
 20
138.0374751082942
 30
0.0
 11
99.9001475016746
 21
137.348893385569
 31
0.0
  0
LINE
  5
1E96
102
{ACAD_REACTORS
330
1E8C
102
}
330
18
100
AcDbEntity
  8
ROGO
 62
     4
100
AcDbLine
 10
100.5289060845384
 20
139.9870232518768
 30
0.0
 11
100.2917381368505
 21
139.5113862963126
 31
0.0
  0
LINE
  5
1E97
102
{ACAD_REACTORS
330
1E8C
102
}
330
18
100
AcDbEntity
  8
ROGO
 62
     4
100
AcDbLine
 10
99.55679841560447
 20
139.9870232518768
 30
0.0
 11
98.24134166060037
 21
137.348893385569
 31
0.0
  0
LINE
  5
1E98
102
{ACAD_REACTORS
330
1E8C
102
}
330
18
100
AcDbEntity
  8
ROGO
 62
     4
100
AcDbLine
 10
99.55679841560447
 20
139.9870232518768
 30
0.0
 11
100.5289060845384
 21
139.9870232518768
 31
0.0
  0
LINE
  5
1E99
102
{ACAD_REACTORS
330
1E8F
102
}
330
18
100
AcDbEntity
  8
ROGO
 62
     4
100
AcDbLine
 10
99.20319210673312
 20
139.9870232518768
 30
0.0
 11
98.88996729175232
 21
139.3588553275979
 31
0.0
  0
LINE
  5
1E9A
102
{ACAD_REACTORS
330
1E8F
102
}
330
18
100
AcDbEntity
  8
ROGO
 62
     4
100
AcDbLine
 10
97.83340981887215
 20
139.3588553275979
 30
0.0
 11
98.88996729175232
 21
139.3588553275979
 31
0.0
  0
LINE
  5
1E9B
102
{ACAD_REACTORS
330
1E8F
102
}
330
18
100
AcDbEntity
  8
ROGO
 62
     4
100
AcDbLine
 10
97.59496825547262
 20
138.9268553275979
 30
0.0
 11
98.67455813945117
 21
138.9268553275979
 31
0.0
  0
LINE
  5
1E9C
102
{ACAD_REACTORS
330
1E8F
102
}
330
18
100
AcDbEntity
  8
ROGO
 62
     4
100
AcDbLine
 10
98.67455813945117
 20
138.9268553275979
 30
0.0
 11
98.36133664143552
 21
138.2986940554457
 31
0.0
  0
SPLINE
  5
1E9D
102
{ACAD_REACTORS
330
1E8F
102
}
330
18
100
AcDbEntity
  8
ROGO
 62
     4
100
AcDbSpline
210
0.0
220
0.0
230
1.0
 70
     8
 71
     3
 72
    26
 73
    22
 74
    20
 42
0.0000000001
 43
0.0000000001
 44
0.0000000001
 40
0.0
 40
0.0
 40
0.0
 40
0.0
 40
0.306282258847545
 40
0.5113145150563467
 40
0.6591594689727181
 40
0.7695505122602936
 40
0.9127334891893321
 40
1.017243103820775
 40
1.205963108812882
 40
1.359578479722684
 40
1.464061546148625
 40
1.566512542290257
 40
1.74977745669044
 40
1.879367624743214
 40
1.949161942424609
 40
2.048302708997821
 40
2.119894481049017
 40
2.223607322578586
 40
2.282299819925649
 40
2.41002127769804
 40
2.468340004822995
 40
2.468340004822995
 40
2.468340004822995
 40
2.468340004822995
 10
97.51243109545363
 20
139.9870232518768
 30
0.0
 10
97.4084741644782
 20
139.9808210031073
 30
0.0
 10
97.23492611782203
 20
139.9704668290401
 30
0.0
 10
97.04437141833542
 20
139.854706895508
 30
0.0
 10
96.904759889808
 20
139.7874091572106
 30
0.0
 10
96.80518911697678
 20
139.6959236153854
 30
0.0
 10
96.73220333686158
 20
139.6014257335721
 30
0.0
 10
96.64019105939306
 20
139.4888322002682
 30
0.0
 10
96.56515767637138
 20
139.3577215869565
 30
0.0
 10
96.52694773597151
 20
139.2132148341608
 30
0.0
 10
96.49310173341675
 20
139.0980421137279
 30
0.0
 10
96.46800097130871
 20
138.969697147152
 30
0.0
 10
96.47438731578244
 20
138.8310394338519
 30
0.0
 10
96.4835328533482
 20
138.7022612482756
 30
0.0
 10
96.52436545467899
 20
138.6103329045127
 30
0.0
 10
96.5708665548948
 20
138.5448862584608
 30
0.0
 10
96.62780651527961
 20
138.4728040335623
 30
0.0
 10
96.69011128368786
 20
138.4250642094235
 30
0.0
 10
96.74164241283005
 20
138.338580309957
 30
0.0
 10
96.83184591602454
 20
138.3275443406589
 30
0.0
 10
96.8891828512649
 20
138.3055794679601
 30
0.0
 10
96.90715647928676
 20
138.2986940554457
 30
0.0
 11
97.51243109545363
 21
139.9870232518768
 31
0.0
 11
97.20979378737013
 21
139.9399118748991
 31
0.0
 11
97.02637699731656
 21
139.8482794176991
 31
0.0
 11
96.89798550794899
 21
139.7749735116852
 31
0.0
 11
96.81544834792987
 21
139.7016673069403
 31
0.0
 11
96.72374021657322
 21
139.5917082985539
 31
0.0
 11
96.65954447188937
 21
139.5092391169471
 31
0.0
 11
96.56783581319258
 21
139.3443004550019
 31
0.0
 11
96.52198201118416
 21
139.1976883442432
 31
0.0
 11
96.49446962451122
 21
139.0968926114499
 31
0.0
 11
96.47612768183581
 21
138.9960968786568
 31
0.0
 11
96.47612768183581
 21
138.8128319642566
 31
0.0
 11
96.49446962451122
 21
138.6845464046841
 31
0.0
 11
96.52198201118416
 21
138.6204034755323
 31
0.0
 11
96.57700678453023
 21
138.5379342939252
 31
0.0
 11
96.62286111387869
 21
138.4829546403666
 31
0.0
 11
96.69622730256003
 21
138.4096487343527
 31
0.0
 11
96.73291066057084
 21
138.3638323563871
 31
0.0
 11
96.85213170594067
 21
138.3180162771526
 31
0.0
 11
96.90715647928676
 21
138.2986940554457
 31
0.0
  0
SPLINE
  5
1E9E
102
{ACAD_REACTORS
330
1E8F
102
}
330
18
100
AcDbEntity
  8
ROGO
 62
     4
100
AcDbSpline
210
0.0
220
0.0
230
1.0
 70
     8
 71
     3
 72
    16
 73
    12
 74
    10
 42
0.0000000001
 43
0.0000000001
 44
0.0000000001
 40
0.0
 40
0.0
 40
0.0
 40
0.0
 40
0.1614737604380397
 40
0.2403420478033429
 40
0.2792344891871872
 40
0.320220789028004
 40
0.3789130531806808
 40
0.4323552828340408
 40
0.4880942832964002
 40
0.5815447451500316
 40
0.6740411735369252
 40
0.6740411735369252
 40
0.6740411735369252
 40
0.6740411735369252
 10
97.83340981887228
 20
139.3588553275979
 30
0.0
 10
97.77872748050183
 20
139.3505186362071
 30
0.0
 10
97.69733676323003
 20
139.3381100722687
 30
0.0
 10
97.62373508287026
 20
139.2798477918712
 30
0.0
 10
97.58222884542487
 20
139.2451856131786
 30
0.0
 10
97.56810823852994
 20
139.19928304923
 30
0.0
 10
97.53018472270921
 20
139.1640369264699
 30
0.0
 10
97.49892495858135
 20
139.1155974084064
 30
0.0
 10
97.49146083550179
 20
139.0490649457446
 30
0.0
 10
97.49693967273461
 20
138.9556967739966
 30
0.0
 10
97.56240402003768
 20
138.9364362031404
 30
0.0
 10
97.59496825547273
 20
138.9268553275979
 30
0.0
 11
97.83340981887228
 21
139.3588553275979
 31
0.0
 11
97.67750594283178
 21
139.3168106282227
 31
0.0
 11
97.61331019814804
 21
139.2709945489881
 31
0.0
 11
97.58579781147512
 21
139.2435047222088
 31
0.0
 11
97.56745586879958
 21
139.2068516198363
 31
0.0
 11
97.5307725107889
 21
139.1610355406017
 31
0.0
 11
97.50326012411585
 21
139.1152191626362
 31
0.0
 11
97.49408915277809
 21
139.0602398078086
 31
0.0
 11
97.51243109545363
 21
138.9686070518774
 31
0.0
 11
97.59496825547273
 21
138.9268553275979
 31
0.0
  0
LINE
  5
1E9F
102
{ACAD_REACTORS
330
1E8F
102
}
330
18
100
AcDbEntity
  8
ROGO
 62
     4
100
AcDbLine
 10
97.51243109545407
 20
139.9870232518768
 30
0.0
 11
99.20319210673312
 21
139.9870232518768
 31
0.0
  0
LINE
  5
1EA0
102
{ACAD_REACTORS
330
1E8F
102
}
330
18
100
AcDbEntity
  8
ROGO
 62
     4
100
AcDbLine
 10
96.90715647928664
 20
138.2986940554457
 30
0.0
 11
98.36133664143552
 21
138.2986940554457
 31
0.0
  0
LINE
  5
2010
330
18
100
AcDbEntity
  8
外形線
100
AcDbLine
 10
184.9563559524018
 20
45.86989591923357
 30
0.0
 11
189.9563559524018
 21
45.86989591923357
 31
0.0
  0
LINE
  5
2011
330
18
100
AcDbEntity
  8
外形線
100
AcDbLine
 10
186.9563559524018
 20
40.8441178521878
 30
0.0
 11
184.9563559524018
 21
45.86989591923357
 31
0.0
  0
LINE
  5
2012
330
18
100
AcDbEntity
  8
外形線
 48
0.5
100
AcDbLine
 10
184.9563559524018
 20
50.94411785218782
 30
0.0
 11
184.9563559524018
 21
45.86989591923357
 31
0.0
  0
LINE
  5
2013
330
18
100
AcDbEntity
  8
外形線
 48
0.5
100
AcDbLine
 10
189.9563559524017
 20
50.94411785218782
 30
0.0
 11
189.9563559524018
 21
45.8698959192336
 31
0.0
  0
LINE
  5
2014
330
18
100
AcDbEntity
  8
外形線
100
AcDbLine
 10
187.9563559524018
 20
40.8441178521878
 30
0.0
 11
189.9563559524018
 21
45.8698959192336
 31
0.0
  0
LINE
  5
2015
330
18
100
AcDbEntity
  8
外形線
100
AcDbLine
 10
187.9563559524018
 20
40.8441178521878
 30
0.0
 11
186.9563559524018
 21
40.8441178521878
 31
0.0
  0
DIMENSION
  5
2086
330
18
100
AcDbEntity
  8
外形線
100
AcDbDimension
  2
*D5
 10
50.46260734034206
 20
122.8441178521878
 30
0.0
 11
48.58760734034204
 21
86.89411785218783
 31
0.0
 70
    32
 71
     5
 42
71.90000000000001
  3
STYLE3
100
AcDbAlignedDimension
 13
51.08556388785451
 23
50.94411785218781
 33
0.0
 14
57.67550617256381
 24
122.8441178521878
 34
0.0
 50
90.0
100
AcDbRotatedDimension
1001
ACAD
1000
DSTYLE
1002
{
1070
   271
1070
     2
1002
}
  0
DIMENSION
  5
2092
330
18
100
AcDbEntity
  8
外形線
100
AcDbDimension
  2
*D6
 10
50.46260734034206
 20
176.2441178521878
 30
0.0
 11
48.58760734034202
 21
149.5441178521878
 31
0.0
 70
    32
 71
     5
 42
53.39999999999999
  3
STYLE3
100
AcDbAlignedDimension
 13
57.67550617256381
 23
122.8441178521878
 33
0.0
 14
88.13968250826963
 24
176.2441178521878
 34
0.0
 50
90.0
100
AcDbRotatedDimension
1001
ACAD
1000
DSTYLE
1002
{
1070
    75
1070
     1
1070
   271
1070
     2
1070
   279
1070
     1
1002
}
  0
DIMENSION
  5
209F
330
18
100
AcDbEntity
  8
外形線
100
AcDbDimension
  2
*D7
 10
44.54703927422883
 20
176.2441178521878
 30
0.0
 11
42.6720392742288
 21
113.5941178521878
 31
0.0
 70
    32
 71
     5
 42
125.2999999999999
  3
STYLE3
100
AcDbAlignedDimension
 13
48.70484066942276
 23
50.94411785218782
 33
0.0
 14
49.21260734034206
 24
176.2441178521878
 34
0.0
 50
90.0
100
AcDbRotatedDimension
1001
ACAD
1000
DSTYLE
1002
{
1070
   271
1070
     2
1002
}
  0
LINE
  5
2177
330
18
100
AcDbEntity
  8
外形線
100
AcDbLine
 10
88.85282525110392
 20
78.74411785218782
 30
0.0
 11
97.63968250826962
 21
78.7441178521878
 31
0.0
  0
LINE
  5
2178
330
18
100
AcDbEntity
  8
外形線
100
AcDbLine
 10
88.85282525110392
 20
89.94411785218781
 30
0.0
 11
97.63968250826962
 21
89.94411785218781
 31
0.0
  0
LINE
  5
2179
330
18
100
AcDbEntity
  8
中心線
 48
0.5
100
AcDbLine
 10
72.12213457779523
 20
84.34411785218779
 30
0.0
 11
93.93004224235767
 21
84.34411785218783
 31
0.0
  0
LINE
  5
217A
330
18
100
AcDbEntity
  8
外形線
100
AcDbLine
 10
97.13968250826964
 20
67.94411785218779
 30
0.0
 11
91.63968250826963
 21
67.94411785218779
 31
0.0
  0
LINE
  5
217B
330
18
100
AcDbEntity
  8
外形線
100
AcDbLine
 10
91.63968250826968
 20
66.94411785218782
 30
0.0
 11
98.13968250826963
 21
66.94411785218779
 31
0.0
  0
CIRCLE
  5
217D
330
18
100
AcDbEntity
  8
外形線
100
AcDbCircle
 10
83.13968250826963
 20
84.34411785218781
 30
0.0
 40
8.0
  0
LINE
  5
217E
330
18
100
AcDbEntity
  8
外形線
100
AcDbLine
 10
87.63968250826962
 20
91.84411785218781
 30
0.0
 11
87.63968250826962
 21
90.95849612984928
 31
0.0
  0
LINE
  5
217F
330
18
100
AcDbEntity
  8
中心線
 48
0.5
100
AcDbLine
 10
83.13968250826963
 20
94.47203438502933
 30
0.0
 11
83.13968250826963
 21
74.30868972705678
 31
0.0
  0
LINE
  5
2180
330
18
100
AcDbEntity
  8
外形線
100
AcDbLine
 10
86.13968250826962
 20
76.92791936509213
 30
0.0
 11
86.13968250826962
 21
67.94411785218777
 31
0.0
  0
LINE
  5
2181
330
18
100
AcDbEntity
  8
外形線
100
AcDbLine
 10
91.63968250826963
 20
66.94411785218782
 30
0.0
 11
85.13968250826968
 21
66.94411785218779
 31
0.0
  0
LINE
  5
2182
330
18
100
AcDbEntity
  8
外形線
100
AcDbLine
 10
86.13968250826962
 20
67.94411785218776
 30
0.0
 11
85.13968250826962
 21
66.94411785218779
 31
0.0
  0
LINE
  5
2184
330
18
100
AcDbEntity
  8
外形線
100
AcDbLine
 10
85.13968250826962
 20
66.94411785218779
 30
0.0
 11
85.13968250826962
 21
62.9441178521878
 31
0.0
  0
LINE
  5
2185
330
18
100
AcDbEntity
  8
外形線
100
AcDbLine
 10
86.13968250826962
 20
67.94411785218779
 30
0.0
 11
91.63968250826968
 21
67.94411785218779
 31
0.0
  0
LINE
  5
2186
330
18
100
AcDbEntity
  8
外形線
100
AcDbLine
 10
95.63968250826968
 20
91.84411785218783
 30
0.0
 11
95.63968250826968
 21
89.94411785218781
 31
0.0
  0
LINE
  5
2187
330
18
100
AcDbEntity
  8
外形線
100
AcDbLine
 10
97.13968250826964
 20
78.74411785218781
 30
0.0
 11
97.13968250826964
 21
67.94411785218777
 31
0.0
  0
LINE
  5
2188
330
18
100
AcDbEntity
  8
外形線
100
AcDbLine
 10
98.13968250826963
 20
66.94411785218779
 30
0.0
 11
98.13968250826963
 21
62.9441178521878
 31
0.0
  0
LINE
  5
2189
330
18
100
AcDbEntity
  8
外形線
100
AcDbLine
 10
97.13968250826964
 20
67.94411785218776
 30
0.0
 11
98.13968250826963
 21
66.94411785218779
 31
0.0
  0
LINE
  5
218A
330
18
100
AcDbEntity
  8
外形線
100
AcDbLine
 10
97.63968250826962
 20
89.94411785218781
 30
0.0
 11
97.63968250826962
 21
78.7441178521878
 31
0.0
  0
LINE
  5
218C
330
18
100
AcDbEntity
  8
外形線
100
AcDbLine
 10
187.4563559524018
 20
66.9441178521878
 30
0.0
 11
180.9563559524019
 21
66.94411785218777
 31
0.0
  0
LINE
  5
218D
330
18
100
AcDbEntity
  8
外形線
100
AcDbLine
 10
181.9563559524018
 20
67.94411785218777
 30
0.0
 11
187.4563559524019
 21
67.94411785218777
 31
0.0
  0
LINE
  5
218E
330
18
100
AcDbEntity
  8
外形線
100
AcDbLine
 10
181.9563559524018
 20
67.94411785218774
 30
0.0
 11
180.9563559524019
 21
66.94411785218777
 31
0.0
  0
LINE
  5
218F
330
18
100
AcDbEntity
  8
外形線
100
AcDbLine
 10
180.9563559524019
 20
66.94411785218777
 30
0.0
 11
180.9563559524019
 21
62.94411785218779
 31
0.0
  0
LINE
  5
2190
330
18
100
AcDbEntity
  8
外形線
100
AcDbLine
 10
192.9563559524019
 20
67.94411785218777
 30
0.0
 11
187.4563559524018
 21
67.94411785218777
 31
0.0
  0
LINE
  5
2191
330
18
100
AcDbEntity
  8
外形線
100
AcDbLine
 10
187.4563559524019
 20
66.9441178521878
 30
0.0
 11
193.9563559524018
 21
66.94411785218777
 31
0.0
  0
LINE
  5
2192
330
18
100
AcDbEntity
  8
外形線
100
AcDbLine
 10
192.9563559524019
 20
67.94411785218774
 30
0.0
 11
193.9563559524018
 21
66.94411785218777
 31
0.0
  0
LINE
  5
2193
330
18
100
AcDbEntity
  8
外形線
100
AcDbLine
 10
193.9563559524018
 20
66.94411785218777
 30
0.0
 11
193.9563559524018
 21
62.94411785218779
 31
0.0
  0
LINE
  5
2194
330
18
100
AcDbEntity
  8
外形線
100
AcDbLine
 10
192.9563559524019
 20
78.7441178521878
 30
0.0
 11
192.9563559524019
 21
67.94411785218776
 31
0.0
  0
LINE
  5
2195
330
18
100
AcDbEntity
  8
外形線
100
AcDbLine
 10
181.9563559524018
 20
78.74411785218787
 30
0.0
 11
181.9563559524018
 21
67.94411785218776
 31
0.0
  0
TEXT
  5
2757
330
18
100
AcDbEntity
  8
寸法線
100
AcDbText
 10
81.69835036793722
 20
107.9546104493407
 30
0.0
 40
1.199999999999999
  1
MODE
  7
STYLE4
100
AcDbText
  0
TEXT
  5
2758
330
18
100
AcDbEntity
  8
寸法線
100
AcDbText
 10
95.90403792812447
 20
107.9546104493407
 30
0.0
 40
1.199999999999999
  1
ON/OFF
  7
STYLE4
100
AcDbText
  0
LINE
  5
2759
330
18
100
AcDbEntity
  8
外形線
100
AcDbLine
 10
75.63968250826963
 20
109.3441178521878
 30
0.0
 11
75.63968250826963
 21
99.20093701711408
 31
0.0
  0
LINE
  5
275A
330
18
100
AcDbEntity
  8
外形線
100
AcDbLine
 10
107.6396825082696
 20
109.3441178521878
 30
0.0
 11
107.6396825082696
 21
99.20093701711408
 31
0.0
  0
LINE
  5
275B
330
18
100
AcDbEntity
  8
外形線
100
AcDbLine
 10
76.63968250826963
 20
110.3441178521878
 30
0.0
 11
106.6396825082696
 21
110.3441178521878
 31
0.0
  0
ARC
  5
275C
330
18
100
AcDbEntity
  8
外形線
100
AcDbCircle
 10
91.63968250826963
 20
122.8441178521878
 30
0.0
 40
29.0
100
AcDbArc
 50
237.6076345141536
 51
302.3923654858464
  0
ARC
  5
275D
330
18
100
AcDbEntity
  8
外形線
100
AcDbCircle
 10
76.63968250826963
 20
109.3441178521878
 30
0.0
 40
1.0
100
AcDbArc
 50
90.0
 51
180.0
  0
ARC
  5
275E
330
18
100
AcDbEntity
  8
外形線
100
AcDbCircle
 10
106.6396825082696
 20
109.3441178521878
 30
0.0
 40
1.0
100
AcDbArc
 50
0.0
 51
90.0
  0
ARC
  5
275F
330
18
100
AcDbEntity
  8
外形線
100
AcDbCircle
 10
106.6396825082696
 20
99.20093701711408
 30
0.0
 40
1.0
100
AcDbArc
 50
302.3923654858423
 51
0.0
  0
ARC
  5
2760
330
18
100
AcDbEntity
  8
外形線
100
AcDbCircle
 10
76.63968250826963
 20
99.20093701711408
 30
0.0
 40
1.0
100
AcDbArc
 50
180.0
 51
237.6076345141575
  0
ELLIPSE
  5
2761
330
18
100
AcDbEntity
  8
外形線
100
AcDbEllipse
 10
99.48846439587839
 20
102.9358343790085
 30
0.0
 11
-4.089143464216689
 21
0.0
 31
0.0
210
0.0
220
0.0
230
1.0
 40
0.6358299782710266
 41
0.0
 42
6.283185307179586
  0
ELLIPSE
  5
2762
330
18
100
AcDbEntity
  8
外形線
100
AcDbEllipse
 10
84.31226869886939
 20
102.9358343790085
 30
0.0
 11
-4.089143464216689
 21
0.0
 31
0.0
210
0.0
220
0.0
230
1.0
 40
0.6358299782710266
 41
0.0
 42
6.283185307179586
  0
TEXT
  5
2763
330
18
100
AcDbEntity
  8
寸法線
100
AcDbText
 10
97.79417881696771
 20
96.80138668674937
 30
0.0
 40
1.199999999999999
  1
SET
  7
STYLE4
100
AcDbText
  0
ELLIPSE
  5
2764
330
18
100
AcDbEntity
  8
外形線
100
AcDbEllipse
 10
99.48846439587839
 20
102.9358343790085
 30
0.0
 11
-5.473687379191062
 21
0.0
 31
0.0
210
0.0
220
0.0
230
1.0
 40
0.7307688077339824
 41
0.0
 42
6.283185307179586
  0
ELLIPSE
  5
2765
330
18
100
AcDbEntity
  8
外形線
100
AcDbEllipse
 10
84.31226869886939
 20
102.9358343790085
 30
0.0
 11
-5.473687379191062
 21
0.0
 31
0.0
210
0.0
220
0.0
230
1.0
 40
0.7307688077339824
 41
0.0
 42
6.283185307179586
  0
LINE
  5
2766
330
18
100
AcDbEntity
  8
中心線
 48
0.3
100
AcDbLine
 10
77.34268060130318
 20
102.9358343790085
 30
0.0
 11
91.28185679643536
 21
102.9358343790085
 31
0.0
  0
LINE
  5
2767
330
18
100
AcDbEntity
  8
中心線
 48
0.3
100
AcDbLine
 10
84.31226869886939
 20
108.253444362799
 30
0.0
 11
84.31226869886939
 21
97.65459562255882
 31
0.0
  0
LINE
  5
2768
330
18
100
AcDbEntity
  8
中心線
 48
0.3
100
AcDbLine
 10
99.48846439587839
 20
108.253444362799
 30
0.0
 11
99.48846439587839
 21
97.65459562255882
 31
0.0
  0
LINE
  5
2769
330
18
100
AcDbEntity
  8
中心線
 48
0.3
100
AcDbLine
 10
92.5188762983122
 20
102.9358343790085
 30
0.0
 11
106.4580524934443
 21
102.9358343790085
 31
0.0
  0
CIRCLE
  5
2771
330
18
100
AcDbEntity
  8
外形線
100
AcDbCircle
 10
83.02608841007645
 20
84.34411785218781
 30
0.0
 40
7.50086019194822
  0
DIMENSION
  5
279E
330
18
100
AcDbEntity
  8
外形線
100
AcDbDimension
  2
*D10
 10
189.9563559524018
 20
33.0003344119549
 30
0.0
 11
187.4563559524018
 21
33.0003344119549
 31
0.0
 70
   160
  1
%%C<>
 71
     5
 42
4.999999999999971
  3
STYLE3
100
AcDbAlignedDimension
 13
184.9563559524018
 23
46.25102087213457
 33
0.0
 14
189.9563559524018
 24
46.87605318741964
 34
0.0
100
AcDbRotatedDimension
1001
ACAD
1000
DSTYLE
1002
{
1070
   271
1070
     2
1070
   341
1005
0
1002
}
  0
LINE
  5
280E
330
18
100
AcDbEntity
  8
外形線
100
AcDbLine
 10
86.0556063101588
 20
183.7246130532262
 30
0.0
 11
185.0556063101588
 21
183.7246130532262
 31
0.0
  0
LINE
  5
280F
330
18
100
AcDbEntity
  8
外形線
100
AcDbLine
 10
86.0556063101588
 20
184.7246130532262
 30
0.0
 11
185.0556063101588
 21
184.7246130532262
 31
0.0
  0
TEXT
  5
2810
330
18
100
AcDbEntity
  8
文字
100
AcDbText
 10
86.28946631015878
 20
187.0094050532262
 30
0.0
 40
3.5
  1
Model No.T2-127 Digital Depth Gauge
  7
STYLE3
100
AcDbText
  0
LINE
  5
2812
330
18
100
AcDbEntity
  8
外形線
100
AcDbLine
 10
113.5718533101588
 20
21.06057484788223
 30
0.0
 11
254.3632713101588
 21
21.06057484788223
 31
0.0
  0
LINE
  5
2813
330
18
100
AcDbEntity
  8
外形線
100
AcDbLine
 10
113.5718533101588
 20
10.28036884788223
 30
0.0
 11
254.3632713101588
 21
10.28036884788223
 31
0.0
  0
TEXT
  5
2814
330
18
100
AcDbEntity
  8
0
  6
Continuous
100
AcDbText
 10
115.0293203101588
 20
12.17835884788223
 30
0.0
 40
2.1
  1
Design and specifications are subject to change without notice for future improvement.
  7
STYLE3
100
AcDbText
  0
TEXT
  5
2815
330
18
100
AcDbEntity
  8
0
  6
Continuous
100
AcDbText
 10
115.3208143101588
 20
16.10750684788223
 30
0.0
 40
3.5
  1
仕様及び外観は予告なく変更される場合がございますのでご了承下さい。
  7
STYLE3
100
AcDbText
  0
TEXT
  5
2816
330
18
100
AcDbEntity
  8
0
  6
Continuous
100
AcDbText
 10
114.7378293101588
 20
2.413730847882228
 30
0.0
 40
2.1
  1
3RD Angle Projection
  7
STYLE3
100
AcDbText
  0
TEXT
  5
2817
330
18
100
AcDbEntity
  8
0
  6
Continuous
100
AcDbText
 10
117.3612723101588
 20
5.910013847882228
 30
0.0
 40
3.0
  1
三　　角　　法
  7
STYLE3
100
AcDbText
  0
LINE
  5
2818
330
18
100
AcDbEntity
  8
外形線
100
AcDbLine
 10
113.5718533101588
 20
0.665590847882228
 30
0.0
 11
113.5718533101588
 21
21.06057484788223
 31
0.0
  0
LINE
  5
2819
330
18
100
AcDbEntity
  8
外形線
100
AcDbLine
 10
215.5946203101588
 20
10.28036884788223
 30
0.0
 11
215.5946203101588
 21
0.665590847882228
 31
0.0
  0
LINE
  5
281A
330
18
100
AcDbEntity
  8
外形線
100
AcDbLine
 10
185.8622703101588
 20
10.28036884788223
 30
0.0
 11
185.8622703101588
 21
0.665590847882228
 31
0.0
  0
LINE
  5
281B
330
18
100
AcDbEntity
  8
外形線
100
AcDbLine
 10
166.3321983101588
 20
10.28036884788223
 30
0.0
 11
166.3321983101588
 21
0.665590847882228
 31
0.0
  0
LINE
  5
281C
330
18
100
AcDbEntity
  8
外形線
100
AcDbLine
 10
148.8425813101587
 20
10.28036884788223
 30
0.0
 11
148.8425813101587
 21
0.665590847882228
 31
0.0
  0
TEXT
  5
281D
330
18
100
AcDbEntity
  8
0
  6
Continuous
100
AcDbText
 10
150.3000503101588
 20
5.915968847882227
 30
0.0
 40
3.0
  1
単位
  7
STYLE3
100
AcDbText
  0
TEXT
  5
281E
330
18
100
AcDbEntity
  8
0
  6
Continuous
100
AcDbText
 10
150.4717713101588
 20
2.413731847882227
 30
0.0
 40
2.1
  1
Unit
  7
STYLE3
100
AcDbText
  0
TEXT
  5
281F
330
18
100
AcDbEntity
  8
0
  6
Continuous
100
AcDbText
 10
167.6179463101588
 20
5.624610847882228
 30
0.0
 40
3.0
  1
尺 度
  7
STYLE3
100
AcDbText
  0
TEXT
  5
2820
330
18
100
AcDbEntity
  8
0
  6
Continuous
100
AcDbText
 10
158.3420983101588
 20
4.161874847882227
 30
0.0
 40
2.399999999999999
  1
mm
  7
STYLE3
100
AcDbText
  0
TEXT
  5
2821
330
18
100
AcDbEntity
  8
0
  6
Continuous
100
AcDbText
 10
168.0811613101588
 20
2.705088847882227
 30
0.0
 40
2.1
  1
Scale
  7
STYLE3
100
AcDbText
  0
TEXT
  5
2822
330
18
100
AcDbEntity
  8
0
  6
Continuous
100
AcDbText
 10
177.7004503101587
 20
4.453231847882228
 30
0.0
 40
2.399999999999999
  1
1/1
  7
STYLE3
100
AcDbText
  0
TEXT
  5
2823
330
18
100
AcDbEntity
  8
0
  6
Continuous
100
AcDbText
 10
187.7942213101587
 20
2.413732847882227
 30
0.0
 40
2.1
  1
Date
  7
STYLE3
100
AcDbText
  0
TEXT
  5
2824
330
18
100
AcDbEntity
  8
0
  6
Continuous
100
AcDbText
 10
187.4108603101588
 20
5.746815847882228
 30
0.0
 40
3.0
  1
日 付
  7
STYLE3
100
AcDbText
  0
TEXT
  5
2825
330
18
100
AcDbEntity
  8
0
  6
Continuous
100
AcDbText
 10
196.5390293101588
 20
4.161873847882228
 30
0.0
 40
2.1
  1
2010.07.01
  7
STYLE3
100
AcDbText
  0
TEXT
  5
2826
330
18
100
AcDbEntity
  8
0
  6
Continuous
100
AcDbText
 10
216.9435833101588
 20
6.201370847882228
 30
0.0
 40
3.0
  1
株式会社　尾崎製作所
  7
STYLE3
100
AcDbText
  0
TEXT
  5
2827
330
18
100
AcDbEntity
  8
0
  6
Continuous
100
AcDbText
 10
217.8180623101588
 20
2.413731847882227
 30
0.0
 40
2.1
  1
OZAKI MFG. CO., LTD.
  7
STYLE3
100
AcDbText
  0
VIEWPORT
  5
177
330
15
100
AcDbEntity
 67
     1
  8
0
100
AcDbViewport
 10
127.5041203589828
 20
97.49391214526822
 30
0.0
 40
418.3086347473814
 41
243.0346063651093
 68
     1
 69
     1
 12
127.5041203589828
 22
97.49391214526822
 13
0.0
 23
0.0
 14
10.0
 24
10.0
 15
10.0
 25
10.0
 16
0.0
 26
0.0
 36
1.0
 17
0.0
 27
0.0
 37
0.0
 42
50.0
 43
0.0
 44
0.0
 45
243.0346063651093
 50
0.0
 51
0.0
 72
   100
 90
    32800
  1

281
     0
 71
     1
 74
     0
110
0.0
120
0.0
130
0.0
111
1.0
121
0.0
131
0.0
112
0.0
122
1.0
132
0.0
 79
     0
146
0.0
170
     0
  0
ENDSEC
  0
SECTION
  2
OBJECTS
  0
DICTIONARY
  5
C
330
0
100
AcDbDictionary
281
     1
  3
ACAD_COLOR
350
21BC
  3
ACAD_GROUP
350
D
  3
ACAD_IMAGE_DICT
350
578
  3
ACAD_LAYOUT
350
21BF
  3
ACAD_MATERIAL
350
21BB
  3
ACAD_MLINESTYLE
350
1B
  3
ACAD_PLOTSETTINGS
350
21C0
  3
ACAD_PLOTSTYLENAME
350
21B9
  3
ACAD_TABLESTYLE
350
21BD
  3
AcDbVariableDictionary
350
2773
  0
DICTIONARY
  5
21BC
102
{ACAD_REACTORS
330
C
102
}
330
C
100
AcDbDictionary
281
     1
  0
DICTIONARY
  5
D
102
{ACAD_REACTORS
330
C
102
}
330
C
100
AcDbDictionary
281
     1
  0
DICTIONARY
  5
578
102
{ACAD_REACTORS
330
C
102
}
330
C
100
AcDbDictionary
281
     1
  3
ROGO01
350
579
  0
DICTIONARY
  5
21BF
102
{ACAD_REACTORS
330
C
102
}
330
C
100
AcDbDictionary
281
     1
  3
Model
350
21C1
  3
レイアウト1
350
21C2
  0
DICTIONARY
  5
21BB
102
{ACAD_REACTORS
330
C
102
}
330
C
100
AcDbDictionary
281
     1
  0
DICTIONARY
  5
1B
102
{ACAD_REACTORS
330
C
102
}
330
C
100
AcDbDictionary
281
     1
  3
STANDARD
350
1C
  0
DICTIONARY
  5
21C0
102
{ACAD_REACTORS
330
C
102
}
330
C
100
AcDbDictionary
281
     1
  0
ACDBDICTIONARYWDFLT
  5
21B9
102
{ACAD_REACTORS
330
C
102
}
330
C
100
AcDbDictionary
281
     1
  3
Normal
350
21BA
100
AcDbDictionaryWithDefault
340
21BA
  0
DICTIONARY
  5
21BD
102
{ACAD_REACTORS
330
C
102
}
330
C
100
AcDbDictionary
281
     1
  3
Standard
350
21BE
  0
DICTIONARY
  5
2773
102
{ACAD_REACTORS
330
C
102
}
330
C
100
AcDbDictionary
281
     1
  3
CTABLESTYLE
350
2774
  0
IMAGEDEF
  5
579
102
{ACAD_REACTORS
330
578
102
}
330
578
100
AcDbRasterImageDef
 90
        0
  1
D:\ﾃｽﾄ\rogo01.TIF
 10
3388.0
 20
4668.0
 11
0.0635
 21
0.0635
280
     1
281
     5
  0
LAYOUT
  5
21C1
102
{ACAD_REACTORS
330
21BF
102
}
330
21BF
100
AcDbPlotSettings
  1

  2
A4 EPSON LP-6100.pc3
  4
A4
  6

 40
5.873749732971191
 41
5.873747825622558
 42
5.873748779296875
 43
5.873748779296875
 44
209.9733276367187
 45
297.0106506347656
 46
3.609999999999999
 47
0.0
 48
0.0
 49
0.0
140
0.0
141
0.0
142
1.0
143
1.0
 70
 28336
 72
     1
 73
     0
 74
     1
  7
AutoCAD LT 98.ctb
 75
    16
147
1.0
 76
     1
 77
     2
 78
   300
148
0.2064080253769589
149
0.2045322825848643
100
AcDbLayout
  1
Model
 70
     1
 71
     0
 10
0.0
 20
0.0
 11
12.0
 21
9.0
 12
0.0
 22
0.0
 32
0.0
 14
0.0
 24
0.0
 34
0.0
 15
0.0
 25
0.0
 35
0.0
146
0.0
 13
0.0
 23
0.0
 33
0.0
 16
1.0
 26
0.0
 36
0.0
 17
0.0
 27
1.0
 37
0.0
 76
     0
330
18
1001
ACAD_PSEXT
1000
A4 EPSON LP-6100.pc3
1000
EPSON LP-6100
1000
\\SATO-MATE2
1000

1070
     0
  0
LAYOUT
  5
21C2
102
{ACAD_REACTORS
330
21BF
102
}
330
21BF
100
AcDbPlotSettings
  1

  2
WIDR Printer
  4

  6

 40
0.0
 41
0.0
 42
0.0
 43
0.0
 44
0.0
 45
0.0
 46
0.0
 47
0.0
 48
0.0
 49
0.0
140
0.0
141
0.0
142
1.0
143
1.0
 70
   688
 72
     0
 73
     0
 74
     5
  7
AutoCad LT 98.ctb
 75
    16
147
1.0
 76
     0
 77
     2
 78
   300
148
0.0
149
0.0
100
AcDbLayout
  1
レイアウト1
 70
     1
 71
     1
 10
0.0
 20
0.0
 11
420.0
 21
297.0
 12
0.0
 22
0.0
 32
0.0
 14
-0.2
 24
-0.2
 34
0.0
 15
255.2
 25
195.2
 35
0.0
146
0.0
 13
0.0
 23
0.0
 33
0.0
 16
1.0
 26
0.0
 36
0.0
 17
0.0
 27
1.0
 37
0.0
 76
     0
330
15
331
177
  0
MLINESTYLE
  5
1C
102
{ACAD_REACTORS
330
1B
102
}
330
1B
100
AcDbMlineStyle
  2
STANDARD
 70
     0
  3

 62
   256
 51
90.0
 52
90.0
 71
     2
 49
0.5
 62
   256
  6
BYLAYER
 49
-0.5
 62
   256
  6
BYLAYER
  0
ACDBPLACEHOLDER
  5
21BA
102
{ACAD_REACTORS
330
21B9
102
}
330
21B9
  0
ACAD_PROXY_OBJECT
  5
21BE
102
{ACAD_REACTORS
330
21BD
102
}
330
21BD
100
AcDbProxyObject
 90
      499
 91
      504
 95
  2555929
 70
     0
 93
     1849
310
4214DD185B99185C992420000000000000F83F0000000000003E0FC00000000000004901028000000C1008070000C3001FDFF8000000C1003FBFF000000182007F7FE00000030400FEFFC00000060801FDFF8000000C1003FBFF000000182000000000000000C2020B0000001820100E000186003FBFF000000182007F7FE0
310
0000030400FEFFC00000060801FDFF8000000C1003FBFF000000182007F7FE0000003040000000000000012404160000003040201C00030C007F7FE00000030400FEFFC00000060801FDFF8000000C1003FBFF000000182007F7FE00000030400FEFFC000000608000
340
F
340
F
340
F
 94
        0
  0
DICTIONARYVAR
  5
2774
102
{ACAD_REACTORS
330
2773
102
}
330
2773
100
DictionaryVariables
280
     0
  1
STANDARD
  0
ENDSEC
  0
EOF
