  0
SECTION
  2
HEADER
  9
$ACADVER
  1
AC1018
  9
$ACADMAINTVER
 70
     0
  9
$DWGCODEPAGE
  3
ANSI_932
  9
$INSBASE
 10
0.0
 20
0.0
 30
0.0
  9
$EXTMIN
 10
236.4886379941706
 20
171.6235136330668
 30
-0.0000457728747811
  9
$EXTMAX
 10
491.9065729289582
 20
367.0613775925545
 30
0.000030519906467
  9
$LIMMIN
 10
0.0
 20
0.0
  9
$LIMMAX
 10
420.0
 20
297.0
  9
$ORTHOMODE
 70
     1
  9
$REGENMODE
 70
     1
  9
$FILLMODE
 70
     1
  9
$QTEXTMODE
 70
     0
  9
$MIRRTEXT
 70
     1
  9
$LTSCALE
 40
1.0
  9
$ATTMODE
 70
     1
  9
$TEXTSIZE
 40
2.0
  9
$TRACEWID
 40
1.0
  9
$TEXTSTYLE
  7
STYLE3
  9
$CLAYER
  8
外形線
  9
$CELTYPE
  6
BYLAYER
  9
$CECOLOR
 62
   256
  9
$CELTSCALE
 40
1.0
  9
$DISPSILH
 70
     0
  9
$DIMSCALE
 40
1.0
  9
$DIMASZ
 40
2.5
  9
$DIMEXO
 40
0.0
  9
$DIMDLI
 40
3.75
  9
$DIMRND
 40
0.0
  9
$DIMDLE
 40
0.0
  9
$DIMEXE
 40
1.25
  9
$DIMTP
 40
0.0
  9
$DIMTM
 40
0.0
  9
$DIMTXT
 40
2.5
  9
$DIMCEN
 40
2.5
  9
$DIMTSZ
 40
0.0
  9
$DIMTOL
 70
     0
  9
$DIMLIM
 70
     0
  9
$DIMTIH
 70
     0
  9
$DIMTOH
 70
     0
  9
$DIMSE1
 70
     0
  9
$DIMSE2
 70
     0
  9
$DIMTAD
 70
     1
  9
$DIMZIN
 70
     8
  9
$DIMBLK
  1

  9
$DIMASO
 70
     1
  9
$DIMSHO
 70
     1
  9
$DIMPOST
  1

  9
$DIMAPOST
  1

  9
$DIMALT
 70
     0
  9
$DIMALTD
 70
     4
  9
$DIMALTF
 40
0.0394
  9
$DIMLFAC
 40
1.0
  9
$DIMTOFL
 70
     1
  9
$DIMTVP
 40
0.0
  9
$DIMTIX
 70
     0
  9
$DIMSOXD
 70
     0
  9
$DIMSAH
 70
     1
  9
$DIMBLK1
  1
OPEN
  9
$DIMBLK2
  1
OPEN
  9
$DIMSTYLE
  2
STYLE3
  9
$DIMCLRD
 70
     2
  9
$DIMCLRE
 70
     2
  9
$DIMCLRT
 70
     6
  9
$DIMTFAC
 40
1.0
  9
$DIMGAP
 40
0.625
  9
$DIMJUST
 70
     0
  9
$DIMSD1
 70
     0
  9
$DIMSD2
 70
     0
  9
$DIMTOLJ
 70
     1
  9
$DIMTZIN
 70
     0
  9
$DIMALTZ
 70
     0
  9
$DIMALTTZ
 70
     0
  9
$DIMUPT
 70
     0
  9
$DIMDEC
 70
     2
  9
$DIMTDEC
 70
     4
  9
$DIMALTU
 70
     8
  9
$DIMALTTD
 70
     4
  9
$DIMTXSTY
  7
STYLE3
  9
$DIMAUNIT
 70
     0
  9
$DIMADEC
 70
     0
  9
$DIMALTRND
 40
0.0
  9
$DIMAZIN
 70
     0
  9
$DIMDSEP
 70
    46
  9
$DIMATFIT
 70
     3
  9
$DIMFRAC
 70
     0
  9
$DIMLDRBLK
  1

  9
$DIMLUNIT
 70
     2
  9
$DIMLWD
 70
    -2
  9
$DIMLWE
 70
    -2
  9
$DIMTMOVE
 70
     0
  9
$LUNITS
 70
     2
  9
$LUPREC
 70
     4
  9
$SKETCHINC
 40
1.0
  9
$FILLETRAD
 40
0.0
  9
$AUNITS
 70
     0
  9
$AUPREC
 70
     0
  9
$MENU
  1
.
  9
$ELEVATION
 40
0.0
  9
$PELEVATION
 40
0.0
  9
$THICKNESS
 40
0.0
  9
$LIMCHECK
 70
     0
  9
$CHAMFERA
 40
0.45
  9
$CHAMFERB
 40
0.45
  9
$CHAMFERC
 40
20.0
  9
$CHAMFERD
 40
0.0
  9
$SKPOLY
 70
     0
  9
$TDCREATE
 40
2450968.480320255
  9
$TDUCREATE
 40
2450968.105320255
  9
$TDUPDATE
 40
2455371.365708912
  9
$TDUUPDATE
 40
2455370.990708912
  9
$TDINDWG
 40
0.6942628241
  9
$TDUSRTIMER
 40
0.6942628241
  9
$USRTIMER
 70
     1
  9
$ANGBASE
 50
0.0
  9
$ANGDIR
 70
     0
  9
$PDMODE
 70
     0
  9
$PDSIZE
 40
0.0
  9
$PLINEWID
 40
0.0
  9
$SPLFRAME
 70
     0
  9
$SPLINETYPE
 70
     6
  9
$SPLINESEGS
 70
     8
  9
$HANDSEED
  5
11D3
  9
$SURFTAB1
 70
     6
  9
$SURFTAB2
 70
     6
  9
$SURFTYPE
 70
     6
  9
$SURFU
 70
     6
  9
$SURFV
 70
     6
  9
$UCSBASE
  2

  9
$UCSNAME
  2

  9
$UCSORG
 10
0.0
 20
0.0
 30
0.0
  9
$UCSXDIR
 10
1.0
 20
0.0
 30
0.0
  9
$UCSYDIR
 10
0.0
 20
1.0
 30
0.0
  9
$UCSORTHOREF
  2

  9
$UCSORTHOVIEW
 70
     0
  9
$UCSORGTOP
 10
0.0
 20
0.0
 30
0.0
  9
$UCSORGBOTTOM
 10
0.0
 20
0.0
 30
0.0
  9
$UCSORGLEFT
 10
0.0
 20
0.0
 30
0.0
  9
$UCSORGRIGHT
 10
0.0
 20
0.0
 30
0.0
  9
$UCSORGFRONT
 10
0.0
 20
0.0
 30
0.0
  9
$UCSORGBACK
 10
0.0
 20
0.0
 30
0.0
  9
$PUCSBASE
  2

  9
$PUCSNAME
  2

  9
$PUCSORG
 10
0.0
 20
0.0
 30
0.0
  9
$PUCSXDIR
 10
1.0
 20
0.0
 30
0.0
  9
$PUCSYDIR
 10
0.0
 20
1.0
 30
0.0
  9
$PUCSORTHOREF
  2

  9
$PUCSORTHOVIEW
 70
     0
  9
$PUCSORGTOP
 10
0.0
 20
0.0
 30
0.0
  9
$PUCSORGBOTTOM
 10
0.0
 20
0.0
 30
0.0
  9
$PUCSORGLEFT
 10
0.0
 20
0.0
 30
0.0
  9
$PUCSORGRIGHT
 10
0.0
 20
0.0
 30
0.0
  9
$PUCSORGFRONT
 10
0.0
 20
0.0
 30
0.0
  9
$PUCSORGBACK
 10
0.0
 20
0.0
 30
0.0
  9
$USERI1
 70
     0
  9
$USERI2
 70
     0
  9
$USERI3
 70
     0
  9
$USERI4
 70
     0
  9
$USERI5
 70
     0
  9
$USERR1
 40
0.0
  9
$USERR2
 40
0.0
  9
$USERR3
 40
0.0
  9
$USERR4
 40
0.0
  9
$USERR5
 40
0.0
  9
$WORLDVIEW
 70
     1
  9
$SHADEDGE
 70
     3
  9
$SHADEDIF
 70
    70
  9
$TILEMODE
 70
     1
  9
$MAXACTVP
 70
    48
  9
$PINSBASE
 10
0.0
 20
0.0
 30
0.0
  9
$PLIMCHECK
 70
     0
  9
$PEXTMIN
 10
1.000000000000000E+20
 20
1.000000000000000E+20
 30
1.000000000000000E+20
  9
$PEXTMAX
 10
-1.000000000000000E+20
 20
-1.000000000000000E+20
 30
-1.000000000000000E+20
  9
$PLIMMIN
 10
0.0
 20
0.0
  9
$PLIMMAX
 10
420.0
 20
297.0
  9
$UNITMODE
 70
     0
  9
$VISRETAIN
 70
     1
  9
$PLINEGEN
 70
     0
  9
$PSLTSCALE
 70
     1
  9
$TREEDEPTH
 70
  3020
  9
$CMLSTYLE
  2
STANDARD
  9
$CMLJUST
 70
     0
  9
$CMLSCALE
 40
20.0
  9
$PROXYGRAPHICS
 70
     1
  9
$MEASUREMENT
 70
     1
  9
$CELWEIGHT
370
    -1
  9
$ENDCAPS
280
     0
  9
$JOINSTYLE
280
     0
  9
$LWDISPLAY
290
     0
  9
$INSUNITS
 70
     0
  9
$HYPERLINKBASE
  1

  9
$STYLESHEET
  1

  9
$XEDIT
290
     1
  9
$CEPSNTYPE
380
     0
  9
$PSTYLEMODE
290
     1
  9
$FINGERPRINTGUID
  2
{9E2A8F19-9F33-473E-8FF9-00B64900FC14}
  9
$VERSIONGUID
  2
{5E1A8A07-5E94-40F2-9DCB-EEAAEBA3F323}
  9
$EXTNAMES
290
     1
  9
$PSVPSCALE
 40
0.0
  9
$OLESTARTUP
290
     0
  9
$SORTENTS
280
   127
  9
$INDEXCTL
280
     0
  9
$HIDETEXT
280
     0
  9
$XCLIPFRAME
290
     0
  9
$HALOGAP
280
     0
  9
$OBSCOLOR
 70
   257
  9
$OBSLTYPE
280
     0
  9
$INTERSECTIONDISPLAY
280
     0
  9
$INTERSECTIONCOLOR
 70
   257
  9
$DIMASSOC
280
     1
  9
$PROJECTNAME
  1

  0
ENDSEC
  0
SECTION
  2
CLASSES
  0
CLASS
  1
ACDBDICTIONARYWDFLT
  2
AcDbDictionaryWithDefault
  3
ObjectDBX Classes
 90
        0
 91
        1
280
     0
281
     0
  0
ENDSEC
  0
SECTION
  2
TABLES
  0
TABLE
  2
VPORT
  5
8
330
0
100
AcDbSymbolTable
 70
     2
  0
VPORT
  5
11D2
330
8
100
AcDbSymbolTableRecord
100
AcDbViewportTableRecord
  2
*Active
 70
     0
 10
0.0
 20
0.0
 11
1.0
 21
1.0
 12
364.1976054615644
 22
269.3424456128107
 13
0.0
 23
0.0
 14
10.0
 24
10.0
 15
10.0
 25
10.0
 16
0.0
 26
0.0
 36
1.0
 17
0.0
 27
0.0
 37
0.0
 40
196.9240834572785
 41
1.530456852791878
 42
50.0
 43
0.0
 44
0.0
 50
0.0
 51
0.0
 71
     0
 72
   100
 73
     1
 74
     1
 75
     0
 76
     0
 77
     0
 78
     0
281
     0
 65
     1
110
0.0
120
0.0
130
0.0
111
1.0
121
0.0
131
0.0
112
0.0
122
1.0
132
0.0
 79
     0
146
0.0
  0
ENDTAB
  0
TABLE
  2
LTYPE
  5
5
330
0
100
AcDbSymbolTable
 70
    12
  0
LTYPE
  5
12
330
5
100
AcDbSymbolTableRecord
100
AcDbLinetypeTableRecord
  2
BYBLOCK
 70
     0
  3

 72
    65
 73
     0
 40
0.0
  0
LTYPE
  5
13
330
5
100
AcDbSymbolTableRecord
100
AcDbLinetypeTableRecord
  2
BYLAYER
 70
     0
  3

 72
    65
 73
     0
 40
0.0
  0
LTYPE
  5
14
330
5
100
AcDbSymbolTableRecord
100
AcDbLinetypeTableRecord
  2
CONTINUOUS
 70
     0
  3
Solid line
 72
    65
 73
     0
 40
0.0
  0
LTYPE
  5
22
330
5
100
AcDbSymbolTableRecord
100
AcDbLinetypeTableRecord
  2
CENTER2
 70
     0
  3
Center (.5x) ___ _ ___ _ ___ _ ___ _ ___ _ ___
 72
    65
 73
     4
 40
28.575
 49
19.05
 74
     0
 49
-3.174999999999999
 74
     0
 49
3.174999999999999
 74
     0
 49
-3.174999999999999
 74
     0
  0
ENDTAB
  0
TABLE
  2
LAYER
  5
2
330
0
100
AcDbSymbolTable
 70
    15
  0
LAYER
  5
E
330
2
100
AcDbSymbolTableRecord
100
AcDbLayerTableRecord
  2
0
 70
     0
 62
     7
  6
CONTINUOUS
370
    -3
390
113E
  0
LAYER
  5
25
330
2
100
AcDbSymbolTableRecord
100
AcDbLayerTableRecord
  2
外形線
 70
     0
 62
     7
  6
CONTINUOUS
370
    -3
390
113E
  0
LAYER
  5
27
330
2
100
AcDbSymbolTableRecord
100
AcDbLayerTableRecord
  2
中心線
 70
     0
 62
     4
  6
CENTER2
370
    -3
390
113E
  0
LAYER
  5
2B
330
2
100
AcDbSymbolTableRecord
100
AcDbLayerTableRecord
  2
文字
 70
     0
 62
     6
  6
CONTINUOUS
370
    -3
390
113E
  0
LAYER
  5
2C
330
2
100
AcDbSymbolTableRecord
100
AcDbLayerTableRecord
  2
目盛
 70
     0
 62
    70
  6
CONTINUOUS
370
    -3
390
113E
  0
LAYER
  5
2D
330
2
100
AcDbSymbolTableRecord
100
AcDbLayerTableRecord
  2
針
 70
     0
 62
     5
  6
CONTINUOUS
370
    -3
390
113E
  0
LAYER
  5
53
330
2
100
AcDbSymbolTableRecord
100
AcDbLayerTableRecord
  2
DEFPOINTS
 70
     0
 62
     7
  6
CONTINUOUS
290
     0
370
    -3
390
113E
  0
LAYER
  5
A5
330
2
100
AcDbSymbolTableRecord
100
AcDbLayerTableRecord
  2
C
 70
     0
 62
     7
  6
CONTINUOUS
370
    -3
390
113E
  0
LAYER
  5
B6D
330
2
100
AcDbSymbolTableRecord
100
AcDbLayerTableRecord
  2
ROGO
 70
     0
 62
     6
  6
CONTINUOUS
370
    -3
390
113E
  0
ENDTAB
  0
TABLE
  2
STYLE
  5
3
330
0
100
AcDbSymbolTable
 70
     6
  0
STYLE
  5
F
330
3
100
AcDbSymbolTableRecord
100
AcDbTextStyleTableRecord
  2
STANDARD
 70
     0
 40
0.0
 41
1.0
 50
0.0
 71
     0
 42
2.5
  3
txt
  4

  0
STYLE
  5
3F
330
3
100
AcDbSymbolTableRecord
100
AcDbTextStyleTableRecord
  2
STYLE3
 70
     0
 40
0.0
 41
1.0
 50
0.0
 71
     0
 42
2.0
  3
romans.shx
  4
bigfont.shx
  0
ENDTAB
  0
TABLE
  2
VIEW
  5
6
330
0
100
AcDbSymbolTable
 70
     0
  0
ENDTAB
  0
TABLE
  2
UCS
  5
7
330
0
100
AcDbSymbolTable
 70
     0
  0
ENDTAB
  0
TABLE
  2
APPID
  5
9
330
0
100
AcDbSymbolTable
 70
     1
  0
APPID
  5
10
330
9
100
AcDbSymbolTableRecord
100
AcDbRegAppTableRecord
  2
ACAD
 70
     0
  0
ENDTAB
  0
TABLE
  2
DIMSTYLE
  5
A
330
0
100
AcDbSymbolTable
 70
     5
100
AcDbDimStyleTable
 71
     0
  0
DIMSTYLE
105
1D
330
A
100
AcDbSymbolTableRecord
100
AcDbDimStyleTableRecord
  2
STANDARD
 70
     0
 41
2.5
 42
0.625
 43
3.75
 44
1.25
 73
     0
 74
     0
 77
     1
 78
     8
140
2.5
141
2.5
143
0.0394
147
0.625
171
     4
172
     1
273
     8
274
     4
277
     6
340
F
  0
DIMSTYLE
105
8F
102
{ACAD_REACTORS
330
AD3
330
FFA
330
1057
330
1084
102
}
330
A
100
AcDbSymbolTableRecord
100
AcDbDimStyleTableRecord
  2
STYLE3
 70
     0
 41
2.5
 42
0.0
 43
3.75
 44
1.25
 73
     0
 74
     0
 77
     1
 78
     8
140
2.5
141
2.5
143
0.0394
147
0.625
171
     4
172
     1
173
     1
176
     2
177
     2
178
     6
271
     1
273
     8
274
     4
340
3F
341
45
343
45
344
45
  0
ENDTAB
  0
TABLE
  2
BLOCK_RECORD
  5
1
330
0
100
AcDbSymbolTable
 70
     7
  0
BLOCK_RECORD
  5
18
330
1
100
AcDbSymbolTableRecord
100
AcDbBlockTableRecord
  2
*MODEL_SPACE
340
1143
  0
BLOCK_RECORD
  5
15
330
1
100
AcDbSymbolTableRecord
100
AcDbBlockTableRecord
  2
*PAPER_SPACE
340
1144
  0
BLOCK_RECORD
  5
45
330
1
100
AcDbSymbolTableRecord
100
AcDbBlockTableRecord
  2
_OPEN
340
0
102
{BLKREFS
331
AB4
331
AD4
331
105A
331
105B
331
1065
331
1066
331
1073
331
1074
331
11AC
331
11AD
331
11B4
331
11B5
331
11BD
331
11BE
331
11C6
331
11C7
102
}
  0
BLOCK_RECORD
  5
B1A
330
1
100
AcDbSymbolTableRecord
100
AcDbBlockTableRecord
  2
*D2
340
0
  0
BLOCK_RECORD
  5
FEE
330
1
100
AcDbSymbolTableRecord
100
AcDbBlockTableRecord
  2
*D3
340
0
  0
BLOCK_RECORD
  5
104C
330
1
100
AcDbSymbolTableRecord
100
AcDbBlockTableRecord
  2
*D4
340
0
  0
BLOCK_RECORD
  5
1078
330
1
100
AcDbSymbolTableRecord
100
AcDbBlockTableRecord
  2
*D5
340
0
  0
ENDTAB
  0
ENDSEC
  0
SECTION
  2
BLOCKS
  0
BLOCK
  5
19
330
18
100
AcDbEntity
  8
0
100
AcDbBlockBegin
  2
*MODEL_SPACE
 70
     0
 10
0.0
 20
0.0
 30
0.0
  3
*MODEL_SPACE
  1

  0
ENDBLK
  5
1A
330
18
100
AcDbEntity
  8
0
100
AcDbBlockEnd
  0
BLOCK
  5
16
330
15
100
AcDbEntity
 67
     1
  8
0
100
AcDbBlockBegin
  2
*PAPER_SPACE
 70
     0
 10
0.0
 20
0.0
 30
0.0
  3
*PAPER_SPACE
  1

  0
ENDBLK
  5
17
330
15
100
AcDbEntity
 67
     1
  8
0
100
AcDbBlockEnd
  0
BLOCK
  5
46
330
45
100
AcDbEntity
  8
0
100
AcDbBlockBegin
  2
_OPEN
 70
     0
 10
0.0
 20
0.0
 30
0.0
  3
_OPEN
  1

  0
LINE
  5
47
330
45
100
AcDbEntity
  8
0
  6
ByBlock
 62
     0
100
AcDbLine
 10
-1.0
 20
0.1666666666666666
 30
0.0
 11
0.0
 21
0.0
 31
0.0
  0
LINE
  5
48
330
45
100
AcDbEntity
  8
0
  6
ByBlock
 62
     0
100
AcDbLine
 10
0.0
 20
0.0
 30
0.0
 11
-1.0
 21
-0.1666666666666666
 31
0.0
  0
LINE
  5
49
330
45
100
AcDbEntity
  8
0
  6
ByBlock
 62
     0
100
AcDbLine
 10
0.0
 20
0.0
 30
0.0
 11
-1.0
 21
0.0
 31
0.0
  0
ENDBLK
  5
4A
330
45
100
AcDbEntity
  8
0
100
AcDbBlockEnd
  0
BLOCK
  5
B31
330
B1A
100
AcDbEntity
  8
0
100
AcDbBlockBegin
  2
*D2
 70
     1
 10
0.0
 20
0.0
 30
0.0
  3
*D2
  1

  0
LINE
  5
11C3
330
B1A
100
AcDbEntity
  8
外形線
 62
     2
370
    -2
100
AcDbLine
 10
295.4927193271836
 20
231.4681228455099
 30
0.0
 11
295.4927193271836
 21
208.4092753471652
 31
0.0
  0
LINE
  5
11C4
330
B1A
100
AcDbEntity
  8
外形線
 62
     2
370
    -2
100
AcDbLine
 10
306.4927193271836
 20
231.4681228455099
 30
0.0
 11
306.4927193271836
 21
208.4092753471652
 31
0.0
  0
LINE
  5
11C5
330
B1A
100
AcDbEntity
  8
外形線
 62
     2
370
    -2
100
AcDbLine
 10
297.9927193271836
 20
209.6592753471652
 30
0.0
 11
303.9927193271836
 21
209.6592753471652
 31
0.0
  0
INSERT
  5
11C6
330
B1A
100
AcDbEntity
  8
外形線
 62
     2
370
    -2
100
AcDbBlockReference
  2
_OPEN
 10
295.4927193271836
 20
209.6592753471652
 30
0.0
 41
2.5
 42
2.5
 43
2.5
 50
180.0
  0
INSERT
  5
11C7
330
B1A
100
AcDbEntity
  8
外形線
 62
     2
370
    -2
100
AcDbBlockReference
  2
_OPEN
 10
306.4927193271836
 20
209.6592753471652
 30
0.0
 41
2.5
 42
2.5
 43
2.5
  0
MTEXT
  5
11C8
330
B1A
100
AcDbEntity
  8
外形線
 62
     6
100
AcDbMText
 10
300.9927193271836
 20
211.5342753471652
 30
0.0
 40
2.5
 41
0.0
 71
     5
 72
     1
  1
\A1;11
  7
STYLE3
 73
     1
 44
1.0
  0
POINT
  5
11C9
330
B1A
100
AcDbEntity
  8
DEFPOINTS
 62
     0
100
AcDbPoint
 10
295.4927193271836
 20
231.4681228455099
 30
0.0
  0
POINT
  5
11CA
330
B1A
100
AcDbEntity
  8
DEFPOINTS
 62
     0
100
AcDbPoint
 10
306.4927193271836
 20
231.4681228455099
 30
0.0
  0
POINT
  5
11CB
330
B1A
100
AcDbEntity
  8
DEFPOINTS
 62
     0
100
AcDbPoint
 10
306.4927193271836
 20
209.6592753471652
 30
0.0
  0
ENDBLK
  5
B3B
330
B1A
100
AcDbEntity
  8
0
100
AcDbBlockEnd
  0
BLOCK
  5
FFB
330
FEE
100
AcDbEntity
  8
0
100
AcDbBlockBegin
  2
*D3
 70
     1
 10
0.0
 20
0.0
 30
0.0
  3
*D3
  1

  0
LINE
  5
11BA
330
FEE
100
AcDbEntity
  8
外形線
 62
     2
370
    -2
100
AcDbLine
 10
286.4927193271838
 20
290.1982570878068
 30
0.0
 11
286.4927193271838
 21
305.7476234940866
 31
0.0
  0
LINE
  5
11BB
330
FEE
100
AcDbEntity
  8
外形線
 62
     2
370
    -2
100
AcDbLine
 10
324.4927193271834
 20
290.1982570878068
 30
0.0
 11
324.4927193271834
 21
305.7476234940866
 31
0.0
  0
LINE
  5
11BC
330
FEE
100
AcDbEntity
  8
外形線
 62
     2
370
    -2
100
AcDbLine
 10
288.9927193271838
 20
304.4976234940866
 30
0.0
 11
321.9927193271833
 21
304.4976234940866
 31
0.0
  0
INSERT
  5
11BD
330
FEE
100
AcDbEntity
  8
外形線
 62
     2
370
    -2
100
AcDbBlockReference
  2
_OPEN
 10
286.4927193271838
 20
304.4976234940866
 30
0.0
 41
2.5
 42
2.5
 43
2.5
 50
180.0
  0
INSERT
  5
11BE
330
FEE
100
AcDbEntity
  8
外形線
 62
     2
370
    -2
100
AcDbBlockReference
  2
_OPEN
 10
324.4927193271834
 20
304.4976234940866
 30
0.0
 41
2.5
 42
2.5
 43
2.5
  0
MTEXT
  5
11BF
330
FEE
100
AcDbEntity
  8
外形線
 62
     6
100
AcDbMText
 10
305.4927193271836
 20
306.3726234940866
 30
0.0
 40
2.5
 41
0.0
 71
     5
 72
     1
  1
\A1;φ38
  7
STYLE3
 73
     1
 44
1.0
  0
POINT
  5
11C0
330
FEE
100
AcDbEntity
  8
DEFPOINTS
 62
     0
100
AcDbPoint
 10
286.4927193271838
 20
290.1982570878068
 30
0.0
  0
POINT
  5
11C1
330
FEE
100
AcDbEntity
  8
DEFPOINTS
 62
     0
100
AcDbPoint
 10
324.4927193271834
 20
290.1982570878068
 30
0.0
  0
POINT
  5
11C2
330
FEE
100
AcDbEntity
  8
DEFPOINTS
 62
     0
100
AcDbPoint
 10
324.4927193271834
 20
304.4976234940866
 30
0.0
  0
ENDBLK
  5
1005
330
FEE
100
AcDbEntity
  8
0
100
AcDbBlockEnd
  0
BLOCK
  5
104D
330
104C
100
AcDbEntity
  8
0
100
AcDbBlockBegin
  2
*D4
 70
     1
 10
0.0
 20
0.0
 30
0.0
  3
*D4
  1

  0
LINE
  5
11B2
330
104C
100
AcDbEntity
  8
外形線
 62
     2
370
    -2
100
AcDbLine
 10
394.3811440069171
 20
294.0681228455099
 30
0.0
 11
344.8788214850215
 21
294.06812284551
 31
0.0
  0
LINE
  5
11B3
330
104C
100
AcDbEntity
  8
外形線
 62
     2
370
    -2
100
AcDbLine
 10
346.1288214850215
 20
274.06812284551
 30
0.0
 11
346.1288214850215
 21
291.56812284551
 31
0.0
  0
INSERT
  5
11B4
330
104C
100
AcDbEntity
  8
外形線
 62
     2
370
    -2
100
AcDbBlockReference
  2
_OPEN
 10
346.1288214850215
 20
271.56812284551
 30
0.0
 41
2.5
 42
2.5
 43
2.5
 50
270.0
  0
INSERT
  5
11B5
330
104C
100
AcDbEntity
  8
外形線
 62
     2
370
    -2
100
AcDbBlockReference
  2
_OPEN
 10
346.1288214850215
 20
294.06812284551
 30
0.0
 41
2.5
 42
2.5
 43
2.5
 50
90.0
  0
MTEXT
  5
11B6
330
104C
100
AcDbEntity
  8
外形線
 62
     6
100
AcDbMText
 10
344.2538214850214
 20
282.81812284551
 30
0.0
 40
2.5
 41
0.0
 71
     5
 72
     1
  1
\A1;22.5
  7
STYLE3
 11
0.0000000000000001
 21
1.0
 31
0.0
 73
     1
 44
1.0
  0
POINT
  5
11B7
330
104C
100
AcDbEntity
  8
DEFPOINTS
 62
     0
100
AcDbPoint
 10
380.3811440069171
 20
271.56812284551
 30
0.0
  0
POINT
  5
11B8
330
104C
100
AcDbEntity
  8
DEFPOINTS
 62
     0
100
AcDbPoint
 10
394.3811440069171
 20
294.0681228455099
 30
0.0
  0
POINT
  5
11B9
330
104C
100
AcDbEntity
  8
DEFPOINTS
 62
     0
100
AcDbPoint
 10
346.1288214850215
 20
294.06812284551
 30
0.0
  0
ENDBLK
  5
1056
330
104C
100
AcDbEntity
  8
0
100
AcDbBlockEnd
  0
BLOCK
  5
1098
330
1078
100
AcDbEntity
  8
0
100
AcDbBlockBegin
  2
*D5
 70
     1
 10
0.0
 20
0.0
 30
0.0
  3
*D5
  1

  0
LINE
  5
11A9
330
1078
100
AcDbEntity
  8
外形線
 62
     2
370
    -2
100
AcDbLine
 10
344.8788214850215
 20
226.3681228455099
 30
0.0
 11
338.573177444681
 21
226.3681228455099
 31
0.0
  0
LINE
  5
11AA
330
1078
100
AcDbEntity
  8
外形線
 62
     2
370
    -2
100
AcDbLine
 10
344.8788214850215
 20
294.0681228455099
 30
0.0
 11
338.573177444681
 21
294.0681228455099
 31
0.0
  0
LINE
  5
11AB
330
1078
100
AcDbEntity
  8
外形線
 62
     2
370
    -2
100
AcDbLine
 10
339.8231774446809
 20
228.8681228455099
 30
0.0
 11
339.8231774446809
 21
291.5681228455099
 31
0.0
  0
INSERT
  5
11AC
330
1078
100
AcDbEntity
  8
外形線
 62
     2
370
    -2
100
AcDbBlockReference
  2
_OPEN
 10
339.8231774446809
 20
226.3681228455099
 30
0.0
 41
2.5
 42
2.5
 43
2.5
 50
270.0
  0
INSERT
  5
11AD
330
1078
100
AcDbEntity
  8
外形線
 62
     2
370
    -2
100
AcDbBlockReference
  2
_OPEN
 10
339.8231774446809
 20
294.0681228455099
 30
0.0
 41
2.5
 42
2.5
 43
2.5
 50
90.0
  0
MTEXT
  5
11AE
330
1078
100
AcDbEntity
  8
外形線
 62
     6
100
AcDbMText
 10
337.9481774446809
 20
260.21812284551
 30
0.0
 40
2.5
 41
0.0
 71
     5
 72
     1
  1
\A1;67.7
  7
STYLE3
 11
0.0000000000000001
 21
1.0
 31
0.0
 73
     1
 44
1.0
  0
POINT
  5
11AF
330
1078
100
AcDbEntity
  8
DEFPOINTS
 62
     0
100
AcDbPoint
 10
344.8788214850215
 20
226.3681228455099
 30
0.0
  0
POINT
  5
11B0
330
1078
100
AcDbEntity
  8
DEFPOINTS
 62
     0
100
AcDbPoint
 10
344.8788214850215
 20
294.0681228455099
 30
0.0
  0
POINT
  5
11B1
330
1078
100
AcDbEntity
  8
DEFPOINTS
 62
     0
100
AcDbPoint
 10
339.8231774446809
 20
294.0681228455099
 30
0.0
  0
ENDBLK
  5
10A2
330
1078
100
AcDbEntity
  8
0
100
AcDbBlockEnd
  0
ENDSEC
  0
SECTION
  2
ENTITIES
  0
LWPOLYLINE
  5
10B
330
18
100
AcDbEntity
  8
C
100
AcDbPolyline
 90
        5
 70
     0
 43
0.4
 10
236.6915604445414
 20
366.8501752555372
 10
491.6915604445414
 20
366.8501752555372
 10
491.6915604445414
 20
171.8501752555372
 10
236.6915604445414
 20
171.8501752555372
 10
236.6915604445414
 20
366.8501752555372
  0
LINE
  5
447
330
18
100
AcDbEntity
  8
外形線
100
AcDbLine
 10
413.3811440069169
 20
290.1982570878068
 30
0.0
 11
413.3811440069171
 21
285.8982570878069
 31
0.0
  0
LINE
  5
468
330
18
100
AcDbEntity
  8
外形線
100
AcDbLine
 10
380.3811440069171
 20
271.56812284551
 30
0.0
 11
408.3811440069171
 21
271.56812284551
 31
0.0
  0
ARC
  5
46C
330
18
100
AcDbEntity
  8
外形線
100
AcDbCircle
 10
394.3811440069171
 20
244.0681228455099
 30
0.0
 40
50.0
100
AcDbArc
 50
69.81820423312282
 51
110.1817957668771
  0
LINE
  5
46F
330
18
100
AcDbEntity
  8
外形線
100
AcDbLine
 10
375.8811440069171
 20
285.3982570878068
 30
0.0
 11
412.8811440069171
 21
285.3982570878068
 31
0.0
  0
LINE
  5
470
330
18
100
AcDbEntity
  8
外形線
100
AcDbLine
 10
375.8811440069171
 20
284.1982570878068
 30
0.0
 11
412.8811440069171
 21
284.1982570878069
 31
0.0
  0
LINE
  5
473
330
18
100
AcDbEntity
  8
外形線
100
AcDbLine
 10
412.8811440069171
 20
285.3982570878068
 30
0.0
 11
412.8811440069171
 21
284.1982570878069
 31
0.0
  0
LINE
  5
476
330
18
100
AcDbEntity
  8
外形線
100
AcDbLine
 10
411.6311440069169
 20
290.9982570878069
 30
0.0
 11
412.1311440069169
 21
290.9982570878069
 31
0.0
  0
LINE
  5
47A
330
18
100
AcDbEntity
  8
外形線
100
AcDbLine
 10
412.8811440069169
 20
290.4982570878068
 30
0.0
 11
413.0811440069169
 21
290.4982570878068
 31
0.0
  0
LINE
  5
47E
330
18
100
AcDbEntity
  8
外形線
100
AcDbLine
 10
412.1311440069169
 20
290.9982570878069
 30
0.0
 11
412.8811440069169
 21
290.4982570878068
 31
0.0
  0
LINE
  5
47F
330
18
100
AcDbEntity
  8
外形線
100
AcDbLine
 10
413.0811440069169
 20
290.4982570878068
 30
0.0
 11
413.3811440069169
 21
290.1982570878068
 31
0.0
  0
POINT
  5
498
330
18
100
AcDbEntity
  8
DEFPOINTS
  6
ByBlock
 62
     0
100
AcDbPoint
 10
412.1311440069169
 20
290.9982570878069
 30
0.0
  0
POINT
  5
499
330
18
100
AcDbEntity
  8
DEFPOINTS
  6
ByBlock
 62
     0
100
AcDbPoint
 10
413.0811440069169
 20
290.4982570878068
 30
0.0
  0
LINE
  5
49D
330
18
100
AcDbEntity
  8
外形線
100
AcDbLine
 10
413.3811440069171
 20
285.8982570878069
 30
0.0
 11
412.8811440069171
 21
285.3982570878068
 31
0.0
  0
LINE
  5
49E
330
18
100
AcDbEntity
  8
外形線
100
AcDbLine
 10
376.6311440069173
 20
290.9982570878069
 30
0.0
 11
375.8811440069174
 21
290.4982570878068
 31
0.0
  0
LINE
  5
49F
330
18
100
AcDbEntity
  8
外形線
100
AcDbLine
 10
375.8811440069171
 20
285.3982570878068
 30
0.0
 11
375.8811440069171
 21
284.1982570878069
 31
0.0
  0
LINE
  5
4A0
330
18
100
AcDbEntity
  8
外形線
100
AcDbLine
 10
375.3811440069171
 20
285.8982570878069
 30
0.0
 11
375.8811440069171
 21
285.3982570878068
 31
0.0
  0
LINE
  5
4A1
330
18
100
AcDbEntity
  8
外形線
100
AcDbLine
 10
375.3811440069173
 20
290.1982570878068
 30
0.0
 11
375.3811440069171
 21
285.8982570878069
 31
0.0
  0
POINT
  5
4A2
330
18
100
AcDbEntity
  8
DEFPOINTS
  6
ByBlock
 62
     0
100
AcDbPoint
 10
375.6811440069173
 20
290.4982570878068
 30
0.0
  0
LINE
  5
4A3
330
18
100
AcDbEntity
  8
外形線
100
AcDbLine
 10
375.8811440069174
 20
290.4982570878068
 30
0.0
 11
375.6811440069173
 21
290.4982570878068
 31
0.0
  0
LINE
  5
4A4
330
18
100
AcDbEntity
  8
外形線
100
AcDbLine
 10
375.6811440069173
 20
290.4982570878068
 30
0.0
 11
375.3811440069173
 21
290.1982570878068
 31
0.0
  0
POINT
  5
4A5
330
18
100
AcDbEntity
  8
DEFPOINTS
  6
ByBlock
 62
     0
100
AcDbPoint
 10
376.6311440069173
 20
290.9982570878069
 30
0.0
  0
LINE
  5
4A6
330
18
100
AcDbEntity
  8
外形線
100
AcDbLine
 10
377.1311440069173
 20
290.9982570878069
 30
0.0
 11
376.6311440069173
 21
290.9982570878069
 31
0.0
  0
LINE
  5
4A7
330
18
100
AcDbEntity
  8
外形線
100
AcDbLine
 10
377.1311440069173
 20
290.9982570878069
 30
0.0
 11
411.6311440069169
 21
290.9982570878069
 31
0.0
  0
LINE
  5
4A9
330
18
100
AcDbEntity
  8
外形線
100
AcDbLine
 10
375.3811440069171
 20
285.8982570878069
 30
0.0
 11
413.3811440069171
 21
285.8982570878069
 31
0.0
  0
LINE
  5
4AA
330
18
100
AcDbEntity
  8
外形線
100
AcDbLine
 10
375.3811440069173
 20
290.1982570878068
 30
0.0
 11
413.3811440069169
 21
290.1982570878068
 31
0.0
  0
LINE
  5
4AE
330
18
100
AcDbEntity
  8
中心線
 48
0.5
100
AcDbLine
 10
389.159417936895
 20
277.5681228455099
 30
0.0
 11
399.458320058491
 21
277.56812284551
 31
0.0
  0
ARC
  5
4AF
330
18
100
AcDbEntity
  8
外形線
100
AcDbCircle
 10
394.3811440069171
 20
277.56812284551
 30
0.0
 40
4.0
100
AcDbArc
 50
180.0
 51
0.0
  0
LINE
  5
4B0
330
18
100
AcDbEntity
  8
外形線
100
AcDbLine
 10
398.3811440069171
 20
277.56812284551
 30
0.0
 11
398.3811440069171
 21
284.1982570878069
 31
0.0
  0
LINE
  5
4B1
330
18
100
AcDbEntity
  8
外形線
100
AcDbLine
 10
390.3811440069171
 20
277.56812284551
 30
0.0
 11
390.3811440069171
 21
284.1982570878069
 31
0.0
  0
LINE
  5
4B2
330
18
100
AcDbEntity
  8
外形線
100
AcDbLine
 10
409.381144006917
 20
284.1982570878069
 30
0.0
 11
409.381144006917
 21
272.56812284551
 31
0.0
  0
LINE
  5
4B3
330
18
100
AcDbEntity
  8
外形線
100
AcDbLine
 10
379.3811440069171
 20
284.1982570878068
 30
0.0
 11
379.3811440069171
 21
272.5681228455099
 31
0.0
  0
ARC
  5
4B4
330
18
100
AcDbEntity
  8
外形線
100
AcDbCircle
 10
380.3811440069171
 20
272.5681228455099
 30
0.0
 40
1.0
100
AcDbArc
 50
180.0
 51
270.0000000000002
  0
ARC
  5
4B5
330
18
100
AcDbEntity
  8
外形線
100
AcDbCircle
 10
408.3811440069171
 20
272.56812284551
 30
0.0
 40
1.0
100
AcDbArc
 50
270.0
 51
0.0000000000000509
  0
LINE
  5
4B6
330
18
100
AcDbEntity
  8
中心線
100
AcDbLine
 10
305.4927193271836
 20
298.4458233568462
 30
0.0
 11
305.4927193271836
 21
267.2703009435072
 31
0.0
  0
LINE
  5
4B8
330
18
100
AcDbEntity
  8
外形線
100
AcDbLine
 10
286.9927193271836
 20
284.1982570878068
 30
0.0
 11
323.9927193271836
 21
284.1982570878069
 31
0.0
  0
LINE
  5
4B9
330
18
100
AcDbEntity
  8
外形線
100
AcDbLine
 10
286.9927193271836
 20
285.3982570878068
 30
0.0
 11
323.9927193271836
 21
285.3982570878068
 31
0.0
  0
LINE
  5
4BA
330
18
100
AcDbEntity
  8
外形線
100
AcDbLine
 10
286.4927193271838
 20
290.1982570878068
 30
0.0
 11
324.4927193271834
 21
290.1982570878068
 31
0.0
  0
LINE
  5
4BB
330
18
100
AcDbEntity
  8
外形線
100
AcDbLine
 10
286.4927193271836
 20
285.8982570878069
 30
0.0
 11
324.4927193271836
 21
285.8982570878069
 31
0.0
  0
LINE
  5
4BD
330
18
100
AcDbEntity
  8
外形線
100
AcDbLine
 10
288.2427193271838
 20
290.9982570878069
 30
0.0
 11
322.7427193271835
 21
290.9982570878069
 31
0.0
  0
ARC
  5
4BE
330
18
100
AcDbEntity
  8
外形線
100
AcDbCircle
 10
305.4927193271836
 20
244.0681228455099
 30
0.0
 40
50.0
100
AcDbArc
 50
69.81820423312282
 51
110.1817957668771
  0
LINE
  5
4BF
330
18
100
AcDbEntity
  8
外形線
100
AcDbLine
 10
287.7427193271837
 20
290.9982570878069
 30
0.0
 11
286.9927193271837
 21
290.4982570878068
 31
0.0
  0
LINE
  5
4C0
330
18
100
AcDbEntity
  8
外形線
100
AcDbLine
 10
286.7927193271839
 20
290.4982570878068
 30
0.0
 11
286.4927193271838
 21
290.1982570878068
 31
0.0
  0
LINE
  5
4C1
330
18
100
AcDbEntity
  8
外形線
100
AcDbLine
 10
286.9927193271838
 20
290.4982570878068
 30
0.0
 11
286.7927193271839
 21
290.4982570878068
 31
0.0
  0
POINT
  5
4C2
330
18
100
AcDbEntity
  8
DEFPOINTS
  6
ByBlock
 62
     0
100
AcDbPoint
 10
286.7927193271839
 20
290.4982570878068
 30
0.0
  0
LINE
  5
4C3
330
18
100
AcDbEntity
  8
外形線
100
AcDbLine
 10
286.4927193271838
 20
290.1982570878068
 30
0.0
 11
286.4927193271836
 21
285.8982570878069
 31
0.0
  0
LINE
  5
4C4
330
18
100
AcDbEntity
  8
外形線
100
AcDbLine
 10
286.4927193271836
 20
285.8982570878069
 30
0.0
 11
286.9927193271836
 21
285.3982570878068
 31
0.0
  0
LINE
  5
4C5
330
18
100
AcDbEntity
  8
外形線
100
AcDbLine
 10
286.9927193271836
 20
285.3982570878068
 30
0.0
 11
286.9927193271836
 21
284.1982570878069
 31
0.0
  0
LINE
  5
4C6
330
18
100
AcDbEntity
  8
外形線
100
AcDbLine
 10
288.2427193271837
 20
290.9982570878069
 30
0.0
 11
287.7427193271837
 21
290.9982570878069
 31
0.0
  0
POINT
  5
4C7
330
18
100
AcDbEntity
  8
DEFPOINTS
  6
ByBlock
 62
     0
100
AcDbPoint
 10
287.7427193271837
 20
290.9982570878069
 30
0.0
  0
LINE
  5
4C8
330
18
100
AcDbEntity
  8
外形線
100
AcDbLine
 10
291.4927193271836
 20
271.56812284551
 30
0.0
 11
319.4927193271835
 21
271.5681228455101
 31
0.0
  0
LINE
  5
4CB
330
18
100
AcDbEntity
  8
外形線
100
AcDbLine
 10
290.4927193271836
 20
284.1982570878068
 30
0.0
 11
290.4927193271836
 21
272.5681228455099
 31
0.0
  0
ARC
  5
4CD
330
18
100
AcDbEntity
  8
外形線
100
AcDbCircle
 10
291.4927193271836
 20
272.5681228455099
 30
0.0
 40
1.0
100
AcDbArc
 50
180.0
 51
270.0000000000002
  0
LINE
  5
4CE
330
18
100
AcDbEntity
  8
外形線
100
AcDbLine
 10
320.4927193271835
 20
284.1982570878069
 30
0.0
 11
320.4927193271835
 21
272.56812284551
 31
0.0
  0
ARC
  5
4D2
330
18
100
AcDbEntity
  8
外形線
100
AcDbCircle
 10
319.4927193271835
 20
272.56812284551
 30
0.0
 40
1.0
100
AcDbArc
 50
270.0
 51
0.0000000000000509
  0
LINE
  5
4D3
330
18
100
AcDbEntity
  8
外形線
100
AcDbLine
 10
323.2427193271835
 20
290.9982570878069
 30
0.0
 11
323.9927193271835
 21
290.4982570878068
 31
0.0
  0
LINE
  5
4D4
330
18
100
AcDbEntity
  8
外形線
100
AcDbLine
 10
323.9927193271836
 20
285.3982570878068
 30
0.0
 11
323.9927193271836
 21
284.1982570878069
 31
0.0
  0
LINE
  5
4D5
330
18
100
AcDbEntity
  8
外形線
100
AcDbLine
 10
324.4927193271836
 20
285.8982570878069
 30
0.0
 11
323.9927193271836
 21
285.3982570878068
 31
0.0
  0
LINE
  5
4D6
330
18
100
AcDbEntity
  8
外形線
100
AcDbLine
 10
324.4927193271834
 20
290.1982570878068
 30
0.0
 11
324.4927193271836
 21
285.8982570878069
 31
0.0
  0
POINT
  5
4D7
330
18
100
AcDbEntity
  8
DEFPOINTS
  6
ByBlock
 62
     0
100
AcDbPoint
 10
324.1927193271833
 20
290.4982570878068
 30
0.0
  0
LINE
  5
4D8
330
18
100
AcDbEntity
  8
外形線
100
AcDbLine
 10
323.9927193271833
 20
290.4982570878068
 30
0.0
 11
324.1927193271833
 21
290.4982570878068
 31
0.0
  0
LINE
  5
4D9
330
18
100
AcDbEntity
  8
外形線
100
AcDbLine
 10
324.1927193271833
 20
290.4982570878068
 30
0.0
 11
324.4927193271834
 21
290.1982570878068
 31
0.0
  0
POINT
  5
4DA
330
18
100
AcDbEntity
  8
DEFPOINTS
  6
ByBlock
 62
     0
100
AcDbPoint
 10
323.2427193271835
 20
290.9982570878069
 30
0.0
  0
LINE
  5
4DB
330
18
100
AcDbEntity
  8
外形線
100
AcDbLine
 10
322.7427193271835
 20
290.9982570878069
 30
0.0
 11
323.2427193271835
 21
290.9982570878069
 31
0.0
  0
LINE
  5
4DC
330
18
100
AcDbEntity
  8
外形線
100
AcDbLine
 10
321.4927193271835
 20
284.1982570878069
 30
0.0
 11
321.4927193271836
 21
273.5681228455101
 31
0.0
  0
LINE
  5
4DD
330
18
100
AcDbEntity
  8
外形線
100
AcDbLine
 10
320.4927193271835
 20
273.5681228455101
 30
0.0
 11
321.4927193271836
 21
273.5681228455101
 31
0.0
  0
LINE
  5
532
330
18
100
AcDbEntity
  8
外形線
100
AcDbLine
 10
286.8966553193921
 20
290.1982570878066
 30
0.0
 11
286.8966553193923
 21
285.8982570878067
 31
0.0
  0
LINE
  5
533
330
18
100
AcDbEntity
  8
外形線
100
AcDbLine
 10
287.3966553193921
 20
290.1982570878066
 30
0.0
 11
287.3966553193923
 21
285.8982570878067
 31
0.0
  0
LINE
  5
534
330
18
100
AcDbEntity
  8
外形線
100
AcDbLine
 10
287.9966553193921
 20
290.1982570878067
 30
0.0
 11
287.9966553193924
 21
285.8982570878067
 31
0.0
  0
LINE
  5
535
330
18
100
AcDbEntity
  8
外形線
100
AcDbLine
 10
288.6966553193921
 20
290.1982570878067
 30
0.0
 11
288.6966553193924
 21
285.8982570878067
 31
0.0
  0
LINE
  5
536
330
18
100
AcDbEntity
  8
外形線
100
AcDbLine
 10
323.588783334975
 20
290.1982570878066
 30
0.0
 11
323.5887833349748
 21
285.8982570878067
 31
0.0
  0
LINE
  5
537
330
18
100
AcDbEntity
  8
外形線
100
AcDbLine
 10
322.988783334975
 20
290.1982570878067
 30
0.0
 11
322.9887833349748
 21
285.8982570878067
 31
0.0
  0
LINE
  5
538
330
18
100
AcDbEntity
  8
外形線
100
AcDbLine
 10
322.288783334975
 20
290.1982570878067
 30
0.0
 11
322.2887833349748
 21
285.8982570878067
 31
0.0
  0
LINE
  5
539
330
18
100
AcDbEntity
  8
外形線
100
AcDbLine
 10
324.0887833349751
 20
290.1982570878066
 30
0.0
 11
324.0887833349749
 21
285.8982570878067
 31
0.0
  0
LINE
  5
53B
330
18
100
AcDbEntity
  8
外形線
 48
0.5
100
AcDbLine
 10
306.2927193271836
 20
290.1982570878068
 30
0.0
 11
306.2927193271836
 21
285.8982570878067
 31
0.0
  0
LINE
  5
53C
330
18
100
AcDbEntity
  8
外形線
 48
0.5
100
AcDbLine
 10
304.6927193271835
 20
290.1982570878068
 30
0.0
 11
304.6927193271835
 21
285.8982570878067
 31
0.0
  0
LINE
  5
53D
330
18
100
AcDbEntity
  8
外形線
 48
0.5
100
AcDbLine
 10
307.0927193271836
 20
290.1982570878068
 30
0.0
 11
307.0927193271836
 21
285.8982570878067
 31
0.0
  0
LINE
  5
53E
330
18
100
AcDbEntity
  8
外形線
 48
0.5
100
AcDbLine
 10
303.8927193271836
 20
290.1982570878068
 30
0.0
 11
303.8927193271836
 21
285.8982570878067
 31
0.0
  0
LINE
  5
540
330
18
100
AcDbEntity
  8
外形線
100
AcDbLine
 10
305.4927193271836
 20
290.1982570878068
 30
0.0
 11
305.4927193271836
 21
285.8982570878069
 31
0.0
  0
LINE
  5
541
330
18
100
AcDbEntity
  8
外形線
100
AcDbLine
 10
376.2850799991256
 20
290.1982570878066
 30
0.0
 11
376.2850799991259
 21
285.8982570878067
 31
0.0
  0
LINE
  5
542
330
18
100
AcDbEntity
  8
外形線
100
AcDbLine
 10
376.8850799991256
 20
290.1982570878067
 30
0.0
 11
376.8850799991259
 21
285.8982570878067
 31
0.0
  0
LINE
  5
543
330
18
100
AcDbEntity
  8
外形線
100
AcDbLine
 10
377.5850799991256
 20
290.1982570878067
 30
0.0
 11
377.5850799991258
 21
285.8982570878067
 31
0.0
  0
LINE
  5
544
330
18
100
AcDbEntity
  8
外形線
100
AcDbLine
 10
375.7850799991256
 20
290.1982570878066
 30
0.0
 11
375.7850799991258
 21
285.8982570878067
 31
0.0
  0
LINE
  5
545
330
18
100
AcDbEntity
  8
外形線
100
AcDbLine
 10
411.1772080147086
 20
290.1982570878067
 30
0.0
 11
411.1772080147083
 21
285.8982570878067
 31
0.0
  0
LINE
  5
546
330
18
100
AcDbEntity
  8
外形線
100
AcDbLine
 10
411.8772080147086
 20
290.1982570878067
 30
0.0
 11
411.8772080147083
 21
285.8982570878067
 31
0.0
  0
LINE
  5
547
330
18
100
AcDbEntity
  8
外形線
100
AcDbLine
 10
412.4772080147086
 20
290.1982570878066
 30
0.0
 11
412.4772080147083
 21
285.8982570878067
 31
0.0
  0
LINE
  5
548
330
18
100
AcDbEntity
  8
外形線
100
AcDbLine
 10
412.9772080147086
 20
290.1982570878066
 30
0.0
 11
412.9772080147083
 21
285.8982570878067
 31
0.0
  0
LINE
  5
549
330
18
100
AcDbEntity
  8
外形線
 48
0.5
100
AcDbLine
 10
395.1811440069171
 20
290.1982570878068
 30
0.0
 11
395.1811440069171
 21
285.8982570878067
 31
0.0
  0
LINE
  5
54A
330
18
100
AcDbEntity
  8
外形線
 48
0.5
100
AcDbLine
 10
395.9811440069172
 20
290.1982570878068
 30
0.0
 11
395.981144006917
 21
285.8982570878067
 31
0.0
  0
LINE
  5
54B
330
18
100
AcDbEntity
  8
外形線
 48
0.5
100
AcDbLine
 10
392.7811440069171
 20
290.1982570878068
 30
0.0
 11
392.7811440069171
 21
285.8982570878067
 31
0.0
  0
LINE
  5
54C
330
18
100
AcDbEntity
  8
外形線
 48
0.5
100
AcDbLine
 10
393.5811440069171
 20
290.1982570878068
 30
0.0
 11
393.5811440069171
 21
285.8982570878067
 31
0.0
  0
LINE
  5
54D
330
18
100
AcDbEntity
  8
外形線
100
AcDbLine
 10
394.3811440069171
 20
290.1982570878068
 30
0.0
 11
394.3811440069171
 21
285.8982570878069
 31
0.0
  0
LINE
  5
AAC
330
18
100
AcDbEntity
  8
外形線
100
AcDbLine
 10
403.3811440069171
 20
269.4681228455099
 30
0.0
 11
385.3811440069171
 21
269.4681228455099
 31
0.0
  0
LINE
  5
AAD
330
18
100
AcDbEntity
  8
0
  6
ByBlock
 62
     2
100
AcDbLine
 10
359.3811440069171
 20
209.6592753471652
 30
0.0
 11
429.3811440069171
 21
209.6592753471652
 31
0.0
  0
LINE
  5
AAE
330
18
100
AcDbEntity
  8
中心線
100
AcDbLine
 10
381.802133290704
 20
262.4681228455099
 30
0.0
 11
407.2525504157068
 21
262.4681228455099
 31
0.0
  0
LINE
  5
AAF
330
18
100
AcDbEntity
  8
外形線
100
AcDbLine
 10
356.8811440069171
 20
231.4681228455099
 30
0.0
 11
431.8811440069171
 21
231.4681228455099
 31
0.0
  0
LINE
  5
AB3
330
18
100
AcDbEntity
  8
0
  6
ByBlock
 62
     2
100
AcDbLine
 10
356.8811440069171
 20
231.4681228455099
 30
0.0
 11
356.8811440069171
 21
208.4092753471652
 31
0.0
  0
INSERT
  5
AB4
330
18
100
AcDbEntity
  8
0
  6
ByBlock
 62
     2
100
AcDbBlockReference
  2
_OPEN
 10
356.8811440069171
 20
209.6592753471652
 30
0.0
 41
2.5
 42
2.5
 43
2.5
 50
180.0
  0
MTEXT
  5
AB5
330
18
100
AcDbEntity
  8
0
  6
ByBlock
 62
     6
100
AcDbMText
 10
394.3811440069171
 20
211.5342753471652
 30
0.0
 40
2.5
 41
0.0
 71
     5
 72
     1
  1
\A1;75
  7
STYLE3
 73
     1
 44
1.0
  0
LINE
  5
AB8
330
18
100
AcDbEntity
  8
外形線
100
AcDbLine
 10
360.8811440069171
 20
243.4681228455099
 30
0.0
 11
373.3811440069171
 21
243.4681228455099
 31
0.0
  0
LINE
  5
AB9
330
18
100
AcDbEntity
  8
外形線
100
AcDbLine
 10
356.8811440069171
 20
239.4681228455099
 30
0.0
 11
356.8811440069171
 21
231.4681228455099
 31
0.0
  0
POINT
  5
ABA
330
18
100
AcDbEntity
  8
DEFPOINTS
  6
ByBlock
 62
     0
100
AcDbPoint
 10
356.8811440069171
 20
231.4681228455099
 30
0.0
  0
ARC
  5
ABB
330
18
100
AcDbEntity
  8
外形線
100
AcDbCircle
 10
360.8811440069171
 20
239.4681228455099
 30
0.0
 40
4.0
100
AcDbArc
 50
90.00000000000005
 51
180.0
  0
ARC
  5
ABC
330
18
100
AcDbEntity
  8
外形線
100
AcDbCircle
 10
373.3811440069171
 20
253.4681228455099
 30
0.0
 40
10.0
100
AcDbArc
 50
270.0
 51
0.0
  0
CIRCLE
  5
ABD
330
18
100
AcDbEntity
  8
外形線
100
AcDbCircle
 10
387.3811440069171
 20
262.4681228455099
 30
0.0
 40
3.0
  0
LINE
  5
ABE
330
18
100
AcDbEntity
  8
中心線
100
AcDbLine
 10
387.3811440069171
 20
266.5102134247629
 30
0.0
 11
387.3811440069171
 21
256.9795595120465
 31
0.0
  0
LINE
  5
ABF
330
18
100
AcDbEntity
  8
外形線
100
AcDbLine
 10
383.3811440069171
 20
267.4681228455099
 30
0.0
 11
383.3811440069171
 21
253.4681228455099
 31
0.0
  0
LWPOLYLINE
  5
AC0
330
18
100
AcDbEntity
  8
外形線
100
AcDbPolyline
 90
        6
 70
     1
 43
0.0
 10
386.5061440069171
 20
263.9836673021327
 10
385.6311440069171
 20
262.4681228455099
 10
386.5061440069171
 20
260.9525783888872
 10
388.2561440069171
 20
260.9525783888872
 10
389.1311440069171
 20
262.4681228455099
 10
388.2561440069171
 20
263.9836673021327
  0
LINE
  5
AC1
330
18
100
AcDbEntity
  8
外形線
100
AcDbLine
 10
385.3811440069171
 20
269.4681228455099
 30
0.0
 11
383.3811440069171
 21
267.4681228455099
 31
0.0
  0
LINE
  5
AD2
330
18
100
AcDbEntity
  8
0
  6
ByBlock
 62
     2
100
AcDbLine
 10
431.8811440069171
 20
231.4681228455099
 30
0.0
 11
431.8811440069171
 21
208.4092753471652
 31
0.0
  0
DIMENSION
  5
AD3
330
18
100
AcDbEntity
  8
外形線
100
AcDbDimension
  2
*D2
 10
306.4927193271836
 20
209.6592753471652
 30
0.0
 11
300.9927193271836
 21
211.5342753471652
 31
0.0
 70
    32
 71
     5
 42
11.0
  3
STYLE3
100
AcDbAlignedDimension
 13
295.4927193271836
 23
231.4681228455099
 33
0.0
 14
306.4927193271836
 24
231.4681228455099
 34
0.0
100
AcDbRotatedDimension
1001
ACAD
1000
DSTYLE
1002
{
1070
   271
1070
     2
1002
}
  0
INSERT
  5
AD4
330
18
100
AcDbEntity
  8
0
  6
ByBlock
 62
     2
100
AcDbBlockReference
  2
_OPEN
 10
431.8811440069171
 20
209.6592753471652
 30
0.0
 41
2.5
 42
2.5
 43
2.5
  0
POINT
  5
AD7
330
18
100
AcDbEntity
  8
DEFPOINTS
  6
ByBlock
 62
     0
100
AcDbPoint
 10
431.8811440069171
 20
209.6592753471652
 30
0.0
  0
ARC
  5
ADA
330
18
100
AcDbEntity
  8
外形線
100
AcDbCircle
 10
427.8811440069171
 20
239.4681228455099
 30
0.0
 40
4.0
100
AcDbArc
 50
0.0
 51
90.0
  0
ARC
  5
ADB
330
18
100
AcDbEntity
  8
外形線
100
AcDbCircle
 10
415.3811440069171
 20
253.4681228455099
 30
0.0
 40
10.0
100
AcDbArc
 50
180.0
 51
270.0
  0
LINE
  5
AE0
330
18
100
AcDbEntity
  8
外形線
100
AcDbLine
 10
415.3811440069171
 20
243.4681228455099
 30
0.0
 11
427.8811440069171
 21
243.4681228455099
 31
0.0
  0
CIRCLE
  5
AE1
330
18
100
AcDbEntity
  8
外形線
100
AcDbCircle
 10
401.381144006917
 20
262.4681228455099
 30
0.0
 40
3.0
  0
LINE
  5
AE2
330
18
100
AcDbEntity
  8
中心線
100
AcDbLine
 10
401.381144006917
 20
266.8199277275998
 30
0.0
 11
401.381144006917
 21
257.3503626148673
 31
0.0
  0
LINE
  5
AE3
330
18
100
AcDbEntity
  8
外形線
100
AcDbLine
 10
405.381144006917
 20
267.4681228455099
 30
0.0
 11
405.381144006917
 21
253.4681228455099
 31
0.0
  0
LWPOLYLINE
  5
AE4
330
18
100
AcDbEntity
  8
外形線
100
AcDbPolyline
 90
        6
 70
     1
 43
0.0
 10
400.506144006917
 20
263.9836673021327
 10
399.6311440069171
 20
262.4681228455099
 10
400.506144006917
 20
260.9525783888872
 10
402.256144006917
 20
260.9525783888872
 10
403.131144006917
 20
262.4681228455099
 10
402.256144006917
 20
263.9836673021327
  0
LINE
  5
AE6
330
18
100
AcDbEntity
  8
外形線
100
AcDbLine
 10
403.3811440069171
 20
269.4681228455099
 30
0.0
 11
405.381144006917
 21
267.4681228455099
 31
0.0
  0
LINE
  5
AE7
330
18
100
AcDbEntity
  8
外形線
100
AcDbLine
 10
431.8811440069171
 20
239.4681228455099
 30
0.0
 11
431.8811440069171
 21
231.4681228455099
 31
0.0
  0
POINT
  5
AE8
330
18
100
AcDbEntity
  8
DEFPOINTS
  6
ByBlock
 62
     0
100
AcDbPoint
 10
431.8811440069171
 20
231.4681228455099
 30
0.0
  0
LINE
  5
AF0
330
18
100
AcDbEntity
  8
外形線
 48
0.5
100
AcDbLine
 10
301.7427193271836
 20
269.4681228455099
 30
0.0
 11
301.7427193271836
 21
245.4681228455099
 31
0.0
  0
LINE
  5
AF1
330
18
100
AcDbEntity
  8
外形線
 48
0.5
100
AcDbLine
 10
300.2427193271836
 20
269.4681228455099
 30
0.0
 11
300.2427193271836
 21
245.4681228455099
 31
0.0
  0
LINE
  5
AF2
330
18
100
AcDbEntity
  8
外形線
 48
0.5
100
AcDbLine
 10
306.4927193271835
 20
269.4681228455099
 30
0.0
 11
306.4927193271836
 21
231.4681228455099
 31
0.0
  0
LINE
  5
AF3
330
18
100
AcDbEntity
  8
外形線
 48
0.5
100
AcDbLine
 10
295.4927193271835
 20
269.4681228455099
 30
0.0
 11
295.4927193271836
 21
231.4681228455099
 31
0.0
  0
LINE
  5
AF4
330
18
100
AcDbEntity
  8
外形線
100
AcDbLine
 10
295.4927193271836
 20
231.4681228455099
 30
0.0
 11
306.4927193271836
 21
231.4681228455099
 31
0.0
  0
LINE
  5
AF5
330
18
100
AcDbEntity
  8
外形線
100
AcDbLine
 10
295.4927193271836
 20
243.4681228455099
 30
0.0
 11
306.4927193271836
 21
243.4681228455099
 31
0.0
  0
LINE
  5
AF6
330
18
100
AcDbEntity
  8
外形線
100
AcDbLine
 10
300.2427193271836
 20
245.4681228455099
 30
0.0
 11
301.7427193271836
 21
245.4681228455099
 31
0.0
  0
LINE
  5
AF8
330
18
100
AcDbEntity
  8
外形線
100
AcDbLine
 10
295.4927193271835
 20
267.4681228455099
 30
0.0
 11
300.2427193271836
 21
267.4681228455099
 31
0.0
  0
LINE
  5
AF9
330
18
100
AcDbEntity
  8
中心線
 48
0.5
100
AcDbLine
 10
291.932232016675
 20
262.4681228455099
 30
0.0
 11
310.4854818791381
 21
262.4681228455099
 31
0.0
  0
LINE
  5
AFA
330
18
100
AcDbEntity
  8
外形線
100
AcDbLine
 10
295.4927193271835
 20
269.4681228455099
 30
0.0
 11
301.7427193271836
 21
269.46812284551
 31
0.0
  0
LINE
  5
B03
330
18
100
AcDbEntity
  8
中心線
100
AcDbLine
 10
300.2427193271836
 20
259.4681228455099
 30
0.0
 11
301.7427193271836
 21
259.4681228455099
 31
0.0
  0
LINE
  5
B04
330
18
100
AcDbEntity
  8
中心線
100
AcDbLine
 10
300.2427193271836
 20
260.7181228455099
 30
0.0
 11
301.7427193271836
 21
260.7181228455099
 31
0.0
  0
LINE
  5
B05
330
18
100
AcDbEntity
  8
中心線
100
AcDbLine
 10
300.2427193271836
 20
264.2181228455099
 30
0.0
 11
301.7427193271836
 21
264.2181228455099
 31
0.0
  0
LINE
  5
B06
330
18
100
AcDbEntity
  8
中心線
100
AcDbLine
 10
300.2427193271836
 20
265.4681228455099
 30
0.0
 11
301.7427193271836
 21
265.4681228455099
 31
0.0
  0
LINE
  5
B07
330
18
100
AcDbEntity
  8
外形線
100
AcDbLine
 10
301.7427193271836
 20
267.4681228455099
 30
0.0
 11
306.4927193271835
 21
267.4681228455099
 31
0.0
  0
LINE
  5
B08
330
18
100
AcDbEntity
  8
外形線
100
AcDbLine
 10
301.7427193271836
 20
269.4681228455099
 30
0.0
 11
306.4927193271836
 21
269.4681228455099
 31
0.0
  0
LINE
  5
B40
330
18
100
AcDbEntity
  8
中心線
100
AcDbLine
 10
394.3811440069171
 20
224.1384955158763
 30
0.0
 11
394.3811440069171
 21
342.2815881703311
 31
0.0
  0
LINE
  5
B41
330
18
100
AcDbEntity
  8
中心線
100
AcDbLine
 10
300.9927193271836
 20
223.6353876356699
 30
0.0
 11
300.9927193271836
 21
299.5660358900086
 31
0.0
  0
ARC
  5
B55
330
18
100
AcDbEntity
  8
外形線
100
AcDbCircle
 10
394.3811440069171
 20
227.91812284551
 30
0.0
 40
1.55
100
AcDbArc
 50
189.2817990866808
 51
350.7182009133192
  0
LINE
  5
B56
330
18
100
AcDbEntity
  8
外形線
100
AcDbLine
 10
396.2311440069171
 20
227.6681228455099
 30
0.0
 11
396.8811440069172
 21
230.0681228455099
 31
0.0
  0
LINE
  5
B57
330
18
100
AcDbEntity
  8
外形線
100
AcDbLine
 10
392.5311440069171
 20
227.6681228455099
 30
0.0
 11
391.8811440069172
 21
230.0681228455099
 31
0.0
  0
LINE
  5
B58
330
18
100
AcDbEntity
  8
外形線
100
AcDbLine
 10
392.5311440069171
 20
227.6681228455099
 30
0.0
 11
396.2311440069171
 21
227.6681228455099
 31
0.0
  0
LINE
  5
B59
330
18
100
AcDbEntity
  8
外形線
100
AcDbLine
 10
391.8811440069172
 20
230.0681228455099
 30
0.0
 11
396.8811440069172
 21
230.0681228455099
 31
0.0
  0
LINE
  5
B5A
330
18
100
AcDbEntity
  8
外形線
100
AcDbLine
 10
396.8811440069172
 20
230.0681228455099
 30
0.0
 11
396.8811440069172
 21
231.4681228455099
 31
0.0
  0
LINE
  5
B5B
330
18
100
AcDbEntity
  8
外形線
100
AcDbLine
 10
391.8811440069172
 20
230.0681228455099
 30
0.0
 11
391.8811440069172
 21
231.4681228455099
 31
0.0
  0
ARC
  5
B5C
330
18
100
AcDbEntity
  8
外形線
100
AcDbCircle
 10
300.9927193271836
 20
227.91812284551
 30
0.0
 40
1.55
100
AcDbArc
 50
189.2817990866808
 51
350.7182009133192
  0
LINE
  5
B5D
330
18
100
AcDbEntity
  8
外形線
100
AcDbLine
 10
298.4927193271836
 20
230.0681228455099
 30
0.0
 11
303.4927193271836
 21
230.0681228455099
 31
0.0
  0
LINE
  5
B5E
330
18
100
AcDbEntity
  8
外形線
100
AcDbLine
 10
299.1427193271836
 20
227.6681228455099
 30
0.0
 11
302.8427193271836
 21
227.6681228455099
 31
0.0
  0
LINE
  5
B5F
330
18
100
AcDbEntity
  8
外形線
100
AcDbLine
 10
299.1427193271836
 20
227.6681228455099
 30
0.0
 11
298.4927193271836
 21
230.0681228455099
 31
0.0
  0
LINE
  5
B60
330
18
100
AcDbEntity
  8
外形線
100
AcDbLine
 10
298.4927193271836
 20
230.0681228455099
 30
0.0
 11
298.4927193271836
 21
231.4681228455099
 31
0.0
  0
LINE
  5
B61
330
18
100
AcDbEntity
  8
外形線
100
AcDbLine
 10
302.8427193271836
 20
227.6681228455099
 30
0.0
 11
303.4927193271836
 21
230.0681228455099
 31
0.0
  0
LINE
  5
B62
330
18
100
AcDbEntity
  8
外形線
100
AcDbLine
 10
303.4927193271836
 20
230.0681228455099
 30
0.0
 11
303.4927193271836
 21
231.4681228455099
 31
0.0
  0
LINE
  5
C9D
330
18
100
AcDbEntity
  8
中心線
100
AcDbLine
 10
372.9790807727534
 20
320.0612384793284
 30
0.0
 11
415.6818474231299
 21
320.0612384793284
 31
0.0
  0
SPLINE
  5
ED4
102
{ACAD_REACTORS
330
ED5
102
}
330
18
100
AcDbEntity
  8
ROGO
 62
     4
100
AcDbSpline
210
0.0
220
0.0
230
1.0
 70
     8
 71
     3
 72
    26
 73
    22
 74
    20
 42
0.0000000001
 43
0.0000000001
 44
0.0000000001
 40
0.0
 40
0.0
 40
0.0
 40
0.0
 40
0.192709926517359
 40
0.3217143003794702
 40
0.4147369596493151
 40
0.4841939694030036
 40
0.5742833564486314
 40
0.6400398264177793
 40
0.7587806847072302
 40
0.85543403626391
 40
0.9211738023510154
 40
0.9856350088615936
 40
1.100943575280596
 40
1.182480494385231
 40
1.226394424896034
 40
1.288772865988436
 40
1.333817737941397
 40
1.399072885742879
 40
1.436001654955409
 40
1.516362799066872
 40
1.553056395558915
 40
1.553056395558915
 40
1.553056395558915
 40
1.553056395558915
 10
394.759441964826
 20
326.8441788485976
 30
0.0
 10
394.694033238233
 20
326.8402764518048
 30
0.0
 10
394.5848384339234
 20
326.8337617025303
 30
0.0
 10
394.4649432030544
 20
326.7609266373569
 30
0.0
 10
394.3771009378682
 20
326.7185835311943
 30
0.0
 10
394.3144519408687
 20
326.6610216857618
 30
0.0
 10
394.2685299721075
 20
326.6015645042429
 30
0.0
 10
394.2106367095456
 20
326.5307217084146
 30
0.0
 10
394.1634264082275
 20
326.4482281394041
 30
0.0
 10
394.1393850718657
 20
326.3573058449909
 30
0.0
 10
394.1180894842929
 20
326.2848402487954
 30
0.0
 10
394.1022963200412
 20
326.2040867987888
 30
0.0
 10
394.1063145481256
 20
326.1168446652039
 30
0.0
 10
394.1120688346417
 20
326.0358186378626
 30
0.0
 10
394.1377603246798
 20
325.9779781856013
 30
0.0
 10
394.1670183810858
 20
325.9367997693294
 30
0.0
 10
394.2028444704682
 20
325.8914463090421
 30
0.0
 10
394.2420460467748
 20
325.8614088591539
 30
0.0
 10
394.2744689502357
 20
325.8069940002136
 30
0.0
 10
394.3312241489783
 20
325.8000502717703
 30
0.0
 10
394.3673000112188
 20
325.7862301797423
 30
0.0
 10
394.3786088495053
 20
325.7818979427245
 30
0.0
 11
394.759441964826
 21
326.8441788485976
 31
0.0
 11
394.5690254071657
 21
326.8145368117729
 31
0.0
 11
394.4536212820091
 21
326.7568825285635
 31
0.0
 11
394.3728385602982
 21
326.7107591395876
 31
0.0
 11
394.3209069528257
 21
326.664635562653
 31
0.0
 11
394.2632050561461
 21
326.5954503852098
 31
0.0
 11
394.2228136952907
 21
326.5435615491172
 31
0.0
 11
394.1651114668136
 21
326.4397836889731
 31
0.0
 11
394.1362606843726
 21
326.3475367230626
 31
0.0
 11
394.1189501485484
 21
326.2841169927363
 31
0.0
 11
394.107409570134
 21
326.22069726241
 31
0.0
 11
394.107409570134
 21
326.105388695991
 31
0.0
 11
394.1189501485484
 21
326.0246726243142
 31
0.0
 11
394.1362606843726
 21
325.9843144944964
 31
0.0
 11
394.1708817560208
 21
325.9324256584037
 31
0.0
 11
394.1997328702594
 21
325.8978329757028
 31
0.0
 11
394.2458941885245
 21
325.851709586727
 31
0.0
 11
394.2689750135559
 21
325.8228823511428
 31
0.0
 11
394.3439877778571
 21
325.7940553035175
 31
0.0
 11
394.3786088495053
 21
325.7818979427245
 31
0.0
  0
HATCH
  5
ED5
330
18
100
AcDbEntity
  8
ROGO
 62
     4
100
AcDbHatch
 10
0.0
 20
0.0
 30
0.0
210
0.0
220
0.0
230
1.0
  2
SOLID
 70
     1
 71
     1
 91
        1
 92
        5
 93
        8
 72
     1
 10
395.6261748280439
 20
326.4489414783893
 11
395.8232529458087
 21
326.8441788485976
 72
     1
 10
395.8232529458087
 20
326.8441788485976
 11
394.7594419648262
 21
326.8441788485977
 72
     4
 94
        3
 73
     0
 74
     0
 95
       26
 96
       22
 40
0.0
 40
0.0
 40
0.0
 40
0.0
 40
0.192709926517359
 40
0.3217143003794702
 40
0.4147369596493151
 40
0.4841939694030036
 40
0.5742833564486314
 40
0.6400398264177793
 40
0.7587806847072302
 40
0.85543403626391
 40
0.9211738023510154
 40
0.9856350088615936
 40
1.100943575280596
 40
1.182480494385231
 40
1.226394424896034
 40
1.288772865988436
 40
1.333817737941397
 40
1.399072885742879
 40
1.436001654955409
 40
1.516362799066872
 40
1.553056395558915
 40
1.553056395558915
 40
1.553056395558915
 40
1.553056395558915
 10
394.759441964826
 20
326.8441788485976
 10
394.694033238233
 20
326.8402764518048
 10
394.5848384339234
 20
326.8337617025303
 10
394.4649432030544
 20
326.7609266373569
 10
394.3771009378682
 20
326.7185835311943
 10
394.3144519408687
 20
326.6610216857618
 10
394.2685299721075
 20
326.6015645042429
 10
394.2106367095456
 20
326.5307217084146
 10
394.1634264082275
 20
326.4482281394041
 10
394.1393850718657
 20
326.3573058449909
 10
394.1180894842929
 20
326.2848402487954
 10
394.1022963200412
 20
326.2040867987888
 10
394.1063145481256
 20
326.1168446652039
 10
394.1120688346417
 20
326.0358186378626
 10
394.1377603246798
 20
325.9779781856013
 10
394.1670183810858
 20
325.9367997693294
 10
394.2028444704682
 20
325.8914463090421
 10
394.2420460467748
 20
325.8614088591539
 10
394.2744689502357
 20
325.8069940002136
 10
394.3312241489783
 20
325.8000502717703
 10
394.3673000112188
 20
325.7862301797423
 10
394.3786088495053
 20
325.7818979427245
 72
     1
 10
394.3786088495054
 20
325.7818979427245
 11
395.2935653776608
 21
325.7818979427245
 72
     1
 10
395.2935653776608
 20
325.7818979427245
 11
395.4906414084221
 21
326.1771311274771
 72
     1
 10
395.4906414084221
 20
326.1771311274771
 11
394.8113735722984
 21
326.177131127477
 72
     4
 94
        3
 73
     0
 74
     0
 95
       16
 96
       12
 40
0.0
 40
0.0
 40
0.0
 40
0.0
 40
0.0581978857823718
 40
0.1169960404798393
 40
0.1520664971353025
 40
0.1856918471252238
 40
0.2226204696140246
 40
0.2484086653137974
 40
0.2728794248980208
 40
0.3225026120845604
 40
0.4241003886766817
 40
0.4241003886766817
 40
0.4241003886766817
 40
0.4241003886766817
 10
394.8113735722984
 20
326.1771311274771
 10
394.7908844605835
 20
326.1831593245679
 10
394.7496949068506
 20
326.1952778952236
 10
394.7462476738163
 20
326.2540242737578
 10
394.7509440300976
 20
326.2958858756633
 10
394.7706123806924
 20
326.3263635664107
 10
394.7944735013942
 20
326.3485400964934
 10
394.8033580549013
 20
326.3774215594902
 10
394.8294733904689
 20
326.3992306774389
 10
394.8757828778908
 20
326.4358887581789
 10
394.926993154332
 20
326.4436961103049
 10
394.9613987691033
 20
326.4489414783893
 72
     1
 10
394.9613987691034
 20
326.4489414783892
 11
395.6261748280439
 21
326.4489414783893
 97
        8
330
FB5
330
ED4
330
FBC
330
FBF
330
FB6
330
FB9
330
FB7
330
FB8
 75
     0
 76
     1
 47
0.0514683685270805
 98
        1
 10
395.131496051791
 20
326.6077026651785
450
        0
451
        0
460
0.0
461
0.0
452
        0
462
0.0
453
        0
470

  0
LINE
  5
ED6
330
18
100
AcDbEntity
  8
ROGO
 62
     4
100
AcDbLine
 10
388.8520122506583
 20
325.3506711057097
 30
0.0
 11
398.7237910935819
 21
325.3506711057097
 31
0.0
  0
HATCH
  5
ED7
330
18
100
AcDbEntity
  8
ROGO
 62
     4
100
AcDbHatch
 10
0.0
 20
0.0
 30
0.0
210
0.0
220
0.0
230
1.0
  2
SOLID
 70
     1
 71
     0
 91
        1
 92
        7
 72
     0
 73
     1
 93
        4
 10
388.8635507998001
 20
325.3506711057097
 10
388.7882762920895
 20
325.1842922636139
 10
398.6408292293764
 20
325.1842922636139
 10
398.7237910935818
 20
325.3506711057097
 97
        0
 75
     0
 76
     1
 47
0.0514683685270805
 98
        1
 10
395.0894924871947
 20
325.3066665758768
450
        0
451
        0
460
0.0
461
0.0
452
        0
462
0.0
453
        0
470

  0
LINE
  5
ED8
102
{ACAD_REACTORS
330
FCF
330
F29
102
}
330
18
100
AcDbEntity
  8
ROGO
 62
     4
100
AcDbLine
 10
388.0166900643112
 20
325.1842922636139
 30
0.0
 11
399.252470263213
 21
325.1842922636139
 31
0.0
  0
CIRCLE
  5
ED9
330
18
100
AcDbEntity
  8
針
100
AcDbCircle
 10
394.3811440069171
 20
320.0612384793284
 30
0.0
 40
0.3
  0
CIRCLE
  5
EDA
330
18
100
AcDbEntity
  8
針
100
AcDbCircle
 10
394.3811440069171
 20
320.0612384793284
 30
0.0
 40
1.3
  0
CIRCLE
  5
EDB
330
18
100
AcDbEntity
  8
針
100
AcDbCircle
 10
394.3811440069171
 20
320.0612384793284
 30
0.0
 40
1.5
  0
TEXT
  5
EDC
330
18
100
AcDbEntity
  8
文字
100
AcDbText
 10
392.1848506068607
 20
313.5539295074803
 30
0.0
 40
1.0
  1
T-2B
  7
STYLE3
100
AcDbText
  0
TEXT
  5
EDD
330
18
100
AcDbEntity
  8
文字
100
AcDbText
 10
392.9675935017911
 20
307.1474068301948
 30
0.0
 40
1.9
  1
50
 41
0.8
  7
STYLE3
100
AcDbText
  0
TEXT
  5
EDE
330
18
100
AcDbEntity
  8
文字
100
AcDbText
 10
393.6157102025591
 20
331.2087216067113
 30
0.0
 40
1.9
  1
0
 41
0.8
  7
STYLE3
100
AcDbText
  0
CIRCLE
  5
EDF
330
18
100
AcDbEntity
  8
外形線
100
AcDbCircle
 10
394.3811440069171
 20
320.0612384793284
 30
0.0
 40
10.5
  0
CIRCLE
  5
EE0
330
18
100
AcDbEntity
  8
外形線
100
AcDbCircle
 10
394.3811440069171
 20
320.0612384793284
 30
0.0
 40
16.5
  0
CIRCLE
  5
EE1
330
18
100
AcDbEntity
  8
外形線
100
AcDbCircle
 10
394.3811440069171
 20
320.0612384793284
 30
0.0
 40
19.0
  0
TEXT
  5
EE3
330
18
100
AcDbEntity
  8
文字
100
AcDbText
 10
388.0378309426865
 20
317.4680952938461
 30
0.0
 40
1.0
  1
1
  7
STYLE3
100
AcDbText
  0
LINE
  5
EE4
330
18
100
AcDbEntity
  8
中心線
100
AcDbLine
 10
388.7746923661732
 20
315.677071130998
 30
0.0
 11
388.7746923661732
 21
325.1067627781911
 31
0.0
  0
ARC
  5
EE5
330
18
100
AcDbEntity
  8
外形線
100
AcDbCircle
 10
388.7746923661732
 20
320.4512384793284
 30
0.0
 40
4.0
100
AcDbArc
 50
30.00000000000032
 51
330.0000000000002
  0
LINE
  5
EE6
330
18
100
AcDbEntity
  8
目盛
100
AcDbLine
 10
389.2823635997304
 20
304.3688059604584
 30
0.0
 11
390.2094145828553
 21
307.2219755093438
 31
0.0
  0
LINE
  5
EE7
330
18
100
AcDbEntity
  8
目盛
100
AcDbLine
 10
388.3070888876199
 20
304.7199264621723
 30
0.0
 11
388.9697130824524
 21
306.3935241367711
 31
0.0
  0
LINE
  5
EE8
330
18
100
AcDbEntity
  8
目盛
100
AcDbLine
 10
387.3557856960934
 20
305.1315921136391
 30
0.0
 11
388.1221884209105
 21
306.760280808078
 31
0.0
  0
LINE
  5
EE9
330
18
100
AcDbEntity
  8
目盛
100
AcDbLine
 10
386.4322083842388
 20
305.6021782586046
 30
0.0
 11
387.2993649976219
 21
307.1795302826836
 31
0.0
  0
LINE
  5
EEA
330
18
100
AcDbEntity
  8
目盛
100
AcDbLine
 10
393.3451004346835
 20
303.5937974602619
 30
0.0
 11
393.4581233698361
 21
305.3902455714328
 31
0.0
  0
LINE
  5
EEB
330
18
100
AcDbEntity
  8
目盛
100
AcDbLine
 10
392.3131456531061
 20
303.6913459076396
 30
0.0
 11
392.5387454735218
 21
305.4771523700056
 31
0.0
  0
LINE
  5
EEC
330
18
100
AcDbEntity
  8
目盛
100
AcDbLine
 10
391.2893523162527
 20
303.8534988423051
 30
0.0
 11
391.626638682507
 21
305.6216158936167
 31
0.0
  0
LINE
  5
EED
330
18
100
AcDbEntity
  8
目盛
100
AcDbLine
 10
390.277760868697
 20
304.079616320706
 30
0.0
 11
390.7254026655937
 21
305.8230660107375
 31
0.0
  0
TEXT
  5
EEE
330
18
100
AcDbEntity
  8
文字
100
AcDbText
 10
385.4576404683649
 20
309.6114939813835
 30
0.0
 40
1.9
  1
40
 41
0.8
  7
STYLE3
100
AcDbText
  0
LINE
  5
EEF
330
18
100
AcDbEntity
  8
目盛
100
AcDbLine
 10
385.5400018897636
 20
306.1298277085452
 30
0.0
 11
386.5044901207258
 21
307.6496179744488
 31
0.0
  0
LINE
  5
EF0
330
18
100
AcDbEntity
  8
目盛
100
AcDbLine
 10
384.6826873440913
 20
306.7124580721417
 30
0.0
 11
386.4460431009687
 21
309.1395090552666
 31
0.0
  0
LINE
  5
EF1
330
18
100
AcDbEntity
  8
目盛
100
AcDbLine
 10
381.0323635997304
 20
310.3627818165026
 30
0.0
 11
383.4594145828553
 21
312.12613757338
 31
0.0
  0
LINE
  5
EF2
330
18
100
AcDbEntity
  8
目盛
100
AcDbLine
 10
380.4497332361338
 20
311.2200963621749
 30
0.0
 11
381.9695235020375
 21
312.1845845931371
 31
0.0
  0
LINE
  5
EF3
330
18
100
AcDbEntity
  8
目盛
100
AcDbLine
 10
381.6676755011165
 20
309.543742648475
 30
0.0
 11
383.054599338113
 21
310.6911058300227
 31
0.0
  0
LINE
  5
EF4
330
18
100
AcDbEntity
  8
目盛
100
AcDbLine
 10
383.8636481760637
 20
307.3477699735278
 30
0.0
 11
385.0110113576113
 21
308.7346938105243
 31
0.0
  0
LINE
  5
EF5
330
18
100
AcDbEntity
  8
目盛
100
AcDbLine
 10
383.0861167590937
 20
308.0332561268751
 30
0.0
 11
384.3183015497654
 21
309.3453996562336
 31
0.0
  0
LINE
  5
EF6
330
18
100
AcDbEntity
  8
目盛
100
AcDbLine
 10
382.3531616544638
 20
308.766211231505
 30
0.0
 11
383.6653051838223
 21
309.9983960221767
 31
0.0
  0
TEXT
  5
EF7
330
18
100
AcDbEntity
  8
文字
100
AcDbText
 10
381.485649599149
 20
314.9406317857682
 30
0.0
 40
1.9
  1
30
 41
0.8
  7
STYLE3
100
AcDbText
  0
LINE
  5
EF8
330
18
100
AcDbEntity
  8
目盛
100
AcDbLine
 10
379.9220837861933
 20
312.1123028566501
 30
0.0
 11
381.4994358102723
 21
312.9794594700332
 31
0.0
  0
LINE
  5
EF9
330
18
100
AcDbEntity
  8
目盛
100
AcDbLine
 10
379.4514976412277
 20
313.0358801685046
 30
0.0
 11
381.0801863356666
 21
313.8022828933218
 31
0.0
  0
LINE
  5
EFA
330
18
100
AcDbEntity
  8
目盛
100
AcDbLine
 10
379.0398319897609
 20
313.9871833600312
 30
0.0
 11
380.7134296643598
 21
314.6498075548636
 31
0.0
  0
LINE
  5
EFB
330
18
100
AcDbEntity
  8
目盛
100
AcDbLine
 10
378.6887114880471
 20
314.9624580721417
 30
0.0
 11
381.5418810369325
 21
315.8895090552666
 31
0.0
  0
LINE
  5
EFC
330
18
100
AcDbEntity
  8
目盛
100
AcDbLine
 10
378.3995218482947
 20
315.9578553411083
 30
0.0
 11
380.1429715383262
 21
316.405497138005
 31
0.0
  0
LINE
  5
EFD
330
18
100
AcDbEntity
  8
目盛
100
AcDbLine
 10
378.1734043698938
 20
316.9694467886639
 30
0.0
 11
379.9415214212054
 21
317.3067331549182
 31
0.0
  0
LINE
  5
EFE
330
18
100
AcDbEntity
  8
目盛
100
AcDbLine
 10
388.7746923661732
 20
316.4512384793284
 30
0.0
 11
388.7746923661732
 21
316.9512384793284
 31
0.0
  0
HATCH
  5
EFF
330
18
100
AcDbEntity
  8
針
100
AcDbHatch
 10
0.0
 20
0.0
 30
0.0
210
0.0
220
0.0
230
1.0
  2
SOLID
 70
     1
 71
     0
 91
        1
 92
        7
 72
     1
 73
     1
 93
        7
 10
392.9839255990294
 20
321.5638469038186
 42
-0.1668603303035176
 10
393.1658617866511
 20
320.9404933485815
 42
-0.1594072402788509
 10
393.9204657930538
 20
321.4887452510362
 42
-0.1668603303035623
 10
393.3838427062564
 20
321.8544036898961
 42
0.0
 10
385.6209964121362
 20
332.2376383626131
 42
0.0
 10
385.56436522253
 20
332.1964933949526
 42
0.0
 10
385.5077340329238
 20
332.1553484272921
 42
0.0
 97
        0
 75
     0
 76
     1
 47
0.0506089553640833
 98
        1
 10
391.5541642044845
 20
323.8685040558156
450
        0
451
        0
460
0.0
461
0.0
452
        0
462
0.0
453
        0
470

  0
LINE
  5
F00
330
18
100
AcDbEntity
  8
針
100
AcDbLine
 10
392.9839255990294
 20
321.5638469038187
 30
0.0
 11
385.5077340329238
 21
332.1553484272921
 31
0.0
  0
LINE
  5
F01
330
18
100
AcDbEntity
  8
針
100
AcDbLine
 10
393.3838427062565
 20
321.854403689896
 30
0.0
 11
385.6209964121362
 21
332.2376383626131
 31
0.0
  0
TEXT
  5
F02
330
18
100
AcDbEntity
  8
文字
100
AcDbText
 10
385.7031793538824
 20
328.8007699190692
 30
0.0
 40
1.9
  1
10
 41
0.8
  7
STYLE3
100
AcDbText
  0
LINE
  5
F03
330
18
100
AcDbEntity
  8
目盛
100
AcDbLine
 10
381.0323635997305
 20
329.7596951421541
 30
0.0
 11
383.4594145828554
 21
327.9963393852767
 31
0.0
  0
LINE
  5
F04
330
18
100
AcDbEntity
  8
中心線
 48
0.5
100
AcDbLine
 10
383.6371495514678
 20
320.4512384793284
 30
0.0
 11
393.6229445890266
 21
320.4512384793284
 31
0.0
  0
TEXT
  5
F05
330
18
100
AcDbEntity
  8
文字
100
AcDbText
 10
381.5860767705818
 20
323.1255019438492
 30
0.0
 40
1.9
  1
20
 41
0.8
  7
STYLE3
100
AcDbText
  0
POINT
  5
F06
330
18
100
AcDbEntity
  8
DEFPOINTS
  6
ByBlock
 62
     0
100
AcDbPoint
 10
377.8811440069171
 20
320.0612384793284
 30
0.0
  0
LINE
  5
F07
330
18
100
AcDbEntity
  8
目盛
100
AcDbLine
 10
377.8811440069171
 20
320.0612384793284
 30
0.0
 11
380.8811440069171
 21
320.0612384793284
 31
0.0
  0
LINE
  5
F08
330
18
100
AcDbEntity
  8
目盛
100
AcDbLine
 10
377.9137029878506
 20
321.0972820515621
 30
0.0
 11
379.7101510990215
 21
320.9842591164092
 31
0.0
  0
LINE
  5
F09
330
18
100
AcDbEntity
  8
目盛
100
AcDbLine
 10
378.0112514352282
 20
322.1292368331394
 30
0.0
 11
379.7970578975943
 21
321.9036370127237
 31
0.0
  0
LINE
  5
F0A
330
18
100
AcDbEntity
  8
目盛
100
AcDbLine
 10
378.1734043698938
 20
323.1530301699929
 30
0.0
 11
379.9415214212054
 21
322.8157438037385
 31
0.0
  0
LINE
  5
F0B
330
18
100
AcDbEntity
  8
目盛
100
AcDbLine
 10
378.0112514352282
 20
317.9932401255174
 30
0.0
 11
379.7970578975943
 21
318.2188399459331
 31
0.0
  0
LINE
  5
F0C
330
18
100
AcDbEntity
  8
目盛
100
AcDbLine
 10
377.9137029878506
 20
319.0251949070947
 30
0.0
 11
379.7101510990216
 21
319.1382178422474
 31
0.0
  0
LINE
  5
F0D
330
18
100
AcDbEntity
  8
目盛
100
AcDbLine
 10
385.3105907510354
 20
318.4512384793284
 30
0.0
 11
385.7436034529277
 21
318.7012384793284
 31
0.0
  0
LINE
  5
F0E
330
18
100
AcDbEntity
  8
目盛
100
AcDbLine
 10
385.3105907510354
 20
322.4512384793284
 30
0.0
 11
385.7436034529277
 21
322.2012384793284
 31
0.0
  0
LINE
  5
F0F
330
18
100
AcDbEntity
  8
目盛
100
AcDbLine
 10
380.4497332361338
 20
328.9023805964818
 30
0.0
 11
381.9695235020375
 21
327.9378923655197
 31
0.0
  0
LINE
  5
F10
330
18
100
AcDbEntity
  8
目盛
100
AcDbLine
 10
378.3995218482947
 20
324.1646216175484
 30
0.0
 11
380.1429715383262
 21
323.7169798206518
 31
0.0
  0
LINE
  5
F11
330
18
100
AcDbEntity
  8
目盛
100
AcDbLine
 10
378.6887114880471
 20
325.160018886515
 30
0.0
 11
381.5418810369325
 21
324.2329679033901
 31
0.0
  0
LINE
  5
F12
330
18
100
AcDbEntity
  8
目盛
100
AcDbLine
 10
379.0398319897609
 20
326.1352935986256
 30
0.0
 11
380.7134296643599
 21
325.4726694037932
 31
0.0
  0
LINE
  5
F13
330
18
100
AcDbEntity
  8
目盛
100
AcDbLine
 10
379.4514976412278
 20
327.0865967901521
 30
0.0
 11
381.0801863356666
 21
326.3201940653349
 31
0.0
  0
LINE
  5
F14
330
18
100
AcDbEntity
  8
目盛
100
AcDbLine
 10
379.9220837861934
 20
328.0101741020067
 30
0.0
 11
381.4994358102723
 21
327.1430174886236
 31
0.0
  0
TEXT
  5
F15
330
18
100
AcDbEntity
  8
文字
100
AcDbText
 10
388.1333889511767
 20
322.5525828077855
 30
0.0
 40
1.0
  1
4
  7
STYLE3
100
AcDbText
  0
HATCH
  5
F16
330
18
100
AcDbEntity
  8
針
100
AcDbHatch
 10
0.0
 20
0.0
 30
0.0
210
0.0
220
0.0
230
1.0
  2
SOLID
 70
     1
 71
     0
 91
        1
 92
        7
 72
     1
 73
     1
 93
        8
 10
392.0666802391829
 20
322.1432242487593
 42
0.0
 10
392.018581362291
 20
322.23089692433
 42
0.0
 10
391.970482485399
 20
322.3185695999008
 42
0.0
 10
389.5951818229236
 20
321.0568875077286
 42
-0.2549126588031013
 10
389.1164923887016
 20
321.0621171453494
 42
-0.2715629362680927
 10
389.4746923661732
 20
320.4512384793284
 42
-0.0142778909821208
 10
389.4735512257252
 20
320.4112848258575
 42
-0.2549126591494497
 10
389.7263402396556
 20
320.8178172827762
 42
0.0
 97
        0
 75
     0
 76
     1
 47
0.0080572292577995
 98
        1
 10
390.3896470111313
 20
321.3121653084914
450
        0
451
        0
460
0.0
461
0.0
452
        0
462
0.0
453
        0
470

  0
LINE
  5
F17
330
18
100
AcDbEntity
  8
針
100
AcDbLine
 10
389.5951818229237
 20
321.0568875077286
 30
0.0
 11
391.9704824853991
 21
322.3185695999008
 31
0.0
  0
LINE
  5
F18
330
18
100
AcDbEntity
  8
針
100
AcDbLine
 10
389.7263402396556
 20
320.8178172827762
 30
0.0
 11
392.0666802391829
 21
322.1432242487593
 31
0.0
  0
ARC
  5
F19
330
18
100
AcDbEntity
  8
針
100
AcDbCircle
 10
389.360632683018
 20
321.4984604926014
 30
0.0
 40
0.5
100
AcDbArc
 50
240.7721702881896
 51
297.9757798350735
  0
ARC
  5
F1A
330
18
100
AcDbEntity
  8
針
100
AcDbCircle
 10
389.97273595679
 20
320.3827435527283
 30
0.0
 40
0.5
100
AcDbArc
 50
119.5242201649264
 51
176.7278297118104
  0
CIRCLE
  5
F1B
330
18
100
AcDbEntity
  8
針
100
AcDbCircle
 10
388.7746923661732
 20
320.4512384793284
 30
0.0
 40
0.4
  0
CIRCLE
  5
F1C
330
18
100
AcDbEntity
  8
針
100
AcDbCircle
 10
388.7746923661732
 20
320.4512384793284
 30
0.0
 40
0.275
  0
CIRCLE
  5
F1D
330
18
100
AcDbEntity
  8
針
100
AcDbCircle
 10
388.7746923661732
 20
320.4512384793284
 30
0.0
 40
0.7
  0
TEXT
  5
F1E
330
18
100
AcDbEntity
  8
文字
100
AcDbText
 10
386.002205363441
 20
321.3112998704854
 30
0.0
 40
1.0
  1
3
  7
STYLE3
100
AcDbText
  0
TEXT
  5
F1F
330
18
100
AcDbEntity
  8
文字
100
AcDbText
 10
386.1933213804216
 20
318.542282617365
 30
0.0
 40
1.0
  1
2
  7
STYLE3
100
AcDbText
  0
LINE
  5
F20
330
18
100
AcDbEntity
  8
針
100
AcDbLine
 10
392.018581362291
 20
322.23089692433
 30
0.0
 11
391.9704824853991
 21
322.3185695999007
 31
0.0
  0
LINE
  5
F21
330
18
100
AcDbEntity
  8
針
100
AcDbLine
 10
392.018581362291
 20
322.23089692433
 30
0.0
 11
392.0666802391829
 21
322.1432242487594
 31
0.0
  0
ARC
  5
F22
330
18
100
AcDbEntity
  8
針
100
AcDbCircle
 10
392.1669518322498
 20
320.9871720696235
 30
0.0
 40
1.0
100
AcDbArc
 50
357.3245340939475
 51
35.21700642616058
  0
ARC
  5
F23
330
18
100
AcDbEntity
  8
針
100
AcDbCircle
 10
394.1847518429947
 20
322.4531895904393
 30
0.0
 40
1.0
100
AcDbArc
 50
216.7829935738394
 51
254.6754659060525
  0
TEXT
  5
F24
330
18
100
AcDbEntity
  8
文字
100
AcDbText
 10
390.4695350110826
 20
318.5661536793183
 30
0.0
 40
1.0
  1
0
  7
STYLE3
100
AcDbText
  0
TEXT
  5
F25
330
18
100
AcDbEntity
  8
文字
100
AcDbText
 10
390.5889827176218
 20
321.4067832083525
 30
0.0
 40
1.0
  1
5
  7
STYLE3
100
AcDbText
  0
LINE
  5
F26
330
18
100
AcDbEntity
  8
目盛
100
AcDbLine
 10
392.2387939813109
 20
322.4512384793284
 30
0.0
 11
391.8057812794188
 21
322.2012384793284
 31
0.0
  0
LINE
  5
F27
330
18
100
AcDbEntity
  8
目盛
100
AcDbLine
 10
392.2387939813109
 20
318.4512384793284
 30
0.0
 11
391.8057812794188
 21
318.7012384793284
 31
0.0
  0
SPLINE
  5
F28
102
{ACAD_REACTORS
330
F29
102
}
330
18
100
AcDbEntity
  8
ROGO
 62
     4
100
AcDbSpline
210
0.0
220
0.0
230
1.0
 70
     8
 71
     3
 72
    18
 73
    14
 74
     0
 42
0.0000000001
 43
0.0000000001
 40
0.1087402787915014
 40
0.1087402787915014
 40
0.1087402787915014
 40
0.1087402787915014
 40
0.5992371417938475
 40
1.083176791562496
 40
1.448211145705696
 40
1.714037220764907
 40
2.164002567013297
 40
2.740236056362883
 40
3.395137510199602
 40
4.071816045172726
 40
4.784906178399433
 40
5.506895915094292
 40
6.060470601257719
 40
6.060470601257719
 40
6.060470601257719
 40
6.060470601257719
 10
390.1424321412878
 20
326.8441788485976
 30
0.0
 10
390.1842226087068
 20
326.8288633426013
 30
0.0
 10
390.2664031317834
 20
326.7964840224705
 30
0.0
 10
390.3667021507774
 20
326.7225837147888
 30
0.0
 10
390.4214009049382
 20
326.6372718480325
 30
0.0
 10
390.4740149826082
 20
326.5532122786014
 30
0.0
 10
390.4813782267347
 20
326.4326146093389
 30
0.0
 10
390.4693167354052
 20
326.280149925749
 30
0.0
 10
390.3914488370404
 20
326.1210687618321
 30
0.0
 10
390.266466280383
 20
325.9819301508259
 30
0.0
 10
390.1112917143164
 20
325.870565421163
 30
0.0
 10
389.9476547819351
 20
325.7831469761977
 30
0.0
 10
389.8306870566695
 20
325.7822759529641
 30
0.0
 10
389.7799249229467
 20
325.7818979427245
 30
0.0
  0
HATCH
  5
F29
330
18
100
AcDbEntity
  8
ROGO
 62
     4
100
AcDbHatch
 10
0.0
 20
0.0
 30
0.0
210
0.0
220
0.0
230
1.0
  2
SOLID
 70
     1
 71
     1
 91
        2
 92
        5
 93
        6
 72
     1
 10
388.0166900643112
 20
325.1842922636139
 11
388.7882762920894
 21
325.1842922636139
 72
     1
 10
388.7882762920894
 20
325.1842922636139
 11
389.0586500531608
 21
325.7818979427245
 72
     1
 10
389.0586500531608
 20
325.7818979427245
 11
389.7799249229466
 21
325.7818979427245
 72
     4
 94
        3
 73
     0
 74
     0
 95
       18
 96
       14
 40
0.108740278791501
 40
0.108740278791501
 40
0.108740278791501
 40
0.108740278791501
 40
0.6623149649549278
 40
1.384304701649787
 40
2.097394834876493
 40
2.774073369849618
 40
3.428974823686337
 40
4.005208313035923
 40
4.455173659284313
 40
4.720999734343524
 40
5.086034088486724
 40
5.569973738255373
 40
6.060470601257719
 40
6.060470601257719
 40
6.060470601257719
 40
6.060470601257719
 10
389.7799249229467
 20
325.7818979427245
 10
389.8306870566695
 20
325.7822759529641
 10
389.9476547819351
 20
325.7831469761977
 10
390.1112917143164
 20
325.870565421163
 10
390.266466280383
 20
325.9819301508259
 10
390.3914488370404
 20
326.1210687618321
 10
390.4693167354052
 20
326.280149925749
 10
390.4813782267347
 20
326.4326146093389
 10
390.4740149826082
 20
326.5532122786014
 10
390.4214009049382
 20
326.6372718480325
 10
390.3667021507774
 20
326.7225837147888
 10
390.2664031317834
 20
326.7964840224705
 10
390.1842226087068
 20
326.8288633426013
 10
390.1424321412878
 20
326.8441788485976
 72
     1
 10
390.1424321412878
 20
326.8441788485976
 11
388.8379865094492
 21
326.8441788485976
 72
     1
 10
388.8379865094492
 20
326.8441788485976
 11
388.0166900643112
 21
325.1842922636139
 97
        6
330
F28
330
F2E
330
F31
330
ED8
330
F2F
330
F30
 92
       20
 93
        4
 72
     1
 10
389.2255905444424
 20
326.1508856184077
 11
389.3534043434641
 21
326.433391775297
 72
     1
 10
389.3534043434641
 20
326.433391775297
 11
389.6818313336142
 21
326.4333917752968
 72
     4
 94
        3
 73
     0
 74
     0
 95
       15
 96
       11
 40
0.0
 40
0.0
 40
0.0
 40
0.0
 40
0.124555882226452
 40
0.1813465134535896
 40
0.2458076605629016
 40
0.2897215910736302
 40
0.3591719276283587
 40
0.4007707820522209
 40
0.4721407847094812
 40
0.4959308007789325
 40
0.4959308007789325
 40
0.4959308007789325
 40
0.4959308007789325
 10
389.6818313336142
 20
326.4333917752969
 10
389.7286121075579
 20
326.4336060562124
 10
389.7967223412917
 20
326.4339180374391
 10
389.8339674429101
 20
326.349665481343
 10
389.8172724125119
 20
326.2954199784552
 10
389.7962853986351
 20
326.2397267540911
 10
389.7591965918694
 20
326.2018823681621
 10
389.7094179806842
 20
326.1654318448306
 10
389.6623748142973
 20
326.1610193457633
 10
389.6317785153363
 20
326.1529123646549
 10
389.6241294369346
 20
326.1508856184075
 72
     1
 10
389.6241294369346
 20
326.1508856184076
 11
389.2255905444424
 21
326.1508856184077
 97
        4
330
F2B
330
F2D
330
F2A
330
F2C
 75
     0
 76
     1
 47
0.0514683685270805
 98
        2
 10
388.8449585689691
 20
326.3279100689602
 10
388.8449585689691
 20
326.3279100689602
450
        0
451
        0
460
0.0
461
0.0
452
        0
462
0.0
453
        0
470

  0
SPLINE
  5
F2A
102
{ACAD_REACTORS
330
F29
102
}
330
18
100
AcDbEntity
  8
ROGO
 62
     4
100
AcDbSpline
210
0.0
220
0.0
230
1.0
 70
     8
 71
     3
 72
    15
 73
    11
 74
     9
 42
0.0000000001
 43
0.0000000001
 44
0.0000000001
 40
0.0
 40
0.0
 40
0.0
 40
0.0
 40
0.124555882226452
 40
0.1813465134535896
 40
0.2458076605629016
 40
0.2897215910736302
 40
0.3591719276283587
 40
0.4007707820522209
 40
0.4721407847094812
 40
0.4959308007789325
 40
0.4959308007789325
 40
0.4959308007789325
 40
0.4959308007789325
 10
389.6818313336142
 20
326.4333917752969
 30
0.0
 10
389.7286121075579
 20
326.4336060562124
 30
0.0
 10
389.7967223412917
 20
326.4339180374391
 30
0.0
 10
389.8339674429101
 20
326.349665481343
 30
0.0
 10
389.8172724125119
 20
326.2954199784552
 30
0.0
 10
389.7962853986351
 20
326.2397267540911
 30
0.0
 10
389.7591965918694
 20
326.2018823681621
 30
0.0
 10
389.7094179806842
 20
326.1654318448306
 30
0.0
 10
389.6623748142973
 20
326.1610193457633
 30
0.0
 10
389.6317785153363
 20
326.1529123646549
 30
0.0
 10
389.6241294369346
 20
326.1508856184075
 30
0.0
 11
389.6818313336142
 21
326.4333917752969
 31
0.0
 11
389.8030054161806
 21
326.4045645397128
 31
0.0
 11
389.8260862412119
 21
326.3526757036201
 31
0.0
 11
389.8145459945949
 21
326.2892559732938
 31
0.0
 11
389.7972354587708
 21
326.2488978434761
 31
0.0
 11
389.7510738087082
 21
326.1970090073834
 31
0.0
 11
389.71645273706
 21
326.1739472189161
 31
0.0
 11
389.6472102619659
 21
326.1566510655244
 31
0.0
 11
389.6241294369346
 21
326.1508856184075
 31
0.0
  0
LINE
  5
F2B
102
{ACAD_REACTORS
330
F29
102
}
330
18
100
AcDbEntity
  8
ROGO
 62
     4
100
AcDbLine
 10
389.3534043434641
 20
326.4333917752969
 30
0.0
 11
389.2255905444424
 21
326.1508856184076
 31
0.0
  0
LINE
  5
F2C
102
{ACAD_REACTORS
330
F29
102
}
330
18
100
AcDbEntity
  8
ROGO
 62
     4
100
AcDbLine
 10
389.6241294369346
 20
326.1508856184075
 30
0.0
 11
389.2255905444424
 21
326.1508856184076
 31
0.0
  0
LINE
  5
F2D
102
{ACAD_REACTORS
330
F29
102
}
330
18
100
AcDbEntity
  8
ROGO
 62
     4
100
AcDbLine
 10
389.6818313336142
 20
326.4333917752969
 30
0.0
 11
389.3534043434641
 21
326.4333917752969
 31
0.0
  0
LINE
  5
F2E
102
{ACAD_REACTORS
330
F29
102
}
330
18
100
AcDbEntity
  8
ROGO
 62
     4
100
AcDbLine
 10
388.8379865094492
 20
326.8441788485976
 30
0.0
 11
390.1424321412878
 21
326.8441788485976
 31
0.0
  0
LINE
  5
F2F
102
{ACAD_REACTORS
330
F29
102
}
330
18
100
AcDbEntity
  8
ROGO
 62
     4
100
AcDbLine
 10
389.0586500531608
 20
325.7818979427245
 30
0.0
 11
388.7882762920894
 21
325.1842922636139
 31
0.0
  0
LINE
  5
F30
102
{ACAD_REACTORS
330
F29
102
}
330
18
100
AcDbEntity
  8
ROGO
 62
     4
100
AcDbLine
 10
389.7799249231967
 20
325.7818979427245
 30
0.0
 11
389.0586500531608
 21
325.7818979427245
 31
0.0
  0
LINE
  5
F31
102
{ACAD_REACTORS
330
F29
102
}
330
18
100
AcDbEntity
  8
ROGO
 62
     4
100
AcDbLine
 10
388.8379865094492
 20
326.8441788485976
 30
0.0
 11
388.0166900643112
 21
325.1842922636139
 31
0.0
  0
LINE
  5
F32
330
18
100
AcDbEntity
  8
目盛
100
AcDbLine
 10
388.7746923661732
 20
324.4512384793284
 30
0.0
 11
388.7746923661732
 21
323.9512384793284
 31
0.0
  0
LINE
  5
F33
102
{ACAD_REACTORS
330
F4B
102
}
330
18
100
AcDbEntity
  8
ROGO
 62
     4
100
AcDbLine
 10
393.0730287412318
 20
326.4540422601465
 30
0.0
 11
393.2580475271803
 21
326.197470634107
 31
0.0
  0
LINE
  5
F34
102
{ACAD_REACTORS
330
F4B
102
}
330
18
100
AcDbEntity
  8
ROGO
 62
     4
100
AcDbLine
 10
392.8880099552833
 20
326.197470634107
 30
0.0
 11
393.2580475271803
 21
326.197470634107
 31
0.0
  0
LINE
  5
F35
102
{ACAD_REACTORS
330
F4B
102
}
330
18
100
AcDbEntity
  8
ROGO
 62
     4
100
AcDbLine
 10
393.0730287412318
 20
326.4540422601465
 30
0.0
 11
392.8880099552833
 21
326.197470634107
 31
0.0
  0
LINE
  5
F36
102
{ACAD_REACTORS
330
F4B
102
}
330
18
100
AcDbEntity
  8
ROGO
 62
     4
100
AcDbLine
 10
394.1460385556704
 20
325.7818979427245
 30
0.0
 11
393.5577250714972
 21
325.7818979427245
 31
0.0
  0
LINE
  5
F37
102
{ACAD_REACTORS
330
F4B
102
}
330
18
100
AcDbEntity
  8
ROGO
 62
     4
100
AcDbLine
 10
393.4118774313039
 20
325.9841496546607
 30
0.0
 11
393.5577250714972
 21
325.7818979427245
 31
0.0
  0
LINE
  5
F38
102
{ACAD_REACTORS
330
F4B
102
}
330
18
100
AcDbEntity
  8
ROGO
 62
     4
100
AcDbLine
 10
393.3800071492567
 20
326.8441788485976
 30
0.0
 11
394.1460385556704
 21
325.7818979427245
 31
0.0
  0
LINE
  5
F39
102
{ACAD_REACTORS
330
F48
102
}
330
18
100
AcDbEntity
  8
ROGO
 62
     4
100
AcDbLine
 10
391.2836410872779
 20
326.2154898144995
 30
0.0
 11
391.1894986236405
 21
326.0252225688611
 31
0.0
  0
LINE
  5
F3A
102
{ACAD_REACTORS
330
F48
102
}
330
18
100
AcDbEntity
  8
ROGO
 62
     4
100
AcDbLine
 10
392.1353060759638
 20
326.4105827913668
 30
0.0
 11
392.0387758853942
 21
326.2154898144995
 31
0.0
  0
LINE
  5
F3B
102
{ACAD_REACTORS
330
F48
102
}
330
18
100
AcDbEntity
  8
ROGO
 62
     4
100
AcDbLine
 10
391.2836410872779
 20
326.2154898144995
 30
0.0
 11
392.0387758853942
 21
326.2154898144996
 31
0.0
  0
LINE
  5
F3C
102
{ACAD_REACTORS
330
F48
102
}
330
18
100
AcDbEntity
  8
ROGO
 62
     4
100
AcDbLine
 10
391.1894986236405
 20
326.0252225688611
 30
0.0
 11
391.9446334217568
 21
326.0252225688611
 31
0.0
  0
LINE
  5
F3D
102
{ACAD_REACTORS
330
F48
102
}
330
18
100
AcDbEntity
  8
ROGO
 62
     4
100
AcDbLine
 10
391.3801712778475
 20
326.4105827913668
 30
0.0
 11
392.1353060759638
 21
326.4105827913668
 31
0.0
  0
LINE
  5
F3E
102
{ACAD_REACTORS
330
F48
102
}
330
18
100
AcDbEntity
  8
ROGO
 62
     4
100
AcDbLine
 10
391.4743097561143
 20
326.6008419823458
 30
0.0
 11
392.2294445542306
 21
326.6008419823458
 31
0.0
  0
LINE
  5
F3F
102
{ACAD_REACTORS
330
F48
102
}
330
18
100
AcDbEntity
  8
ROGO
 62
     4
100
AcDbLine
 10
391.4743097561143
 20
326.6008419823458
 30
0.0
 11
391.3801712778475
 21
326.4105827913668
 31
0.0
  0
LINE
  5
F40
102
{ACAD_REACTORS
330
F48
102
}
330
18
100
AcDbEntity
  8
ROGO
 62
     4
100
AcDbLine
 10
392.3498453725948
 20
326.8441788485976
 30
0.0
 11
392.2294445542306
 21
326.6008419823458
 31
0.0
  0
LINE
  5
F41
102
{ACAD_REACTORS
330
F48
102
}
330
18
100
AcDbEntity
  8
ROGO
 62
     4
100
AcDbLine
 10
390.9130662540275
 20
326.8441788485976
 30
0.0
 11
392.3498453725948
 21
326.8441788485976
 31
0.0
  0
LINE
  5
F42
102
{ACAD_REACTORS
330
F4B
102
}
330
18
100
AcDbEntity
  8
ROGO
 62
     4
100
AcDbLine
 10
392.0000189267932
 20
325.7818979427245
 30
0.0
 11
392.5883324109664
 21
325.7818979427245
 31
0.0
  0
LINE
  5
F43
102
{ACAD_REACTORS
330
F48
102
}
330
18
100
AcDbEntity
  8
ROGO
 62
     4
100
AcDbLine
 10
390.3874595411206
 20
325.7818979427245
 30
0.0
 11
391.8242386596879
 21
325.7818979427245
 31
0.0
  0
LINE
  5
F44
102
{ACAD_REACTORS
330
F4B
102
}
330
18
100
AcDbEntity
  8
ROGO
 62
     4
100
AcDbLine
 10
392.7341800511597
 20
325.9841496546607
 30
0.0
 11
392.5883324109664
 21
325.7818979427245
 31
0.0
  0
LINE
  5
F45
102
{ACAD_REACTORS
330
F4B
102
}
330
18
100
AcDbEntity
  8
ROGO
 62
     4
100
AcDbLine
 10
392.7660503332069
 20
326.8441788485976
 30
0.0
 11
392.0000189267931
 21
325.7818979427245
 31
0.0
  0
LINE
  5
F46
102
{ACAD_REACTORS
330
F48
102
}
330
18
100
AcDbEntity
  8
ROGO
 62
     4
100
AcDbLine
 10
391.9446334217568
 20
326.0252225688611
 30
0.0
 11
391.8242386596879
 21
325.7818979427245
 31
0.0
  0
LINE
  5
F47
102
{ACAD_REACTORS
330
F48
102
}
330
18
100
AcDbEntity
  8
ROGO
 62
     4
100
AcDbLine
 10
390.9130662540275
 20
326.8441788485976
 30
0.0
 11
390.3874595411206
 21
325.7818979427245
 31
0.0
  0
HATCH
  5
F48
330
18
100
AcDbEntity
  8
ROGO
 62
     4
100
AcDbHatch
 10
0.0
 20
0.0
 30
0.0
210
0.0
220
0.0
230
1.0
  2
SOLID
 70
     1
 71
     1
 91
        1
 92
        1
 93
       12
 72
     1
 10
390.9130662540275
 20
326.8441788485976
 11
392.3498453725948
 21
326.8441788485976
 72
     1
 10
392.3498453725948
 20
326.8441788485976
 11
392.2294445542306
 21
326.6008419823458
 72
     1
 10
392.2294445542306
 20
326.6008419823458
 11
391.4743097561143
 21
326.6008419823458
 72
     1
 10
391.4743097561143
 20
326.6008419823458
 11
391.3801712778475
 21
326.4105827913668
 72
     1
 10
391.3801712778475
 20
326.4105827913668
 11
392.1353060759638
 21
326.4105827913668
 72
     1
 10
392.1353060759638
 20
326.4105827913668
 11
392.0387758853942
 21
326.2154898144995
 72
     1
 10
392.0387758853942
 20
326.2154898144996
 11
391.2836410872779
 21
326.2154898144995
 72
     1
 10
391.2836410872779
 20
326.2154898144995
 11
391.1894986236405
 21
326.0252225688611
 72
     1
 10
391.1894986236405
 20
326.0252225688611
 11
391.9446334217568
 21
326.0252225688611
 72
     1
 10
391.9446334217568
 20
326.0252225688611
 11
391.8242386596879
 21
325.7818979427245
 72
     1
 10
391.8242386596879
 20
325.7818979427245
 11
390.3874595411206
 21
325.7818979427245
 72
     1
 10
390.3874595411206
 20
325.7818979427245
 11
390.9130662540275
 21
326.8441788485976
 97
       12
330
F41
330
F40
330
F3E
330
F3F
330
F3D
330
F3A
330
F3B
330
F39
330
F3C
330
F46
330
F43
330
F47
 75
     0
 76
     1
 98
        1
 10
332.1420631245131
 20
253.3922075718312
450
        0
451
        0
460
0.0
461
0.0
452
        0
462
0.0
453
        0
470

  0
LINE
  5
F49
102
{ACAD_REACTORS
330
F4B
102
}
330
18
100
AcDbEntity
  8
ROGO
 62
     4
100
AcDbLine
 10
392.7660503332069
 20
326.8441788485976
 30
0.0
 11
393.3800071492567
 21
326.8441788485976
 31
0.0
  0
LINE
  5
F4A
102
{ACAD_REACTORS
330
F4B
102
}
330
18
100
AcDbEntity
  8
ROGO
 62
     4
100
AcDbLine
 10
392.7341800511597
 20
325.9841496546607
 30
0.0
 11
393.4118774313039
 21
325.9841496546607
 31
0.0
  0
HATCH
  5
F4B
330
18
100
AcDbEntity
  8
ROGO
 62
     4
100
AcDbHatch
 10
0.0
 20
0.0
 30
0.0
210
0.0
220
0.0
230
1.0
  2
SOLID
 70
     1
 71
     1
 91
        2
 92
        7
 72
     0
 73
     1
 93
        8
 10
393.3800071492568
 20
326.8441788485976
 10
392.7660503332069
 20
326.8441788485976
 10
392.0000189267932
 20
325.7818979427245
 10
392.5883324109664
 20
325.7818979427245
 10
392.7341800511597
 20
325.9841496546607
 10
393.4118774313038
 20
325.9841496546608
 10
393.5577250714972
 20
325.7818979427245
 10
394.1460385556704
 20
325.7818979427245
 97
        8
330
F49
330
F45
330
F42
330
F44
330
F4A
330
F37
330
F36
330
F38
 92
       22
 72
     0
 73
     1
 93
        3
 10
393.2580475271803
 20
326.197470634107
 10
392.8880099552833
 20
326.197470634107
 10
393.0730287412318
 20
326.4540422601466
 97
        3
330
F34
330
F35
330
F33
 75
     0
 76
     1
 47
0.0514683685270805
 98
        2
 10
393.451352472545
 20
326.299930715359
 10
393.451352472545
 20
326.299930715359
450
        0
451
        0
460
0.0
461
0.0
452
        0
462
0.0
453
        0
470

  0
LINE
  5
F4C
330
18
100
AcDbEntity
  8
目盛
100
AcDbLine
 10
384.6826873440913
 20
333.410018886515
 30
0.0
 11
386.4460431009687
 21
330.9829679033902
 31
0.0
  0
LINE
  5
F4D
330
18
100
AcDbEntity
  8
目盛
100
AcDbLine
 10
385.5400018897637
 20
333.9926492501116
 30
0.0
 11
386.5044901207259
 21
332.472858984208
 31
0.0
  0
LINE
  5
F4E
330
18
100
AcDbEntity
  8
目盛
100
AcDbLine
 10
381.6676755011166
 20
330.5787343101818
 30
0.0
 11
383.054599338113
 21
329.4313711286341
 31
0.0
  0
LINE
  5
F4F
330
18
100
AcDbEntity
  8
針
100
AcDbLine
 10
385.56436522253
 20
332.1964933949526
 30
0.0
 11
385.5077340329238
 21
332.1553484272921
 31
0.0
  0
LINE
  5
F50
330
18
100
AcDbEntity
  8
針
100
AcDbLine
 10
385.56436522253
 20
332.1964933949526
 30
0.0
 11
385.6209964121362
 21
332.2376383626131
 31
0.0
  0
LINE
  5
F51
330
18
100
AcDbEntity
  8
目盛
100
AcDbLine
 10
382.3531616544638
 20
331.3562657271518
 30
0.0
 11
383.6653051838224
 21
330.1240809364801
 31
0.0
  0
LINE
  5
F52
330
18
100
AcDbEntity
  8
目盛
100
AcDbLine
 10
383.0861167590938
 20
332.0892208317817
 30
0.0
 11
384.3183015497654
 21
330.7770773024231
 31
0.0
  0
LINE
  5
F53
330
18
100
AcDbEntity
  8
目盛
100
AcDbLine
 10
383.8636481760638
 20
332.774706985129
 30
0.0
 11
385.0110113576114
 21
331.3877831481325
 31
0.0
  0
LINE
  5
F54
330
18
100
AcDbEntity
  8
目盛
100
AcDbLine
 10
389.2823635997305
 20
335.7536709981984
 30
0.0
 11
390.2094145828554
 21
332.9005014493129
 31
0.0
  0
LINE
  5
F55
330
18
100
AcDbEntity
  8
目盛
100
AcDbLine
 10
390.277760868697
 20
336.0428606379508
 30
0.0
 11
390.7254026655937
 21
334.2994109479192
 31
0.0
  0
LINE
  5
F56
330
18
100
AcDbEntity
  8
目盛
100
AcDbLine
 10
391.2893523162527
 20
336.2689781163518
 30
0.0
 11
391.626638682507
 21
334.50086106504
 31
0.0
  0
LINE
  5
F57
330
18
100
AcDbEntity
  8
目盛
100
AcDbLine
 10
392.3131456531061
 20
336.4311310510173
 30
0.0
 11
392.5387454735218
 21
334.6453245886512
 31
0.0
  0
LINE
  5
F58
330
18
100
AcDbEntity
  8
目盛
100
AcDbLine
 10
393.3451004346835
 20
336.5286794983949
 30
0.0
 11
393.4581233698362
 21
334.732231387224
 31
0.0
  0
LINE
  5
F59
330
18
100
AcDbEntity
  8
目盛
100
AcDbLine
 10
388.3070888876199
 20
335.4025504964845
 30
0.0
 11
388.9697130824524
 21
333.7289528218857
 31
0.0
  0
LINE
  5
F5A
330
18
100
AcDbEntity
  8
目盛
100
AcDbLine
 10
386.4322083842388
 20
334.5202987000521
 30
0.0
 11
387.2993649976219
 21
332.9429466759732
 31
0.0
  0
LINE
  5
F5B
330
18
100
AcDbEntity
  8
目盛
100
AcDbLine
 10
387.3557856960935
 20
334.9908848450177
 30
0.0
 11
388.1221884209105
 21
333.3621961505789
 31
0.0
  0
LINE
  5
F5D
330
18
100
AcDbEntity
  8
目盛
100
AcDbLine
 10
399.4799244141037
 20
304.3688059604584
 30
0.0
 11
398.5528734309789
 21
307.2219755093438
 31
0.0
  0
LINE
  5
F5E
330
18
100
AcDbEntity
  8
目盛
100
AcDbLine
 10
402.3300796295954
 20
305.6021782586047
 30
0.0
 11
401.4629230162123
 21
307.1795302826836
 31
0.0
  0
LINE
  5
F5F
330
18
100
AcDbEntity
  8
目盛
100
AcDbLine
 10
401.4065023177407
 20
305.1315921136391
 30
0.0
 11
400.6400995929237
 21
306.7602808080779
 31
0.0
  0
LINE
  5
F60
330
18
100
AcDbEntity
  8
目盛
100
AcDbLine
 10
400.4551991262142
 20
304.7199264621722
 30
0.0
 11
399.7925749313819
 21
306.3935241367711
 31
0.0
  0
LINE
  5
F61
330
18
100
AcDbEntity
  8
目盛
100
AcDbLine
 10
394.3811440069171
 20
303.5612384793284
 30
0.0
 11
394.3811440069171
 21
306.5612384793285
 31
0.0
  0
LINE
  5
F62
330
18
100
AcDbEntity
  8
目盛
100
AcDbLine
 10
398.4845271451372
 20
304.079616320706
 30
0.0
 11
398.0368853482405
 21
305.8230660107375
 31
0.0
  0
LINE
  5
F63
330
18
100
AcDbEntity
  8
目盛
100
AcDbLine
 10
397.4729356975815
 20
303.853498842305
 30
0.0
 11
397.1356493313272
 21
305.6216158936167
 31
0.0
  0
LINE
  5
F64
330
18
100
AcDbEntity
  8
目盛
100
AcDbLine
 10
396.4491423607281
 20
303.6913459076395
 30
0.0
 11
396.2235425403124
 21
305.4771523700056
 31
0.0
  0
LINE
  5
F65
330
18
100
AcDbEntity
  8
目盛
100
AcDbLine
 10
395.4171875791508
 20
303.5937974602619
 30
0.0
 11
395.304164643998
 21
305.3902455714328
 31
0.0
  0
TEXT
  5
F66
330
18
100
AcDbEntity
  8
文字
100
AcDbText
 10
400.3890489305494
 20
309.4214149577328
 30
0.0
 40
1.9
  1
60
 41
0.8
  7
STYLE3
100
AcDbText
  0
LINE
  5
F67
330
18
100
AcDbEntity
  8
目盛
100
AcDbLine
 10
404.0796006697429
 20
306.7124580721418
 30
0.0
 11
402.3162449128655
 21
309.1395090552666
 31
0.0
  0
LINE
  5
F68
330
18
100
AcDbEntity
  8
目盛
100
AcDbLine
 10
403.2222861240705
 20
306.1298277085451
 30
0.0
 11
402.2577978931082
 21
307.6496179744487
 31
0.0
  0
LINE
  5
F69
330
18
100
AcDbEntity
  8
目盛
100
AcDbLine
 10
407.7299244141037
 20
310.3627818165026
 30
0.0
 11
405.3028734309789
 21
312.1261375733801
 31
0.0
  0
LINE
  5
F6A
330
18
100
AcDbEntity
  8
目盛
100
AcDbLine
 10
408.3125547777004
 20
311.220096362175
 30
0.0
 11
406.7927645117967
 21
312.1845845931371
 31
0.0
  0
LINE
  5
F6B
330
18
100
AcDbEntity
  8
目盛
100
AcDbLine
 10
407.0946125127176
 20
309.543742648475
 30
0.0
 11
405.7076886757212
 21
310.6911058300227
 31
0.0
  0
LINE
  5
F6C
330
18
100
AcDbEntity
  8
目盛
100
AcDbLine
 10
406.4091263593704
 20
308.766211231505
 30
0.0
 11
405.0969828300118
 21
309.9983960221767
 31
0.0
  0
LINE
  5
F6D
330
18
100
AcDbEntity
  8
目盛
100
AcDbLine
 10
405.6761712547404
 20
308.0332561268751
 30
0.0
 11
404.4439864640688
 21
309.3453996562336
 31
0.0
  0
LINE
  5
F6E
330
18
100
AcDbEntity
  8
目盛
100
AcDbLine
 10
404.8986398377705
 20
307.3477699735279
 30
0.0
 11
403.7512766562228
 21
308.7346938105243
 31
0.0
  0
TEXT
  5
F6F
330
18
100
AcDbEntity
  8
文字
100
AcDbText
 10
404.2491164507685
 20
315.052035079585
 30
0.0
 40
1.9
  1
70
 41
0.8
  7
STYLE3
100
AcDbText
  0
LINE
  5
F70
330
18
100
AcDbEntity
  8
目盛
100
AcDbLine
 10
410.5888836439404
 20
316.9694467886639
 30
0.0
 11
408.8207665926288
 21
317.3067331549182
 31
0.0
  0
LINE
  5
F71
330
18
100
AcDbEntity
  8
目盛
100
AcDbLine
 10
410.3627661655395
 20
315.9578553411082
 30
0.0
 11
408.6193164755079
 21
316.405497138005
 31
0.0
  0
LINE
  5
F72
330
18
100
AcDbEntity
  8
目盛
100
AcDbLine
 10
410.0735765257871
 20
314.9624580721418
 30
0.0
 11
407.2204069769017
 21
315.8895090552666
 31
0.0
  0
LINE
  5
F73
330
18
100
AcDbEntity
  8
目盛
100
AcDbLine
 10
409.7224560240732
 20
313.9871833600312
 30
0.0
 11
408.0488583494743
 21
314.6498075548636
 31
0.0
  0
LINE
  5
F74
330
18
100
AcDbEntity
  8
目盛
100
AcDbLine
 10
409.3107903726063
 20
313.0358801685047
 30
0.0
 11
407.6821016781676
 21
313.8022828933218
 31
0.0
  0
LINE
  5
F75
330
18
100
AcDbEntity
  8
目盛
100
AcDbLine
 10
408.8402042276408
 20
312.1123028566501
 30
0.0
 11
407.2628522035619
 21
312.9794594700332
 31
0.0
  0
LINE
  5
F76
330
18
100
AcDbEntity
  8
目盛
100
AcDbLine
 10
410.8811440069171
 20
320.0612384793283
 30
0.0
 11
407.8811440069171
 21
320.0612384793284
 31
0.0
  0
LINE
  5
F77
330
18
100
AcDbEntity
  8
目盛
100
AcDbLine
 10
410.8485850259835
 20
319.0251949070947
 30
0.0
 11
409.0521369148127
 21
319.1382178422474
 31
0.0
  0
LINE
  5
F78
330
18
100
AcDbEntity
  8
目盛
100
AcDbLine
 10
410.7510365786059
 20
317.9932401255174
 30
0.0
 11
408.9652301162399
 21
318.2188399459331
 31
0.0
  0
LINE
  5
F79
330
18
100
AcDbEntity
  8
目盛
100
AcDbLine
 10
410.7510365786059
 20
322.1292368331394
 30
0.0
 11
408.9652301162399
 21
321.9036370127237
 31
0.0
  0
LINE
  5
F7A
330
18
100
AcDbEntity
  8
目盛
100
AcDbLine
 10
410.8485850259836
 20
321.097282051562
 30
0.0
 11
409.0521369148127
 21
320.9842591164093
 31
0.0
  0
TEXT
  5
F7B
330
18
100
AcDbEntity
  8
文字
100
AcDbText
 10
400.2271377030516
 20
328.725098830117
 30
0.0
 40
1.9
  1
90
 41
0.8
  7
STYLE3
100
AcDbText
  0
LINE
  5
F7C
330
18
100
AcDbEntity
  8
目盛
100
AcDbLine
 10
407.7299244141037
 20
329.7596951421541
 30
0.0
 11
405.3028734309789
 21
327.9963393852768
 31
0.0
  0
LINE
  5
F7D
102
{ACAD_REACTORS
330
F7F
102
}
330
18
100
AcDbEntity
  8
外形線
100
AcDbLine
 10
398.8160269045106
 20
321.5112384793283
 30
0.0
 11
397.6493602378438
 21
321.9358704193055
 31
0.0
  0
LINE
  5
F7E
102
{ACAD_REACTORS
330
F7F
102
}
330
18
100
AcDbEntity
  8
外形線
100
AcDbLine
 10
398.8160269045106
 20
321.5112384793283
 30
0.0
 11
397.6493602378438
 21
321.0866065393511
 31
0.0
  0
HATCH
  5
F7F
330
18
100
AcDbEntity
  8
外形線
100
AcDbHatch
 10
0.0
 20
0.0
 30
0.0
210
0.0
220
0.0
230
1.0
  2
SOLID
 70
     1
 71
     1
 91
        2
 92
        1
 93
        7
 72
     1
 10
398.8160269045106
 20
321.5112384793283
 11
397.6493602378438
 21
321.0866065393511
 72
     1
 10
397.6493602378438
 20
321.0866065393511
 11
397.6493602378438
 21
321.421655145995
 72
     1
 10
397.6493602378438
 20
321.421655145995
 11
396.6493602378438
 21
321.4216551459949
 72
     1
 10
396.6493602378438
 20
321.4216551459949
 11
396.6493602378438
 21
321.6008218126616
 72
     1
 10
396.6493602378438
 20
321.6008218126616
 11
397.6493602378438
 21
321.6008218126616
 72
     1
 10
397.6493602378438
 20
321.6008218126616
 11
397.6493602378438
 21
321.9358704193055
 72
     1
 10
397.6493602378438
 20
321.9358704193055
 11
398.8160269045106
 21
321.5112384793283
 97
        7
330
F7E
330
F83
330
F88
330
F87
330
F89
330
F86
330
F7D
 92
        1
 93
        4
 72
     1
 10
398.8160269045106
 20
322.2612384793283
 11
398.8160269045106
 21
320.7612384793283
 72
     1
 10
398.8160269045106
 20
320.7612384793283
 11
398.9826935711771
 21
320.7612384793283
 72
     1
 10
398.9826935711771
 20
320.7612384793283
 11
398.9826935711771
 21
322.2612384793283
 72
     1
 10
398.9826935711771
 20
322.2612384793283
 11
398.8160269045106
 21
322.2612384793283
 97
        4
330
F96
330
F8B
330
F95
330
F97
 75
     0
 76
     1
 98
        1
 10
491.1455836109908
 20
252.8490876721473
450
        0
451
        0
460
0.0
461
0.0
452
        0
462
0.0
453
        0
470

  0
TEXT
  5
F80
330
18
100
AcDbEntity
  8
文字
100
AcDbText
 10
396.3791066206301
 20
319.0249482449158
 30
0.0
 40
1.0
  1
0.01mm
  7
STYLE3
100
AcDbText
  0
POINT
  5
F81
330
18
100
AcDbEntity
  8
DEFPOINTS
  6
ByBlock
 62
     0
100
AcDbPoint
 10
397.6493602378438
 20
321.0866065393511
 30
0.0
  0
POINT
  5
F82
330
18
100
AcDbEntity
  8
DEFPOINTS
  6
ByBlock
 62
     0
100
AcDbPoint
 10
397.6493602378438
 20
321.0866065393511
 30
0.0
  0
LINE
  5
F83
102
{ACAD_REACTORS
330
F7F
102
}
330
18
100
AcDbEntity
  8
外形線
100
AcDbLine
 10
397.6493602378438
 20
321.421655145995
 30
0.0
 11
397.6493602378438
 21
321.0866065393511
 31
0.0
  0
POINT
  5
F84
330
18
100
AcDbEntity
  8
DEFPOINTS
  6
ByBlock
 62
     0
100
AcDbPoint
 10
397.6493602378438
 20
321.9358704193055
 30
0.0
  0
POINT
  5
F85
330
18
100
AcDbEntity
  8
DEFPOINTS
  6
ByBlock
 62
     0
100
AcDbPoint
 10
397.6493602378438
 20
321.9358704193055
 30
0.0
  0
LINE
  5
F86
102
{ACAD_REACTORS
330
F7F
102
}
330
18
100
AcDbEntity
  8
外形線
100
AcDbLine
 10
397.6493602378438
 20
321.9358704193055
 30
0.0
 11
397.6493602378438
 21
321.6008218126616
 31
0.0
  0
LINE
  5
F87
102
{ACAD_REACTORS
330
F7F
102
}
330
18
100
AcDbEntity
  8
外形線
100
AcDbLine
 10
396.6493602378438
 20
321.6008218126616
 30
0.0
 11
396.6493602378438
 21
321.4216551459949
 31
0.0
  0
LINE
  5
F88
102
{ACAD_REACTORS
330
F7F
102
}
330
18
100
AcDbEntity
  8
外形線
100
AcDbLine
 10
396.6493602378438
 20
321.4216551459949
 30
0.0
 11
397.6493602378438
 21
321.421655145995
 31
0.0
  0
LINE
  5
F89
102
{ACAD_REACTORS
330
F7F
102
}
330
18
100
AcDbEntity
  8
外形線
100
AcDbLine
 10
396.6493602378438
 20
321.6008218126616
 30
0.0
 11
397.6493602378438
 21
321.6008218126616
 31
0.0
  0
LINE
  5
F8A
102
{ACAD_REACTORS
330
FA3
102
}
330
18
100
AcDbEntity
  8
外形線
100
AcDbLine
 10
402.1493602378438
 20
321.6008218126616
 30
0.0
 11
402.1493602378438
 21
321.4216551459949
 31
0.0
  0
LINE
  5
F8B
102
{ACAD_REACTORS
330
F7F
102
}
330
18
100
AcDbEntity
  8
外形線
100
AcDbLine
 10
398.9826935711771
 20
320.7612384793283
 30
0.0
 11
398.8160269045106
 21
320.7612384793283
 31
0.0
  0
POINT
  5
F8C
330
18
100
AcDbEntity
  8
DEFPOINTS
  6
ByBlock
 62
     0
100
AcDbPoint
 10
398.8160269045106
 20
320.7612384793283
 30
0.0
  0
POINT
  5
F8D
330
18
100
AcDbEntity
  8
DEFPOINTS
  6
ByBlock
 62
     0
100
AcDbPoint
 10
398.9826935711771
 20
320.7612384793283
 30
0.0
  0
POINT
  5
F8E
330
18
100
AcDbEntity
  8
DEFPOINTS
  6
ByBlock
 62
     0
100
AcDbPoint
 10
398.8160269045106
 20
320.7612384793283
 30
0.0
  0
POINT
  5
F8F
330
18
100
AcDbEntity
  8
DEFPOINTS
  6
ByBlock
 62
     0
100
AcDbPoint
 10
398.9826935711771
 20
320.7612384793283
 30
0.0
  0
POINT
  5
F90
330
18
100
AcDbEntity
  8
DEFPOINTS
  6
ByBlock
 62
     0
100
AcDbPoint
 10
399.8160269045105
 20
320.7612384793283
 30
0.0
  0
POINT
  5
F91
330
18
100
AcDbEntity
  8
DEFPOINTS
  6
ByBlock
 62
     0
100
AcDbPoint
 10
399.9826935711771
 20
320.7612384793283
 30
0.0
  0
POINT
  5
F92
330
18
100
AcDbEntity
  8
DEFPOINTS
  6
ByBlock
 62
     0
100
AcDbPoint
 10
399.8160269045105
 20
320.7612384793283
 30
0.0
  0
POINT
  5
F93
330
18
100
AcDbEntity
  8
DEFPOINTS
  6
ByBlock
 62
     0
100
AcDbPoint
 10
399.9826935711771
 20
320.7612384793283
 30
0.0
  0
LINE
  5
F94
102
{ACAD_REACTORS
330
FA3
102
}
330
18
100
AcDbEntity
  8
外形線
100
AcDbLine
 10
399.8160269045105
 20
320.7612384793283
 30
0.0
 11
399.9826935711771
 21
320.7612384793283
 31
0.0
  0
LINE
  5
F95
102
{ACAD_REACTORS
330
F7F
102
}
330
18
100
AcDbEntity
  8
外形線
100
AcDbLine
 10
398.9826935711771
 20
322.2612384793283
 30
0.0
 11
398.9826935711771
 21
320.7612384793283
 31
0.0
  0
LINE
  5
F96
102
{ACAD_REACTORS
330
F7F
102
}
330
18
100
AcDbEntity
  8
外形線
100
AcDbLine
 10
398.8160269045106
 20
322.2612384793283
 30
0.0
 11
398.8160269045106
 21
320.7612384793283
 31
0.0
  0
LINE
  5
F97
102
{ACAD_REACTORS
330
F7F
102
}
330
18
100
AcDbEntity
  8
外形線
100
AcDbLine
 10
398.9826935711771
 20
322.2612384793283
 30
0.0
 11
398.8160269045106
 21
322.2612384793283
 31
0.0
  0
LINE
  5
F98
102
{ACAD_REACTORS
330
FA3
102
}
330
18
100
AcDbEntity
  8
外形線
100
AcDbLine
 10
399.9826935711771
 20
321.5112384793283
 30
0.0
 11
401.1493602378438
 21
321.9358704193055
 31
0.0
  0
LINE
  5
F99
102
{ACAD_REACTORS
330
FA3
102
}
330
18
100
AcDbEntity
  8
外形線
100
AcDbLine
 10
399.9826935711771
 20
322.2612384793283
 30
0.0
 11
399.9826935711771
 21
320.7612384793283
 31
0.0
  0
LINE
  5
F9A
102
{ACAD_REACTORS
330
FA3
102
}
330
18
100
AcDbEntity
  8
外形線
100
AcDbLine
 10
399.8160269045105
 20
322.2612384793283
 30
0.0
 11
399.8160269045105
 21
320.7612384793283
 31
0.0
  0
LINE
  5
F9B
102
{ACAD_REACTORS
330
FA3
102
}
330
18
100
AcDbEntity
  8
外形線
100
AcDbLine
 10
401.1493602378438
 20
321.421655145995
 30
0.0
 11
401.1493602378438
 21
321.0866065393511
 31
0.0
  0
POINT
  5
F9C
330
18
100
AcDbEntity
  8
DEFPOINTS
  6
ByBlock
 62
     0
100
AcDbPoint
 10
401.1493602378438
 20
321.0866065393511
 30
0.0
  0
POINT
  5
F9D
330
18
100
AcDbEntity
  8
DEFPOINTS
  6
ByBlock
 62
     0
100
AcDbPoint
 10
401.1493602378438
 20
321.0866065393511
 30
0.0
  0
LINE
  5
F9E
102
{ACAD_REACTORS
330
FA3
102
}
330
18
100
AcDbEntity
  8
外形線
100
AcDbLine
 10
399.9826935711771
 20
321.5112384793283
 30
0.0
 11
401.1493602378438
 21
321.0866065393511
 31
0.0
  0
LINE
  5
F9F
102
{ACAD_REACTORS
330
FA3
102
}
330
18
100
AcDbEntity
  8
外形線
100
AcDbLine
 10
401.1493602378438
 20
321.9358704193055
 30
0.0
 11
401.1493602378438
 21
321.6008218126616
 31
0.0
  0
POINT
  5
FA0
330
18
100
AcDbEntity
  8
DEFPOINTS
  6
ByBlock
 62
     0
100
AcDbPoint
 10
401.1493602378438
 20
321.9358704193055
 30
0.0
  0
POINT
  5
FA1
330
18
100
AcDbEntity
  8
DEFPOINTS
  6
ByBlock
 62
     0
100
AcDbPoint
 10
401.1493602378438
 20
321.9358704193055
 30
0.0
  0
LINE
  5
FA2
102
{ACAD_REACTORS
330
FA3
102
}
330
18
100
AcDbEntity
  8
外形線
100
AcDbLine
 10
399.8160269045105
 20
322.2612384793283
 30
0.0
 11
399.9826935711771
 21
322.2612384793283
 31
0.0
  0
HATCH
  5
FA3
330
18
100
AcDbEntity
  8
外形線
100
AcDbHatch
 10
0.0
 20
0.0
 30
0.0
210
0.0
220
0.0
230
1.0
  2
SOLID
 70
     1
 71
     1
 91
        2
 92
        1
 93
        7
 72
     1
 10
399.9826935711771
 20
321.5112384793283
 11
401.1493602378438
 21
321.0866065393511
 72
     1
 10
401.1493602378438
 20
321.0866065393511
 11
401.1493602378438
 21
321.421655145995
 72
     1
 10
401.1493602378438
 20
321.421655145995
 11
402.1493602378438
 21
321.4216551459949
 72
     1
 10
402.1493602378438
 20
321.4216551459949
 11
402.1493602378438
 21
321.6008218126616
 72
     1
 10
402.1493602378438
 20
321.6008218126616
 11
401.1493602378438
 21
321.6008218126616
 72
     1
 10
401.1493602378438
 20
321.6008218126616
 11
401.1493602378438
 21
321.9358704193055
 72
     1
 10
401.1493602378438
 20
321.9358704193055
 11
399.9826935711771
 21
321.5112384793283
 97
        7
330
F9E
330
F9B
330
FA4
330
F8A
330
FA5
330
F9F
330
F98
 92
        1
 93
        4
 72
     1
 10
399.9826935711771
 20
322.2612384793283
 11
399.9826935711771
 21
320.7612384793283
 72
     1
 10
399.9826935711771
 20
320.7612384793283
 11
399.8160269045105
 21
320.7612384793283
 72
     1
 10
399.8160269045105
 20
320.7612384793283
 11
399.8160269045105
 21
322.2612384793283
 72
     1
 10
399.8160269045105
 20
322.2612384793283
 11
399.9826935711771
 21
322.2612384793283
 97
        4
330
F99
330
F94
330
F9A
330
FA2
 75
     0
 76
     1
 98
        1
 10
307.6531368646968
 20
252.8490876721473
450
        0
451
        0
460
0.0
461
0.0
452
        0
462
0.0
453
        0
470

  0
LINE
  5
FA4
102
{ACAD_REACTORS
330
FA3
102
}
330
18
100
AcDbEntity
  8
外形線
100
AcDbLine
 10
402.1493602378438
 20
321.4216551459949
 30
0.0
 11
401.1493602378438
 21
321.421655145995
 31
0.0
  0
LINE
  5
FA5
102
{ACAD_REACTORS
330
FA3
102
}
330
18
100
AcDbEntity
  8
外形線
100
AcDbLine
 10
402.1493602378438
 20
321.6008218126616
 30
0.0
 11
401.1493602378438
 21
321.6008218126616
 31
0.0
  0
LINE
  5
FA6
102
{ACAD_REACTORS
330
FAA
102
}
330
18
100
AcDbEntity
  8
ROGO
 62
     4
100
AcDbLine
 10
398.2341371412561
 20
326.1771311274771
 30
0.0
 11
398.9134049773796
 21
326.1771311274771
 31
0.0
  0
SPLINE
  5
FA7
102
{ACAD_REACTORS
330
FAA
102
}
330
18
100
AcDbEntity
  8
ROGO
 62
     4
100
AcDbSpline
210
0.0
220
0.0
230
1.0
 70
     8
 71
     3
 72
    16
 73
    12
 74
    10
 42
0.0000000001
 43
0.0000000001
 44
0.0000000001
 40
0.0
 40
0.0
 40
0.0
 40
0.0
 40
0.1015977765920115
 40
0.1512209637785973
 40
0.1756917233628609
 40
0.2014799190626591
 40
0.23840854155138
 40
0.2720338915413014
 40
0.3071043481967646
 40
0.365902502894232
 40
0.4241003886766039
 40
0.4241003886766039
 40
0.4241003886766039
 40
0.4241003886766039
 10
398.3841623380608
 20
326.4489414783893
 30
0.0
 10
398.3497567232896
 20
326.443696110305
 30
0.0
 10
398.2985464468484
 20
326.435888758179
 30
0.0
 10
398.2522369594263
 20
326.3992306774388
 30
0.0
 10
398.2261216238589
 20
326.3774215594902
 30
0.0
 10
398.2172370703517
 20
326.3485400964935
 30
0.0
 10
398.19337594965
 20
326.3263635664106
 30
0.0
 10
398.1737075990552
 20
326.2958858756634
 30
0.0
 10
398.1690112427738
 20
326.2540242737578
 30
0.0
 10
398.1724584758082
 20
326.1952778952236
 30
0.0
 10
398.2136480295412
 20
326.1831593245679
 30
0.0
 10
398.2341371412561
 20
326.1771311274771
 30
0.0
 11
398.3841623380608
 21
326.4489414783893
 31
0.0
 11
398.2860690805259
 21
326.4224873476226
 31
0.0
 11
398.2456777196704
 21
326.3936602999972
 31
0.0
 11
398.2283671838463
 21
326.3763639586467
 31
0.0
 11
398.2168266054318
 21
326.3533021701794
 31
0.0
 11
398.1937457804006
 21
326.3244751225542
 31
0.0
 11
398.1764352445764
 21
326.29564788697
 31
0.0
 11
398.1706649553692
 21
326.2610553922278
 31
0.0
 11
398.1822055337836
 21
326.2034009210595
 31
0.0
 11
398.2341371412561
 21
326.1771311274771
 31
0.0
  0
LINE
  5
FA8
102
{ACAD_REACTORS
330
FAA
102
}
330
18
100
AcDbEntity
  8
ROGO
 62
     4
100
AcDbLine
 10
397.8013724184629
 20
325.7818979427245
 30
0.0
 11
398.7163289466185
 21
325.7818979427245
 31
0.0
  0
LINE
  5
FA9
102
{ACAD_REACTORS
330
FAA
102
}
330
18
100
AcDbEntity
  8
ROGO
 62
     4
100
AcDbLine
 10
398.1822055337839
 20
326.8441788485976
 30
0.0
 11
399.2460165147662
 21
326.8441788485976
 31
0.0
  0
HATCH
  5
FAA
330
18
100
AcDbEntity
  8
ROGO
 62
     4
100
AcDbHatch
 10
0.0
 20
0.0
 30
0.0
210
0.0
220
0.0
230
1.0
  2
SOLID
 70
     1
 71
     1
 91
        1
 92
        5
 93
        8
 72
     4
 94
        3
 73
     0
 74
     0
 95
       26
 96
       22
 40
0.0
 40
0.0
 40
0.0
 40
0.0
 40
0.1927099265174152
 40
0.3217143003795519
 40
0.4147369596494461
 40
0.4841939694030119
 40
0.5742833564486761
 40
0.6400398264178589
 40
0.7587806847072545
 40
0.8554340362639683
 40
0.9211738023510587
 40
0.985635008861637
 40
1.10094357528064
 40
1.182480494385274
 40
1.226394424896055
 40
1.28877286598852
 40
1.333817737941481
 40
1.399072885742963
 40
1.436001654955457
 40
1.516362799066888
 40
1.553056395559019
 40
1.553056395559019
 40
1.553056395559019
 40
1.553056395559019
 10
398.1822055337837
 20
326.8441788485976
 10
398.1167968071907
 20
326.8402764518048
 10
398.0076020028811
 20
326.8337617025304
 10
397.887706772012
 20
326.7609266373567
 10
397.7998645068259
 20
326.7185835311943
 10
397.7372155098263
 20
326.6610216857615
 10
397.6912935410653
 20
326.601564504243
 10
397.6334002785029
 20
326.5307217084146
 10
397.5861899771853
 20
326.4482281394041
 10
397.5621486408231
 20
326.3573058449908
 10
397.5408530532505
 20
326.2848402487955
 10
397.5250598889988
 20
326.2040867987889
 10
397.5290781170831
 20
326.1168446652038
 10
397.5348324035993
 20
326.0358186378627
 10
397.5605238936373
 20
325.9779781856012
 10
397.5897819500435
 20
325.9367997693294
 10
397.6256080394258
 20
325.8914463090421
 10
397.6648096157323
 20
325.8614088591539
 10
397.6972325191935
 20
325.8069940002137
 10
397.7539877179358
 20
325.8000502717703
 10
397.7900635801764
 20
325.7862301797422
 10
397.801372418463
 20
325.7818979427245
 72
     1
 10
397.8013724184629
 20
325.7818979427245
 11
398.7163289466185
 21
325.7818979427245
 72
     1
 10
398.7163289466185
 20
325.7818979427245
 11
398.9134049773797
 21
326.1771311274771
 72
     1
 10
398.9134049773797
 20
326.1771311274771
 11
398.2341371412559
 21
326.177131127477
 72
     4
 94
        3
 73
     0
 74
     0
 95
       16
 96
       12
 40
0.0
 40
0.0
 40
0.0
 40
0.0
 40
0.0581978857823718
 40
0.1169960404798392
 40
0.1520664971353025
 40
0.1856918471252238
 40
0.2226204696139447
 40
0.2484086653137429
 40
0.2728794248980065
 40
0.3225026120845924
 40
0.4241003886766039
 40
0.4241003886766039
 40
0.4241003886766039
 40
0.4241003886766039
 10
398.2341371412561
 20
326.1771311274771
 10
398.2136480295412
 20
326.1831593245679
 10
398.1724584758082
 20
326.1952778952236
 10
398.1690112427738
 20
326.2540242737578
 10
398.1737075990552
 20
326.2958858756634
 10
398.19337594965
 20
326.3263635664106
 10
398.2172370703517
 20
326.3485400964935
 10
398.2261216238589
 20
326.3774215594902
 10
398.2522369594263
 20
326.3992306774388
 10
398.2985464468484
 20
326.435888758179
 10
398.3497567232896
 20
326.443696110305
 10
398.3841623380608
 20
326.4489414783893
 72
     1
 10
398.3841623380608
 20
326.4489414783892
 11
399.0489383970016
 21
326.4489414783893
 72
     1
 10
399.0489383970016
 20
326.4489414783893
 11
399.2460165147662
 21
326.8441788485975
 72
     1
 10
399.2460165147662
 20
326.8441788485975
 11
398.1822055337837
 21
326.8441788485976
 97
        8
330
FA9
330
FC0
330
FA8
330
FCC
330
FA6
330
FA7
330
FCB
330
FCE
 75
     0
 76
     1
 47
0.0514683685270805
 98
        1
 10
398.3657725164941
 20
326.6496716016009
450
        0
451
        0
460
0.0
461
0.0
452
        0
462
0.0
453
        0
470

  0
LINE
  5
FAB
102
{ACAD_REACTORS
330
FC1
102
}
330
18
100
AcDbEntity
  8
ROGO
 62
     4
100
AcDbLine
 10
396.3616765199532
 20
326.8441788485976
 30
0.0
 11
396.7912244835003
 21
326.8441788485976
 31
0.0
  0
LINE
  5
FAC
330
18
100
AcDbEntity
  8
ROGO
 62
     4
100
AcDbLine
 10
396.3616765199533
 20
326.8441788485976
 30
0.0
 11
396.662719594743
 21
326.8441788485976
 31
0.0
  0
ARC
  5
FAD
102
{ACAD_REACTORS
330
FC1
102
}
330
18
100
AcDbEntity
  8
ROGO
 62
     4
100
AcDbCircle
 10
396.619832114378
 20
326.2434003527265
 30
0.0
 40
0.0993572127362309
100
AcDbArc
 50
256.5902863289752
 51
337.7287536965499
  0
ARC
  5
FAE
102
{ACAD_REACTORS
330
FC1
102
}
330
18
100
AcDbEntity
  8
ROGO
 62
     4
100
AcDbCircle
 10
396.5646961677689
 20
326.2590714442161
 30
0.0
 40
0.107130230625527
100
AcDbArc
 50
188.5583509056651
 51
266.5736774635929
  0
ARC
  5
FAF
102
{ACAD_REACTORS
330
FC1
102
}
330
18
100
AcDbEntity
  8
ROGO
 62
     4
100
AcDbCircle
 10
396.5800235487817
 20
326.2997512044047
 30
0.0
 40
0.1160097523366473
100
AcDbArc
 50
82.57970078354313
 51
157.4341870372611
  0
ARC
  5
FB0
102
{ACAD_REACTORS
330
FC1
102
}
330
18
100
AcDbEntity
  8
ROGO
 62
     4
100
AcDbCircle
 10
396.6145164296012
 20
326.2993849666363
 30
0.0
 40
0.1116497960339707
100
AcDbArc
 50
3.851923331663601
 51
80.20940670206341
  0
LINE
  5
FB1
102
{ACAD_REACTORS
330
FC1
102
}
330
18
100
AcDbEntity
  8
ROGO
 62
     4
100
AcDbLine
 10
396.5582935323659
 20
326.1521327114119
 30
0.0
 11
396.5967899029604
 21
326.1467519579354
 31
0.0
  0
LINE
  5
FB2
102
{ACAD_REACTORS
330
FC1
102
}
330
18
100
AcDbEntity
  8
ROGO
 62
     4
100
AcDbLine
 10
396.4587588516396
 20
326.2431286914673
 30
0.0
 11
396.4728955781779
 21
326.3442692968113
 31
0.0
  0
LINE
  5
FB3
102
{ACAD_REACTORS
330
FC1
102
}
330
18
100
AcDbEntity
  8
ROGO
 62
     4
100
AcDbLine
 10
396.7259140086311
 20
326.3068853893374
 30
0.0
 11
396.7117772820927
 21
326.2057447839933
 31
0.0
  0
LINE
  5
FB4
102
{ACAD_REACTORS
330
FC1
102
}
330
18
100
AcDbEntity
  8
ROGO
 62
     4
100
AcDbLine
 10
396.5950058516636
 20
326.4147894295194
 30
0.0
 11
396.633502222258
 21
326.409408676043
 31
0.0
  0
LINE
  5
FB5
102
{ACAD_REACTORS
330
ED5
102
}
330
18
100
AcDbEntity
  8
ROGO
 62
     4
100
AcDbLine
 10
394.7594419648264
 20
326.8441788485976
 30
0.0
 11
395.8232529458086
 21
326.8441788485976
 31
0.0
  0
LINE
  5
FB6
102
{ACAD_REACTORS
330
ED5
102
}
330
18
100
AcDbEntity
  8
ROGO
 62
     4
100
AcDbLine
 10
394.8113735722984
 20
326.1771311274771
 30
0.0
 11
395.4906414084221
 21
326.1771311274771
 31
0.0
  0
LINE
  5
FB7
102
{ACAD_REACTORS
330
ED5
102
}
330
18
100
AcDbEntity
  8
ROGO
 62
     4
100
AcDbLine
 10
394.9613987691033
 20
326.4489414783893
 30
0.0
 11
395.626174828044
 21
326.4489414783893
 31
0.0
  0
LINE
  5
FB8
102
{ACAD_REACTORS
330
ED5
102
}
330
18
100
AcDbEntity
  8
ROGO
 62
     4
100
AcDbLine
 10
395.8232529458086
 20
326.8441788485976
 30
0.0
 11
395.626174828044
 21
326.4489414783893
 31
0.0
  0
SPLINE
  5
FB9
102
{ACAD_REACTORS
330
ED5
102
}
330
18
100
AcDbEntity
  8
ROGO
 62
     4
100
AcDbSpline
210
0.0
220
0.0
230
1.0
 70
     8
 71
     3
 72
    16
 73
    12
 74
    10
 42
0.0000000001
 43
0.0000000001
 44
0.0000000001
 40
0.0
 40
0.0
 40
0.0
 40
0.0
 40
0.1015977765921212
 40
0.1512209637786608
 40
0.1756917233628842
 40
0.201479919062657
 40
0.2384085415514578
 40
0.2720338915413791
 40
0.3071043481968423
 40
0.3659025028943098
 40
0.4241003886766817
 40
0.4241003886766817
 40
0.4241003886766817
 40
0.4241003886766817
 10
394.9613987691033
 20
326.4489414783893
 30
0.0
 10
394.926993154332
 20
326.4436961103049
 30
0.0
 10
394.8757828778908
 20
326.4358887581789
 30
0.0
 10
394.8294733904689
 20
326.3992306774389
 30
0.0
 10
394.8033580549013
 20
326.3774215594902
 30
0.0
 10
394.7944735013942
 20
326.3485400964934
 30
0.0
 10
394.7706123806924
 20
326.3263635664107
 30
0.0
 10
394.7509440300976
 20
326.2958858756633
 30
0.0
 10
394.7462476738163
 20
326.2540242737578
 30
0.0
 10
394.7496949068506
 20
326.1952778952236
 30
0.0
 10
394.7908844605835
 20
326.1831593245679
 30
0.0
 10
394.8113735722984
 20
326.1771311274771
 30
0.0
 11
394.9613987691033
 21
326.4489414783893
 31
0.0
 11
394.8633055115682
 21
326.4224873476226
 31
0.0
 11
394.8229141507128
 21
326.3936602999972
 31
0.0
 11
394.8056036148887
 21
326.3763639586468
 31
0.0
 11
394.7940630364743
 21
326.3533021701795
 31
0.0
 11
394.770982211443
 21
326.3244751225542
 31
0.0
 11
394.7536716756188
 21
326.29564788697
 31
0.0
 11
394.7479013864116
 21
326.2610553922278
 31
0.0
 11
394.759441964826
 21
326.2034009210595
 31
0.0
 11
394.8113735722984
 21
326.1771311274771
 31
0.0
  0
LINE
  5
FBA
102
{ACAD_REACTORS
330
FC1
102
}
330
18
100
AcDbEntity
  8
ROGO
 62
     4
100
AcDbLine
 10
396.3616765199532
 20
325.7818979427245
 30
0.0
 11
396.8220936960932
 21
325.7818979427245
 31
0.0
  0
LINE
  5
FBB
330
18
100
AcDbEntity
  8
ROGO
 62
     4
100
AcDbLine
 10
396.3616765199536
 20
325.7818979427245
 30
0.0
 11
396.8220936960929
 21
325.7818979427245
 31
0.0
  0
LINE
  5
FBC
102
{ACAD_REACTORS
330
ED5
102
}
330
18
100
AcDbEntity
  8
ROGO
 62
     4
100
AcDbLine
 10
394.3786088495053
 20
325.7818979427245
 30
0.0
 11
395.2935653776608
 21
325.7818979427245
 31
0.0
  0
ARC
  5
FBD
102
{ACAD_REACTORS
330
FC1
102
}
330
18
100
AcDbEntity
  8
ROGO
 62
     4
100
AcDbCircle
 10
396.7912244835003
 20
326.3125898757447
 30
0.0
 40
0.5315889728529103
100
AcDbArc
 50
273.3290215232082
 51
90.0000000000006
  0
ARC
  5
FBE
102
{ACAD_REACTORS
330
FC1
102
}
330
18
100
AcDbEntity
  8
ROGO
 62
     4
100
AcDbCircle
 10
396.3835089571321
 20
326.3130383956611
 30
0.0
 40
0.5315889728529103
100
AcDbArc
 50
92.3538081120337
 51
270.0
  0
LINE
  5
FBF
102
{ACAD_REACTORS
330
ED5
102
}
330
18
100
AcDbEntity
  8
ROGO
 62
     4
100
AcDbLine
 10
395.4906414084221
 20
326.1771311274771
 30
0.0
 11
395.2935653776608
 21
325.7818979427245
 31
0.0
  0
SPLINE
  5
FC0
102
{ACAD_REACTORS
330
FAA
102
}
330
18
100
AcDbEntity
  8
ROGO
 62
     4
100
AcDbSpline
210
0.0
220
0.0
230
1.0
 70
     8
 71
     3
 72
    26
 73
    22
 74
    20
 42
0.0000000001
 43
0.0000000001
 44
0.0000000001
 40
0.0
 40
0.0
 40
0.0
 40
0.0
 40
0.1927099265174152
 40
0.3217143003795519
 40
0.4147369596494461
 40
0.4841939694030119
 40
0.5742833564486761
 40
0.6400398264178589
 40
0.7587806847072545
 40
0.8554340362639683
 40
0.9211738023510587
 40
0.985635008861637
 40
1.10094357528064
 40
1.182480494385274
 40
1.226394424896055
 40
1.28877286598852
 40
1.333817737941481
 40
1.399072885742963
 40
1.436001654955457
 40
1.516362799066888
 40
1.553056395559019
 40
1.553056395559019
 40
1.553056395559019
 40
1.553056395559019
 10
398.1822055337837
 20
326.8441788485976
 30
0.0
 10
398.1167968071907
 20
326.8402764518048
 30
0.0
 10
398.0076020028811
 20
326.8337617025304
 30
0.0
 10
397.887706772012
 20
326.7609266373567
 30
0.0
 10
397.7998645068259
 20
326.7185835311943
 30
0.0
 10
397.7372155098263
 20
326.6610216857615
 30
0.0
 10
397.6912935410653
 20
326.601564504243
 30
0.0
 10
397.6334002785029
 20
326.5307217084146
 30
0.0
 10
397.5861899771853
 20
326.4482281394041
 30
0.0
 10
397.5621486408231
 20
326.3573058449908
 30
0.0
 10
397.5408530532505
 20
326.2848402487955
 30
0.0
 10
397.5250598889988
 20
326.2040867987889
 30
0.0
 10
397.5290781170831
 20
326.1168446652038
 30
0.0
 10
397.5348324035993
 20
326.0358186378627
 30
0.0
 10
397.5605238936373
 20
325.9779781856012
 30
0.0
 10
397.5897819500435
 20
325.9367997693294
 30
0.0
 10
397.6256080394258
 20
325.8914463090421
 30
0.0
 10
397.6648096157323
 20
325.8614088591539
 30
0.0
 10
397.6972325191935
 20
325.8069940002137
 30
0.0
 10
397.7539877179358
 20
325.8000502717703
 30
0.0
 10
397.7900635801764
 20
325.7862301797422
 30
0.0
 10
397.801372418463
 20
325.7818979427245
 30
0.0
 11
398.1822055337837
 21
326.8441788485976
 31
0.0
 11
397.9917889761233
 21
326.8145368117729
 31
0.0
 11
397.8763848509666
 21
326.7568825285634
 31
0.0
 11
397.7956021292557
 21
326.7107591395876
 31
0.0
 11
397.7436705217833
 21
326.664635562653
 31
0.0
 11
397.6859686251037
 21
326.5954503852098
 31
0.0
 11
397.6455772642482
 21
326.5435615491172
 31
0.0
 11
397.5878750357713
 21
326.4397836889731
 31
0.0
 11
397.5590242533301
 21
326.3475367230626
 31
0.0
 11
397.541713717506
 21
326.2841169927363
 31
0.0
 11
397.5301731390916
 21
326.22069726241
 31
0.0
 11
397.5301731390916
 21
326.105388695991
 31
0.0
 11
397.541713717506
 21
326.0246726243142
 31
0.0
 11
397.5590242533301
 21
325.9843144944964
 31
0.0
 11
397.5936453249784
 21
325.9324256584037
 31
0.0
 11
397.622496439217
 21
325.8978329757028
 31
0.0
 11
397.6686577574822
 21
325.851709586727
 31
0.0
 11
397.6917385825135
 21
325.8228823511428
 31
0.0
 11
397.7667513468146
 21
325.7940553035175
 31
0.0
 11
397.801372418463
 21
325.7818979427245
 31
0.0
  0
HATCH
  5
FC1
330
18
100
AcDbEntity
  8
ROGO
 62
     4
100
AcDbHatch
 10
0.0
 20
0.0
 30
0.0
210
0.0
220
0.0
230
1.0
  2
SOLID
 70
     1
 71
     1
 91
        2
 92
        7
 72
     1
 73
     1
 93
        4
 10
396.7912244835003
 20
326.8441788485976
 42
0.0
 10
396.3616765199532
 20
326.8441788485976
 42
0.9597396185056108
 10
396.3616765199561
 20
325.7818979427245
 42
0.0
 10
396.8220936960932
 20
325.7818979427245
 42
0.9713627655772571
 97
        4
330
FAB
330
FBE
330
FBA
330
FBD
 92
       22
 72
     1
 73
     1
 93
        2
 10
396.7195882424968
 20
326.2616279661034
 42
0.1034173650202703
 10
396.7259140086311
 20
326.3068853893372
 42
0.0
 97
        8
330
FB3
330
FAD
330
FB1
330
FAE
330
FB2
330
FAF
330
FB4
330
FB0
 75
     0
 76
     1
 47
0.0514683685270805
 98
        2
 10
396.8956467602298
 20
326.4118477538463
 10
396.8956467602298
 20
326.4118477538463
450
        0
451
        0
460
0.0
461
0.0
452
        0
462
0.0
453
        0
470

  0
LINE
  5
FC2
102
{ACAD_REACTORS
330
FCF
102
}
330
18
100
AcDbEntity
  8
ROGO
 62
     4
100
AcDbLine
 10
399.9897782682578
 20
326.6629530112037
 30
0.0
 11
400.276160471648
 21
326.8441788485976
 31
0.0
  0
LINE
  5
FC3
102
{ACAD_REACTORS
330
FCF
102
}
330
18
100
AcDbEntity
  8
ROGO
 62
     4
100
AcDbLine
 10
400.0801433238319
 20
326.8441788485976
 30
0.0
 11
399.9897782682578
 21
326.6629530112037
 31
0.0
  0
LINE
  5
FC4
102
{ACAD_REACTORS
330
FCF
102
}
330
18
100
AcDbEntity
  8
ROGO
 62
     4
100
AcDbLine
 10
399.4685022899956
 20
326.8441788485976
 30
0.0
 11
400.0801433238319
 21
326.8441788485976
 31
0.0
  0
LINE
  5
FC5
102
{ACAD_REACTORS
330
FCF
102
}
330
18
100
AcDbEntity
  8
ROGO
 62
     4
100
AcDbLine
 10
400.276160471648
 20
326.8441788485976
 30
0.0
 11
400.8877881232706
 21
326.8441788485976
 31
0.0
  0
LINE
  5
FC6
102
{ACAD_REACTORS
330
FCF
102
}
330
18
100
AcDbEntity
  8
ROGO
 62
     4
100
AcDbLine
 10
399.8823254380912
 20
326.0142355561057
 30
0.0
 11
400.8877881232706
 21
326.8441788485976
 31
0.0
  0
LINE
  5
FC7
102
{ACAD_REACTORS
330
FCF
102
}
330
18
100
AcDbEntity
  8
ROGO
 62
     4
100
AcDbLine
 10
399.6845343167782
 20
325.1842922636139
 30
0.0
 11
400.2961619684008
 21
325.1842922636139
 31
0.0
  0
LINE
  5
FC8
102
{ACAD_REACTORS
330
FCF
102
}
330
18
100
AcDbEntity
  8
ROGO
 62
     4
100
AcDbLine
 10
399.4685022899956
 20
325.6175414295528
 30
0.0
 11
399.252470263213
 21
325.1842922636139
 31
0.0
  0
LINE
  5
FC9
102
{ACAD_REACTORS
330
FCF
102
}
330
18
100
AcDbEntity
  8
ROGO
 62
     4
100
AcDbLine
 10
399.4685022899956
 20
325.6175414295528
 30
0.0
 11
399.6845343167782
 21
325.1842922636139
 31
0.0
  0
LINE
  5
FCA
102
{ACAD_REACTORS
330
FCF
102
}
330
18
100
AcDbEntity
  8
ROGO
 62
     4
100
AcDbLine
 10
399.8823254380912
 20
326.0142355561057
 30
0.0
 11
400.2961619684008
 21
325.1842922636139
 31
0.0
  0
LINE
  5
FCB
102
{ACAD_REACTORS
330
FAA
102
}
330
18
100
AcDbEntity
  8
ROGO
 62
     4
100
AcDbLine
 10
398.3841623380608
 20
326.4489414783893
 30
0.0
 11
399.0489383970015
 21
326.4489414783893
 31
0.0
  0
LINE
  5
FCC
102
{ACAD_REACTORS
330
FAA
102
}
330
18
100
AcDbEntity
  8
ROGO
 62
     4
100
AcDbLine
 10
398.9134049773796
 20
326.1771311274771
 30
0.0
 11
398.7163289466185
 21
325.7818979427245
 31
0.0
  0
LINE
  5
FCD
102
{ACAD_REACTORS
330
FCF
102
}
330
18
100
AcDbEntity
  8
ROGO
 62
     4
100
AcDbLine
 10
399.4685022899956
 20
326.8441788485976
 30
0.0
 11
398.6408292293764
 21
325.1842922636139
 31
0.0
  0
LINE
  5
FCE
102
{ACAD_REACTORS
330
FAA
102
}
330
18
100
AcDbEntity
  8
ROGO
 62
     4
100
AcDbLine
 10
399.2460165147662
 20
326.8441788485976
 30
0.0
 11
399.0489383970015
 21
326.4489414783893
 31
0.0
  0
HATCH
  5
FCF
330
18
100
AcDbEntity
  8
ROGO
 62
     4
100
AcDbHatch
 10
0.0
 20
0.0
 30
0.0
210
0.0
220
0.0
230
1.0
  2
SOLID
 70
     1
 71
     1
 91
        1
 92
        7
 72
     0
 73
     1
 93
       11
 10
398.6408292293764
 20
325.1842922636138
 10
399.2524702632129
 20
325.1842922636139
 10
399.4685022899956
 20
325.6175414295529
 10
399.6845343167782
 20
325.1842922636139
 10
400.2961619684008
 20
325.1842922636139
 10
399.8823254380912
 20
326.0142355561058
 10
400.8877881232706
 20
326.8441788485976
 10
400.276160471648
 20
326.8441788485976
 10
399.9897782682578
 20
326.6629530112037
 10
400.0801433238319
 20
326.8441788485975
 10
399.4685022899955
 20
326.8441788485976
 97
       11
330
FC5
330
FC2
330
FC3
330
FC4
330
FCD
330
ED8
330
FC8
330
FC9
330
FC7
330
FCA
330
FC6
 75
     0
 76
     1
 47
0.0514683685270805
 98
        1
 10
399.4158622949976
 20
326.132055157628
450
        0
451
        0
460
0.0
461
0.0
452
        0
462
0.0
453
        0
470

  0
TEXT
  5
FD0
330
18
100
AcDbEntity
  8
文字
100
AcDbText
 10
404.3621236646213
 20
323.1768046854933
 30
0.0
 40
1.9
  1
80
 41
0.8
  7
STYLE3
100
AcDbText
  0
LINE
  5
FD1
330
18
100
AcDbEntity
  8
目盛
100
AcDbLine
 10
410.5888836439404
 20
323.1530301699928
 30
0.0
 11
408.8207665926288
 21
322.8157438037385
 31
0.0
  0
LINE
  5
FD2
330
18
100
AcDbEntity
  8
目盛
100
AcDbLine
 10
408.3125547777004
 20
328.9023805964818
 30
0.0
 11
406.7927645117967
 21
327.9378923655197
 31
0.0
  0
LINE
  5
FD3
330
18
100
AcDbEntity
  8
目盛
100
AcDbLine
 10
408.8402042276408
 20
328.0101741020067
 30
0.0
 11
407.2628522035619
 21
327.1430174886236
 31
0.0
  0
LINE
  5
FD4
330
18
100
AcDbEntity
  8
目盛
100
AcDbLine
 10
409.3107903726064
 20
327.0865967901521
 30
0.0
 11
407.6821016781675
 21
326.3201940653349
 31
0.0
  0
LINE
  5
FD5
330
18
100
AcDbEntity
  8
目盛
100
AcDbLine
 10
409.7224560240732
 20
326.1352935986256
 30
0.0
 11
408.0488583494743
 21
325.4726694037931
 31
0.0
  0
LINE
  5
FD6
330
18
100
AcDbEntity
  8
目盛
100
AcDbLine
 10
410.0735765257871
 20
325.160018886515
 30
0.0
 11
407.2204069769017
 21
324.2329679033901
 31
0.0
  0
LINE
  5
FD7
330
18
100
AcDbEntity
  8
目盛
100
AcDbLine
 10
410.3627661655394
 20
324.1646216175484
 30
0.0
 11
408.6193164755079
 21
323.7169798206517
 31
0.0
  0
LINE
  5
FD8
330
18
100
AcDbEntity
  8
目盛
100
AcDbLine
 10
404.0796006697428
 20
333.410018886515
 30
0.0
 11
402.3162449128655
 21
330.9829679033902
 31
0.0
  0
LINE
  5
FD9
330
18
100
AcDbEntity
  8
目盛
100
AcDbLine
 10
403.2222861240706
 20
333.9926492501116
 30
0.0
 11
402.2577978931083
 21
332.472858984208
 31
0.0
  0
LINE
  5
FDA
330
18
100
AcDbEntity
  8
目盛
100
AcDbLine
 10
400.4551991262143
 20
335.4025504964845
 30
0.0
 11
399.7925749313819
 21
333.7289528218857
 31
0.0
  0
LINE
  5
FDB
330
18
100
AcDbEntity
  8
目盛
100
AcDbLine
 10
399.4799244141037
 20
335.7536709981984
 30
0.0
 11
398.5528734309789
 21
332.9005014493129
 31
0.0
  0
LINE
  5
FDC
330
18
100
AcDbEntity
  8
目盛
100
AcDbLine
 10
398.4845271451372
 20
336.0428606379508
 30
0.0
 11
398.0368853482405
 21
334.2994109479193
 31
0.0
  0
LINE
  5
FDD
330
18
100
AcDbEntity
  8
目盛
100
AcDbLine
 10
397.4729356975815
 20
336.2689781163517
 30
0.0
 11
397.1356493313273
 21
334.5008610650401
 31
0.0
  0
LINE
  5
FDE
330
18
100
AcDbEntity
  8
目盛
100
AcDbLine
 10
396.4491423607282
 20
336.4311310510172
 30
0.0
 11
396.2235425403124
 21
334.6453245886512
 31
0.0
  0
LINE
  5
FDF
330
18
100
AcDbEntity
  8
目盛
100
AcDbLine
 10
395.4171875791508
 20
336.5286794983949
 30
0.0
 11
395.304164643998
 21
334.732231387224
 31
0.0
  0
LINE
  5
FE0
330
18
100
AcDbEntity
  8
目盛
100
AcDbLine
 10
394.3811440069171
 20
336.5612384793284
 30
0.0
 11
394.3811440069171
 21
333.5612384793284
 31
0.0
  0
LINE
  5
FE1
330
18
100
AcDbEntity
  8
目盛
100
AcDbLine
 10
402.3300796295954
 20
334.5202987000521
 30
0.0
 11
401.4629230162123
 21
332.9429466759731
 31
0.0
  0
LINE
  5
FE2
330
18
100
AcDbEntity
  8
目盛
100
AcDbLine
 10
401.4065023177407
 20
334.9908848450177
 30
0.0
 11
400.6400995929237
 21
333.3621961505789
 31
0.0
  0
LINE
  5
FE3
330
18
100
AcDbEntity
  8
目盛
100
AcDbLine
 10
407.0946125127177
 20
330.5787343101818
 30
0.0
 11
405.7076886757212
 21
329.4313711286341
 31
0.0
  0
LINE
  5
FE4
330
18
100
AcDbEntity
  8
目盛
100
AcDbLine
 10
404.8986398377705
 20
332.774706985129
 30
0.0
 11
403.7512766562228
 21
331.3877831481325
 31
0.0
  0
LINE
  5
FE5
330
18
100
AcDbEntity
  8
目盛
100
AcDbLine
 10
405.6761712547404
 20
332.0892208317817
 30
0.0
 11
404.4439864640688
 21
330.7770773024231
 31
0.0
  0
LINE
  5
FE6
330
18
100
AcDbEntity
  8
目盛
100
AcDbLine
 10
406.4091263593703
 20
331.3562657271518
 30
0.0
 11
405.0969828300118
 21
330.1240809364801
 31
0.0
  0
POINT
  5
FE7
330
18
100
AcDbEntity
  8
DEFPOINTS
  6
ByBlock
 62
     0
100
AcDbPoint
 10
410.8811440069171
 20
320.0612384793284
 30
0.0
  0
DIMENSION
  5
FFA
330
18
100
AcDbEntity
  8
外形線
100
AcDbDimension
  2
*D3
 10
324.4927193271834
 20
304.4976234940866
 30
0.0
 11
305.4927193271836
 21
306.3726234940866
 31
0.0
 70
    32
  1
φ38
 71
     5
 42
37.99999999999954
  3
STYLE3
100
AcDbAlignedDimension
 13
286.4927193271838
 23
290.1982570878068
 33
0.0
 14
324.4927193271834
 24
290.1982570878068
 34
0.0
100
AcDbRotatedDimension
1001
ACAD
1000
DSTYLE
1002
{
1070
   271
1070
     2
1002
}
  0
DIMENSION
  5
1057
330
18
100
AcDbEntity
  8
外形線
100
AcDbDimension
  2
*D4
 10
346.1288214850215
 20
294.06812284551
 30
0.0
 11
344.2538214850214
 21
282.81812284551
 31
0.0
 70
    32
 71
     5
 42
22.50000000000006
  3
STYLE3
100
AcDbAlignedDimension
 13
380.3811440069171
 23
271.56812284551
 33
0.0
 14
394.3811440069171
 24
294.0681228455099
 34
0.0
 50
90.0
100
AcDbRotatedDimension
1001
ACAD
1000
DSTYLE
1002
{
1070
    75
1070
     1
1070
   271
1070
     2
1070
   279
1070
     1
1002
}
  0
LINE
  5
1058
330
18
100
AcDbEntity
  8
0
  6
ByBlock
 62
     2
100
AcDbLine
 10
385.3811440069171
 20
269.4681228455099
 30
0.0
 11
344.8788214850215
 21
269.4681228455099
 31
0.0
  0
LINE
  5
1059
330
18
100
AcDbEntity
  8
0
  6
ByBlock
 62
     2
100
AcDbLine
 10
346.1288214850215
 20
233.9681228455099
 30
0.0
 11
346.1288214850215
 21
266.9681228455099
 31
0.0
  0
INSERT
  5
105A
330
18
100
AcDbEntity
  8
0
  6
ByBlock
 62
     2
100
AcDbBlockReference
  2
_OPEN
 10
346.1288214850215
 20
231.4681228455099
 30
0.0
 41
2.5
 42
2.5
 43
2.5
 50
270.0
  0
INSERT
  5
105B
330
18
100
AcDbEntity
  8
0
  6
ByBlock
 62
     2
100
AcDbBlockReference
  2
_OPEN
 10
346.1288214850215
 20
269.4681228455099
 30
0.0
 41
2.5
 42
2.5
 43
2.5
 50
90.0
  0
MTEXT
  5
105C
330
18
100
AcDbEntity
  8
0
  6
ByBlock
 62
     6
100
AcDbMText
 10
344.2538214850215
 20
250.4681228455099
 30
0.0
 40
2.5
 41
0.0
 71
     5
 72
     1
  1
\A1;38
  7
STYLE3
 11
0.0000000000000001
 21
1.0
 31
0.0
 73
     1
 44
1.0
  0
POINT
  5
105D
330
18
100
AcDbEntity
  8
DEFPOINTS
  6
ByBlock
 62
     0
100
AcDbPoint
 10
356.8811440069171
 20
231.4681228455099
 30
0.0
  0
POINT
  5
105E
330
18
100
AcDbEntity
  8
DEFPOINTS
  6
ByBlock
 62
     0
100
AcDbPoint
 10
385.3811440069171
 20
269.4681228455099
 30
0.0
  0
POINT
  5
105F
330
18
100
AcDbEntity
  8
DEFPOINTS
  6
ByBlock
 62
     0
100
AcDbPoint
 10
346.1288214850215
 20
269.4681228455099
 30
0.0
  0
LINE
  5
1060
330
18
100
AcDbEntity
  8
0
  6
ByBlock
 62
     2
100
AcDbLine
 10
394.3811440069171
 20
226.3681228455099
 30
0.0
 11
344.8788214850215
 21
226.3681228455099
 31
0.0
  0
LINE
  5
1061
330
18
100
AcDbEntity
  8
0
  6
ByBlock
 62
     2
100
AcDbLine
 10
356.8811440069171
 20
231.4681228455099
 30
0.0
 11
344.8788214850215
 21
231.4681228455099
 31
0.0
  0
LINE
  5
1062
330
18
100
AcDbEntity
  8
0
  6
ByBlock
 62
     2
100
AcDbLine
 10
346.1288214850215
 20
223.8681228455099
 30
0.0
 11
346.1288214850215
 21
221.3681228455099
 31
0.0
  0
LINE
  5
1063
330
18
100
AcDbEntity
  8
0
  6
ByBlock
 62
     2
100
AcDbLine
 10
346.1288214850215
 20
233.9681228455099
 30
0.0
 11
346.1288214850215
 21
242.2419323693195
 31
0.0
  0
LINE
  5
1064
330
18
100
AcDbEntity
  8
0
  6
ByBlock
 62
     2
100
AcDbLine
 10
346.1288214850215
 20
226.3681228455099
 30
0.0
 11
346.1288214850215
 21
231.4681228455099
 31
0.0
  0
INSERT
  5
1065
330
18
100
AcDbEntity
  8
0
  6
ByBlock
 62
     2
100
AcDbBlockReference
  2
_OPEN
 10
346.1288214850215
 20
226.3681228455099
 30
0.0
 41
2.5
 42
2.5
 43
2.5
 50
90.0
  0
INSERT
  5
1066
330
18
100
AcDbEntity
  8
0
  6
ByBlock
 62
     2
100
AcDbBlockReference
  2
_OPEN
 10
346.1288214850215
 20
231.4681228455099
 30
0.0
 41
2.5
 42
2.5
 43
2.5
 50
270.0
  0
MTEXT
  5
1067
330
18
100
AcDbEntity
  8
0
  6
ByBlock
 62
     6
100
AcDbMText
 10
344.2538214850215
 20
228.8914476315426
 30
0.0
 40
2.5
 41
0.0
 71
     5
 72
     1
  1
\A1;5.1
  7
STYLE3
 11
0.0000000000000001
 21
1.0
 31
0.0
 73
     1
 44
1.0
  0
POINT
  5
1068
330
18
100
AcDbEntity
  8
DEFPOINTS
  6
ByBlock
 62
     0
100
AcDbPoint
 10
394.3811440069171
 20
226.3681228455099
 30
0.0
  0
POINT
  5
1069
330
18
100
AcDbEntity
  8
DEFPOINTS
  6
ByBlock
 62
     0
100
AcDbPoint
 10
356.8811440069171
 20
231.4681228455099
 30
0.0
  0
POINT
  5
106A
330
18
100
AcDbEntity
  8
DEFPOINTS
  6
ByBlock
 62
     0
100
AcDbPoint
 10
346.1288214850215
 20
231.4681228455099
 30
0.0
  0
LINE
  5
106B
330
18
100
AcDbEntity
  8
0
  6
ByBlock
 62
     2
100
AcDbLine
 10
380.3811440069171
 20
271.56812284551
 30
0.0
 11
344.8788214850215
 21
271.56812284551
 31
0.0
  0
LINE
  5
106C
330
18
100
AcDbEntity
  8
0
  6
ByBlock
 62
     2
100
AcDbLine
 10
346.1288214850215
 20
266.9681228455099
 30
0.0
 11
346.1288214850215
 21
264.4681228455099
 31
0.0
  0
LINE
  5
106D
330
18
100
AcDbEntity
  8
0
  6
ByBlock
 62
     2
100
AcDbLine
 10
346.1288214850215
 20
274.06812284551
 30
0.0
 11
346.1288214850215
 21
276.56812284551
 31
0.0
  0
MTEXT
  5
1070
330
18
100
AcDbEntity
  8
0
  6
ByBlock
 62
     6
100
AcDbMText
 10
343.1756356458397
 20
268.6097242012019
 30
0.0
 40
2.5
 41
0.0
 71
     4
 72
     1
  1
2.1
  7
STYLE3
 11
0.0000000000000001
 21
1.0
 31
0.0
 73
     1
 44
1.0
  0
LINE
  5
1071
330
18
100
AcDbEntity
  8
0
  6
ByBlock
 62
     2
100
AcDbLine
 10
346.1288214850215
 20
269.4681228455099
 30
0.0
 11
346.1288214850215
 21
271.56812284551
 31
0.0
  0
LINE
  5
1072
330
18
100
AcDbEntity
  8
0
  6
ByBlock
 62
     2
100
AcDbLine
 10
346.1288214850215
 20
269.4681228455099
 30
0.0
 11
346.1288214850215
 21
271.56812284551
 31
0.0
  0
INSERT
  5
1073
330
18
100
AcDbEntity
  8
0
  6
ByBlock
 62
     2
100
AcDbBlockReference
  2
_OPEN
 10
346.1288214850215
 20
269.4681228455099
 30
0.0
 41
2.5
 42
2.5
 43
2.5
 50
90.0
  0
INSERT
  5
1074
330
18
100
AcDbEntity
  8
0
  6
ByBlock
 62
     2
100
AcDbBlockReference
  2
_OPEN
 10
346.1288214850215
 20
271.56812284551
 30
0.0
 41
2.5
 42
2.5
 43
2.5
 50
270.0
  0
POINT
  5
1075
330
18
100
AcDbEntity
  8
DEFPOINTS
  6
ByBlock
 62
     0
100
AcDbPoint
 10
385.3811440069171
 20
269.4681228455099
 30
0.0
  0
POINT
  5
1076
330
18
100
AcDbEntity
  8
DEFPOINTS
  6
ByBlock
 62
     0
100
AcDbPoint
 10
380.3811440069171
 20
271.56812284551
 30
0.0
  0
POINT
  5
1077
330
18
100
AcDbEntity
  8
DEFPOINTS
  6
ByBlock
 62
     0
100
AcDbPoint
 10
346.1288214850215
 20
271.56812284551
 30
0.0
  0
DIMENSION
  5
1084
330
18
100
AcDbEntity
  8
外形線
100
AcDbDimension
  2
*D5
 10
339.8231774446809
 20
294.0681228455099
 30
0.0
 11
337.9481774446809
 21
260.21812284551
 31
0.0
 70
    32
 71
     5
 42
67.69999999999999
  3
STYLE3
100
AcDbAlignedDimension
 13
344.8788214850215
 23
226.3681228455099
 33
0.0
 14
344.8788214850215
 24
294.0681228455099
 34
0.0
 50
90.0
100
AcDbRotatedDimension
1001
ACAD
1000
DSTYLE
1002
{
1070
   271
1070
     2
1002
}
  0
ARC
  5
1096
330
18
100
AcDbEntity
  8
外形線
100
AcDbCircle
 10
401.6760645947454
 20
269.3695363902822
 30
0.0
 40
2.297037177233495
100
AcDbArc
 50
106.8355208054154
 51
177.5401689409049
  0
ARC
  5
1097
330
18
100
AcDbEntity
  8
外形線
100
AcDbCircle
 10
387.0862234190888
 20
269.3695363902822
 30
0.0
 40
2.297037177233436
100
AcDbArc
 50
2.459831059095048
 51
73.16447919458454
  0
ARC
  5
10A6
330
18
100
AcDbEntity
  8
外形線
100
AcDbCircle
 10
293.6977987393553
 20
269.3695363902822
 30
0.0
 40
2.297037177233436
100
AcDbArc
 50
2.459831059095048
 51
73.16447919458454
  0
ARC
  5
10A7
330
18
100
AcDbEntity
  8
外形線
100
AcDbCircle
 10
308.2876399150119
 20
269.3695363902822
 30
0.0
 40
2.297037177233495
100
AcDbArc
 50
106.8355208054154
 51
177.5401689409049
  0
LINE
  5
1167
330
18
100
AcDbEntity
  8
外形線
100
AcDbLine
 10
310.0134403299076
 20
354.8574619916778
 30
0.0
 11
410.0134403299076
 21
354.8574619916778
 31
0.0
  0
LINE
  5
1168
330
18
100
AcDbEntity
  8
外形線
100
AcDbLine
 10
310.0134403299076
 20
353.8574619916778
 30
0.0
 11
410.0134403299076
 21
353.8574619916778
 31
0.0
  0
TEXT
  5
1169
330
18
100
AcDbEntity
  8
文字
100
AcDbText
 10
311.0123073299076
 20
356.7523769916778
 30
0.0
 40
4.0
  1
Model No.T-2B Dial Depth Gauge
  7
STYLE3
100
AcDbText
  0
TEXT
  5
116A
330
18
100
AcDbEntity
  8
0
  6
Continuous
100
AcDbText
 10
454.6154273299076
 20
174.2508593788299
 30
0.0
 40
2.1
  1
OZAKI MFG. CO., LTD.
  7
STYLE3
100
AcDbText
  0
TEXT
  5
116B
330
18
100
AcDbEntity
  8
0
  6
Continuous
100
AcDbText
 10
453.7409483299076
 20
178.0384993788299
 30
0.0
 40
3.0
  1
株式会社　尾崎製作所
  7
STYLE3
100
AcDbText
  0
LINE
  5
116C
330
18
100
AcDbEntity
  8
外形線
100
AcDbLine
 10
452.3919843299075
 20
182.1174963788299
 30
0.0
 11
452.3919843299075
 21
172.5027183788299
 31
0.0
  0
TEXT
  5
116D
330
18
100
AcDbEntity
  8
0
  6
Continuous
100
AcDbText
 10
414.4978143299075
 20
176.2903593788299
 30
0.0
 40
2.399999999999999
  1
1/1
  7
STYLE3
100
AcDbText
  0
TEXT
  5
116E
330
18
100
AcDbEntity
  8
0
  6
Continuous
100
AcDbText
 10
424.5915863299075
 20
174.2508613788299
 30
0.0
 40
2.1
  1
Date
  7
STYLE3
100
AcDbText
  0
TEXT
  5
116F
330
18
100
AcDbEntity
  8
0
  6
Continuous
100
AcDbText
 10
424.2082253299075
 20
177.5839443788299
 30
0.0
 40
3.0
  1
日 付
  7
STYLE3
100
AcDbText
  0
TEXT
  5
1170
330
18
100
AcDbEntity
  8
0
  6
Continuous
100
AcDbText
 10
404.4153103299075
 20
177.4617393788299
 30
0.0
 40
3.0
  1
尺 度
  7
STYLE3
100
AcDbText
  0
TEXT
  5
1171
330
18
100
AcDbEntity
  8
0
  6
Continuous
100
AcDbText
 10
404.8785263299075
 20
174.5422173788299
 30
0.0
 40
2.1
  1
Scale
  7
STYLE3
100
AcDbText
  0
TEXT
  5
1172
330
18
100
AcDbEntity
  8
0
  6
Continuous
100
AcDbText
 10
387.2691363299076
 20
174.2508603788299
 30
0.0
 40
2.1
  1
Unit
  7
STYLE3
100
AcDbText
  0
TEXT
  5
1173
330
18
100
AcDbEntity
  8
0
  6
Continuous
100
AcDbText
 10
387.0974153299076
 20
177.7530963788299
 30
0.0
 40
3.0
  1
単位
  7
STYLE3
100
AcDbText
  0
TEXT
  5
1174
330
18
100
AcDbEntity
  8
0
  6
Continuous
100
AcDbText
 10
395.1394623299076
 20
175.9990023788299
 30
0.0
 40
2.399999999999999
  1
mm
  7
STYLE3
100
AcDbText
  0
LINE
  5
1175
330
18
100
AcDbEntity
  8
外形線
100
AcDbLine
 10
403.1295633299075
 20
182.1174963788299
 30
0.0
 11
403.1295633299075
 21
172.5027183788299
 31
0.0
  0
LINE
  5
1176
330
18
100
AcDbEntity
  8
外形線
100
AcDbLine
 10
385.6399453299076
 20
182.1174963788299
 30
0.0
 11
385.6399453299076
 21
172.5027183788299
 31
0.0
  0
LINE
  5
1177
330
18
100
AcDbEntity
  8
外形線
100
AcDbLine
 10
422.6596353299076
 20
182.1174963788299
 30
0.0
 11
422.6596353299076
 21
172.5027183788299
 31
0.0
  0
TEXT
  5
1178
330
18
100
AcDbEntity
  8
0
  6
Continuous
100
AcDbText
 10
354.1586363299076
 20
177.7471423788299
 30
0.0
 40
3.0
  1
三　　角　　法
  7
STYLE3
100
AcDbText
  0
LINE
  5
1179
330
18
100
AcDbEntity
  8
外形線
100
AcDbLine
 10
350.3692183299076
 20
172.5027183788299
 30
0.0
 11
350.3692183299076
 21
192.8977023788299
 31
0.0
  0
TEXT
  5
117A
330
18
100
AcDbEntity
  8
0
  6
Continuous
100
AcDbText
 10
351.5351943299076
 20
174.2508593788299
 30
0.0
 40
2.1
  1
3RD Angle Projection
  7
STYLE3
100
AcDbText
  0
LINE
  5
117B
330
18
100
AcDbEntity
  8
外形線
100
AcDbLine
 10
350.3692183299076
 20
192.8977023788299
 30
0.0
 11
491.1606353299076
 21
192.8977023788299
 31
0.0
  0
TEXT
  5
117C
330
18
100
AcDbEntity
  8
0
  6
Continuous
100
AcDbText
 10
352.1181793299076
 20
187.9446343788299
 30
0.0
 40
3.5
  1
仕様及び外観は予告なく変更される場合がございますのでご了承下さい。
  7
STYLE3
100
AcDbText
  0
LINE
  5
117D
330
18
100
AcDbEntity
  8
外形線
100
AcDbLine
 10
350.3692183299076
 20
182.1174963788299
 30
0.0
 11
491.1606353299076
 21
182.1174963788299
 31
0.0
  0
TEXT
  5
117E
330
18
100
AcDbEntity
  8
0
  6
Continuous
100
AcDbText
 10
351.8266853299075
 20
184.0154863788299
 30
0.0
 40
2.1
  1
Design and specifications are subject to change without notice for future improvement.
  7
STYLE3
100
AcDbText
  0
TEXT
  5
117F
330
18
100
AcDbEntity
  8
0
  6
Continuous
100
AcDbText
 10
433.3363933299076
 20
175.9990013788299
 30
0.0
 40
2.1
  1
2010.06.23
  7
STYLE3
100
AcDbText
  0
ENDSEC
  0
SECTION
  2
OBJECTS
  0
DICTIONARY
  5
C
330
0
100
AcDbDictionary
281
     1
  3
ACAD_COLOR
350
1140
  3
ACAD_GROUP
350
D
  3
ACAD_LAYOUT
350
1141
  3
ACAD_MATERIAL
350
113F
  3
ACAD_MLINESTYLE
350
1B
  3
ACAD_PLOTSETTINGS
350
1142
  3
ACAD_PLOTSTYLENAME
350
113D
  0
DICTIONARY
  5
1140
102
{ACAD_REACTORS
330
C
102
}
330
C
100
AcDbDictionary
281
     1
  0
DICTIONARY
  5
D
102
{ACAD_REACTORS
330
C
102
}
330
C
100
AcDbDictionary
281
     1
  0
DICTIONARY
  5
1141
102
{ACAD_REACTORS
330
C
102
}
330
C
100
AcDbDictionary
281
     1
  3
Model
350
1143
  3
レイアウト1
350
1144
  0
DICTIONARY
  5
113F
102
{ACAD_REACTORS
330
C
102
}
330
C
100
AcDbDictionary
281
     1
  0
DICTIONARY
  5
1B
102
{ACAD_REACTORS
330
C
102
}
330
C
100
AcDbDictionary
281
     1
  3
STANDARD
350
1C
  0
DICTIONARY
  5
1142
102
{ACAD_REACTORS
330
C
102
}
330
C
100
AcDbDictionary
281
     1
  0
ACDBDICTIONARYWDFLT
  5
113D
102
{ACAD_REACTORS
330
C
102
}
330
C
100
AcDbDictionary
281
     1
  3
Normal
350
113E
100
AcDbDictionaryWithDefault
340
113E
  0
LAYOUT
  5
1143
102
{ACAD_REACTORS
330
1141
102
}
330
1141
100
AcDbPlotSettings
  1

  2
EPSON PX-101
  4

  6

 40
0.0
 41
0.0
 42
0.0
 43
0.0
 44
0.0
 45
0.0
 46
0.0
 47
0.0
 48
0.0
 49
0.0
140
0.0
141
0.0
142
1.0
143
1.0
 70
  1712
 72
     0
 73
     0
 74
     0
  7
AutoCad LT 98fukui.ctb
 75
     0
147
1.0
 76
     0
 77
     2
 78
   300
148
0.0
149
0.0
100
AcDbLayout
  1
Model
 70
     1
 71
     0
 10
0.0
 20
0.0
 11
12.0
 21
9.0
 12
0.0
 22
0.0
 32
0.0
 14
0.0
 24
0.0
 34
0.0
 15
0.0
 25
0.0
 35
0.0
146
0.0
 13
0.0
 23
0.0
 33
0.0
 16
1.0
 26
0.0
 36
0.0
 17
0.0
 27
1.0
 37
0.0
 76
     0
330
18
  0
LAYOUT
  5
1144
102
{ACAD_REACTORS
330
1141
102
}
330
1141
100
AcDbPlotSettings
  1

  2
EPSON PX-101
  4

  6

 40
0.0
 41
0.0
 42
0.0
 43
0.0
 44
0.0
 45
0.0
 46
0.0
 47
0.0
 48
0.0
 49
0.0
140
0.0
141
0.0
142
1.0
143
1.0
 70
   688
 72
     0
 73
     0
 74
     5
  7
AutoCad LT 98fukui.ctb
 75
    16
147
1.0
 76
     0
 77
     2
 78
   300
148
0.0
149
0.0
100
AcDbLayout
  1
レイアウト1
 70
     1
 71
     1
 10
0.0
 20
0.0
 11
420.0
 21
297.0
 12
0.0
 22
0.0
 32
0.0
 14
1.000000000000000E+20
 24
1.000000000000000E+20
 34
1.000000000000000E+20
 15
-1.000000000000000E+20
 25
-1.000000000000000E+20
 35
-1.000000000000000E+20
146
0.0
 13
0.0
 23
0.0
 33
0.0
 16
1.0
 26
0.0
 36
0.0
 17
0.0
 27
1.0
 37
0.0
 76
     0
330
15
  0
MLINESTYLE
  5
1C
102
{ACAD_REACTORS
330
1B
102
}
330
1B
100
AcDbMlineStyle
  2
STANDARD
 70
     0
  3

 62
   256
 51
90.0
 52
90.0
 71
     2
 49
0.5
 62
   256
  6
BYLAYER
 49
-0.5
 62
   256
  6
BYLAYER
  0
ACDBPLACEHOLDER
  5
113E
102
{ACAD_REACTORS
330
113D
102
}
330
113D
  0
ENDSEC
  0
EOF
