  0
SECTION
  2
HEADER
  9
$ACADVER
  1
AC1018
  9
$ACADMAINTVER
 70
     0
  9
$DWGCODEPAGE
  3
ANSI_932
  9
$INSBASE
 10
0.0
 20
0.0
 30
0.0
  9
$EXTMIN
 10
-0.2128225079886761
 20
-0.2090691322566727
 30
-0.0015258207003583
  9
$EXTMAX
 10
255.2310249564599
 20
195.2002935422122
 30
0.0000000349246037
  9
$LIMMIN
 10
0.0
 20
0.0
  9
$LIMMAX
 10
420.0
 20
297.0
  9
$ORTHOMODE
 70
     1
  9
$REGENMODE
 70
     1
  9
$FILLMODE
 70
     1
  9
$QTEXTMODE
 70
     0
  9
$MIRRTEXT
 70
     1
  9
$LTSCALE
 40
1.0
  9
$ATTMODE
 70
     1
  9
$TEXTSIZE
 40
2.5
  9
$TRACEWID
 40
1.0
  9
$TEXTSTYLE
  7
STYLE3
  9
$CLAYER
  8
寸法線
  9
$CELTYPE
  6
BYLAYER
  9
$CECOLOR
 62
   256
  9
$CELTSCALE
 40
1.0
  9
$DISPSILH
 70
     0
  9
$DIMSCALE
 40
1.0
  9
$DIMASZ
 40
2.5
  9
$DIMEXO
 40
0.0
  9
$DIMDLI
 40
3.75
  9
$DIMRND
 40
0.0
  9
$DIMDLE
 40
0.0
  9
$DIMEXE
 40
1.25
  9
$DIMTP
 40
0.0
  9
$DIMTM
 40
0.0
  9
$DIMTXT
 40
2.5
  9
$DIMCEN
 40
2.5
  9
$DIMTSZ
 40
0.0
  9
$DIMTOL
 70
     0
  9
$DIMLIM
 70
     0
  9
$DIMTIH
 70
     0
  9
$DIMTOH
 70
     0
  9
$DIMSE1
 70
     0
  9
$DIMSE2
 70
     0
  9
$DIMTAD
 70
     1
  9
$DIMZIN
 70
     8
  9
$DIMBLK
  1

  9
$DIMASO
 70
     1
  9
$DIMSHO
 70
     1
  9
$DIMPOST
  1

  9
$DIMAPOST
  1

  9
$DIMALT
 70
     0
  9
$DIMALTD
 70
     4
  9
$DIMALTF
 40
0.0394
  9
$DIMLFAC
 40
1.0
  9
$DIMTOFL
 70
     1
  9
$DIMTVP
 40
0.0
  9
$DIMTIX
 70
     0
  9
$DIMSOXD
 70
     0
  9
$DIMSAH
 70
     1
  9
$DIMBLK1
  1
OPEN
  9
$DIMBLK2
  1
OPEN
  9
$DIMSTYLE
  2
STYLE3
  9
$DIMCLRD
 70
     2
  9
$DIMCLRE
 70
     2
  9
$DIMCLRT
 70
     6
  9
$DIMTFAC
 40
1.0
  9
$DIMGAP
 40
0.625
  9
$DIMJUST
 70
     0
  9
$DIMSD1
 70
     0
  9
$DIMSD2
 70
     0
  9
$DIMTOLJ
 70
     1
  9
$DIMTZIN
 70
     0
  9
$DIMALTZ
 70
     0
  9
$DIMALTTZ
 70
     0
  9
$DIMUPT
 70
     0
  9
$DIMDEC
 70
     2
  9
$DIMTDEC
 70
     4
  9
$DIMALTU
 70
     8
  9
$DIMALTTD
 70
     4
  9
$DIMTXSTY
  7
STYLE3
  9
$DIMAUNIT
 70
     0
  9
$DIMADEC
 70
     0
  9
$DIMALTRND
 40
0.0
  9
$DIMAZIN
 70
     0
  9
$DIMDSEP
 70
    46
  9
$DIMATFIT
 70
     3
  9
$DIMFRAC
 70
     0
  9
$DIMLDRBLK
  1

  9
$DIMLUNIT
 70
     2
  9
$DIMLWD
 70
    -2
  9
$DIMLWE
 70
    -2
  9
$DIMTMOVE
 70
     0
  9
$LUNITS
 70
     2
  9
$LUPREC
 70
     4
  9
$SKETCHINC
 40
1.0
  9
$FILLETRAD
 40
0.0
  9
$AUNITS
 70
     0
  9
$AUPREC
 70
     0
  9
$MENU
  1
.
  9
$ELEVATION
 40
0.0
  9
$PELEVATION
 40
0.0
  9
$THICKNESS
 40
0.0
  9
$LIMCHECK
 70
     0
  9
$CHAMFERA
 40
0.3
  9
$CHAMFERB
 40
0.3
  9
$CHAMFERC
 40
20.0
  9
$CHAMFERD
 40
0.0
  9
$SKPOLY
 70
     0
  9
$TDCREATE
 40
2451400.687391204
  9
$TDUCREATE
 40
2451400.312391204
  9
$TDUPDATE
 40
2455371.361354526
  9
$TDUUPDATE
 40
2455370.986354526
  9
$TDINDWG
 40
0.5429112269
  9
$TDUSRTIMER
 40
0.5429112269
  9
$USRTIMER
 70
     1
  9
$ANGBASE
 50
0.0
  9
$ANGDIR
 70
     0
  9
$PDMODE
 70
     0
  9
$PDSIZE
 40
0.0
  9
$PLINEWID
 40
0.0
  9
$SPLFRAME
 70
     0
  9
$SPLINETYPE
 70
     6
  9
$SPLINESEGS
 70
     8
  9
$HANDSEED
  5
2080
  9
$SURFTAB1
 70
     6
  9
$SURFTAB2
 70
     6
  9
$SURFTYPE
 70
     6
  9
$SURFU
 70
     6
  9
$SURFV
 70
     6
  9
$UCSBASE
  2

  9
$UCSNAME
  2

  9
$UCSORG
 10
0.0
 20
0.0
 30
0.0
  9
$UCSXDIR
 10
1.0
 20
0.0
 30
0.0
  9
$UCSYDIR
 10
0.0
 20
1.0
 30
0.0
  9
$UCSORTHOREF
  2

  9
$UCSORTHOVIEW
 70
     0
  9
$UCSORGTOP
 10
0.0
 20
0.0
 30
0.0
  9
$UCSORGBOTTOM
 10
0.0
 20
0.0
 30
0.0
  9
$UCSORGLEFT
 10
0.0
 20
0.0
 30
0.0
  9
$UCSORGRIGHT
 10
0.0
 20
0.0
 30
0.0
  9
$UCSORGFRONT
 10
0.0
 20
0.0
 30
0.0
  9
$UCSORGBACK
 10
0.0
 20
0.0
 30
0.0
  9
$PUCSBASE
  2

  9
$PUCSNAME
  2

  9
$PUCSORG
 10
0.0
 20
0.0
 30
0.0
  9
$PUCSXDIR
 10
1.0
 20
0.0
 30
0.0
  9
$PUCSYDIR
 10
0.0
 20
1.0
 30
0.0
  9
$PUCSORTHOREF
  2

  9
$PUCSORTHOVIEW
 70
     0
  9
$PUCSORGTOP
 10
0.0
 20
0.0
 30
0.0
  9
$PUCSORGBOTTOM
 10
0.0
 20
0.0
 30
0.0
  9
$PUCSORGLEFT
 10
0.0
 20
0.0
 30
0.0
  9
$PUCSORGRIGHT
 10
0.0
 20
0.0
 30
0.0
  9
$PUCSORGFRONT
 10
0.0
 20
0.0
 30
0.0
  9
$PUCSORGBACK
 10
0.0
 20
0.0
 30
0.0
  9
$USERI1
 70
     0
  9
$USERI2
 70
     0
  9
$USERI3
 70
     0
  9
$USERI4
 70
     0
  9
$USERI5
 70
     0
  9
$USERR1
 40
0.0
  9
$USERR2
 40
0.0
  9
$USERR3
 40
0.0
  9
$USERR4
 40
0.0
  9
$USERR5
 40
0.0
  9
$WORLDVIEW
 70
     1
  9
$SHADEDGE
 70
     3
  9
$SHADEDIF
 70
    70
  9
$TILEMODE
 70
     1
  9
$MAXACTVP
 70
    48
  9
$PINSBASE
 10
0.0
 20
0.0
 30
0.0
  9
$PLIMCHECK
 70
     0
  9
$PEXTMIN
 10
-0.2
 20
-0.2
 30
0.0
  9
$PEXTMAX
 10
255.2
 20
195.2
 30
0.0
  9
$PLIMMIN
 10
0.0
 20
0.0
  9
$PLIMMAX
 10
420.0
 20
297.0
  9
$UNITMODE
 70
     0
  9
$VISRETAIN
 70
     1
  9
$PLINEGEN
 70
     0
  9
$PSLTSCALE
 70
     1
  9
$TREEDEPTH
 70
  3020
  9
$CMLSTYLE
  2
STANDARD
  9
$CMLJUST
 70
     0
  9
$CMLSCALE
 40
20.0
  9
$PROXYGRAPHICS
 70
     1
  9
$MEASUREMENT
 70
     1
  9
$CELWEIGHT
370
    -1
  9
$ENDCAPS
280
     0
  9
$JOINSTYLE
280
     0
  9
$LWDISPLAY
290
     0
  9
$INSUNITS
 70
     0
  9
$HYPERLINKBASE
  1

  9
$STYLESHEET
  1
AutoCAD LT 98.ctb
  9
$XEDIT
290
     1
  9
$CEPSNTYPE
380
     0
  9
$PSTYLEMODE
290
     1
  9
$FINGERPRINTGUID
  2
{99C3CE48-7A0C-453C-AE9F-060837B7C48B}
  9
$VERSIONGUID
  2
{B6D32B2D-3F52-46A1-8624-94A453C26EF6}
  9
$EXTNAMES
290
     1
  9
$PSVPSCALE
 40
0.0
  9
$OLESTARTUP
290
     0
  9
$SORTENTS
280
   127
  9
$INDEXCTL
280
     0
  9
$HIDETEXT
280
     0
  9
$XCLIPFRAME
290
     0
  9
$HALOGAP
280
     0
  9
$OBSCOLOR
 70
   257
  9
$OBSLTYPE
280
     0
  9
$INTERSECTIONDISPLAY
280
     0
  9
$INTERSECTIONCOLOR
 70
   257
  9
$DIMASSOC
280
     1
  9
$PROJECTNAME
  1

  0
ENDSEC
  0
SECTION
  2
CLASSES
  0
CLASS
  1
HATCH
  2
AcDbHatch
  3
ObjectDBX Classes
 90
        0
 91
       14
280
     0
281
     1
  0
CLASS
  1
IMAGEDEF
  2
AcDbRasterImageDef
  3
ISM
 90
        0
 91
        1
280
     0
281
     0
  0
CLASS
  1
LWPOLYLINE
  2
AcDbPolyline
  3
ObjectDBX Classes
 90
        0
 91
        6
280
     0
281
     1
  0
CLASS
  1
ACDBDICTIONARYWDFLT
  2
AcDbDictionaryWithDefault
  3
ObjectDBX Classes
 90
        0
 91
        1
280
     0
281
     0
  0
CLASS
  1
TABLESTYLE
  2
AcDbTableStyle
  3
ObjectDBX Classes
 90
     2047
 91
        1
280
     0
281
     0
  0
CLASS
  1
SORTENTSTABLE
  2
AcDbSortentsTable
  3
ObjectDBX Classes
 90
        0
 91
        1
280
     0
281
     0
  0
CLASS
  1
DICTIONARYVAR
  2
AcDbDictionaryVar
  3
ObjectDBX Classes
 90
        0
 91
        1
280
     0
281
     0
  0
ENDSEC
  0
SECTION
  2
TABLES
  0
TABLE
  2
VPORT
  5
8
330
0
100
AcDbSymbolTable
 70
     2
  0
VPORT
  5
207F
330
8
100
AcDbSymbolTableRecord
100
AcDbViewportTableRecord
  2
*Active
 70
     0
 10
0.0
 20
0.0
 11
1.0
 21
1.0
 12
127.5091012242356
 22
97.49561220497778
 13
0.0
 23
0.0
 14
10.0
 24
10.0
 15
10.0
 25
10.0
 16
0.0
 26
0.0
 36
1.0
 17
0.0
 27
0.0
 37
0.0
 40
196.8953654324496
 41
1.530456852791878
 42
50.0
 43
0.0
 44
0.0
 50
0.0
 51
0.0
 71
     0
 72
   100
 73
     1
 74
     1
 75
     0
 76
     0
 77
     0
 78
     0
281
     0
 65
     1
110
0.0
120
0.0
130
0.0
111
1.0
121
0.0
131
0.0
112
0.0
122
1.0
132
0.0
 79
     0
146
0.0
  0
ENDTAB
  0
TABLE
  2
LTYPE
  5
5
330
0
100
AcDbSymbolTable
 70
    12
  0
LTYPE
  5
12
330
5
100
AcDbSymbolTableRecord
100
AcDbLinetypeTableRecord
  2
BYBLOCK
 70
     0
  3

 72
    65
 73
     0
 40
0.0
  0
LTYPE
  5
13
330
5
100
AcDbSymbolTableRecord
100
AcDbLinetypeTableRecord
  2
BYLAYER
 70
     0
  3

 72
    65
 73
     0
 40
0.0
  0
LTYPE
  5
14
330
5
100
AcDbSymbolTableRecord
100
AcDbLinetypeTableRecord
  2
CONTINUOUS
 70
     0
  3
Solid line
 72
    65
 73
     0
 40
0.0
  0
LTYPE
  5
22
330
5
100
AcDbSymbolTableRecord
100
AcDbLinetypeTableRecord
  2
CENTER2
 70
     0
  3
Center (.5x) ___ _ ___ _ ___ _ ___ _ ___ _ ___
 72
    65
 73
     4
 40
28.575
 49
19.05
 74
     0
 49
-3.174999999999999
 74
     0
 49
3.174999999999999
 74
     0
 49
-3.174999999999999
 74
     0
  0
ENDTAB
  0
TABLE
  2
LAYER
  5
2
102
{ACAD_XDICTIONARY
360
1ADC
102
}
330
0
100
AcDbSymbolTable
 70
    15
  0
LAYER
  5
E
330
2
100
AcDbSymbolTableRecord
100
AcDbLayerTableRecord
  2
0
 70
     0
 62
     7
  6
CONTINUOUS
370
    -3
390
1A25
  0
LAYER
  5
25
330
2
100
AcDbSymbolTableRecord
100
AcDbLayerTableRecord
  2
外形線
 70
     0
 62
     7
  6
CONTINUOUS
370
    -3
390
1A25
  0
LAYER
  5
26
330
2
100
AcDbSymbolTableRecord
100
AcDbLayerTableRecord
  2
寸法線
 70
     0
 62
     2
  6
CONTINUOUS
370
    -3
390
1A25
  0
LAYER
  5
27
330
2
100
AcDbSymbolTableRecord
100
AcDbLayerTableRecord
  2
中心線
 70
     0
 62
     4
  6
CENTER2
370
    -3
390
1A25
  0
LAYER
  5
2B
330
2
100
AcDbSymbolTableRecord
100
AcDbLayerTableRecord
  2
文字
 70
     0
 62
     6
  6
CONTINUOUS
370
    -3
390
1A25
  0
LAYER
  5
2C
330
2
100
AcDbSymbolTableRecord
100
AcDbLayerTableRecord
  2
目盛
 70
     0
 62
    70
  6
CONTINUOUS
370
    -3
390
1A25
  0
LAYER
  5
2D
330
2
100
AcDbSymbolTableRecord
100
AcDbLayerTableRecord
  2
針
 70
     0
 62
     5
  6
CONTINUOUS
370
    -3
390
1A25
  0
LAYER
  5
53
330
2
100
AcDbSymbolTableRecord
100
AcDbLayerTableRecord
  2
DEFPOINTS
 70
     0
 62
     7
  6
CONTINUOUS
290
     0
370
    -3
390
1A25
  0
LAYER
  5
A5
330
2
100
AcDbSymbolTableRecord
100
AcDbLayerTableRecord
  2
C
 70
     0
 62
     7
  6
CONTINUOUS
370
    -3
390
1A25
  0
LAYER
  5
306
330
2
100
AcDbSymbolTableRecord
100
AcDbLayerTableRecord
  2
ROGO
 70
     0
 62
     6
  6
CONTINUOUS
370
    -3
390
1A25
  0
ENDTAB
  0
TABLE
  2
STYLE
  5
3
330
0
100
AcDbSymbolTable
 70
     7
  0
STYLE
  5
F
330
3
100
AcDbSymbolTableRecord
100
AcDbTextStyleTableRecord
  2
STANDARD
 70
     0
 40
0.0
 41
1.0
 50
0.0
 71
     0
 42
2.5
  3
txt
  4

  0
STYLE
  5
3F
330
3
100
AcDbSymbolTableRecord
100
AcDbTextStyleTableRecord
  2
STYLE3
 70
     0
 40
0.0
 41
1.0
 50
0.0
 71
     0
 42
2.5
  3
romans.shx
  4
bigfont.shx
  0
ENDTAB
  0
TABLE
  2
VIEW
  5
6
330
0
100
AcDbSymbolTable
 70
     0
  0
ENDTAB
  0
TABLE
  2
UCS
  5
7
330
0
100
AcDbSymbolTable
 70
     0
  0
ENDTAB
  0
TABLE
  2
APPID
  5
9
330
0
100
AcDbSymbolTable
 70
     2
  0
APPID
  5
10
330
9
100
AcDbSymbolTableRecord
100
AcDbRegAppTableRecord
  2
ACAD
 70
     0
  0
APPID
  5
1ADB
330
9
100
AcDbSymbolTableRecord
100
AcDbRegAppTableRecord
  2
ACAD_PSEXT
 70
     0
  0
ENDTAB
  0
TABLE
  2
DIMSTYLE
  5
A
330
0
100
AcDbSymbolTable
 70
     8
100
AcDbDimStyleTable
 71
     1
340
8F
  0
DIMSTYLE
105
1D
330
A
100
AcDbSymbolTableRecord
100
AcDbDimStyleTableRecord
  2
STANDARD
 70
     0
 41
2.5
 42
0.625
 43
3.75
 44
1.25
 73
     0
 74
     0
 77
     1
 78
     8
140
2.5
141
2.5
143
0.0394
147
0.625
171
     4
172
     1
273
     8
274
     4
277
     6
340
F
  0
DIMSTYLE
105
8F
102
{ACAD_REACTORS
330
12F1
330
17F5
330
1801
330
180D
330
181A
330
1827
330
1FAC
102
}
330
A
100
AcDbSymbolTableRecord
100
AcDbDimStyleTableRecord
  2
STYLE3
 70
     0
 41
2.5
 42
0.0
 43
3.75
 44
1.25
 73
     0
 74
     0
 77
     1
 78
     8
140
2.5
141
2.5
143
0.0394
147
0.625
171
     4
172
     1
173
     1
176
     2
177
     2
178
     6
271
     1
273
     8
274
     4
340
3F
341
45
343
45
344
45
  0
ENDTAB
  0
TABLE
  2
BLOCK_RECORD
  5
1
330
0
100
AcDbSymbolTable
 70
    11
  0
BLOCK_RECORD
  5
18
102
{ACAD_XDICTIONARY
360
1F99
102
}
330
1
100
AcDbSymbolTableRecord
100
AcDbBlockTableRecord
  2
*MODEL_SPACE
340
1A2C
  0
BLOCK_RECORD
  5
15
330
1
100
AcDbSymbolTableRecord
100
AcDbBlockTableRecord
  2
*PAPER_SPACE
340
1A2D
  0
BLOCK_RECORD
  5
45
330
1
100
AcDbSymbolTableRecord
100
AcDbBlockTableRecord
  2
_OPEN
340
0
102
{BLKREFS
331
134D
331
134E
331
203A
331
203B
331
2043
331
2044
331
204C
331
204D
331
2054
331
2055
331
205C
331
205D
331
2065
331
2066
331
206E
331
206F
102
}
  0
BLOCK_RECORD
  5
12E5
330
1
100
AcDbSymbolTableRecord
100
AcDbBlockTableRecord
  2
*D1
340
0
  0
BLOCK_RECORD
  5
17E9
330
1
100
AcDbSymbolTableRecord
100
AcDbBlockTableRecord
  2
*D2
340
0
  0
BLOCK_RECORD
  5
17F6
330
1
100
AcDbSymbolTableRecord
100
AcDbBlockTableRecord
  2
*D3
340
0
  0
BLOCK_RECORD
  5
1802
330
1
100
AcDbSymbolTableRecord
100
AcDbBlockTableRecord
  2
*D4
340
0
  0
BLOCK_RECORD
  5
180E
330
1
100
AcDbSymbolTableRecord
100
AcDbBlockTableRecord
  2
*D5
340
0
  0
BLOCK_RECORD
  5
181B
330
1
100
AcDbSymbolTableRecord
100
AcDbBlockTableRecord
  2
*D6
340
0
  0
BLOCK_RECORD
  5
1FAD
330
1
100
AcDbSymbolTableRecord
100
AcDbBlockTableRecord
  2
*D8
340
0
  0
ENDTAB
  0
ENDSEC
  0
SECTION
  2
BLOCKS
  0
BLOCK
  5
19
330
18
100
AcDbEntity
  8
0
100
AcDbBlockBegin
  2
*MODEL_SPACE
 70
     0
 10
0.0
 20
0.0
 30
0.0
  3
*MODEL_SPACE
  1

  0
ENDBLK
  5
1A
330
18
100
AcDbEntity
  8
0
100
AcDbBlockEnd
  0
BLOCK
  5
16
330
15
100
AcDbEntity
 67
     1
  8
0
100
AcDbBlockBegin
  2
*PAPER_SPACE
 70
     0
 10
0.0
 20
0.0
 30
0.0
  3
*PAPER_SPACE
  1

  0
ENDBLK
  5
17
330
15
100
AcDbEntity
 67
     1
  8
0
100
AcDbBlockEnd
  0
BLOCK
  5
46
330
45
100
AcDbEntity
  8
0
100
AcDbBlockBegin
  2
_OPEN
 70
     0
 10
0.0
 20
0.0
 30
0.0
  3
_OPEN
  1

  0
LINE
  5
47
330
45
100
AcDbEntity
  8
0
  6
ByBlock
 62
     0
100
AcDbLine
 10
-1.0
 20
0.1666666666666666
 30
0.0
 11
0.0
 21
0.0
 31
0.0
  0
LINE
  5
48
330
45
100
AcDbEntity
  8
0
  6
ByBlock
 62
     0
100
AcDbLine
 10
0.0
 20
0.0
 30
0.0
 11
-1.0
 21
-0.1666666666666666
 31
0.0
  0
LINE
  5
49
330
45
100
AcDbEntity
  8
0
  6
ByBlock
 62
     0
100
AcDbLine
 10
0.0
 20
0.0
 30
0.0
 11
-1.0
 21
0.0
 31
0.0
  0
ENDBLK
  5
4A
330
45
100
AcDbEntity
  8
0
100
AcDbBlockEnd
  0
BLOCK
  5
17DE
330
12E5
100
AcDbEntity
  8
0
100
AcDbBlockBegin
  2
*D1
 70
     1
 10
0.0
 20
0.0
 30
0.0
  3
*D1
  1

  0
LINE
  5
206B
330
12E5
100
AcDbEntity
  8
外形線
 62
     2
370
    -2
100
AcDbLine
 10
182.0562534910023
 20
61.58065725455833
 30
0.0
 11
182.0562534910023
 21
37.39172306354493
 31
0.0
  0
LINE
  5
206C
330
12E5
100
AcDbEntity
  8
外形線
 62
     2
370
    -2
100
AcDbLine
 10
193.0562534910023
 20
61.58065725455833
 30
0.0
 11
193.0562534910023
 21
37.39172306354493
 31
0.0
  0
LINE
  5
206D
330
12E5
100
AcDbEntity
  8
外形線
 62
     2
370
    -2
100
AcDbLine
 10
184.5562534910023
 20
38.64172306354493
 30
0.0
 11
190.5562534910023
 21
38.64172306354493
 31
0.0
  0
INSERT
  5
206E
330
12E5
100
AcDbEntity
  8
外形線
 62
     2
370
    -2
100
AcDbBlockReference
  2
_OPEN
 10
182.0562534910023
 20
38.64172306354493
 30
0.0
 41
2.5
 42
2.5
 43
2.5
 50
180.0
  0
INSERT
  5
206F
330
12E5
100
AcDbEntity
  8
外形線
 62
     2
370
    -2
100
AcDbBlockReference
  2
_OPEN
 10
193.0562534910023
 20
38.64172306354493
 30
0.0
 41
2.5
 42
2.5
 43
2.5
  0
MTEXT
  5
2070
330
12E5
100
AcDbEntity
  8
外形線
 62
     6
100
AcDbMText
 10
187.5562534910023
 20
40.51672306354492
 30
0.0
 40
2.5
 41
0.0
 71
     5
 72
     1
  1
\A1;11
  7
STYLE3
 73
     1
 44
1.0
  0
POINT
  5
2071
330
12E5
100
AcDbEntity
  8
DEFPOINTS
 62
     0
100
AcDbPoint
 10
182.0562534910023
 20
61.58065725455833
 30
0.0
  0
POINT
  5
2072
330
12E5
100
AcDbEntity
  8
DEFPOINTS
 62
     0
100
AcDbPoint
 10
193.0562534910023
 20
61.58065725455833
 30
0.0
  0
POINT
  5
2073
330
12E5
100
AcDbEntity
  8
DEFPOINTS
 62
     0
100
AcDbPoint
 10
193.0562534910023
 20
38.64172306354493
 30
0.0
  0
ENDBLK
  5
17E8
330
12E5
100
AcDbEntity
  8
0
100
AcDbBlockEnd
  0
BLOCK
  5
17EA
330
17E9
100
AcDbEntity
  8
0
100
AcDbBlockBegin
  2
*D2
 70
     1
 10
0.0
 20
0.0
 30
0.0
  3
*D2
  1

  0
LINE
  5
2062
330
17E9
100
AcDbEntity
  8
外形線
 62
     2
370
    -2
100
AcDbLine
 10
101.6800771559866
 20
51.48065725455833
 30
0.0
 11
48.80848551390329
 21
51.48065725455833
 31
0.0
  0
LINE
  5
2063
330
17E9
100
AcDbEntity
  8
外形線
 62
     2
370
    -2
100
AcDbLine
 10
64.3300771559866
 20
61.58065725455833
 30
0.0
 11
48.80848551390329
 21
61.58065725455833
 31
0.0
  0
LINE
  5
2064
330
17E9
100
AcDbEntity
  8
外形線
 62
     2
370
    -2
100
AcDbLine
 10
50.05848551390329
 20
53.98065725455833
 30
0.0
 11
50.05848551390329
 21
59.08065725455833
 31
0.0
  0
INSERT
  5
2065
330
17E9
100
AcDbEntity
  8
外形線
 62
     2
370
    -2
100
AcDbBlockReference
  2
_OPEN
 10
50.05848551390329
 20
51.48065725455833
 30
0.0
 41
2.5
 42
2.5
 43
2.5
 50
270.0
  0
INSERT
  5
2066
330
17E9
100
AcDbEntity
  8
外形線
 62
     2
370
    -2
100
AcDbBlockReference
  2
_OPEN
 10
50.05848551390329
 20
61.58065725455833
 30
0.0
 41
2.5
 42
2.5
 43
2.5
 50
90.0
  0
MTEXT
  5
2067
330
17E9
100
AcDbEntity
  8
外形線
 62
     6
100
AcDbMText
 10
48.18348551390328
 20
56.53065725455835
 30
0.0
 40
2.5
 41
0.0
 71
     5
 72
     1
  1
\A1;10.1
  7
STYLE3
 11
0.0000000000000001
 21
1.0
 31
0.0
 73
     1
 44
1.0
  0
POINT
  5
2068
330
17E9
100
AcDbEntity
  8
DEFPOINTS
 62
     0
100
AcDbPoint
 10
101.6800771559866
 20
51.48065725455833
 30
0.0
  0
POINT
  5
2069
330
17E9
100
AcDbEntity
  8
DEFPOINTS
 62
     0
100
AcDbPoint
 10
64.3300771559866
 20
61.58065725455833
 30
0.0
  0
POINT
  5
206A
330
17E9
100
AcDbEntity
  8
DEFPOINTS
 62
     0
100
AcDbPoint
 10
50.05848551390329
 20
61.58065725455833
 30
0.0
  0
ENDBLK
  5
17F4
330
17E9
100
AcDbEntity
  8
0
100
AcDbBlockEnd
  0
BLOCK
  5
17F7
330
17F6
100
AcDbEntity
  8
0
100
AcDbBlockBegin
  2
*D3
 70
     1
 10
0.0
 20
0.0
 30
0.0
  3
*D3
  1

  0
LINE
  5
205A
330
17F6
100
AcDbEntity
  8
外形線
 62
     2
370
    -2
100
AcDbLine
 10
72.65875160166718
 20
126.0806572545583
 30
0.0
 11
48.80848551390329
 21
126.0806572545583
 31
0.0
  0
LINE
  5
205B
330
17F6
100
AcDbEntity
  8
外形線
 62
     2
370
    -2
100
AcDbLine
 10
50.05848551390328
 20
64.08065725455833
 30
0.0
 11
50.05848551390329
 21
123.5806572545583
 31
0.0
  0
INSERT
  5
205C
330
17F6
100
AcDbEntity
  8
外形線
 62
     2
370
    -2
100
AcDbBlockReference
  2
_OPEN
 10
50.05848551390328
 20
61.58065725455833
 30
0.0
 41
2.5
 42
2.5
 43
2.5
 50
270.0
  0
INSERT
  5
205D
330
17F6
100
AcDbEntity
  8
外形線
 62
     2
370
    -2
100
AcDbBlockReference
  2
_OPEN
 10
50.05848551390329
 20
126.0806572545583
 30
0.0
 41
2.5
 42
2.5
 43
2.5
 50
90.0
  0
MTEXT
  5
205E
330
17F6
100
AcDbEntity
  8
外形線
 62
     6
100
AcDbMText
 10
48.18348551390327
 20
93.83065725455834
 30
0.0
 40
2.5
 41
0.0
 71
     5
 72
     1
  1
\A1;64.5
  7
STYLE3
 11
0.0000000000000001
 21
1.0
 31
0.0
 73
     1
 44
1.0
  0
POINT
  5
205F
330
17F6
100
AcDbEntity
  8
DEFPOINTS
 62
     0
100
AcDbPoint
 10
64.3300771559866
 20
61.58065725455833
 30
0.0
  0
POINT
  5
2060
330
17F6
100
AcDbEntity
  8
DEFPOINTS
 62
     0
100
AcDbPoint
 10
72.65875160166718
 20
126.0806572545583
 30
0.0
  0
POINT
  5
2061
330
17F6
100
AcDbEntity
  8
DEFPOINTS
 62
     0
100
AcDbPoint
 10
50.05848551390329
 20
126.0806572545583
 30
0.0
  0
ENDBLK
  5
1800
330
17F6
100
AcDbEntity
  8
0
100
AcDbBlockEnd
  0
BLOCK
  5
1803
330
1802
100
AcDbEntity
  8
0
100
AcDbBlockBegin
  2
*D4
 70
     1
 10
0.0
 20
0.0
 30
0.0
  3
*D4
  1

  0
LINE
  5
2052
330
1802
100
AcDbEntity
  8
外形線
 62
     2
370
    -2
100
AcDbLine
 10
101.8300771559865
 20
167.5806572545582
 30
0.0
 11
48.8084855139033
 21
167.5806572545582
 31
0.0
  0
LINE
  5
2053
330
1802
100
AcDbEntity
  8
外形線
 62
     2
370
    -2
100
AcDbLine
 10
50.05848551390329
 20
128.5806572545583
 30
0.0
 11
50.0584855139033
 21
165.0806572545582
 31
0.0
  0
INSERT
  5
2054
330
1802
100
AcDbEntity
  8
外形線
 62
     2
370
    -2
100
AcDbBlockReference
  2
_OPEN
 10
50.05848551390329
 20
126.0806572545583
 30
0.0
 41
2.5
 42
2.5
 43
2.5
 50
270.0
  0
INSERT
  5
2055
330
1802
100
AcDbEntity
  8
外形線
 62
     2
370
    -2
100
AcDbBlockReference
  2
_OPEN
 10
50.0584855139033
 20
167.5806572545582
 30
0.0
 41
2.5
 42
2.5
 43
2.5
 50
90.0
  0
MTEXT
  5
2056
330
1802
100
AcDbEntity
  8
外形線
 62
     6
100
AcDbMText
 10
48.18348551390327
 20
146.8306572545583
 30
0.0
 40
2.5
 41
0.0
 71
     5
 72
     1
  1
\A1;41.5
  7
STYLE3
 11
0.0000000000000001
 21
1.0
 31
0.0
 73
     1
 44
1.0
  0
POINT
  5
2057
330
1802
100
AcDbEntity
  8
DEFPOINTS
 62
     0
100
AcDbPoint
 10
72.65875160166718
 20
126.0806572545583
 30
0.0
  0
POINT
  5
2058
330
1802
100
AcDbEntity
  8
DEFPOINTS
 62
     0
100
AcDbPoint
 10
101.8300771559865
 20
167.5806572545582
 30
0.0
  0
POINT
  5
2059
330
1802
100
AcDbEntity
  8
DEFPOINTS
 62
     0
100
AcDbPoint
 10
50.0584855139033
 20
167.5806572545582
 30
0.0
  0
ENDBLK
  5
180C
330
1802
100
AcDbEntity
  8
0
100
AcDbBlockEnd
  0
BLOCK
  5
180F
330
180E
100
AcDbEntity
  8
0
100
AcDbBlockBegin
  2
*D5
 70
     1
 10
0.0
 20
0.0
 30
0.0
  3
*D5
  1

  0
LINE
  5
2049
330
180E
100
AcDbEntity
  8
外形線
 62
     2
370
    -2
100
AcDbLine
 10
48.80848551390329
 20
51.48065725455833
 30
0.0
 11
41.84677279507864
 21
51.48065725455834
 31
0.0
  0
LINE
  5
204A
330
180E
100
AcDbEntity
  8
外形線
 62
     2
370
    -2
100
AcDbLine
 10
48.80848551390331
 20
167.5806572545582
 30
0.0
 11
41.84677279507866
 21
167.5806572545582
 31
0.0
  0
LINE
  5
204B
330
180E
100
AcDbEntity
  8
外形線
 62
     2
370
    -2
100
AcDbLine
 10
43.09677279507864
 20
53.98065725455834
 30
0.0
 11
43.09677279507866
 21
165.0806572545582
 31
0.0
  0
INSERT
  5
204C
330
180E
100
AcDbEntity
  8
外形線
 62
     2
370
    -2
100
AcDbBlockReference
  2
_OPEN
 10
43.09677279507864
 20
51.48065725455834
 30
0.0
 41
2.5
 42
2.5
 43
2.5
 50
270.0
  0
INSERT
  5
204D
330
180E
100
AcDbEntity
  8
外形線
 62
     2
370
    -2
100
AcDbBlockReference
  2
_OPEN
 10
43.09677279507866
 20
167.5806572545582
 30
0.0
 41
2.5
 42
2.5
 43
2.5
 50
90.0
  0
MTEXT
  5
204E
330
180E
100
AcDbEntity
  8
外形線
 62
     6
100
AcDbMText
 10
41.22177279507863
 20
109.5306572545583
 30
0.0
 40
2.5
 41
0.0
 71
     5
 72
     1
  1
\A1;116.1
  7
STYLE3
 11
0.0000000000000001
 21
1.0
 31
0.0
 73
     1
 44
1.0
  0
POINT
  5
204F
330
180E
100
AcDbEntity
  8
DEFPOINTS
 62
     0
100
AcDbPoint
 10
48.80848551390329
 20
51.48065725455833
 30
0.0
  0
POINT
  5
2050
330
180E
100
AcDbEntity
  8
DEFPOINTS
 62
     0
100
AcDbPoint
 10
48.80848551390331
 20
167.5806572545582
 30
0.0
  0
POINT
  5
2051
330
180E
100
AcDbEntity
  8
DEFPOINTS
 62
     0
100
AcDbPoint
 10
43.09677279507866
 20
167.5806572545582
 30
0.0
  0
ENDBLK
  5
1819
330
180E
100
AcDbEntity
  8
0
100
AcDbBlockEnd
  0
BLOCK
  5
1828
330
181B
100
AcDbEntity
  8
0
100
AcDbBlockBegin
  2
*D6
 70
     1
 10
0.0
 20
0.0
 30
0.0
  3
*D6
  1

  0
LINE
  5
2040
330
181B
100
AcDbEntity
  8
外形線
 62
     2
370
    -2
100
AcDbLine
 10
177.2562534910024
 20
99.68065725455836
 30
0.0
 11
160.9984052669083
 21
99.68065725455836
 31
0.0
  0
LINE
  5
2041
330
181B
100
AcDbEntity
  8
外形線
 62
     2
370
    -2
100
AcDbLine
 10
177.2562534910024
 20
152.4806572545583
 30
0.0
 11
160.9984052669083
 21
152.4806572545583
 31
0.0
  0
LINE
  5
2042
330
181B
100
AcDbEntity
  8
外形線
 62
     2
370
    -2
100
AcDbLine
 10
162.2484052669083
 20
102.1806572545583
 30
0.0
 11
162.2484052669083
 21
149.9806572545583
 31
0.0
  0
INSERT
  5
2043
330
181B
100
AcDbEntity
  8
外形線
 62
     2
370
    -2
100
AcDbBlockReference
  2
_OPEN
 10
162.2484052669083
 20
99.68065725455836
 30
0.0
 41
2.5
 42
2.5
 43
2.5
 50
270.0
  0
INSERT
  5
2044
330
181B
100
AcDbEntity
  8
外形線
 62
     2
370
    -2
100
AcDbBlockReference
  2
_OPEN
 10
162.2484052669083
 20
152.4806572545583
 30
0.0
 41
2.5
 42
2.5
 43
2.5
 50
90.0
  0
MTEXT
  5
2045
330
181B
100
AcDbEntity
  8
外形線
 62
     6
100
AcDbMText
 10
160.3734052669083
 20
126.0806572545583
 30
0.0
 40
2.5
 41
0.0
 71
     5
 72
     1
  1
\A1;φ53
  7
STYLE3
 11
0.0000000000000001
 21
1.0
 31
0.0
 73
     1
 44
1.0
  0
POINT
  5
2046
330
181B
100
AcDbEntity
  8
DEFPOINTS
 62
     0
100
AcDbPoint
 10
177.2562534910024
 20
99.68065725455836
 30
0.0
  0
POINT
  5
2047
330
181B
100
AcDbEntity
  8
DEFPOINTS
 62
     0
100
AcDbPoint
 10
177.2562534910024
 20
152.4806572545583
 30
0.0
  0
POINT
  5
2048
330
181B
100
AcDbEntity
  8
DEFPOINTS
 62
     0
100
AcDbPoint
 10
162.2484052669083
 20
152.4806572545583
 30
0.0
  0
ENDBLK
  5
1832
330
181B
100
AcDbEntity
  8
0
100
AcDbBlockEnd
  0
BLOCK
  5
1FB9
330
1FAD
100
AcDbEntity
  8
0
100
AcDbBlockBegin
  2
*D8
 70
     1
 10
0.0
 20
0.0
 30
0.0
  3
*D8
  1

  0
LINE
  5
2035
330
1FAD
100
AcDbEntity
  8
寸法線
 62
     2
370
    -2
100
AcDbLine
 10
187.4062534910022
 20
51.48065725455833
 30
0.0
 11
188.5011356155057
 21
45.27127216723761
 31
0.0
  0
LINE
  5
2036
330
1FAD
100
AcDbEntity
  8
寸法線
 62
     2
370
    -2
100
AcDbLine
 10
187.7056043077263
 20
51.46671689789716
 30
0.0
 11
188.7980283712297
 21
45.27127216723761
 31
0.0
  0
LINE
  5
2037
330
1FAD
100
AcDbEntity
  8
寸法線
 62
     2
370
    -2
100
AcDbLine
 10
185.7807268896201
 20
46.52127216723761
 30
0.0
 11
183.2807268896201
 21
46.52127216723761
 31
0.0
  0
LINE
  5
2038
330
1FAD
100
AcDbEntity
  8
寸法線
 62
     2
370
    -2
100
AcDbLine
 10
191.0776196453441
 20
46.52127216723761
 30
0.0
 11
202.3276196453441
 21
46.52127216723761
 31
0.0
  0
LINE
  5
2039
330
1FAD
100
AcDbEntity
  8
寸法線
 62
     2
370
    -2
100
AcDbLine
 10
188.2807268896201
 20
46.52127216723761
 30
0.0
 11
188.5776196453441
 21
46.52127216723761
 31
0.0
  0
INSERT
  5
203A
330
1FAD
100
AcDbEntity
  8
寸法線
 62
     2
370
    -2
100
AcDbBlockReference
  2
_OPEN
 10
188.2807268896201
 20
46.52127216723761
 30
0.0
 41
2.5
 42
2.5
 43
2.5
  0
INSERT
  5
203B
330
1FAD
100
AcDbEntity
  8
寸法線
 62
     2
370
    -2
100
AcDbBlockReference
  2
_OPEN
 10
188.5776196453441
 20
46.52127216723761
 30
0.0
 41
2.5
 42
2.5
 43
2.5
 50
180.0
  0
MTEXT
  5
203C
330
1FAD
100
AcDbEntity
  8
寸法線
 62
     6
100
AcDbMText
 10
197.9526196453441
 20
48.39627216723761
 30
0.0
 40
2.5
 41
0.0
 71
     5
 72
     1
  1
\A1;%%C0.3
  7
STYLE3
 73
     1
 44
1.0
  0
POINT
  5
203D
330
1FAD
100
AcDbEntity
  8
DEFPOINTS
 62
     0
100
AcDbPoint
 10
187.4062534910022
 20
51.48065725455833
 30
0.0
  0
POINT
  5
203E
330
1FAD
100
AcDbEntity
  8
DEFPOINTS
 62
     0
100
AcDbPoint
 10
187.7056043077263
 20
51.46671689789716
 30
0.0
  0
POINT
  5
203F
330
1FAD
100
AcDbEntity
  8
DEFPOINTS
 62
     0
100
AcDbPoint
 10
188.5776196453441
 20
46.52127216723761
 30
0.0
  0
ENDBLK
  5
1FBA
330
1FAD
100
AcDbEntity
  8
0
100
AcDbBlockEnd
  0
ENDSEC
  0
SECTION
  2
ENTITIES
  0
LWPOLYLINE
  5
26C
330
18
100
AcDbEntity
  8
C
100
AcDbPolyline
 90
        5
 70
     0
 43
0.4
 10
0.0
 20
195.0
 10
255.0
 20
195.0
 10
255.0
 20
0.0
 10
0.0
 20
0.0
 10
0.0
 20
195.0
  0
LINE
  5
305
330
18
100
AcDbEntity
  8
中心線
100
AcDbLine
 10
101.8300771559866
 20
171.29538675085
 30
0.0
 11
101.8300771559866
 21
49.0629347024402
 31
0.0
  0
MTEXT
  5
663
330
18
100
AcDbEntity
  8
DEFPOINTS
  6
Continuous
100
AcDbMText
 10
1007.302375181315
 20
334.9201117568839
 30
0.0
 40
1.0
 41
0.0
 71
     4
 72
     1
  1
\A1;
 73
     1
 44
1.0
  0
MTEXT
  5
6BC
330
18
100
AcDbEntity
  8
文字
100
AcDbMText
 10
574.4415847393145
 20
360.9980939951181
 30
0.0
 40
1.0
 41
6.927999999999999
 71
     1
 72
     5
  1

  7
STYLE3
 73
     1
 44
1.0
  0
MTEXT
  5
71B
330
18
100
AcDbEntity
  8
DEFPOINTS
  6
Continuous
100
AcDbMText
 10
896.177394394456
 20
284.2456452825689
 30
0.0
 40
0.35
 41
0.0
 71
     4
 72
     1
  1
\A1;
 73
     1
 44
1.0
  0
LINE
  5
8EC
330
18
100
AcDbEntity
  8
外形線
100
AcDbLine
 10
64.3300771559866
 20
61.58065725455833
 30
0.0
 11
139.3300771559866
 21
61.58065725455833
 31
0.0
  0
LINE
  5
92D
330
18
100
AcDbEntity
  8
外形線
100
AcDbLine
 10
90.83007715598659
 20
97.58065725455834
 30
0.0
 11
90.83007715598659
 21
83.58065725455835
 31
0.0
  0
LINE
  5
92E
330
18
100
AcDbEntity
  8
外形線
100
AcDbLine
 10
112.8300771559866
 20
97.58065725455834
 30
0.0
 11
112.8300771559866
 21
83.58065725455833
 31
0.0
  0
LINE
  5
92F
330
18
100
AcDbEntity
  8
外形線
100
AcDbLine
 10
122.8300771559866
 20
73.58065725455833
 30
0.0
 11
135.3300771559866
 21
73.58065725455833
 31
0.0
  0
ARC
  5
932
330
18
100
AcDbEntity
  8
外形線
100
AcDbCircle
 10
122.8300771559866
 20
83.58065725455833
 30
0.0
 40
10.0
100
AcDbArc
 50
180.0
 51
270.0
  0
LINE
  5
933
330
18
100
AcDbEntity
  8
外形線
100
AcDbLine
 10
68.3300771559866
 20
73.58065725455833
 30
0.0
 11
80.83007715598659
 21
73.58065725455834
 31
0.0
  0
ARC
  5
934
330
18
100
AcDbEntity
  8
外形線
100
AcDbCircle
 10
80.83007715598659
 20
83.58065725455835
 30
0.0
 40
10.0
100
AcDbArc
 50
270.0
 51
0.0
  0
LINE
  5
941
330
18
100
AcDbEntity
  8
外形線
100
AcDbLine
 10
92.8300771559866
 20
99.58065725455835
 30
0.0
 11
90.83007715598659
 21
97.58065725455834
 31
0.0
  0
LINE
  5
942
330
18
100
AcDbEntity
  8
外形線
100
AcDbLine
 10
110.8300771559866
 20
99.58065725455833
 30
0.0
 11
112.8300771559866
 21
97.58065725455834
 31
0.0
  0
LINE
  5
943
330
18
100
AcDbEntity
  8
中心線
100
AcDbLine
 10
89.25106643977347
 20
92.58065725455834
 30
0.0
 11
114.7014835647763
 21
92.58065725455834
 31
0.0
  0
LINE
  5
944
330
18
100
AcDbEntity
  8
中心線
100
AcDbLine
 10
94.8300771559866
 20
96.62274783381125
 30
0.0
 11
94.8300771559866
 21
83.62734190682923
 31
0.0
  0
LINE
  5
945
330
18
100
AcDbEntity
  8
中心線
100
AcDbLine
 10
108.8300771559866
 20
96.93246213664819
 30
0.0
 11
108.8300771559866
 21
83.99814500965007
 31
0.0
  0
CIRCLE
  5
952
330
18
100
AcDbEntity
  8
外形線
100
AcDbCircle
 10
94.8300771559866
 20
92.58065725455834
 30
0.0
 40
3.0
  0
CIRCLE
  5
954
330
18
100
AcDbEntity
  8
外形線
100
AcDbCircle
 10
108.8300771559866
 20
92.58065725455834
 30
0.0
 40
3.0
  0
MTEXT
  5
D14
330
18
100
AcDbEntity
  8
DEFPOINTS
  6
Continuous
100
AcDbMText
 10
998.3960534921905
 20
332.695293381138
 30
0.0
 40
1.0
 41
0.0
 71
     4
 72
     1
  1
\A1;
 73
     1
 44
1.0
  0
MTEXT
  5
D5E
330
18
100
AcDbEntity
  8
文字
100
AcDbMText
 10
565.53526305019
 20
358.7732756193721
 30
0.0
 40
1.0
 41
6.927999999999999
 71
     1
 72
     5
  1

  7
STYLE3
 73
     1
 44
1.0
  0
MTEXT
  5
DAC
330
18
100
AcDbEntity
  8
DEFPOINTS
  6
Continuous
100
AcDbMText
 10
887.2710727053314
 20
282.0208269068229
 30
0.0
 40
0.35
 41
0.0
 71
     4
 72
     1
  1
\A1;
 73
     1
 44
1.0
  0
LINE
  5
F97
330
18
100
AcDbEntity
  8
外形線
100
AcDbLine
 10
64.3300771559866
 20
69.58065725455833
 30
0.0
 11
64.3300771559866
 21
61.58065725455833
 31
0.0
  0
LINE
  5
F98
330
18
100
AcDbEntity
  8
外形線
100
AcDbLine
 10
139.3300771559866
 20
69.58065725455833
 30
0.0
 11
139.3300771559866
 21
61.58065725455833
 31
0.0
  0
ARC
  5
F99
330
18
100
AcDbEntity
  8
外形線
100
AcDbCircle
 10
135.3300771559866
 20
69.58065725455833
 30
0.0
 40
4.0
100
AcDbArc
 50
0.0
 51
90.0
  0
ARC
  5
F9A
330
18
100
AcDbEntity
  8
外形線
100
AcDbCircle
 10
68.3300771559866
 20
69.58065725455833
 30
0.0
 40
4.0
100
AcDbArc
 50
90.00000000000005
 51
180.0
  0
MTEXT
  5
102E
330
18
100
AcDbEntity
  8
DEFPOINTS
  6
Continuous
100
AcDbMText
 10
1001.73119290509
 20
331.5882610650886
 30
0.0
 40
1.0
 41
0.0
 71
     4
 72
     1
  1
\A1;
 73
     1
 44
1.0
  0
LINE
  5
102F
330
18
100
AcDbEntity
  8
中心線
100
AcDbLine
 10
187.5562534910022
 20
170.2087426787386
 30
0.0
 11
187.5562534910024
 21
49.30970761637173
 31
0.0
  0
MTEXT
  5
1078
330
18
100
AcDbEntity
  8
文字
100
AcDbMText
 10
568.8704024630892
 20
357.6662433033228
 30
0.0
 40
1.0
 41
6.927999999999999
 71
     1
 72
     5
  1

  7
STYLE3
 73
     1
 44
1.0
  0
MTEXT
  5
10C6
330
18
100
AcDbEntity
  8
DEFPOINTS
  6
Continuous
100
AcDbMText
 10
890.6062121182308
 20
280.9137945907736
 30
0.0
 40
0.35
 41
0.0
 71
     4
 72
     1
  1
\A1;
 73
     1
 44
1.0
  0
LINE
  5
1272
330
18
100
AcDbEntity
  8
外形線
100
AcDbLine
 10
182.0562534910023
 20
73.58065725455833
 30
0.0
 11
193.0562534910023
 21
73.58065725455833
 31
0.0
  0
LINE
  5
1273
330
18
100
AcDbEntity
  8
外形線
100
AcDbLine
 10
182.0562534910023
 20
61.58065725455833
 30
0.0
 11
193.0562534910023
 21
61.58065725455833
 31
0.0
  0
LINE
  5
1274
330
18
100
AcDbEntity
  8
外形線
 48
0.5
100
AcDbLine
 10
182.0562534910022
 20
99.58065725455833
 30
0.0
 11
182.0562534910023
 21
61.58065725455833
 31
0.0
  0
LINE
  5
1275
330
18
100
AcDbEntity
  8
外形線
 48
0.5
100
AcDbLine
 10
193.0562534910022
 20
99.58065725455833
 30
0.0
 11
193.0562534910023
 21
61.58065725455833
 31
0.0
  0
DIMENSION
  5
12F1
330
18
100
AcDbEntity
  8
外形線
100
AcDbDimension
  2
*D1
 10
193.0562534910023
 20
38.64172306354493
 30
0.0
 11
187.5562534910023
 21
40.51672306354492
 31
0.0
 70
    32
 71
     5
 42
10.99999999999997
  3
STYLE3
100
AcDbAlignedDimension
 13
182.0562534910023
 23
61.58065725455833
 33
0.0
 14
193.0562534910023
 24
61.58065725455833
 34
0.0
100
AcDbRotatedDimension
1001
ACAD
1000
DSTYLE
1002
{
1070
   271
1070
     2
1002
}
  0
LWPOLYLINE
  5
12F2
330
18
100
AcDbEntity
  8
外形線
100
AcDbPolyline
 90
        6
 70
     1
 43
0.0
 10
93.95507715598659
 20
94.0962017111811
 10
93.08007715598661
 20
92.58065725455834
 10
93.95507715598659
 20
91.06511279793556
 10
95.7050771559866
 20
91.06511279793556
 10
96.5800771559866
 20
92.58065725455834
 10
95.7050771559866
 20
94.0962017111811
  0
LWPOLYLINE
  5
12F3
330
18
100
AcDbEntity
  8
外形線
100
AcDbPolyline
 90
        6
 70
     1
 43
0.0
 10
107.9550771559866
 20
94.0962017111811
 10
107.0800771559866
 20
92.58065725455834
 10
107.9550771559866
 20
91.06511279793556
 10
109.7050771559866
 20
91.06511279793556
 10
110.5800771559866
 20
92.58065725455834
 10
109.7050771559866
 20
94.0962017111811
  0
LINE
  5
12F4
330
18
100
AcDbEntity
  8
外形線
 48
0.5
100
AcDbLine
 10
186.8062534910023
 20
99.58065725455835
 30
0.0
 11
186.8062534910023
 21
75.58065725455833
 31
0.0
  0
LINE
  5
12F5
330
18
100
AcDbEntity
  8
外形線
 48
0.5
100
AcDbLine
 10
188.3062534910023
 20
99.58065725455835
 30
0.0
 11
188.3062534910023
 21
75.58065725455833
 31
0.0
  0
LINE
  5
12F7
330
18
100
AcDbEntity
  8
外形線
100
AcDbLine
 10
182.0562534910022
 20
99.58065725455833
 30
0.0
 11
186.8062534910023
 21
99.58065725455835
 31
0.0
  0
LINE
  5
12F8
330
18
100
AcDbEntity
  8
外形線
100
AcDbLine
 10
186.8062534910023
 20
75.58065725455833
 30
0.0
 11
188.3062534910023
 21
75.58065725455833
 31
0.0
  0
LINE
  5
130E
330
18
100
AcDbEntity
  8
外形線
100
AcDbLine
 10
188.3062534910023
 20
99.58065725455835
 30
0.0
 11
193.0562534910023
 21
99.58065725455833
 31
0.0
  0
LINE
  5
130F
330
18
100
AcDbEntity
  8
中心線
 48
0.5
100
AcDbLine
 10
178.4957661804938
 20
92.58065725455834
 30
0.0
 11
197.0490160429569
 21
92.58065725455834
 31
0.0
  0
LINE
  5
1311
330
18
100
AcDbEntity
  8
中心線
100
AcDbLine
 10
186.8062534910023
 20
95.58065725455833
 30
0.0
 11
188.3062534910023
 21
95.58065725455831
 31
0.0
  0
LINE
  5
1312
330
18
100
AcDbEntity
  8
中心線
100
AcDbLine
 10
186.8062534910023
 20
89.58065725455833
 30
0.0
 11
188.3062534910023
 21
89.58065725455833
 31
0.0
  0
LINE
  5
1313
330
18
100
AcDbEntity
  8
中心線
100
AcDbLine
 10
186.8062534910023
 20
94.33065725455831
 30
0.0
 11
188.3062534910023
 21
94.33065725455831
 31
0.0
  0
LINE
  5
1314
330
18
100
AcDbEntity
  8
中心線
100
AcDbLine
 10
186.8062534910023
 20
90.83065725455831
 30
0.0
 11
188.3062534910023
 21
90.83065725455833
 31
0.0
  0
LINE
  5
134A
330
18
100
AcDbEntity
  8
0
  6
ByBlock
 62
     2
100
AcDbLine
 10
64.3300771559866
 20
61.58065725455833
 30
0.0
 11
64.3300771559866
 21
38.5218097562136
 31
0.0
  0
LINE
  5
134B
330
18
100
AcDbEntity
  8
0
  6
ByBlock
 62
     2
100
AcDbLine
 10
139.3300771559866
 20
61.58065725455833
 30
0.0
 11
139.3300771559866
 21
38.5218097562136
 31
0.0
  0
LINE
  5
134C
330
18
100
AcDbEntity
  8
0
  6
ByBlock
 62
     2
100
AcDbLine
 10
66.8300771559866
 20
39.7718097562136
 30
0.0
 11
136.8300771559866
 21
39.7718097562136
 31
0.0
  0
INSERT
  5
134D
330
18
100
AcDbEntity
  8
0
  6
ByBlock
 62
     2
100
AcDbBlockReference
  2
_OPEN
 10
64.3300771559866
 20
39.7718097562136
 30
0.0
 41
2.5
 42
2.5
 43
2.5
 50
180.0
  0
INSERT
  5
134E
330
18
100
AcDbEntity
  8
0
  6
ByBlock
 62
     2
100
AcDbBlockReference
  2
_OPEN
 10
139.3300771559866
 20
39.7718097562136
 30
0.0
 41
2.5
 42
2.5
 43
2.5
  0
MTEXT
  5
134F
330
18
100
AcDbEntity
  8
0
  6
ByBlock
 62
     6
100
AcDbMText
 10
101.8300771559866
 20
41.6468097562136
 30
0.0
 40
2.5
 41
0.0
 71
     5
 72
     1
  1
\A1;75
  7
STYLE3
 73
     1
 44
1.0
  0
POINT
  5
1350
330
18
100
AcDbEntity
  8
DEFPOINTS
  6
ByBlock
 62
     0
100
AcDbPoint
 10
64.3300771559866
 20
61.58065725455833
 30
0.0
  0
POINT
  5
1351
330
18
100
AcDbEntity
  8
DEFPOINTS
  6
ByBlock
 62
     0
100
AcDbPoint
 10
139.3300771559866
 20
61.58065725455833
 30
0.0
  0
POINT
  5
1352
330
18
100
AcDbEntity
  8
DEFPOINTS
  6
ByBlock
 62
     0
100
AcDbPoint
 10
139.3300771559866
 20
39.7718097562136
 30
0.0
  0
LINE
  5
1356
330
18
100
AcDbEntity
  8
外形線
100
AcDbLine
 10
182.0562534910022
 20
97.58065725455834
 30
0.0
 11
186.8062534910023
 21
97.58065725455832
 31
0.0
  0
LINE
  5
1357
330
18
100
AcDbEntity
  8
外形線
100
AcDbLine
 10
188.3062534910023
 20
97.58065725455832
 30
0.0
 11
193.0562534910022
 21
97.58065725455834
 31
0.0
  0
LINE
  5
15C2
330
18
100
AcDbEntity
  8
寸法線
  6
Continuous
100
AcDbLine
 10
187.143333043254
 20
154.0806572545583
 30
0.0
 11
183.5562534910023
 21
157.6677368068099
 31
0.0
  0
LINE
  5
15C3
330
18
100
AcDbEntity
  8
寸法線
  6
Continuous
100
AcDbLine
 10
185.3755660902876
 20
154.0806572545582
 30
0.0
 11
183.5562534910023
 21
155.8999698538436
 31
0.0
  0
LINE
  5
15C4
330
18
100
AcDbEntity
  8
寸法線
  6
Continuous
100
AcDbLine
 10
186.6285944595363
 20
154.0806572545583
 30
0.0
 11
187.5562534910023
 21
155.0083162860242
 31
0.0
  0
LINE
  5
15C5
330
18
100
AcDbEntity
  8
寸法線
  6
Continuous
100
AcDbLine
 10
184.8608275065698
 20
154.0806572545583
 30
0.0
 11
187.5562534910022
 21
156.7760832389906
 31
0.0
  0
LINE
  5
15C6
330
18
100
AcDbEntity
  8
寸法線
  6
Continuous
100
AcDbLine
 10
183.5562534910022
 20
154.5438501919569
 30
0.0
 11
187.5562534910022
 21
158.5438501919569
 31
0.0
  0
LINE
  5
15C7
330
18
100
AcDbEntity
  8
外形線
  6
Continuous
100
AcDbLine
 10
183.5562534910023
 20
160.0806572545583
 30
0.0
 11
183.5562534910023
 21
154.0806572545583
 31
0.0
  0
LINE
  5
15C8
330
18
100
AcDbEntity
  8
外形線
  6
Continuous
100
AcDbLine
 10
191.5562534910023
 20
160.0806572545583
 30
0.0
 11
191.5562534910023
 21
154.0806572545583
 31
0.0
  0
LINE
  5
15C9
330
18
100
AcDbEntity
  8
寸法線
  6
Continuous
100
AcDbLine
 10
101.4171567082382
 20
153.0806572545581
 30
0.0
 11
97.8300771559866
 21
156.6677368068098
 31
0.0
  0
LINE
  5
15CA
330
18
100
AcDbEntity
  8
寸法線
  6
Continuous
100
AcDbLine
 10
99.64938975527184
 20
153.0806572545581
 30
0.0
 11
97.8300771559866
 21
154.8999698538435
 31
0.0
  0
LINE
  5
15CB
330
18
100
AcDbEntity
  8
寸法線
  6
Continuous
100
AcDbLine
 10
100.9024181245206
 20
153.0806572545581
 30
0.0
 11
101.8300771559866
 21
154.0083162860241
 31
0.0
  0
LINE
  5
15CC
330
18
100
AcDbEntity
  8
寸法線
  6
Continuous
100
AcDbLine
 10
99.1346511715542
 20
153.0806572545581
 30
0.0
 11
101.8300771559866
 21
155.7760832389905
 31
0.0
  0
LINE
  5
15CD
330
18
100
AcDbEntity
  8
寸法線
  6
Continuous
100
AcDbLine
 10
97.8300771559866
 20
153.5438501919568
 30
0.0
 11
101.8300771559866
 21
157.5438501919568
 31
0.0
  0
LINE
  5
15CE
330
18
100
AcDbEntity
  8
外形線
  6
Continuous
100
AcDbLine
 10
97.8300771559866
 20
159.0806572545581
 30
0.0
 11
97.8300771559866
 21
153.0806572545581
 31
0.0
  0
LINE
  5
15CF
330
18
100
AcDbEntity
  8
外形線
  6
Continuous
100
AcDbLine
 10
105.8300771559865
 20
159.0806572545581
 30
0.0
 11
105.8300771559865
 21
153.0806572545581
 31
0.0
  0
TEXT
  5
15D1
330
18
100
AcDbEntity
  8
文字
  6
Continuous
 62
     4
100
AcDbText
 10
117.2355341575723
 20
122.5062553654854
 30
0.0
 40
1.0
  1
30
  7
STYLE3
100
AcDbText
  0
TEXT
  5
15D2
330
18
100
AcDbEntity
  8
文字
  6
Continuous
 62
     4
100
AcDbText
 10
117.2309475337417
 20
129.1246030172912
 30
0.0
 40
1.0
  1
20
  7
STYLE3
100
AcDbText
  0
TEXT
  5
15D3
330
18
100
AcDbEntity
  8
文字
100
AcDbText
 10
116.2450983459184
 20
119.3893653816232
 30
0.0
 40
2.5
  1
70
  7
STYLE3
100
AcDbText
  0
TEXT
  5
15D4
330
18
100
AcDbEntity
  8
文字
100
AcDbText
 10
116.4065218277796
 20
130.589208031682
 30
0.0
 40
2.5
  1
80
  7
STYLE3
100
AcDbText
  0
LINE
  5
15D5
330
18
100
AcDbEntity
  8
目盛
100
AcDbLine
 10
118.596355586679
 20
141.8252406909181
 30
0.0
 11
117.1384183318362
 21
140.4561464790607
 31
0.0
  0
LINE
  5
15D6
330
18
100
AcDbEntity
  8
目盛
100
AcDbLine
 10
119.5518817398297
 20
140.7414090187781
 30
0.0
 11
118.0108552542781
 21
139.4665610392807
 31
0.0
  0
LINE
  5
15D7
330
18
100
AcDbEntity
  8
目盛
100
AcDbLine
 10
120.4374680266103
 20
139.5997180572851
 30
0.0
 11
118.0104170434854
 21
137.8363623004077
 31
0.0
  0
LINE
  5
15D8
330
18
100
AcDbEntity
  8
目盛
100
AcDbLine
 10
120.4374680266103
 20
112.5615964518314
 30
0.0
 11
118.0104170434856
 21
114.3249522087089
 31
0.0
  0
LINE
  5
15D9
330
18
100
AcDbEntity
  8
目盛
100
AcDbLine
 10
119.5518817398297
 20
111.4199054903384
 30
0.0
 11
118.0108552542781
 21
112.6947534698358
 31
0.0
  0
LINE
  5
15DA
330
18
100
AcDbEntity
  8
目盛
100
AcDbLine
 10
118.596355586679
 20
110.3360738181985
 30
0.0
 11
117.1384183318362
 21
111.7051680300559
 31
0.0
  0
CIRCLE
  5
15DB
330
18
100
AcDbEntity
  8
外形線
100
AcDbCircle
 10
101.8300771559866
 20
126.0806572545583
 30
0.0
 40
26.4
  0
CIRCLE
  5
15DC
330
18
100
AcDbEntity
  8
外形線
100
AcDbCircle
 10
101.8300771559866
 20
126.0806572545583
 30
0.0
 40
23.0
  0
LINE
  5
15DD
330
18
100
AcDbEntity
  8
中心線
100
AcDbLine
 10
72.65875160166718
 20
126.0806572545583
 30
0.0
 11
131.9693728867728
 21
126.0806572545583
 31
0.0
  0
TEXT
  5
15DE
330
18
100
AcDbEntity
  8
文字
100
AcDbText
 10
99.4518575185457
 20
106.3142055327091
 30
0.0
 40
2.5
  1
50
  7
STYLE3
100
AcDbText
  0
LINE
  5
15DF
330
18
100
AcDbEntity
  8
目盛
100
AcDbLine
 10
114.1540934405034
 20
106.661114968012
 30
0.0
 11
113.0824398505456
 21
108.349770819016
 31
0.0
  0
LINE
  5
15E0
330
18
100
AcDbEntity
  8
目盛
100
AcDbLine
 10
112.9104116603259
 20
105.9256036135495
 30
0.0
 11
111.9469043121225
 21
107.6782169736373
 31
0.0
  0
LINE
  5
15E1
330
18
100
AcDbEntity
  8
目盛
100
AcDbLine
 10
90.74974265164724
 20
105.9256036135495
 30
0.0
 11
91.71324999985063
 21
107.6782169736371
 31
0.0
  0
LINE
  5
15E2
330
18
100
AcDbEntity
  8
目盛
100
AcDbLine
 10
89.50606087146956
 20
106.6611149680119
 30
0.0
 11
90.5777144614276
 21
108.349770819016
 31
0.0
  0
LINE
  5
15E9
330
18
100
AcDbEntity
  8
目盛
100
AcDbLine
 10
93.36321244423903
 20
104.6957980791285
 30
0.0
 11
94.09946154960834
 21
106.555351050905
 31
0.0
  0
LINE
  5
15EA
330
18
100
AcDbEntity
  8
目盛
100
AcDbLine
 10
92.03715344999
 20
105.2696350478399
 30
0.0
 11
92.88871203312011
 21
107.0792891527719
 31
0.0
  0
LINE
  5
15EB
330
18
100
AcDbEntity
  8
外形線
100
AcDbLine
 10
97.83007715598655
 20
99.98544696607821
 30
0.0
 11
97.83007715598655
 21
99.58065725455835
 31
0.0
  0
LINE
  5
15EC
330
18
100
AcDbEntity
  8
目盛
100
AcDbLine
 10
97.52030692051494
 20
103.4880504877985
 30
0.0
 11
97.89506954968647
 21
105.4526249892558
 31
0.0
  0
LINE
  5
15ED
330
18
100
AcDbEntity
  8
目盛
100
AcDbLine
 10
96.11020975119505
 20
103.8032445485998
 30
0.0
 11
96.60758952552464
 21
105.7404108708571
 31
0.0
  0
LINE
  5
15EE
330
18
100
AcDbEntity
  8
目盛
100
AcDbLine
 10
94.72268628536268
 20
104.2063573797697
 30
0.0
 11
95.64973726848757
 21
107.0595269286552
 31
0.0
  0
LINE
  5
15EF
330
18
100
AcDbEntity
  8
目盛
100
AcDbLine
 10
100.3858952068124
 20
103.1260425007081
 30
0.0
 11
100.5114762458709
 21
105.1220959575646
 31
0.0
  0
LINE
  5
15F0
330
18
100
AcDbEntity
  8
目盛
100
AcDbLine
 10
98.94741278400761
 20
103.2620191243253
 30
0.0
 11
99.19807925113628
 21
105.2462485269543
 31
0.0
  0
LINE
  5
15F2
330
18
100
AcDbEntity
  8
目盛
100
AcDbLine
 10
110.2969418677341
 20
104.6957980791285
 30
0.0
 11
109.5606927623648
 21
106.5553510509051
 31
0.0
  0
LINE
  5
15F3
330
18
100
AcDbEntity
  8
外形線
100
AcDbLine
 10
105.8300771559866
 20
99.98544696607819
 30
0.0
 11
105.8300771559866
 21
99.58065725455831
 31
0.0
  0
LINE
  5
15F4
330
18
100
AcDbEntity
  8
目盛
100
AcDbLine
 10
106.1398473914582
 20
103.4880504877985
 30
0.0
 11
105.7650847622867
 21
105.4526249892559
 31
0.0
  0
LINE
  5
15F5
330
18
100
AcDbEntity
  8
目盛
100
AcDbLine
 10
101.8300771559866
 20
106.0806572545583
 30
0.0
 11
101.8300771559866
 21
103.0806572545583
 31
0.0
  0
LINE
  5
15F6
330
18
100
AcDbEntity
  8
目盛
100
AcDbLine
 10
104.7127415279656
 20
103.2620191243253
 30
0.0
 11
104.4620750608369
 21
105.2462485269543
 31
0.0
  0
LINE
  5
15F7
330
18
100
AcDbEntity
  8
目盛
100
AcDbLine
 10
103.2742591051608
 20
103.1260425007081
 30
0.0
 11
103.1486780661021
 21
105.1220959575646
 31
0.0
  0
LINE
  5
15F8
330
18
100
AcDbEntity
  8
目盛
100
AcDbLine
 10
108.9374680266103
 20
104.2063573797698
 30
0.0
 11
108.0104170434856
 21
107.0595269286552
 31
0.0
  0
LINE
  5
15F9
330
18
100
AcDbEntity
  8
目盛
100
AcDbLine
 10
107.5499445607781
 20
103.8032445485998
 30
0.0
 11
107.0525647864485
 21
105.7404108708571
 31
0.0
  0
LINE
  5
15FA
330
18
100
AcDbEntity
  8
目盛
100
AcDbLine
 10
111.6230008619832
 20
105.2696350478399
 30
0.0
 11
110.7714422788531
 21
107.079289152772
 31
0.0
  0
TEXT
  5
15FB
330
18
100
AcDbEntity
  8
文字
  6
Continuous
 62
     4
100
AcDbText
 10
84.50463329621925
 20
129.2765017357063
 30
0.0
 40
1.0
  1
80
  7
STYLE3
100
AcDbText
  0
TEXT
  5
15FC
330
18
100
AcDbEntity
  8
文字
  6
Continuous
 62
     4
100
AcDbText
 10
84.62373175413791
 20
122.1920463312987
 30
0.0
 40
1.0
  1
70
  7
STYLE3
100
AcDbText
  0
TEXT
  5
15FD
330
18
100
AcDbEntity
  8
文字
100
AcDbText
 10
82.60587632701936
 20
130.7017347752694
 30
0.0
 40
2.5
  1
20
  7
STYLE3
100
AcDbText
  0
TEXT
  5
15FE
330
18
100
AcDbEntity
  8
文字
100
AcDbText
 10
82.44440349218393
 20
118.8555133687216
 30
0.0
 40
2.5
  1
30
  7
STYLE3
100
AcDbText
  0
LINE
  5
15FF
330
18
100
AcDbEntity
  8
目盛
100
AcDbLine
 10
85.0637987252942
 20
110.3360738181984
 30
0.0
 11
86.52173598013702
 21
111.7051680300558
 31
0.0
  0
LINE
  5
1600
330
18
100
AcDbEntity
  8
目盛
100
AcDbLine
 10
84.10827257214327
 20
111.4199054903384
 30
0.0
 11
85.64929905769487
 21
112.6947534698358
 31
0.0
  0
LINE
  5
1601
330
18
100
AcDbEntity
  8
目盛
100
AcDbLine
 10
83.22268628536267
 20
112.5615964518314
 30
0.0
 11
85.64973726848757
 21
114.3249522087088
 31
0.0
  0
LINE
  5
1602
330
18
100
AcDbEntity
  8
目盛
100
AcDbLine
 10
83.22268628536267
 20
139.5997180572852
 30
0.0
 11
85.64973726848757
 21
137.8363623004077
 31
0.0
  0
LINE
  5
1603
330
18
100
AcDbEntity
  8
目盛
100
AcDbLine
 10
84.1082725721435
 20
140.7414090187782
 30
0.0
 11
85.64929905769487
 21
139.4665610392808
 31
0.0
  0
LINE
  5
1604
330
18
100
AcDbEntity
  8
目盛
100
AcDbLine
 10
85.06379872529397
 20
141.8252406909181
 30
0.0
 11
86.52173598013678
 21
140.4561464790608
 31
0.0
  0
LINE
  5
1605
330
18
100
AcDbEntity
  8
目盛
100
AcDbLine
 10
79.2374703892267
 20
130.39042749003
 30
0.0
 11
81.20204489068397
 21
130.0156648608585
 31
0.0
  0
LINE
  5
1608
330
18
100
AcDbEntity
  8
目盛
100
AcDbLine
 10
81.01905494926814
 20
116.2877335485617
 30
0.0
 11
82.8287090542001
 21
117.1392921316918
 31
0.0
  0
LINE
  5
1609
330
18
100
AcDbEntity
  8
目盛
100
AcDbLine
 10
80.44521798055667
 20
117.6137925428107
 30
0.0
 11
82.30477095233323
 21
118.35004164818
 31
0.0
  0
LINE
  5
160A
330
18
100
AcDbEntity
  8
目盛
100
AcDbLine
 10
82.4105348694402
 20
113.7566409700414
 30
0.0
 11
84.09919072044431
 21
114.8282945599994
 31
0.0
  0
LINE
  5
160B
330
18
100
AcDbEntity
  8
目盛
100
AcDbLine
 10
81.67502351497773
 20
115.0003227502188
 30
0.0
 11
83.42763687506545
 21
115.9638300984222
 31
0.0
  0
LINE
  5
160D
330
18
100
AcDbEntity
  8
目盛
100
AcDbLine
 10
79.95577728119815
 20
118.9732663839345
 30
0.0
 11
82.80894683008341
 21
119.9003173670593
 31
0.0
  0
LINE
  5
160E
330
18
100
AcDbEntity
  8
目盛
100
AcDbLine
 10
79.55266445002803
 20
120.3607898497666
 30
0.0
 11
81.48983077228535
 21
120.8581696240964
 31
0.0
  0
LINE
  5
160F
330
18
100
AcDbEntity
  8
目盛
100
AcDbLine
 10
79.2374703892267
 20
121.7708870190866
 30
0.0
 11
81.20204489068397
 21
122.1456496482581
 31
0.0
  0
LINE
  5
1610
330
18
100
AcDbEntity
  8
目盛
100
AcDbLine
 10
79.01143902575359
 20
123.1979928825793
 30
0.0
 11
80.99566842838248
 21
123.4486593497079
 31
0.0
  0
LINE
  5
1611
330
18
100
AcDbEntity
  8
目盛
100
AcDbLine
 10
78.8300771559866
 20
126.0806572545583
 30
0.0
 11
81.83007715598661
 21
126.0806572545583
 31
0.0
  0
POINT
  5
1612
330
18
100
AcDbEntity
  8
DEFPOINTS
  6
ByBlock
 62
     0
100
AcDbPoint
 10
78.8300771559866
 20
126.0806572545583
 30
0.0
  0
LINE
  5
1613
330
18
100
AcDbEntity
  8
目盛
100
AcDbLine
 10
78.87546240213623
 20
124.6364753053841
 30
0.0
 11
80.87151585899277
 21
124.7620563444427
 31
0.0
  0
LINE
  5
1614
330
18
100
AcDbEntity
  8
目盛
100
AcDbLine
 10
78.87546240213623
 20
127.5248392037325
 30
0.0
 11
80.87151585899277
 21
127.3992581646739
 31
0.0
  0
LINE
  5
1615
330
18
100
AcDbEntity
  8
目盛
100
AcDbLine
 10
79.01143902575359
 20
128.9633216265373
 30
0.0
 11
80.99566842838248
 21
128.7126551594087
 31
0.0
  0
LINE
  5
1616
330
18
100
AcDbEntity
  8
目盛
100
AcDbLine
 10
79.55266445002803
 20
131.80052465935
 30
0.0
 11
81.48983077228535
 21
131.3031448850203
 31
0.0
  0
LINE
  5
1617
330
18
100
AcDbEntity
  8
目盛
100
AcDbLine
 10
79.95577728119792
 20
133.1880481251821
 30
0.0
 11
82.80894683008341
 21
132.2609971420573
 31
0.0
  0
LINE
  5
1618
330
18
100
AcDbEntity
  8
目盛
100
AcDbLine
 10
80.44521798055667
 20
134.5475219663059
 30
0.0
 11
82.30477095233323
 21
133.8112728609366
 31
0.0
  0
LINE
  5
1619
330
18
100
AcDbEntity
  8
目盛
100
AcDbLine
 10
81.01905494926814
 20
135.873580960555
 30
0.0
 11
82.8287090542001
 21
135.0220223774248
 31
0.0
  0
LINE
  5
161A
330
18
100
AcDbEntity
  8
目盛
100
AcDbLine
 10
81.67502351497773
 20
137.1609917588978
 30
0.0
 11
83.42763687506545
 21
136.1974844106943
 31
0.0
  0
LINE
  5
161B
330
18
100
AcDbEntity
  8
目盛
100
AcDbLine
 10
82.4105348694402
 20
138.4046735390752
 30
0.0
 11
84.09919072044431
 21
137.3330199491173
 31
0.0
  0
LINE
  5
161C
330
18
100
AcDbEntity
  8
針
100
AcDbLine
 10
88.97161313504581
 20
143.9319318035135
 30
0.0
 11
100.4940642398348
 21
128.940302247888
 31
0.0
  0
LINE
  5
161D
330
18
100
AcDbEntity
  8
針
100
AcDbLine
 10
88.82599007605836
 20
143.8261304581009
 30
0.0
 11
99.52324384658481
 21
128.2349599451369
 31
0.0
  0
HATCH
  5
161E
330
18
100
AcDbEntity
  8
針
100
AcDbHatch
 10
0.0
 20
0.0
 30
0.0
210
0.0
220
0.0
230
1.0
  2
SOLID
 70
     1
 71
     0
 91
        2
 92
        7
 72
     1
 73
     1
 93
        5
 10
88.97161313504581
 20
143.9319318035135
 42
0.0
 10
88.89880160555208
 20
143.8790311308073
 42
0.0
 10
88.82599007605836
 20
143.8261304581009
 42
0.0
 10
92.50599078225366
 20
138.4625558688731
 42
-0.0085634322047721
 10
92.93549294124
 20
138.7746074532467
 42
0.0
 97
        0
 92
        7
 72
     1
 73
     1
 93
        6
 10
92.93549294124
 20
138.7746074532467
 42
0.0085634322047721
 10
92.50599078225366
 20
138.4625558688731
 42
0.0
 10
99.52324384658504
 20
128.2349599451365
 42
-0.1293106770632391
 10
100.0767437718193
 20
126.8126559184676
 42
-0.2805221108582334
 10
101.6757148692688
 20
127.9743764218161
 42
-0.1293106770632486
 10
100.4940642398351
 20
128.9403022478877
 42
0.0
 97
        0
 75
     0
 76
     1
 47
0.0423559757596284
 98
        2
 10
92.31864745453345
 20
139.1030076401122
 10
95.01073368038829
 20
135.6140167516045
450
        0
451
        0
460
0.0
461
0.0
452
        0
462
0.0
453
        0
470

  0
CIRCLE
  5
161F
330
18
100
AcDbEntity
  8
外形線
100
AcDbCircle
 10
101.8300771559866
 20
126.0806572545583
 30
0.0
 40
15.5
  0
CIRCLE
  5
1620
330
18
100
AcDbEntity
  8
針
100
AcDbCircle
 10
101.8300771559866
 20
126.0806572545583
 30
0.0
 40
0.475
  0
CIRCLE
  5
1621
330
18
100
AcDbEntity
  8
針
100
AcDbCircle
 10
101.8300771559866
 20
126.0806572545583
 30
0.0
 40
1.5
  0
CIRCLE
  5
1622
330
18
100
AcDbEntity
  8
針
100
AcDbCircle
 10
101.8300771559866
 20
126.0806572545583
 30
0.0
 40
1.9
  0
TEXT
  5
1624
330
18
100
AcDbEntity
  8
文字
  6
Continuous
 62
     4
100
AcDbText
 10
100.8590837039987
 20
109.1636552241919
 30
0.0
 40
1.0
  1
50
  7
STYLE3
100
AcDbText
  0
TEXT
  5
1625
330
18
100
AcDbEntity
  8
文字
100
AcDbText
 10
101.6292404353246
 20
114.2041569227479
 30
0.0
 40
1.0
  1
3
  7
STYLE3
100
AcDbText
  0
LINE
  5
1626
330
18
100
AcDbEntity
  8
中心線
 48
0.2
100
AcDbLine
 10
91.67080196905681
 20
116.0066858430444
 30
0.0
 11
106.198789417037
 21
116.0066858430444
 31
0.0
  0
CIRCLE
  5
1627
330
18
100
AcDbEntity
  8
外形線
100
AcDbCircle
 10
98.63007715598655
 20
116.0066858430444
 30
0.0
 40
4.75
  0
LINE
  5
1628
330
18
100
AcDbEntity
  8
針
100
AcDbLine
 10
98.48516879834813
 20
117.464055188374
 30
0.0
 11
98.53007715598643
 21
120.7066858430444
 31
0.0
  0
LINE
  5
1629
330
18
100
AcDbEntity
  8
針
100
AcDbLine
 10
98.77498551362487
 20
117.464055188374
 30
0.0
 11
98.73007715598646
 21
120.7066858430444
 31
0.0
  0
HATCH
  5
162A
330
18
100
AcDbEntity
  8
針
100
AcDbHatch
 10
0.0
 20
0.0
 30
0.0
210
0.0
220
0.0
230
1.0
  2
SOLID
 70
     1
 71
     0
 91
        1
 92
        7
 72
     1
 73
     1
 93
        7
 10
98.73007715598658
 20
120.7066858430445
 42
0.0
 10
98.63007715598644
 20
120.7066858430444
 42
0.0
 10
98.53007715598643
 20
120.7066858430444
 42
0.0
 10
98.48516879834813
 20
117.464055188374
 42
-0.2935495917910092
 10
98.1867356218113
 20
117.0133875287858
 42
-0.2104432563350663
 10
99.07341801054441
 20
117.0133878280826
 42
-0.2935491884945053
 10
98.77498551362487
 20
117.4640551883739
 42
0.0
 97
        0
 75
     0
 76
     1
 47
0.0140573597042523
 98
        1
 10
98.6886788718839
 20
118.9012458883446
450
        0
451
        0
460
0.0
461
0.0
452
        0
462
0.0
453
        0
470

  0
TEXT
  5
162B
330
18
100
AcDbEntity
  8
文字
100
AcDbText
 10
96.20358694215907
 20
118.218169468227
 30
0.0
 40
1.0
  1
9
  7
STYLE3
100
AcDbText
  0
TEXT
  5
162C
330
18
100
AcDbEntity
  8
文字
100
AcDbText
 10
100.2480194804545
 20
118.2622338713487
 30
0.0
 40
1.0
  1
1
  7
STYLE3
100
AcDbText
  0
LINE
  5
162D
330
18
100
AcDbEntity
  8
中心線
 48
0.2
100
AcDbLine
 10
98.63007715598655
 20
123.8698932617661
 30
0.0
 11
98.63007715598655
 21
108.1802992397306
 31
0.0
  0
TEXT
  5
162E
330
18
100
AcDbEntity
  8
文字
100
AcDbText
 10
88.32785649820971
 20
110.2517152139916
 30
0.0
 40
2.5
  1
40
  7
STYLE3
100
AcDbText
  0
LINE
  5
162F
330
18
100
AcDbEntity
  8
目盛
100
AcDbLine
 10
88.31101635325968
 20
107.4732663839345
 30
0.0
 11
90.07437211013712
 21
109.9003173670593
 31
0.0
  0
LINE
  5
1630
330
18
100
AcDbEntity
  8
目盛
100
AcDbLine
 10
87.16932539176672
 20
108.3588526707151
 30
0.0
 11
88.44417337126401
 21
109.8998791562667
 31
0.0
  0
LINE
  5
1631
330
18
100
AcDbEntity
  8
目盛
100
AcDbLine
 10
86.08549371962658
 20
109.3143788238658
 30
0.0
 11
87.45458793148396
 21
110.7723160787086
 31
0.0
  0
TEXT
  5
1632
330
18
100
AcDbEntity
  8
文字
  6
Continuous
 62
     4
100
AcDbText
 10
89.43984439265227
 20
113.3421462576455
 30
0.0
 40
1.0
  1
60
  7
STYLE3
100
AcDbText
  0
TEXT
  5
1633
330
18
100
AcDbEntity
  8
文字
100
AcDbText
 10
95.97346335856764
 20
112.6639560216381
 30
0.0
 40
1.0
  1
6
  7
STYLE3
100
AcDbText
  0
TEXT
  5
1634
330
18
100
AcDbEntity
  8
文字
100
AcDbText
 10
98.11212553313453
 20
112.0837931326754
 30
0.0
 40
1.0
  1
5
  7
STYLE3
100
AcDbText
  0
TEXT
  5
1635
330
18
100
AcDbEntity
  8
文字
100
AcDbText
 10
100.2209262224248
 20
112.7549425661467
 30
0.0
 40
1.0
  1
4
  7
STYLE3
100
AcDbText
  0
LINE
  5
1636
330
18
100
AcDbEntity
  8
目盛
100
AcDbLine
 10
95.83809720759722
 20
112.1638551197634
 30
0.0
 11
96.13198983374331
 21
112.5683636169509
 31
0.0
  0
LINE
  5
1637
330
18
100
AcDbEntity
  8
目盛
100
AcDbLine
 10
101.4220571043759
 20
112.1638551197634
 30
0.0
 11
101.1281644782295
 21
112.5683636169509
 31
0.0
  0
LINE
  5
1638
330
18
100
AcDbEntity
  8
目盛
100
AcDbLine
 10
98.63007715598655
 20
111.2566858430444
 30
0.0
 11
98.63007715598655
 21
111.7566858430444
 31
0.0
  0
CIRCLE
  5
1639
330
18
100
AcDbEntity
  8
針
100
AcDbCircle
 10
98.63007715598655
 20
116.0066858430444
 30
0.0
 40
1.1
  0
HATCH
  5
163A
330
18
100
AcDbEntity
  8
針
100
AcDbHatch
 10
0.0
 20
0.0
 30
0.0
210
0.0
220
0.0
230
1.0
  2
SOLID
 70
     1
 71
     0
 91
        4
 92
        7
 72
     1
 73
     1
 93
        4
 10
97.54215970628832
 20
116.169276195287
 42
0.0
 10
97.88831525846502
 20
116.1175429013917
 42
-0.4142135623730951
 10
98.74093421433361
 20
116.7484477405658
 42
0.0
 10
98.792667508229
 20
117.0946032927425
 42
0.4142135623730996
 97
        0
 92
        7
 72
     1
 73
     1
 93
        5
 10
97.88831525846502
 20
116.1175429013917
 42
0.0
 10
97.54215970628832
 20
116.169276195287
 42
0.3173569687788799
 10
98.11245178761692
 20
115.0360860398194
 42
0.0
 10
98.514829797826
 20
115.2355477635401
 42
0.0
 10
98.51922009763917
 20
115.2649239455229
 42
-0.4142135623730839
 97
        0
 92
        7
 72
     1
 73
     1
 93
        4
 10
98.792667508229
 20
117.0946032927425
 42
0.0
 10
98.74093421433361
 20
116.7484477405658
 42
-0.4142135623730951
 10
99.37183905350799
 20
115.8958287846972
 42
0.0
 10
99.71799460568457
 20
115.8440954908018
 42
0.4142135623730996
 97
        0
 92
        7
 72
     1
 73
     1
 93
        4
 10
99.37183905350799
 20
115.8958287846972
 42
-0.1036385141593389
 10
99.26494722339908
 20
115.6073864597449
 42
0.0
 10
99.71594886127718
 20
115.8309512714631
 42
0.003023315109616
 10
99.71799460568457
 20
115.8440954908018
 42
0.0
 97
        0
 75
     0
 76
     1
 47
0.0223982890607777
 98
        4
 10
98.12602165498743
 20
116.858441031113
 10
97.79866666772477
 20
115.72880183001
 10
99.05745700517854
 20
116.8778895019197
 10
99.44332846190798
 20
115.8229750552065
450
        0
451
        0
460
0.0
461
0.0
452
        0
462
0.0
453
        0
470

  0
HATCH
  5
163B
330
18
100
AcDbEntity
  8
針
100
AcDbHatch
 10
0.0
 20
0.0
 30
0.0
210
0.0
220
0.0
230
1.0
  2
SOLID
 70
     1
 71
     0
 91
        2
 92
        7
 72
     1
 73
     1
 93
        5
 10
98.9827514456307
 20
114.9647545375237
 42
0.31735696877887
 10
99.72994999576281
 20
115.9899605232432
 42
0.0
 10
99.36861931848012
 20
116.2566685733354
 42
0.0
 10
99.34048486429606
 20
116.2471455859836
 42
-0.4142135623731173
 10
98.87053689892571
 20
115.2962781347348
 42
0.0
 97
        0
 92
        7
 72
     1
 73
     1
 93
        4
 10
98.9827514456307
 20
114.9647545375237
 42
0.0
 10
98.87053689892571
 20
115.2962781347348
 42
-0.4142135623730728
 10
97.91966944767706
 20
115.7662261001051
 42
0.0
 10
97.58814585046593
 20
115.6540115534001
 42
0.4142135623730844
 97
        0
 75
     0
 76
     1
 47
0.0161501285364394
 98
        2
 10
99.29162416781265
 20
115.3103560406408
 10
98.61282909689544
 20
115.0976464986901
450
        0
451
        0
460
0.0
461
0.0
452
        0
462
0.0
453
        0
470

  0
TEXT
  5
163C
330
18
100
AcDbEntity
  8
文字
100
AcDbText
 10
94.87847520040828
 20
116.4862845793695
 30
0.0
 40
1.0
  1
8
  7
STYLE3
100
AcDbText
  0
TEXT
  5
163D
330
18
100
AcDbEntity
  8
文字
100
AcDbText
 10
94.82482487414358
 20
114.2621696303533
 30
0.0
 40
1.0
  1
7
  7
STYLE3
100
AcDbText
  0
LINE
  5
163E
330
18
100
AcDbEntity
  8
目盛
100
AcDbLine
 10
94.11255870358445
 20
114.5388551197634
 30
0.0
 11
94.58808696173196
 21
114.6933636169509
 31
0.0
  0
LINE
  5
163F
330
18
100
AcDbEntity
  8
目盛
100
AcDbLine
 10
94.11255870358445
 20
117.4745165663254
 30
0.0
 11
94.58808696173219
 21
117.3200080691379
 31
0.0
  0
ARC
  5
1640
330
18
100
AcDbEntity
  8
針
100
AcDbCircle
 10
97.98521674264089
 20
117.4709792041225
 30
0.0
 40
0.5
100
AcDbArc
 50
293.7682212975196
 51
359.2065408792653
  0
ARC
  5
1641
330
18
100
AcDbEntity
  8
針
100
AcDbCircle
 10
99.274937569332
 20
117.4709792041225
 30
0.0
 40
0.5
100
AcDbArc
 50
180.7934591207347
 51
246.2317787024804
  0
CIRCLE
  5
1642
330
18
100
AcDbEntity
  8
針
 62
     4
100
AcDbCircle
 10
98.63007715598655
 20
116.0066858430444
 30
0.0
 40
0.4
  0
CIRCLE
  5
1643
330
18
100
AcDbEntity
  8
針
100
AcDbCircle
 10
98.63007715598655
 20
116.0066858430444
 30
0.0
 40
0.75
  0
LINE
  5
1644
330
18
100
AcDbEntity
  8
目盛
100
AcDbLine
 10
95.83809720759722
 20
119.8495165663254
 30
0.0
 11
96.13198983374354
 21
119.4450080691379
 31
0.0
  0
LINE
  5
1645
330
18
100
AcDbEntity
  8
文字
100
AcDbLine
 10
98.73007715598646
 20
120.7066858430444
 30
0.0
 11
98.53007715598643
 21
120.7066858430444
 31
0.0
  0
TEXT
  5
1646
330
18
100
AcDbEntity
  8
文字
100
AcDbText
 10
98.14370071685608
 20
119.0344597715192
 30
0.0
 40
1.0
  1
0
  7
STYLE3
100
AcDbText
  0
LINE
  5
1647
330
18
100
AcDbEntity
  8
目盛
100
AcDbLine
 10
101.4220571043756
 20
119.8495165663254
 30
0.0
 11
101.1281644782295
 21
119.4450080691379
 31
0.0
  0
LINE
  5
1648
330
18
100
AcDbEntity
  8
目盛
100
AcDbLine
 10
98.63007715598655
 20
120.7566858430444
 30
0.0
 11
98.63007715598655
 21
120.2566858430444
 31
0.0
  0
ARC
  5
1649
330
18
100
AcDbEntity
  8
針
100
AcDbCircle
 10
102.9211152229597
 20
130.7036580047654
 30
0.0
 40
3.0
100
AcDbArc
 50
216.0
 51
245.4722791770396
  0
ARC
  5
164A
330
18
100
AcDbEntity
  8
針
100
AcDbCircle
 10
97.09619286346004
 20
126.4716041882595
 30
0.0
 40
3.0
100
AcDbArc
 50
6.527720822960354
 51
36.00000000000001
  0
TEXT
  5
1650
330
18
100
AcDbEntity
  8
文字
100
AcDbText
 10
101.678663281197
 20
116.6167937707984
 30
0.0
 40
1.0
  1
2
  7
STYLE3
100
AcDbText
  0
LINE
  5
1651
330
18
100
AcDbEntity
  8
目盛
100
AcDbLine
 10
103.1475956083884
 20
117.4745165663254
 30
0.0
 11
102.6720673502409
 21
117.3200080691379
 31
0.0
  0
LINE
  5
1652
330
18
100
AcDbEntity
  8
目盛
100
AcDbLine
 10
103.1475956083884
 20
114.5388551197634
 30
0.0
 11
102.6720673502409
 21
114.6933636169509
 31
0.0
  0
TEXT
  5
1653
330
18
100
AcDbEntity
  8
文字
100
AcDbText
 10
110.5033260883035
 20
110.1618608238183
 30
0.0
 40
2.5
  1
60
  7
STYLE3
100
AcDbText
  0
LINE
  5
1654
330
18
100
AcDbEntity
  8
目盛
100
AcDbLine
 10
115.3491379587135
 20
107.4732663839345
 30
0.0
 11
113.5857822018358
 21
109.9003173670593
 31
0.0
  0
LINE
  5
1655
330
18
100
AcDbEntity
  8
目盛
100
AcDbLine
 10
117.5746605923464
 20
109.3143788238659
 30
0.0
 11
116.205566380489
 21
110.7723160787087
 31
0.0
  0
LINE
  5
1656
330
18
100
AcDbEntity
  8
目盛
100
AcDbLine
 10
116.4908289202065
 20
108.3588526707152
 30
0.0
 11
115.2159809407092
 21
109.8998791562667
 31
0.0
  0
TEXT
  5
165C
330
18
100
AcDbEntity
  8
文字
  6
Continuous
 62
     4
100
AcDbText
 10
112.1278594818861
 20
113.281598521388
 30
0.0
 40
1.0
  1
40
  7
STYLE3
100
AcDbText
  0
POINT
  5
1661
330
18
100
AcDbEntity
  8
DEFPOINTS
  6
ByBlock
 62
     0
100
AcDbPoint
 10
101.8300771559866
 20
126.0806572545583
 30
0.0
  0
POINT
  5
1662
330
18
100
AcDbEntity
  8
DEFPOINTS
  6
ByBlock
 62
     0
100
AcDbPoint
 10
101.8300771559866
 20
126.0806572545583
 30
0.0
  0
POINT
  5
1663
330
18
100
AcDbEntity
  8
DEFPOINTS
  6
ByBlock
 62
     0
100
AcDbPoint
 10
101.8300771559865
 20
126.0806572545583
 30
0.0
  0
POINT
  5
1664
330
18
100
AcDbEntity
  8
DEFPOINTS
  6
ByBlock
 62
     0
100
AcDbPoint
 10
101.8300771559865
 20
126.0806572545583
 30
0.0
  0
HATCH
  5
168B
330
18
100
AcDbEntity
  8
ROGO
 62
     4
100
AcDbHatch
 10
0.0
 20
0.0
 30
0.0
210
0.0
220
0.0
230
1.0
  2
SOLID
 70
     1
 71
     0
 91
        1
 92
        7
 72
     0
 73
     1
 93
        4
 10
95.19430249241059
 20
135.4371162644929
 10
95.10125145698863
 20
135.2314460582017
 10
107.2805440255715
 20
135.2314460582017
 10
107.3830978329576
 20
135.4371162644929
 97
        0
 75
     0
 76
     1
 47
0.0514683685270805
 98
        1
 10
102.8905377532987
 20
135.3827198002881
450
        0
451
        0
460
0.0
461
0.0
452
        0
462
0.0
453
        0
470

  0
HATCH
  5
168C
330
18
100
AcDbEntity
  8
ROGO
 62
     4
100
AcDbHatch
 10
0.0
 20
0.0
 30
0.0
210
0.0
220
0.0
230
1.0
  2
SOLID
 70
     1
 71
     1
 91
        1
 92
        5
 93
        8
 72
     1
 10
103.5539608566508
 20
136.7947497908908
 11
103.7975801571916
 21
137.2833248431077
 72
     1
 10
103.7975801571916
 20
137.2833248431077
 11
102.4825438150853
 21
137.2833248431077
 72
     4
 94
        3
 73
     0
 74
     0
 95
       26
 96
       22
 40
0.0
 40
0.0
 40
0.0
 40
0.0
 40
0.2382195346591335
 40
0.397689067265951
 40
0.5126795869787094
 40
0.5985392873135155
 40
0.7099038249249157
 40
0.7911890807494517
 40
0.9379713068542924
 40
1.057449928673026
 40
1.138714535893255
 40
1.218398644003435
 40
1.360938021870289
 40
1.461730374800178
 40
1.516014844107929
 40
1.593124329220422
 40
1.648806818593552
 40
1.729472362005439
 40
1.775122082164228
 40
1.874460993765031
 40
1.919820003751092
 40
1.919820003751092
 40
1.919820003751092
 40
1.919820003751092
 10
102.4825438150851
 20
137.2833248431076
 10
102.4016884243265
 20
137.2785008718425
 10
102.2667066102606
 20
137.2704476253459
 10
102.1184973995488
 20
137.1804121214875
 10
102.0099106551386
 20
137.1280694361451
 10
101.9324667207144
 20
137.0569140147254
 10
101.8757000028468
 20
136.9834156622041
 10
101.8041348981492
 20
136.8958429140788
 10
101.7457756002435
 20
136.7938679926142
 10
101.7160567577102
 20
136.6814738515509
 10
101.6897320890565
 20
136.5918950689919
 10
101.6702092740836
 20
136.4920712060995
 10
101.6751764308965
 20
136.3842263179772
 10
101.682289626781
 20
136.2840655069734
 10
101.714048316705
 20
136.2125656840467
 10
101.7502158390949
 20
136.1616627371174
 10
101.7945024749499
 20
136.1055987844187
 10
101.8429617392673
 20
136.0684678100884
 10
101.8830415063779
 20
136.0012025549478
 10
101.9531997866404
 20
135.9926190232717
 10
101.9977951807162
 20
135.9755352333947
 10
102.0117746691776
 20
135.9701799125502
 72
     1
 10
102.0117746691776
 20
135.9701799125502
 11
103.1428036841822
 21
135.9701799125502
 72
     1
 10
103.1428036841822
 20
135.9701799125502
 11
103.3864204048611
 21
136.4587497908908
 72
     1
 10
103.3864204048611
 20
136.4587497908908
 11
102.546739383989
 21
136.4587497908908
 72
     4
 94
        3
 73
     0
 74
     0
 95
       16
 96
       12
 40
0.0
 40
0.0
 40
0.0
 40
0.0
 40
0.0719416665232667
 40
0.1446253590759968
 40
0.1879779149911881
 40
0.2295440936105308
 40
0.2751936323959393
 40
0.3070718656053448
 40
0.3373215422373263
 40
0.3986635435213924
 40
0.5242542460843636
 40
0.5242542460843636
 40
0.5242542460843636
 40
0.5242542460843636
 10
102.546739383989
 20
136.4587497908908
 10
102.5214116453172
 20
136.4662015829793
 10
102.4704949307481
 20
136.4811820269787
 10
102.4662336129005
 20
136.553801716116
 10
102.4720390419623
 20
136.6055491870751
 10
102.4963521918395
 20
136.6432243677913
 10
102.5258482597002
 20
136.6706380188269
 10
102.5368309539518
 20
136.7063400130091
 10
102.5691135830758
 20
136.7332994853255
 10
102.6263593344669
 20
136.7786145923013
 10
102.6896632256783
 20
136.7882656975868
 10
102.7321939332997
 20
136.7947497908908
 72
     1
 10
102.7321939332997
 20
136.7947497908908
 11
103.5539608566508
 21
136.7947497908908
 97
        8
330
16D5
330
168E
330
16DB
330
16D6
330
16D8
330
16D7
330
16D9
330
16DA
 75
     0
 76
     1
 47
0.0514683685270805
 98
        1
 10
102.9424607122921
 20
136.9910033867607
450
        0
451
        0
460
0.0
461
0.0
452
        0
462
0.0
453
        0
470

  0
LINE
  5
168D
330
18
100
AcDbEntity
  8
ROGO
 62
     4
100
AcDbLine
 10
95.18003904549392
 20
135.4371162644929
 30
0.0
 11
107.3830978329578
 21
135.4371162644929
 31
0.0
  0
SPLINE
  5
168E
102
{ACAD_REACTORS
330
168C
102
}
330
18
100
AcDbEntity
  8
ROGO
 62
     4
100
AcDbSpline
210
0.0
220
0.0
230
1.0
 70
     8
 71
     3
 72
    26
 73
    22
 74
    20
 42
0.0000000001
 43
0.0000000001
 44
0.0000000001
 40
0.0
 40
0.0
 40
0.0
 40
0.0
 40
0.2382195346591335
 40
0.397689067265951
 40
0.5126795869787094
 40
0.5985392873135155
 40
0.7099038249249157
 40
0.7911890807494517
 40
0.9379713068542924
 40
1.057449928673026
 40
1.138714535893255
 40
1.218398644003435
 40
1.360938021870289
 40
1.461730374800178
 40
1.516014844107929
 40
1.593124329220422
 40
1.648806818593552
 40
1.729472362005439
 40
1.775122082164228
 40
1.874460993765031
 40
1.919820003751092
 40
1.919820003751092
 40
1.919820003751092
 40
1.919820003751092
 10
102.4825438150851
 20
137.2833248431076
 30
0.0
 10
102.4016884243265
 20
137.2785008718425
 30
0.0
 10
102.2667066102606
 20
137.2704476253459
 30
0.0
 10
102.1184973995488
 20
137.1804121214875
 30
0.0
 10
102.0099106551386
 20
137.1280694361451
 30
0.0
 10
101.9324667207144
 20
137.0569140147254
 30
0.0
 10
101.8757000028468
 20
136.9834156622041
 30
0.0
 10
101.8041348981492
 20
136.8958429140788
 30
0.0
 10
101.7457756002435
 20
136.7938679926142
 30
0.0
 10
101.7160567577102
 20
136.6814738515509
 30
0.0
 10
101.6897320890565
 20
136.5918950689919
 30
0.0
 10
101.6702092740836
 20
136.4920712060995
 30
0.0
 10
101.6751764308965
 20
136.3842263179772
 30
0.0
 10
101.682289626781
 20
136.2840655069734
 30
0.0
 10
101.714048316705
 20
136.2125656840467
 30
0.0
 10
101.7502158390949
 20
136.1616627371174
 30
0.0
 10
101.7945024749499
 20
136.1055987844187
 30
0.0
 10
101.8429617392673
 20
136.0684678100884
 30
0.0
 10
101.8830415063779
 20
136.0012025549478
 30
0.0
 10
101.9531997866404
 20
135.9926190232717
 30
0.0
 10
101.9977951807162
 20
135.9755352333947
 30
0.0
 10
102.0117746691776
 20
135.9701799125502
 30
0.0
 11
102.4825438150851
 21
137.2833248431076
 31
0.0
 11
102.2471592421313
 21
137.2466826610139
 31
0.0
 11
102.1045017387564
 21
137.1754129720805
 31
0.0
 11
102.0046416914705
 21
137.1183972674031
 31
0.0
 11
101.9404461225667
 21
137.0613813303793
 31
0.0
 11
101.869117575956
 21
136.9758576571899
 31
0.0
 11
101.819187552313
 21
136.9117149603845
 31
0.0
 11
101.7478585955489
 21
136.7834293344273
 31
0.0
 11
101.7121945273201
 21
136.6693976927261
 31
0.0
 11
101.6907960043522
 21
136.5910010116646
 31
0.0
 11
101.676530048938
 21
136.5126043306032
 31
0.0
 11
101.676530048938
 21
136.3700649527364
 31
0.0
 11
101.6907960043522
 21
136.2702872952911
 31
0.0
 11
101.7121945273201
 21
136.2203983503953
 31
0.0
 11
101.7549915732559
 21
136.1562556535898
 31
0.0
 11
101.790656051638
 21
136.113493700822
 31
0.0
 11
101.8477186428346
 21
136.0564779961445
 31
0.0
 11
101.8762501435096
 21
136.0208430355046
 31
0.0
 11
101.9689776232418
 21
135.9852083072111
 31
0.0
 11
102.0117746691776
 21
135.9701799125502
 31
0.0
  0
LINE
  5
168F
102
{ACAD_REACTORS
330
16CA
330
1699
102
}
330
18
100
AcDbEntity
  8
ROGO
 62
     4
100
AcDbLine
 10
94.14745050105205
 20
135.2314460582017
 30
0.0
 11
108.0366277680758
 21
135.2314460582017
 31
0.0
  0
TEXT
  5
1690
330
18
100
AcDbEntity
  8
文字
  6
Continuous
 62
     4
100
AcDbText
 10
101.3720182216182
 20
141.8580323107454
 30
0.0
 40
1.0
  1
0
  7
STYLE3
100
AcDbText
  0
LINE
  5
1691
330
18
100
AcDbEntity
  8
外形線
  6
Continuous
100
AcDbLine
 10
97.8300771559865
 20
153.0806572545581
 30
0.0
 11
105.8300771559865
 21
153.0806572545581
 31
0.0
  0
TEXT
  5
1692
330
18
100
AcDbEntity
  8
文字
100
AcDbText
 10
100.7099883087507
 20
143.2043824027142
 30
0.0
 40
2.5
  1
0
  7
STYLE3
100
AcDbText
  0
LINE
  5
1693
330
18
100
AcDbEntity
  8
目盛
100
AcDbLine
 10
86.08549371962681
 20
142.8469356852508
 30
0.0
 11
87.45458793148419
 21
141.388998430408
 31
0.0
  0
TEXT
  5
1694
330
18
100
AcDbEntity
  8
文字
  6
Continuous
 62
     4
100
AcDbText
 10
89.76978088697183
 20
137.9138755192798
 30
0.0
 40
1.0
  1
90
  7
STYLE3
100
AcDbText
  0
TEXT
  5
1695
330
18
100
AcDbEntity
  8
文字
100
AcDbText
 10
88.86560146088573
 20
139.4536400699519
 30
0.0
 40
2.5
  1
10
  7
STYLE3
100
AcDbText
  0
HATCH
  5
1696
330
18
100
AcDbEntity
  8
ROGO
 62
     4
100
AcDbHatch
 10
0.0
 20
0.0
 30
0.0
210
0.0
220
0.0
230
1.0
  2
SOLID
 70
     1
 71
     1
 91
        1
 92
        1
 93
       12
 72
     1
 10
97.72782334733552
 20
137.2833248431076
 11
99.50390649581937
 21
137.2833248431077
 72
     1
 10
99.50390649581937
 20
137.2833248431076
 11
99.35507230008489
 21
136.9825225124156
 72
     1
 10
99.35507230008489
 20
136.9825225124156
 11
98.4216078778668
 21
136.9825225124156
 72
     1
 10
98.4216078778668
 20
136.9825225124156
 11
98.3052380317904
 21
136.7473324692314
 72
     1
 10
98.3052380317904
 20
136.7473324692314
 11
99.23870245400827
 21
136.7473324692314
 72
     1
 10
99.23870245400827
 20
136.7473324692314
 11
99.11937607838446
 21
136.5061671125502
 72
     1
 10
99.11937607838446
 20
136.5061671125502
 11
98.18591165616659
 21
136.5061671125502
 72
     1
 10
98.18591165616659
 20
136.5061671125502
 11
98.06953688355021
 21
136.2709671125502
 72
     1
 10
98.06953688355021
 20
136.2709671125502
 11
99.00300130576807
 21
136.2709671125502
 72
     1
 10
99.00300130576807
 20
136.2709671125502
 11
98.85417459655924
 21
135.9701799125502
 72
     1
 10
98.85417459655924
 20
135.9701799125502
 11
97.07809144807539
 21
135.9701799125502
 72
     1
 10
97.07809144807539
 20
135.9701799125502
 11
97.72782334733552
 21
137.2833248431076
 97
       12
330
16A7
330
16B8
330
16B6
330
16B7
330
16B5
330
16B2
330
16B3
330
16B0
330
16B4
330
16B1
330
1697
330
1698
 75
     0
 76
     1
 98
        1
 10
25.07769436862651
 20
46.48522879499637
450
        0
451
        0
460
0.0
461
0.0
452
        0
462
0.0
453
        0
470

  0
LINE
  5
1697
102
{ACAD_REACTORS
330
1696
102
}
330
18
100
AcDbEntity
  8
ROGO
 62
     4
100
AcDbLine
 10
97.07809144807539
 20
135.9701799125502
 30
0.0
 11
98.85417459655924
 21
135.9701799125502
 31
0.0
  0
LINE
  5
1698
102
{ACAD_REACTORS
330
1696
102
}
330
18
100
AcDbEntity
  8
ROGO
 62
     4
100
AcDbLine
 10
97.72782334733552
 20
137.2833248431076
 30
0.0
 11
97.07809144807539
 21
135.9701799125502
 31
0.0
  0
HATCH
  5
1699
330
18
100
AcDbEntity
  8
ROGO
 62
     4
100
AcDbHatch
 10
0.0
 20
0.0
 30
0.0
210
0.0
220
0.0
230
1.0
  2
SOLID
 70
     1
 71
     1
 91
        2
 92
        5
 93
        6
 72
     1
 10
94.14745050105208
 20
135.2314460582017
 11
95.10125145698863
 21
135.2314460582017
 72
     1
 10
95.10125145698863
 20
135.2314460582017
 11
95.435475607817
 21
135.9701799125502
 72
     1
 10
95.435475607817
 20
135.9701799125502
 11
96.32708387598917
 21
135.9701799125502
 72
     4
 94
        3
 73
     0
 74
     0
 95
       18
 96
       14
 40
0.108740278791501
 40
0.108740278791501
 40
0.108740278791501
 40
0.108740278791501
 40
0.6623149649549278
 40
1.384304701649787
 40
2.097394834876493
 40
2.774073369849618
 40
3.428974823686337
 40
4.005208313035923
 40
4.455173659284313
 40
4.720999734343524
 40
5.086034088486724
 40
5.569973738255373
 40
6.060470601257719
 40
6.060470601257719
 40
6.060470601257719
 40
6.060470601257719
 10
96.32708387598917
 20
135.9701799125502
 10
96.38983379288379
 20
135.9706471921813
 10
96.53442414993742
 20
135.9717239127899
 10
96.73670492804468
 20
136.0797867492853
 10
96.92852490113773
 20
136.217450929627
 10
97.08302284021909
 20
136.3894479604288
 10
97.17927971109521
 20
136.5860970979495
 10
97.19418959614223
 20
136.7745672335213
 10
97.18508747763145
 20
136.9236447676777
 10
97.12004826908833
 20
137.0275555099806
 10
97.05243207516355
 20
137.1330142871533
 10
96.92844683961642
 20
137.2243665969447
 10
96.82685889176594
 20
137.26439248826
 10
96.77519935412988
 20
137.2833248431077
 72
     1
 10
96.77519935412995
 20
137.2833248431077
 11
95.1627010411447
 21
137.2833248431076
 72
     1
 10
95.1627010411447
 20
137.2833248431076
 11
94.14745050105208
 21
135.2314460582017
 97
        6
330
16A0
330
16A2
330
16A1
330
168F
330
169A
330
169F
 92
       20
 93
        4
 72
     1
 10
95.64184010012718
 20
136.4263062470089
 11
95.79983789648464
 21
136.7755279318943
 72
     1
 10
95.79983789648464
 20
136.7755279318943
 11
96.20582489558209
 21
136.7755279318943
 72
     4
 94
        3
 73
     0
 74
     0
 95
       15
 96
       11
 40
0.0
 40
0.0
 40
0.0
 40
0.0
 40
0.1539705029173922
 40
0.2241725832586406
 40
0.3038566179395811
 40
0.3581410872473318
 40
0.4439925384670906
 40
0.4954152125468884
 40
0.5836396705645957
 40
0.6130478420064963
 40
0.6130478420064963
 40
0.6130478420064963
 40
0.6130478420064963
 10
96.20582489558206
 20
136.7755279318943
 10
96.26365323064119
 20
136.7757928165367
 10
96.3478481056992
 20
136.7761784740063
 10
96.39388886206397
 20
136.672029170077
 10
96.37325119983035
 20
136.6049732654394
 10
96.34730797640639
 20
136.5361277511918
 10
96.30146042486401
 20
136.4893461859223
 10
96.23992629526878
 20
136.4442876522854
 10
96.18177360221308
 20
136.438833115026
 10
96.14395180324045
 20
136.4288116215717
 10
96.1344963489712
 20
136.4263062470089
 72
     1
 10
96.1344963489712
 20
136.4263062470089
 11
95.64184010012718
 21
136.4263062470089
 97
        4
330
169E
330
169C
330
169D
330
169B
 75
     0
 76
     1
 47
0.0514683685270805
 98
        2
 10
95.17131959445169
 20
136.6451360862187
 10
95.17131959445169
 20
136.6451360862187
450
        0
451
        0
460
0.0
461
0.0
452
        0
462
0.0
453
        0
470

  0
LINE
  5
169A
102
{ACAD_REACTORS
330
1699
102
}
330
18
100
AcDbEntity
  8
ROGO
 62
     4
100
AcDbLine
 10
95.43547560781702
 20
135.9701799125502
 30
0.0
 11
95.10125145698863
 21
135.2314460582017
 31
0.0
  0
LINE
  5
169B
102
{ACAD_REACTORS
330
1699
102
}
330
18
100
AcDbEntity
  8
ROGO
 62
     4
100
AcDbLine
 10
96.1344963489712
 20
136.4263062470089
 30
0.0
 11
95.64184010012718
 21
136.4263062470089
 31
0.0
  0
LINE
  5
169C
102
{ACAD_REACTORS
330
1699
102
}
330
18
100
AcDbEntity
  8
ROGO
 62
     4
100
AcDbLine
 10
96.20582489558206
 20
136.7755279318943
 30
0.0
 11
95.79983789648464
 21
136.7755279318943
 31
0.0
  0
SPLINE
  5
169D
102
{ACAD_REACTORS
330
1699
102
}
330
18
100
AcDbEntity
  8
ROGO
 62
     4
100
AcDbSpline
210
0.0
220
0.0
230
1.0
 70
     8
 71
     3
 72
    15
 73
    11
 74
     9
 42
0.0000000001
 43
0.0000000001
 44
0.0000000001
 40
0.0
 40
0.0
 40
0.0
 40
0.0
 40
0.1539705029173922
 40
0.2241725832586406
 40
0.3038566179395811
 40
0.3581410872473318
 40
0.4439925384670906
 40
0.4954152125468884
 40
0.5836396705645957
 40
0.6130478420064963
 40
0.6130478420064963
 40
0.6130478420064963
 40
0.6130478420064963
 10
96.20582489558206
 20
136.7755279318943
 30
0.0
 10
96.26365323064119
 20
136.7757928165367
 30
0.0
 10
96.3478481056992
 20
136.7761784740063
 30
0.0
 10
96.39388886206397
 20
136.672029170077
 30
0.0
 10
96.37325119983035
 20
136.6049732654394
 30
0.0
 10
96.34730797640639
 20
136.5361277511918
 30
0.0
 10
96.30146042486401
 20
136.4893461859223
 30
0.0
 10
96.23992629526878
 20
136.4442876522854
 30
0.0
 10
96.18177360221308
 20
136.438833115026
 30
0.0
 10
96.14395180324045
 20
136.4288116215717
 30
0.0
 10
96.1344963489712
 20
136.4263062470089
 30
0.0
 11
96.20582489558206
 21
136.7755279318943
 31
0.0
 11
96.35561496651076
 21
136.7398929712544
 31
0.0
 11
96.38414646718581
 21
136.675750274449
 31
0.0
 11
96.36988092192495
 21
136.5973535933876
 31
0.0
 11
96.34848239895712
 21
136.5474646484917
 31
0.0
 11
96.29141939760712
 21
136.4833219516863
 31
0.0
 11
96.24862235167121
 21
136.4548139831744
 31
0.0
 11
96.16302784964615
 21
136.4334332391369
 31
0.0
 11
96.1344963489712
 21
136.4263062470089
 31
0.0
  0
LINE
  5
169E
102
{ACAD_REACTORS
330
1699
102
}
330
18
100
AcDbEntity
  8
ROGO
 62
     4
100
AcDbLine
 10
95.79983789648464
 20
136.7755279318943
 30
0.0
 11
95.64184010012718
 21
136.4263062470089
 31
0.0
  0
LINE
  5
169F
102
{ACAD_REACTORS
330
1699
102
}
330
18
100
AcDbEntity
  8
ROGO
 62
     4
100
AcDbLine
 10
96.32708387629827
 20
135.9701799125502
 30
0.0
 11
95.43547560781702
 21
135.9701799125502
 31
0.0
  0
SPLINE
  5
16A0
102
{ACAD_REACTORS
330
1699
102
}
330
18
100
AcDbEntity
  8
ROGO
 62
     4
100
AcDbSpline
210
0.0
220
0.0
230
1.0
 70
     8
 71
     3
 72
    18
 73
    14
 74
     0
 42
0.0000000001
 43
0.0000000001
 40
0.1087402787915014
 40
0.1087402787915014
 40
0.1087402787915014
 40
0.1087402787915014
 40
0.5992371417938475
 40
1.083176791562496
 40
1.448211145705696
 40
1.714037220764907
 40
2.164002567013297
 40
2.740236056362883
 40
3.395137510199602
 40
4.071816045172726
 40
4.784906178399433
 40
5.506895915094292
 40
6.060470601257719
 40
6.060470601257719
 40
6.060470601257719
 40
6.060470601257719
 10
96.77519935412988
 20
137.2833248431077
 30
0.0
 10
96.82685889176594
 20
137.26439248826
 30
0.0
 10
96.92844683961642
 20
137.2243665969447
 30
0.0
 10
97.05243207516355
 20
137.1330142871533
 30
0.0
 10
97.12004826908833
 20
137.0275555099806
 30
0.0
 10
97.18508747763145
 20
136.9236447676777
 30
0.0
 10
97.19418959614223
 20
136.7745672335213
 30
0.0
 10
97.17927971109521
 20
136.5860970979495
 30
0.0
 10
97.08302284021909
 20
136.3894479604288
 30
0.0
 10
96.92852490113773
 20
136.217450929627
 30
0.0
 10
96.73670492804468
 20
136.0797867492853
 30
0.0
 10
96.53442414993742
 20
135.9717239127899
 30
0.0
 10
96.38983379288379
 20
135.9706471921813
 30
0.0
 10
96.32708387598917
 20
135.9701799125502
 30
0.0
  0
LINE
  5
16A1
102
{ACAD_REACTORS
330
1699
102
}
330
18
100
AcDbEntity
  8
ROGO
 62
     4
100
AcDbLine
 10
95.16270104114472
 20
137.2833248431076
 30
0.0
 11
94.14745050105205
 21
135.2314460582016
 31
0.0
  0
LINE
  5
16A2
102
{ACAD_REACTORS
330
1699
102
}
330
18
100
AcDbEntity
  8
ROGO
 62
     4
100
AcDbLine
 10
95.16270104114472
 20
137.2833248431076
 30
0.0
 11
96.77519935412988
 21
137.2833248431076
 31
0.0
  0
HATCH
  5
16A3
330
18
100
AcDbEntity
  8
ROGO
 62
     4
100
AcDbHatch
 10
0.0
 20
0.0
 30
0.0
210
0.0
220
0.0
230
1.0
  2
SOLID
 70
     1
 71
     1
 91
        2
 92
        7
 72
     0
 73
     1
 93
        8
 10
101.0688042437884
 20
137.2833248431077
 10
100.0184007610171
 20
137.2833248431076
 10
99.07146643091802
 20
135.9701799125502
 10
99.79871368260951
 20
135.9701799125502
 10
99.97900412019044
 20
136.220194582641
 10
100.8088811089748
 20
136.220194582641
 10
100.9199475320437
 20
135.9701799125502
 10
101.6521552541718
 20
135.9701799125502
 97
        8
330
16A9
330
16AF
330
16AA
330
16AB
330
16AD
330
16A4
330
16A8
330
16A6
 92
       22
 72
     0
 73
     1
 93
        3
 10
100.6917360033742
 20
136.4838925943371
 10
100.1691618813355
 20
136.4838925943371
 10
100.4925286176487
 20
136.9323158661559
 97
        3
330
16AC
330
16AE
330
16A5
 75
     0
 76
     1
 47
0.0128389261915577
 98
        2
 10
100.9865493512927
 20
136.9682829262986
 10
100.9865493512927
 20
136.9682829262986
450
        0
451
        0
460
0.0
461
0.0
452
        0
462
0.0
453
        0
470

  0
LINE
  5
16A4
102
{ACAD_REACTORS
330
16A3
102
}
330
18
100
AcDbEntity
  8
ROGO
 62
     4
100
AcDbLine
 10
100.8088811089748
 20
136.220194582641
 30
0.0
 11
100.9199475320437
 21
135.9701799125502
 31
0.0
  0
LINE
  5
16A5
102
{ACAD_REACTORS
330
16A3
102
}
330
18
100
AcDbEntity
  8
ROGO
 62
     4
100
AcDbLine
 10
100.4925286176487
 20
136.9323158661559
 30
0.0
 11
100.6917360033742
 21
136.483892594337
 31
0.0
  0
LINE
  5
16A6
102
{ACAD_REACTORS
330
16A3
102
}
330
18
100
AcDbEntity
  8
ROGO
 62
     4
100
AcDbLine
 10
101.0688042437884
 20
137.2833248431076
 30
0.0
 11
101.6521552541718
 21
135.9701799125502
 31
0.0
  0
LINE
  5
16A7
102
{ACAD_REACTORS
330
1696
102
}
330
18
100
AcDbEntity
  8
ROGO
 62
     4
100
AcDbLine
 10
97.72782334733552
 20
137.2833248431076
 30
0.0
 11
99.50390649581937
 21
137.2833248431077
 31
0.0
  0
LINE
  5
16A8
102
{ACAD_REACTORS
330
16A3
102
}
330
18
100
AcDbEntity
  8
ROGO
 62
     4
100
AcDbLine
 10
101.6521552541718
 20
135.9701799125502
 30
0.0
 11
100.9199475320437
 21
135.9701799125502
 31
0.0
  0
LINE
  5
16A9
102
{ACAD_REACTORS
330
16A3
102
}
330
18
100
AcDbEntity
  8
ROGO
 62
     4
100
AcDbLine
 10
100.0184007610171
 20
137.2833248431076
 30
0.0
 11
101.0688042437884
 21
137.2833248431077
 31
0.0
  0
LINE
  5
16AA
102
{ACAD_REACTORS
330
16A3
102
}
330
18
100
AcDbEntity
  8
ROGO
 62
     4
100
AcDbLine
 10
99.07146643091801
 20
135.9701799125502
 30
0.0
 11
99.79871368260956
 21
135.9701799125502
 31
0.0
  0
LINE
  5
16AB
102
{ACAD_REACTORS
330
16A3
102
}
330
18
100
AcDbEntity
  8
ROGO
 62
     4
100
AcDbLine
 10
99.97900412019044
 20
136.220194582641
 30
0.0
 11
99.79871368260956
 21
135.9701799125502
 31
0.0
  0
LINE
  5
16AC
102
{ACAD_REACTORS
330
16A3
102
}
330
18
100
AcDbEntity
  8
ROGO
 62
     4
100
AcDbLine
 10
100.1691618813355
 20
136.4838925943371
 30
0.0
 11
100.6917360033742
 21
136.4838925943371
 31
0.0
  0
LINE
  5
16AD
102
{ACAD_REACTORS
330
16A3
102
}
330
18
100
AcDbEntity
  8
ROGO
 62
     4
100
AcDbLine
 10
99.97900412019044
 20
136.220194582641
 30
0.0
 11
100.8088811089748
 21
136.220194582641
 31
0.0
  0
LINE
  5
16AE
102
{ACAD_REACTORS
330
16A3
102
}
330
18
100
AcDbEntity
  8
ROGO
 62
     4
100
AcDbLine
 10
100.4925286176487
 20
136.9323158661559
 30
0.0
 11
100.1691618813355
 21
136.483892594337
 31
0.0
  0
LINE
  5
16AF
102
{ACAD_REACTORS
330
16A3
102
}
330
18
100
AcDbEntity
  8
ROGO
 62
     4
100
AcDbLine
 10
100.0184007610171
 20
137.2833248431076
 30
0.0
 11
99.07146643091801
 21
135.9701799125502
 31
0.0
  0
LINE
  5
16B0
102
{ACAD_REACTORS
330
1696
102
}
330
18
100
AcDbEntity
  8
ROGO
 62
     4
100
AcDbLine
 10
98.18591165616659
 20
136.5061671125502
 30
0.0
 11
98.06953688355021
 21
136.2709671125502
 31
0.0
  0
LINE
  5
16B1
102
{ACAD_REACTORS
330
1696
102
}
330
18
100
AcDbEntity
  8
ROGO
 62
     4
100
AcDbLine
 10
99.00300130576807
 20
136.2709671125502
 30
0.0
 11
98.85417459655924
 21
135.9701799125502
 31
0.0
  0
LINE
  5
16B2
102
{ACAD_REACTORS
330
1696
102
}
330
18
100
AcDbEntity
  8
ROGO
 62
     4
100
AcDbLine
 10
99.23870245400827
 20
136.7473324692314
 30
0.0
 11
99.11937607838446
 21
136.5061671125502
 31
0.0
  0
LINE
  5
16B3
102
{ACAD_REACTORS
330
1696
102
}
330
18
100
AcDbEntity
  8
ROGO
 62
     4
100
AcDbLine
 10
98.18591165616659
 20
136.5061671125502
 30
0.0
 11
99.11937607838446
 21
136.5061671125502
 31
0.0
  0
LINE
  5
16B4
102
{ACAD_REACTORS
330
1696
102
}
330
18
100
AcDbEntity
  8
ROGO
 62
     4
100
AcDbLine
 10
98.06953688355021
 20
136.2709671125502
 30
0.0
 11
99.00300130576807
 21
136.2709671125502
 31
0.0
  0
LINE
  5
16B5
102
{ACAD_REACTORS
330
1696
102
}
330
18
100
AcDbEntity
  8
ROGO
 62
     4
100
AcDbLine
 10
98.3052380317904
 20
136.7473324692314
 30
0.0
 11
99.23870245400827
 21
136.7473324692314
 31
0.0
  0
LINE
  5
16B6
102
{ACAD_REACTORS
330
1696
102
}
330
18
100
AcDbEntity
  8
ROGO
 62
     4
100
AcDbLine
 10
98.4216078778668
 20
136.9825225124156
 30
0.0
 11
99.35507230008489
 21
136.9825225124156
 31
0.0
  0
LINE
  5
16B7
102
{ACAD_REACTORS
330
1696
102
}
330
18
100
AcDbEntity
  8
ROGO
 62
     4
100
AcDbLine
 10
98.4216078778668
 20
136.9825225124156
 30
0.0
 11
98.3052380317904
 21
136.7473324692314
 31
0.0
  0
LINE
  5
16B8
102
{ACAD_REACTORS
330
1696
102
}
330
18
100
AcDbEntity
  8
ROGO
 62
     4
100
AcDbLine
 10
99.50390649581937
 20
137.2833248431076
 30
0.0
 11
99.35507230008489
 21
136.9825225124156
 31
0.0
  0
LINE
  5
16B9
330
18
100
AcDbEntity
  8
目盛
100
AcDbLine
 10
93.36321244423903
 20
147.4655164299881
 30
0.0
 11
94.09946154960834
 21
145.6059634582116
 31
0.0
  0
LINE
  5
16BA
330
18
100
AcDbEntity
  8
目盛
100
AcDbLine
 10
88.31101635325968
 20
144.6880481251821
 30
0.0
 11
90.07437211013712
 21
142.2609971420573
 31
0.0
  0
LINE
  5
16BB
330
18
100
AcDbEntity
  8
針
100
AcDbLine
 10
88.89880160555208
 20
143.8790311308073
 30
0.0
 11
88.97161313504581
 21
143.9319318035135
 31
0.0
  0
LINE
  5
16BC
330
18
100
AcDbEntity
  8
針
100
AcDbLine
 10
88.89880160555208
 20
143.8790311308072
 30
0.0
 11
88.82599007605836
 21
143.8261304581009
 31
0.0
  0
LINE
  5
16BD
330
18
100
AcDbEntity
  8
目盛
100
AcDbLine
 10
87.16932539176672
 20
143.8024618384015
 30
0.0
 11
88.44417337126401
 21
142.2614353528499
 31
0.0
  0
LINE
  5
16BE
330
18
100
AcDbEntity
  8
目盛
100
AcDbLine
 10
89.50606087146956
 20
145.5001995411046
 30
0.0
 11
90.5777144614276
 21
143.8115436901006
 31
0.0
  0
LINE
  5
16BF
330
18
100
AcDbEntity
  8
目盛
100
AcDbLine
 10
90.74974265164701
 20
146.2357108955672
 30
0.0
 11
91.7132499998504
 21
144.4830975354795
 31
0.0
  0
LINE
  5
16C0
330
18
100
AcDbEntity
  8
目盛
100
AcDbLine
 10
92.03715344998977
 20
146.8916794612767
 30
0.0
 11
92.88871203311988
 21
145.0820253563447
 31
0.0
  0
LINE
  5
16C1
330
18
100
AcDbEntity
  8
目盛
100
AcDbLine
 10
94.72268628536268
 20
147.9549571293469
 30
0.0
 11
95.64973726848757
 21
145.1017875804614
 31
0.0
  0
LINE
  5
16C2
330
18
100
AcDbEntity
  8
目盛
100
AcDbLine
 10
96.11020975119481
 20
148.3580699605168
 30
0.0
 11
96.60758952552464
 21
146.4209036382595
 31
0.0
  0
LINE
  5
16C3
330
18
100
AcDbEntity
  8
目盛
100
AcDbLine
 10
97.52030692051494
 20
148.6732640213181
 30
0.0
 11
97.89506954968624
 21
146.7086895198608
 31
0.0
  0
LINE
  5
16C4
330
18
100
AcDbEntity
  8
目盛
100
AcDbLine
 10
98.94741278400761
 20
148.8992953847913
 30
0.0
 11
99.19807925113605
 21
146.9150659821623
 31
0.0
  0
LINE
  5
16C5
330
18
100
AcDbEntity
  8
目盛
100
AcDbLine
 10
100.3858952068124
 20
149.0352720084086
 30
0.0
 11
100.5114762458709
 21
147.039218551552
 31
0.0
  0
LINE
  5
16C6
330
18
100
AcDbEntity
  8
寸法線
  6
Continuous
100
AcDbLine
 10
97.88162280230563
 20
153.0806572545581
 30
0.0
 11
97.8300771559866
 21
153.132202900877
 31
0.0
  0
LINE
  5
16C7
330
18
100
AcDbEntity
  8
外形線
  6
Continuous
100
AcDbLine
 10
98.13007715598656
 20
153.0806572545581
 30
0.0
 11
98.13007715598656
 21
152.2200910663301
 31
0.0
  0
TEXT
  5
16C8
330
18
100
AcDbEntity
  8
文字
100
AcDbText
 10
110.3335737759089
 20
139.5647822034029
 30
0.0
 40
2.5
  1
90
  7
STYLE3
100
AcDbText
  0
LINE
  5
16C9
330
18
100
AcDbEntity
  8
目盛
100
AcDbLine
 10
117.5746605923464
 20
142.8469356852507
 30
0.0
 11
116.205566380489
 21
141.3889984304079
 31
0.0
  0
HATCH
  5
16CA
330
18
100
AcDbEntity
  8
ROGO
 62
     4
100
AcDbHatch
 10
0.0
 20
0.0
 30
0.0
210
0.0
220
0.0
230
1.0
  2
SOLID
 70
     1
 71
     1
 91
        1
 92
        7
 72
     0
 73
     1
 93
       11
 10
107.2805440255715
 20
135.2314460582017
 10
108.0366277680758
 20
135.2314460582017
 10
108.3036770572414
 20
135.7670096203212
 10
108.5707263464071
 20
135.2314460582017
 10
109.3267935464071
 20
135.2314460582017
 10
108.8152270305722
 20
136.2573854506547
 10
110.0581357759035
 20
137.2833248431077
 10
109.3020685759035
 20
137.2833248431076
 10
108.9480554928246
 20
137.059301434286
 10
109.0597607997456
 20
137.2833248431076
 10
108.3036770572414
 20
137.2833248431076
 97
       11
330
16CB
330
16E1
330
16E2
330
16E4
330
16E3
330
168F
330
16DE
330
16E0
330
16DD
330
16DF
330
16CC
 75
     0
 76
     1
 47
0.0514683685270805
 98
        1
 10
108.2386058108376
 20
136.4030288596661
450
        0
451
        0
460
0.0
461
0.0
452
        0
462
0.0
453
        0
470

  0
LINE
  5
16CB
102
{ACAD_REACTORS
330
16CA
102
}
330
18
100
AcDbEntity
  8
ROGO
 62
     4
100
AcDbLine
 10
109.3020685759035
 20
137.2833248431076
 30
0.0
 11
110.0581357759035
 21
137.2833248431076
 31
0.0
  0
LINE
  5
16CC
102
{ACAD_REACTORS
330
16CA
102
}
330
18
100
AcDbEntity
  8
ROGO
 62
     4
100
AcDbLine
 10
108.8152270305722
 20
136.2573854506547
 30
0.0
 11
110.0581357759035
 21
137.2833248431076
 31
0.0
  0
HATCH
  5
16CD
330
18
100
AcDbEntity
  8
ROGO
 62
     4
100
AcDbHatch
 10
0.0
 20
0.0
 30
0.0
210
0.0
220
0.0
230
1.0
  2
SOLID
 70
     1
 71
     1
 91
        2
 92
        5
 93
        6
 72
     4
 94
        3
 73
     0
 74
     0
 95
       38
 96
       34
 40
0.0
 40
0.0
 40
0.0
 40
0.0
 40
0.1807680148264315
 40
0.2375392910068956
 40
0.3104865209606666
 40
0.3712759982447967
 40
0.4225667543873086
 40
0.4906925837206108
 40
0.5255021974951917
 40
0.5647069597052341
 40
0.6224874016818802
 40
0.6879401044675095
 40
0.7303986317550742
 40
0.7765228362185411
 40
0.8277951442290131
 40
0.9056034697002088
 40
0.9795294930264065
 40
1.013897332332966
 40
1.053089255535997
 40
1.099518741889617
 40
1.132570569820712
 40
1.160277520290289
 40
1.199836786293819
 40
1.243305643169098
 40
1.286774258016923
 40
1.324809356515634
 40
1.411916492917604
 40
1.446284332224164
 40
1.515020051661159
 40
1.575779369908333
 40
1.692098529536163
 40
1.835624328519076
 40
2.042896467983821
 40
2.042896467983821
 40
2.042896467983821
 40
2.042896467983821
 10
104.5268054772342
 20
137.28880206228
 10
104.4665500796085
 20
137.2845454431791
 10
104.3873711139874
 20
137.2789520073919
 10
104.2868323414778
 20
137.251407381187
 10
104.2320275870368
 20
137.2185928617291
 10
104.1749922857196
 20
137.1944726170286
 10
104.1263643793346
 20
137.1587553177794
 10
104.0771782786388
 20
137.1403505375858
 10
104.0427366652629
 20
137.1071634292134
 10
104.00287330713
 20
137.0868913110383
 10
103.9711294072947
 20
137.0415164170239
 10
103.9356487307629
 20
136.9990925353655
 10
103.8944866823559
 20
136.9681249937879
 10
103.8607044367964
 20
136.9356000148257
 10
103.8297139238721
 20
136.8854041996417
 10
103.811372351301
 20
136.8187088249562
 10
103.7596705368916
 20
136.7765997706711
 10
103.7518858624086
 20
136.7259721229948
 10
103.7232880122129
 20
136.6961026628042
 10
103.710852666757
 20
136.6575454808191
 10
103.7061166886331
 20
136.6222202914985
 10
103.7004323855906
 20
136.5892290100701
 10
103.6855633253582
 20
136.5545236393323
 10
103.6904166379196
 20
136.5116533603973
 10
103.6890340748775
 20
136.4701406463708
 10
103.6898477148507
 20
136.4140971897594
 10
103.6869111755047
 20
136.35953199284
 10
103.7103289260196
 20
136.3001521166714
 10
103.7241867736226
 20
136.247223172005
 10
103.7621387435661
 20
136.1739366297534
 10
103.8276050963841
 20
136.0893798060446
 10
103.9520948424016
 20
135.9867438427518
 10
104.0717953729609
 20
135.9763319020345
 10
104.1425215156911
 20
135.9701799125502
 72
     1
 10
104.1425215156911
 20
135.9701799125502
 11
104.8929753388761
 21
135.9701799125502
 72
     4
 94
        3
 73
     0
 74
     0
 95
       11
 96
        7
 40
0.1647869275458135
 40
0.1647869275458135
 40
0.1647869275458135
 40
0.1647869275458135
 40
0.2545010798212315
 40
0.5111620267764023
 40
0.7602998271033902
 40
0.8850764140209603
 40
0.8850764140209603
 40
0.8850764140209603
 40
0.8850764140209603
 10
104.8929753388764
 20
135.9701799125502
 10
104.9034472391963
 20
135.9699780969072
 10
104.9438779340249
 20
135.9691989120004
 10
105.0129744761213
 20
135.979125442585
 10
105.0856732432594
 20
135.9886378369584
 10
105.1290142546936
 20
135.9955654267423
 10
105.1429927974944
 20
135.9994563594588
 72
     4
 94
        3
 73
     0
 74
     0
 95
        9
 96
        5
 40
0.0
 40
0.0
 40
0.0
 40
0.0
 40
0.1135793343552172
 40
0.2662938392177403
 40
0.2662938392177403
 40
0.2662938392177403
 40
0.2662938392177403
 10
105.1429927974944
 20
135.9994563594588
 10
105.1794777658124
 20
136.010618699182
 10
105.2650190514899
 20
136.0367895014359
 10
105.3356957487267
 20
136.0921018192104
 10
105.3762275043825
 20
136.1238223924183
 72
     4
 94
        3
 73
     0
 74
     0
 95
       25
 96
       21
 40
0.0
 40
0.0
 40
0.0
 40
0.0
 40
0.165525918914855
 40
0.3412380755365305
 40
0.5940540902285263
 40
0.7697671103696209
 40
0.9377330196075423
 40
1.11479469302833
 40
1.274661249598185
 40
1.574522170874768
 40
1.815540668866877
 40
2.15849091873445
 40
2.536227739636605
 40
2.738070817316548
 40
2.925680654369045
 40
3.162706124480894
 40
3.395643218188267
 40
3.648478129958861
 40
3.928509979727306
 40
4.337226830236035
 40
4.337226830236035
 40
4.337226830236035
 40
4.337226830236035
 10
105.3762275043825
 20
136.1238223924183
 10
105.3911201617762
 20
136.136129136364
 10
105.4193674610801
 20
136.1653992595857
 10
105.4694686977199
 20
136.2128396079243
 10
105.5136188575266
 20
136.2681113783783
 10
105.5680812582437
 20
136.3129072112517
 10
105.5964342137827
 20
136.3676734375992
 10
105.6373027610868
 20
136.4107459080983
 10
105.6715847800042
 20
136.4772670900889
 10
105.7006713787042
 20
136.553678855233
 10
105.7284014342017
 20
136.6532801389365
 10
105.7390278775383
 20
136.765645191982
 10
105.7232994198912
 20
136.8743583244131
 10
105.6853034422163
 20
136.9556178199499
 10
105.6573692814472
 20
137.023339234616
 10
105.6149756928048
 20
137.0874833382932
 10
105.5666103379442
 20
137.1572471446274
 10
105.4984721171847
 20
137.2149531069423
 10
105.4094224585636
 20
137.2845557963179
 10
105.3264793508451
 20
137.2872206728239
 10
105.2772593004196
 20
137.28880206228
 72
     1
 10
105.2772593004196
 20
137.28880206228
 11
104.5268054772342
 21
137.28880206228
 97
        6
330
16D3
330
16D2
330
16D4
330
16D1
330
16D0
330
16CF
 92
       20
 93
        1
 72
     3
 10
104.699263871865
 20
136.611106070061
 11
0.1782847090673273
 21
0.1567790921840611
 40
0.6788083417438792
 50
0.0
 51
360.0
 73
     1
 97
        1
330
16CE
 75
     0
 76
     1
 47
0.088756267210375
 98
        2
 10
104.7516951476336
 20
136.924593340385
 10
104.7516951476336
 20
136.924593340385
450
        0
451
        0
460
0.0
461
0.0
452
        0
462
0.0
453
        0
470

  0
ELLIPSE
  5
16CE
102
{ACAD_REACTORS
330
16CD
102
}
330
18
100
AcDbEntity
  8
ROGO
 62
     4
100
AcDbEllipse
 10
104.699263871865
 20
136.611106070061
 30
0.0
 11
0.1782847090673272
 21
0.1567790921840611
 31
0.0
210
0.0
220
0.0
230
1.0
 40
0.6788083417438792
 41
0.0
 42
6.283185307179586
  0
SPLINE
  5
16CF
102
{ACAD_REACTORS
330
16CD
102
}
330
18
100
AcDbEntity
  8
ROGO
 62
     4
100
AcDbSpline
210
0.0
220
0.0
230
1.0
 70
     8
 71
     3
 72
     9
 73
     5
 74
     3
 42
0.0000000001
 43
0.0000000001
 44
0.0000000001
 40
0.0
 40
0.0
 40
0.0
 40
0.0
 40
0.1135793343552172
 40
0.2662938392177403
 40
0.2662938392177403
 40
0.2662938392177403
 40
0.2662938392177403
 10
105.1429927974944
 20
135.9994563594588
 30
0.0
 10
105.1794777658124
 20
136.010618699182
 30
0.0
 10
105.2650190514899
 20
136.0367895014359
 30
0.0
 10
105.3356957487267
 20
136.0921018192104
 30
0.0
 10
105.3762275043825
 20
136.1238223924183
 30
0.0
 11
105.1429927974944
 21
135.9994563594588
 31
0.0
 11
105.2497435617191
 21
136.0382447537285
 31
0.0
 11
105.3762275043825
 21
136.1238223924183
 31
0.0
  0
SPLINE
  5
16D0
102
{ACAD_REACTORS
330
16CD
102
}
330
18
100
AcDbEntity
  8
ROGO
 62
     4
100
AcDbSpline
210
0.0
220
0.0
230
1.0
 70
     8
 71
     3
 72
    11
 73
     7
 74
     0
 42
0.0000000001
 43
0.0000000001
 40
0.1647869275458134
 40
0.1647869275458134
 40
0.1647869275458134
 40
0.1647869275458134
 40
0.2895635144633836
 40
0.5387013147903714
 40
0.7953622617455423
 40
0.8850764140209602
 40
0.8850764140209602
 40
0.8850764140209602
 40
0.8850764140209602
 10
105.1429927974944
 20
135.9994563594588
 30
0.0
 10
105.1290142546936
 20
135.9955654267423
 30
0.0
 10
105.0856732432594
 20
135.9886378369584
 30
0.0
 10
105.0129744761213
 20
135.979125442585
 30
0.0
 10
104.9438779340249
 20
135.9691989120004
 30
0.0
 10
104.9034472391963
 20
135.9699780969072
 30
0.0
 10
104.8929753388764
 20
135.9701799125502
 30
0.0
  0
LINE
  5
16D1
102
{ACAD_REACTORS
330
16CD
102
}
330
18
100
AcDbEntity
  8
ROGO
 62
     4
100
AcDbLine
 10
104.1425215156911
 20
135.9701799125502
 30
0.0
 11
104.8929753388764
 21
135.9701799125502
 31
0.0
  0
LINE
  5
16D2
102
{ACAD_REACTORS
330
16CD
102
}
330
18
100
AcDbEntity
  8
ROGO
 62
     4
100
AcDbLine
 10
104.5268054772342
 20
137.28880206228
 30
0.0
 11
105.2772593004196
 21
137.28880206228
 31
0.0
  0
SPLINE
  5
16D3
102
{ACAD_REACTORS
330
16CD
102
}
330
18
100
AcDbEntity
  8
ROGO
 62
     4
100
AcDbSpline
210
0.0
220
0.0
230
1.0
 70
     8
 71
     3
 72
    25
 73
    21
 74
     0
 42
0.0000000001
 43
0.0000000001
 40
0.0
 40
0.0
 40
0.0
 40
0.0
 40
0.4087168505087288
 40
0.6887487002771746
 40
0.9415836120477687
 40
1.17452070575514
 40
1.41154617586699
 40
1.599156012919487
 40
1.80099909059943
 40
2.178735911501585
 40
2.521686161369157
 40
2.762704659361267
 40
3.06256558063785
 40
3.222432137207705
 40
3.399493810628493
 40
3.567459719866414
 40
3.743172740007509
 40
3.995988754699505
 40
4.17170091132118
 40
4.337226830236035
 40
4.337226830236035
 40
4.337226830236035
 40
4.337226830236035
 10
105.2772593004196
 20
137.28880206228
 30
0.0
 10
105.3264793508451
 20
137.2872206728239
 30
0.0
 10
105.4094224585636
 20
137.2845557963179
 30
0.0
 10
105.4984721171847
 20
137.2149531069423
 30
0.0
 10
105.5666103379442
 20
137.1572471446274
 30
0.0
 10
105.6149756928048
 20
137.0874833382932
 30
0.0
 10
105.6573692814472
 20
137.023339234616
 30
0.0
 10
105.6853034422163
 20
136.9556178199499
 30
0.0
 10
105.7232994198912
 20
136.8743583244131
 30
0.0
 10
105.7390278775383
 20
136.765645191982
 30
0.0
 10
105.7284014342017
 20
136.6532801389365
 30
0.0
 10
105.7006713787042
 20
136.553678855233
 30
0.0
 10
105.6715847800042
 20
136.4772670900889
 30
0.0
 10
105.6373027610868
 20
136.4107459080983
 30
0.0
 10
105.5964342137827
 20
136.3676734375992
 30
0.0
 10
105.5680812582437
 20
136.3129072112517
 30
0.0
 10
105.5136188575266
 20
136.2681113783783
 30
0.0
 10
105.4694686977199
 20
136.2128396079243
 30
0.0
 10
105.4193674610801
 20
136.1653992595857
 30
0.0
 10
105.3911201617762
 20
136.136129136364
 30
0.0
 10
105.3762275043825
 20
136.1238223924183
 30
0.0
  0
SPLINE
  5
16D4
102
{ACAD_REACTORS
330
16CD
102
}
330
18
100
AcDbEntity
  8
ROGO
 62
     4
100
AcDbSpline
210
0.0
220
0.0
230
1.0
 70
     8
 71
     3
 72
    38
 73
    34
 74
    32
 42
0.0000000001
 43
0.0000000001
 44
0.0000000001
 40
0.0
 40
0.0
 40
0.0
 40
0.0
 40
0.1807680148264315
 40
0.2375392910068956
 40
0.3104865209606666
 40
0.3712759982447967
 40
0.4225667543873086
 40
0.4906925837206108
 40
0.5255021974951917
 40
0.5647069597052341
 40
0.6224874016818802
 40
0.6879401044675095
 40
0.7303986317550742
 40
0.7765228362185411
 40
0.8277951442290131
 40
0.9056034697002088
 40
0.9795294930264065
 40
1.013897332332966
 40
1.053089255535997
 40
1.099518741889617
 40
1.132570569820712
 40
1.160277520290289
 40
1.199836786293819
 40
1.243305643169098
 40
1.286774258016923
 40
1.324809356515634
 40
1.411916492917604
 40
1.446284332224164
 40
1.515020051661159
 40
1.575779369908333
 40
1.692098529536163
 40
1.835624328519076
 40
2.042896467983821
 40
2.042896467983821
 40
2.042896467983821
 40
2.042896467983821
 10
104.5268054772342
 20
137.28880206228
 30
0.0
 10
104.4665500796085
 20
137.2845454431791
 30
0.0
 10
104.3873711139874
 20
137.2789520073919
 30
0.0
 10
104.2868323414778
 20
137.251407381187
 30
0.0
 10
104.2320275870368
 20
137.2185928617291
 30
0.0
 10
104.1749922857196
 20
137.1944726170286
 30
0.0
 10
104.1263643793346
 20
137.1587553177794
 30
0.0
 10
104.0771782786388
 20
137.1403505375858
 30
0.0
 10
104.0427366652629
 20
137.1071634292134
 30
0.0
 10
104.00287330713
 20
137.0868913110383
 30
0.0
 10
103.9711294072947
 20
137.0415164170239
 30
0.0
 10
103.9356487307629
 20
136.9990925353655
 30
0.0
 10
103.8944866823559
 20
136.9681249937879
 30
0.0
 10
103.8607044367964
 20
136.9356000148257
 30
0.0
 10
103.8297139238721
 20
136.8854041996417
 30
0.0
 10
103.811372351301
 20
136.8187088249562
 30
0.0
 10
103.7596705368916
 20
136.7765997706711
 30
0.0
 10
103.7518858624086
 20
136.7259721229948
 30
0.0
 10
103.7232880122129
 20
136.6961026628042
 30
0.0
 10
103.710852666757
 20
136.6575454808191
 30
0.0
 10
103.7061166886331
 20
136.6222202914985
 30
0.0
 10
103.7004323855906
 20
136.5892290100701
 30
0.0
 10
103.6855633253582
 20
136.5545236393323
 30
0.0
 10
103.6904166379196
 20
136.5116533603973
 30
0.0
 10
103.6890340748775
 20
136.4701406463708
 30
0.0
 10
103.6898477148507
 20
136.4140971897594
 30
0.0
 10
103.6869111755047
 20
136.35953199284
 30
0.0
 10
103.7103289260196
 20
136.3001521166714
 30
0.0
 10
103.7241867736226
 20
136.247223172005
 30
0.0
 10
103.7621387435661
 20
136.1739366297534
 30
0.0
 10
103.8276050963841
 20
136.0893798060446
 30
0.0
 10
103.9520948424016
 20
135.9867438427518
 30
0.0
 10
104.0717953729609
 20
135.9763319020345
 30
0.0
 10
104.1425215156911
 20
135.9701799125502
 30
0.0
 11
104.5268054772342
 21
137.28880206228
 31
0.0
 11
104.3473488402869
 21
137.2670675128286
 31
0.0
 11
104.2929680541588
 21
137.2507669637813
 31
0.0
 11
104.2277113671507
 21
137.2181653816316
 31
0.0
 11
104.1733305810226
 21
137.1909975578586
 31
0.0
 11
104.1298261230173
 21
137.1638294920581
 31
0.0
 11
104.0700073864493
 21
137.131228151936
 31
0.0
 11
104.0428167797636
 21
137.1094938445121
 31
0.0
 11
104.0101882226381
 21
137.0877592950606
 31
0.0
 11
103.9721217150727
 21
137.0442906802128
 31
0.0
 11
103.9286172570673
 21
136.9953885490159
 31
0.0
 11
103.8959886999418
 21
136.9682204832154
 31
0.0
 11
103.8633605700594
 21
136.9356191430933
 31
0.0
 11
103.8361699633737
 21
136.8921505282454
 31
0.0
 11
103.8035418334914
 21
136.8215138475971
 31
0.0
 11
103.7600369482429
 21
136.7617444416745
 31
0.0
 11
103.7491610473632
 21
136.7291428595249
 31
0.0
 11
103.7274088183606
 21
136.6965415194026
 31
0.0
 11
103.7110945397978
 21
136.6530726625274
 31
0.0
 11
103.7056561621148
 21
136.6204713224052
 31
0.0
 11
103.7002182116748
 21
136.5933032566048
 31
0.0
 11
103.6893423107951
 21
136.5552684001335
 31
0.0
 11
103.6893423107951
 21
136.5117995432582
 31
0.0
 11
103.6893423107951
 21
136.4683309284104
 31
0.0
 11
103.6893423107951
 21
136.4302958299117
 31
0.0
 11
103.6947802612351
 21
136.343358600216
 31
0.0
 11
103.7056561621148
 21
136.3107570180664
 31
0.0
 11
103.7274088183606
 21
136.2455540957946
 31
0.0
 11
103.7545989978031
 21
136.1912182062211
 31
0.0
 11
103.825294062494
 21
136.0988474601763
 31
0.0
 11
103.9394935851903
 21
136.0119099884532
 31
0.0
 11
104.1425215156911
 21
135.9701799125502
 31
0.0
  0
LINE
  5
16D5
102
{ACAD_REACTORS
330
168C
102
}
330
18
100
AcDbEntity
  8
ROGO
 62
     4
100
AcDbLine
 10
102.4825438150856
 20
137.2833248431077
 30
0.0
 11
103.7975801571915
 21
137.2833248431077
 31
0.0
  0
LINE
  5
16D6
102
{ACAD_REACTORS
330
168C
102
}
330
18
100
AcDbEntity
  8
ROGO
 62
     4
100
AcDbLine
 10
103.386420404861
 20
136.4587497908908
 30
0.0
 11
103.1428036841822
 21
135.9701799125502
 31
0.0
  0
SPLINE
  5
16D7
102
{ACAD_REACTORS
330
168C
102
}
330
18
100
AcDbEntity
  8
ROGO
 62
     4
100
AcDbSpline
210
0.0
220
0.0
230
1.0
 70
     8
 71
     3
 72
    16
 73
    12
 74
    10
 42
0.0000000001
 43
0.0000000001
 44
0.0000000001
 40
0.0
 40
0.0
 40
0.0
 40
0.0
 40
0.1255907025629711
 40
0.1869327038470372
 40
0.2171823804790188
 40
0.2490606136884243
 40
0.2947101524738327
 40
0.3362763310931754
 40
0.3796288870083667
 40
0.4523125795610969
 40
0.5242542460843636
 40
0.5242542460843636
 40
0.5242542460843636
 40
0.5242542460843636
 10
102.7321939332997
 20
136.7947497908908
 30
0.0
 10
102.6896632256783
 20
136.7882656975868
 30
0.0
 10
102.6263593344669
 20
136.7786145923013
 30
0.0
 10
102.5691135830758
 20
136.7332994853255
 30
0.0
 10
102.5368309539518
 20
136.7063400130091
 30
0.0
 10
102.5258482597002
 20
136.6706380188269
 30
0.0
 10
102.4963521918395
 20
136.6432243677913
 30
0.0
 10
102.4720390419623
 20
136.6055491870751
 30
0.0
 10
102.4662336129005
 20
136.553801716116
 30
0.0
 10
102.4704949307481
 20
136.4811820269787
 30
0.0
 10
102.5214116453172
 20
136.4662015829793
 30
0.0
 10
102.546739383989
 20
136.4587497908908
 30
0.0
 11
102.7321939332997
 21
136.7947497908908
 31
0.0
 11
102.610935363046
 21
136.7620483580434
 31
0.0
 11
102.5610053394031
 21
136.7264136297498
 31
0.0
 11
102.5396068164352
 21
136.7050326533658
 31
0.0
 11
102.525340861021
 21
136.676524684854
 31
0.0
 11
102.496809360346
 21
136.6408899565605
 31
0.0
 11
102.475410837378
 21
136.6052549959206
 31
0.0
 11
102.4682778596709
 21
136.5624932754991
 31
0.0
 11
102.4825438150851
 21
136.4912233542193
 31
0.0
 11
102.546739383989
 21
136.4587497908908
 31
0.0
  0
LINE
  5
16D8
102
{ACAD_REACTORS
330
168C
102
}
330
18
100
AcDbEntity
  8
ROGO
 62
     4
100
AcDbLine
 10
102.5467393839889
 20
136.4587497908908
 30
0.0
 11
103.386420404861
 21
136.4587497908908
 31
0.0
  0
LINE
  5
16D9
102
{ACAD_REACTORS
330
168C
102
}
330
18
100
AcDbEntity
  8
ROGO
 62
     4
100
AcDbLine
 10
102.7321939332996
 20
136.7947497908908
 30
0.0
 11
103.5539608566508
 21
136.7947497908908
 31
0.0
  0
LINE
  5
16DA
102
{ACAD_REACTORS
330
168C
102
}
330
18
100
AcDbEntity
  8
ROGO
 62
     4
100
AcDbLine
 10
103.7975801571915
 20
137.2833248431076
 30
0.0
 11
103.5539608566508
 21
136.7947497908908
 31
0.0
  0
LINE
  5
16DB
102
{ACAD_REACTORS
330
168C
102
}
330
18
100
AcDbEntity
  8
ROGO
 62
     4
100
AcDbLine
 10
102.0117746691776
 20
135.9701799125502
 30
0.0
 11
103.1428036841822
 21
135.9701799125502
 31
0.0
  0
HATCH
  5
16DC
330
18
100
AcDbEntity
  8
ROGO
 62
     4
100
AcDbHatch
 10
0.0
 20
0.0
 30
0.0
210
0.0
220
0.0
230
1.0
  2
SOLID
 70
     1
 71
     1
 91
        1
 92
        5
 93
        8
 72
     4
 94
        3
 73
     0
 74
     0
 95
       26
 96
       22
 40
0.0
 40
0.0
 40
0.0
 40
0.0
 40
0.2382195346591335
 40
0.3976890672660527
 40
0.5126795869787123
 40
0.5985392873135185
 40
0.7099038249250352
 40
0.7911890807494564
 40
0.9379713068544022
 40
1.05744992867319
 40
1.138714535893279
 40
1.21839864400348
 40
1.360938021870334
 40
1.461730374800239
 40
1.516014844107997
 40
1.593124329220506
 40
1.648806818593679
 40
1.729472362005526
 40
1.775122082164315
 40
1.874460993765118
 40
1.91982000375118
 40
1.91982000375118
 40
1.91982000375118
 40
1.91982000375118
 10
106.713613586013
 20
137.2833248431076
 10
106.6327581952544
 20
137.2785008718425
 10
106.4977763811885
 20
137.2704476253458
 10
106.3495671704766
 20
137.1804121214875
 10
106.2409804260665
 20
137.1280694361451
 10
106.1635364916422
 20
137.0569140147254
 10
106.1067697737746
 20
136.9834156622041
 10
106.0352046690771
 20
136.8958429140787
 10
105.9768453711713
 20
136.7938679926141
 10
105.9471265286379
 20
136.6814738515508
 10
105.9208018599845
 20
136.5918950689919
 10
105.9012790450113
 20
136.4920712060996
 10
105.9062462018242
 20
136.3842263179772
 10
105.913359397709
 20
136.2840655069735
 10
105.9451180876326
 20
136.2125656840466
 10
105.9812856100229
 20
136.1616627371174
 10
106.0255722458778
 20
136.1055987844187
 10
106.0740315101952
 20
136.0684678100884
 10
106.1141112773058
 20
136.0012025549479
 10
106.1842695575682
 20
135.9926190232716
 10
106.228864951644
 20
135.9755352333946
 10
106.2428444401055
 20
135.9701799125502
 72
     1
 10
106.2428444401055
 20
135.9701799125502
 11
107.37387345511
 21
135.9701799125502
 72
     1
 10
107.37387345511
 20
135.9701799125502
 11
107.6174901757889
 21
136.4587497908908
 72
     1
 10
107.6174901757889
 20
136.4587497908908
 11
106.7778091549167
 21
136.4587497908908
 72
     4
 94
        3
 73
     0
 74
     0
 95
       16
 96
       12
 40
0.0
 40
0.0
 40
0.0
 40
0.0
 40
0.0719416665231652
 40
0.1446253590759511
 40
0.1879779149910863
 40
0.2295440936104291
 40
0.2751936323958108
 40
0.3070718656052672
 40
0.3373215422371282
 40
0.3986635435213198
 40
0.5242542460841813
 40
0.5242542460841813
 40
0.5242542460841813
 40
0.5242542460841813
 10
106.7778091549168
 20
136.4587497908907
 10
106.752481416245
 20
136.4662015829793
 10
106.701564701676
 20
136.4811820269786
 10
106.6973033838284
 20
136.553801716116
 10
106.7031088128902
 20
136.6055491870751
 10
106.7274219627674
 20
136.6432243677911
 10
106.7569180306279
 20
136.6706380188269
 10
106.7679007248796
 20
136.706340013009
 10
106.8001833540036
 20
136.7332994853256
 10
106.8574291053948
 20
136.7786145923012
 10
106.9207329966062
 20
136.7882656975868
 10
106.9632637042275
 20
136.7947497908908
 72
     1
 10
106.9632637042275
 20
136.7947497908908
 11
107.7850306275787
 21
136.7947497908908
 72
     1
 10
107.7850306275787
 20
136.7947497908908
 11
108.0286499281193
 21
137.2833248431076
 72
     1
 10
108.0286499281193
 20
137.2833248431076
 11
106.713613586013
 21
137.2833248431076
 97
        8
330
16EB
330
16E9
330
16EC
330
16E8
330
16E7
330
16EA
330
16E6
330
16E5
 75
     0
 76
     1
 47
0.0514683685270805
 98
        1
 10
106.9405310156978
 20
137.0428835399286
450
        0
451
        0
460
0.0
461
0.0
452
        0
462
0.0
453
        0
470

  0
LINE
  5
16DD
102
{ACAD_REACTORS
330
16CA
102
}
330
18
100
AcDbEntity
  8
ROGO
 62
     4
100
AcDbLine
 10
108.5707263464071
 20
135.2314460582017
 30
0.0
 11
109.3267935464071
 21
135.2314460582017
 31
0.0
  0
LINE
  5
16DE
102
{ACAD_REACTORS
330
16CA
102
}
330
18
100
AcDbEntity
  8
ROGO
 62
     4
100
AcDbLine
 10
108.3036770572414
 20
135.7670096203212
 30
0.0
 11
108.0366277680758
 21
135.2314460582017
 31
0.0
  0
LINE
  5
16DF
102
{ACAD_REACTORS
330
16CA
102
}
330
18
100
AcDbEntity
  8
ROGO
 62
     4
100
AcDbLine
 10
108.8152270305722
 20
136.2573854506547
 30
0.0
 11
109.3267935464071
 21
135.2314460582017
 31
0.0
  0
LINE
  5
16E0
102
{ACAD_REACTORS
330
16CA
102
}
330
18
100
AcDbEntity
  8
ROGO
 62
     4
100
AcDbLine
 10
108.3036770572414
 20
135.7670096203212
 30
0.0
 11
108.5707263464071
 21
135.2314460582017
 31
0.0
  0
LINE
  5
16E1
102
{ACAD_REACTORS
330
16CA
102
}
330
18
100
AcDbEntity
  8
ROGO
 62
     4
100
AcDbLine
 10
108.9480554928246
 20
137.059301434286
 30
0.0
 11
109.3020685759035
 21
137.2833248431076
 31
0.0
  0
LINE
  5
16E2
102
{ACAD_REACTORS
330
16CA
102
}
330
18
100
AcDbEntity
  8
ROGO
 62
     4
100
AcDbLine
 10
109.0597607997456
 20
137.2833248431076
 30
0.0
 11
108.9480554928246
 21
137.059301434286
 31
0.0
  0
LINE
  5
16E3
102
{ACAD_REACTORS
330
16CA
102
}
330
18
100
AcDbEntity
  8
ROGO
 62
     4
100
AcDbLine
 10
108.3036770572414
 20
137.2833248431076
 30
0.0
 11
107.2805440255715
 21
135.2314460582017
 31
0.0
  0
LINE
  5
16E4
102
{ACAD_REACTORS
330
16CA
102
}
330
18
100
AcDbEntity
  8
ROGO
 62
     4
100
AcDbLine
 10
108.3036770572414
 20
137.2833248431076
 30
0.0
 11
109.0597607997456
 21
137.2833248431076
 31
0.0
  0
LINE
  5
16E5
102
{ACAD_REACTORS
330
16DC
102
}
330
18
100
AcDbEntity
  8
ROGO
 62
     4
100
AcDbLine
 10
108.0286499281193
 20
137.2833248431076
 30
0.0
 11
107.7850306275787
 21
136.7947497908908
 31
0.0
  0
LINE
  5
16E6
102
{ACAD_REACTORS
330
16DC
102
}
330
18
100
AcDbEntity
  8
ROGO
 62
     4
100
AcDbLine
 10
106.9632637042275
 20
136.7947497908908
 30
0.0
 11
107.7850306275787
 21
136.7947497908908
 31
0.0
  0
LINE
  5
16E7
102
{ACAD_REACTORS
330
16DC
102
}
330
18
100
AcDbEntity
  8
ROGO
 62
     4
100
AcDbLine
 10
106.7778091549168
 20
136.4587497908908
 30
0.0
 11
107.6174901757889
 21
136.4587497908908
 31
0.0
  0
LINE
  5
16E8
102
{ACAD_REACTORS
330
16DC
102
}
330
18
100
AcDbEntity
  8
ROGO
 62
     4
100
AcDbLine
 10
107.6174901757889
 20
136.4587497908908
 30
0.0
 11
107.37387345511
 21
135.9701799125502
 31
0.0
  0
SPLINE
  5
16E9
102
{ACAD_REACTORS
330
16DC
102
}
330
18
100
AcDbEntity
  8
ROGO
 62
     4
100
AcDbSpline
210
0.0
220
0.0
230
1.0
 70
     8
 71
     3
 72
    26
 73
    22
 74
    20
 42
0.0000000001
 43
0.0000000001
 44
0.0000000001
 40
0.0
 40
0.0
 40
0.0
 40
0.0
 40
0.2382195346591335
 40
0.3976890672660527
 40
0.5126795869787123
 40
0.5985392873135185
 40
0.7099038249250352
 40
0.7911890807494564
 40
0.9379713068544022
 40
1.05744992867319
 40
1.138714535893279
 40
1.21839864400348
 40
1.360938021870334
 40
1.461730374800239
 40
1.516014844107997
 40
1.593124329220506
 40
1.648806818593679
 40
1.729472362005526
 40
1.775122082164315
 40
1.874460993765118
 40
1.91982000375118
 40
1.91982000375118
 40
1.91982000375118
 40
1.91982000375118
 10
106.713613586013
 20
137.2833248431076
 30
0.0
 10
106.6327581952544
 20
137.2785008718425
 30
0.0
 10
106.4977763811885
 20
137.2704476253458
 30
0.0
 10
106.3495671704766
 20
137.1804121214875
 30
0.0
 10
106.2409804260665
 20
137.1280694361451
 30
0.0
 10
106.1635364916422
 20
137.0569140147254
 30
0.0
 10
106.1067697737746
 20
136.9834156622041
 30
0.0
 10
106.0352046690771
 20
136.8958429140787
 30
0.0
 10
105.9768453711713
 20
136.7938679926141
 30
0.0
 10
105.9471265286379
 20
136.6814738515508
 30
0.0
 10
105.9208018599845
 20
136.5918950689919
 30
0.0
 10
105.9012790450113
 20
136.4920712060996
 30
0.0
 10
105.9062462018242
 20
136.3842263179772
 30
0.0
 10
105.913359397709
 20
136.2840655069735
 30
0.0
 10
105.9451180876326
 20
136.2125656840466
 30
0.0
 10
105.9812856100229
 20
136.1616627371174
 30
0.0
 10
106.0255722458778
 20
136.1055987844187
 30
0.0
 10
106.0740315101952
 20
136.0684678100884
 30
0.0
 10
106.1141112773058
 20
136.0012025549479
 30
0.0
 10
106.1842695575682
 20
135.9926190232716
 30
0.0
 10
106.228864951644
 20
135.9755352333946
 30
0.0
 10
106.2428444401055
 20
135.9701799125502
 30
0.0
 11
106.713613586013
 21
137.2833248431076
 31
0.0
 11
106.4782290130592
 21
137.2466826610139
 31
0.0
 11
106.3355715096842
 21
137.1754129720805
 31
0.0
 11
106.2357114623984
 21
137.1183972674031
 31
0.0
 11
106.1715158934946
 21
137.0613813303793
 31
0.0
 11
106.1001873468838
 21
136.9758576571898
 31
0.0
 11
106.0502573232409
 21
136.9117149603845
 31
0.0
 11
105.9789283664767
 21
136.7834293344272
 31
0.0
 11
105.9432642982478
 21
136.6693976927259
 31
0.0
 11
105.9218657752801
 21
136.5910010116646
 31
0.0
 11
105.9075998198658
 21
136.5126043306032
 31
0.0
 11
105.9075998198658
 21
136.3700649527364
 31
0.0
 11
105.9218657752801
 21
136.2702872952911
 31
0.0
 11
105.9432642982478
 21
136.2203983503952
 31
0.0
 11
105.9860613441838
 21
136.1562556535898
 31
0.0
 11
106.0217258225659
 21
136.1134937008219
 31
0.0
 11
106.0787884137625
 21
136.0564779961445
 31
0.0
 11
106.1073199144375
 21
136.0208430355046
 31
0.0
 11
106.2000473941697
 21
135.9852083072111
 31
0.0
 11
106.2428444401055
 21
135.9701799125502
 31
0.0
  0
SPLINE
  5
16EA
102
{ACAD_REACTORS
330
16DC
102
}
330
18
100
AcDbEntity
  8
ROGO
 62
     4
100
AcDbSpline
210
0.0
220
0.0
230
1.0
 70
     8
 71
     3
 72
    16
 73
    12
 74
    10
 42
0.0000000001
 43
0.0000000001
 44
0.0000000001
 40
0.0
 40
0.0
 40
0.0
 40
0.0
 40
0.1255907025628614
 40
0.186932703847053
 40
0.217182380478914
 40
0.2490606136883704
 40
0.2947101524737521
 40
0.3362763310930949
 40
0.3796288870082302
 40
0.4523125795610161
 40
0.5242542460841813
 40
0.5242542460841813
 40
0.5242542460841813
 40
0.5242542460841813
 10
106.9632637042275
 20
136.7947497908908
 30
0.0
 10
106.9207329966062
 20
136.7882656975868
 30
0.0
 10
106.8574291053948
 20
136.7786145923012
 30
0.0
 10
106.8001833540036
 20
136.7332994853256
 30
0.0
 10
106.7679007248796
 20
136.706340013009
 30
0.0
 10
106.7569180306279
 20
136.6706380188269
 30
0.0
 10
106.7274219627674
 20
136.6432243677911
 30
0.0
 10
106.7031088128902
 20
136.6055491870751
 30
0.0
 10
106.6973033838284
 20
136.553801716116
 30
0.0
 10
106.701564701676
 20
136.4811820269786
 30
0.0
 10
106.752481416245
 20
136.4662015829793
 30
0.0
 10
106.7778091549168
 20
136.4587497908907
 30
0.0
 11
106.9632637042275
 21
136.7947497908908
 31
0.0
 11
106.8420051339739
 21
136.7620483580434
 31
0.0
 11
106.7920751103308
 21
136.7264136297498
 31
0.0
 11
106.7706765873631
 21
136.7050326533658
 31
0.0
 11
106.7564106319488
 21
136.676524684854
 31
0.0
 11
106.7278791312739
 21
136.6408899565604
 31
0.0
 11
106.7064806083059
 21
136.6052549959205
 31
0.0
 11
106.6993476305988
 21
136.5624932754991
 31
0.0
 11
106.713613586013
 21
136.4912233542193
 31
0.0
 11
106.7778091549168
 21
136.4587497908907
 31
0.0
  0
LINE
  5
16EB
102
{ACAD_REACTORS
330
16DC
102
}
330
18
100
AcDbEntity
  8
ROGO
 62
     4
100
AcDbLine
 10
106.7136135860133
 20
137.2833248431076
 30
0.0
 11
108.0286499281193
 21
137.2833248431076
 31
0.0
  0
LINE
  5
16EC
102
{ACAD_REACTORS
330
16DC
102
}
330
18
100
AcDbEntity
  8
ROGO
 62
     4
100
AcDbLine
 10
106.2428444401055
 20
135.9701799125502
 30
0.0
 11
107.3738734551101
 21
135.9701799125502
 31
0.0
  0
TEXT
  5
16ED
330
18
100
AcDbEntity
  8
文字
  6
Continuous
 62
     4
100
AcDbText
 10
111.7060814877368
 20
138.1735070137601
 30
0.0
 40
1.0
  1
10
  7
STYLE3
100
AcDbText
  0
LINE
  5
16EE
330
18
100
AcDbEntity
  8
目盛
100
AcDbLine
 10
110.2969418677341
 20
147.465516429988
 30
0.0
 11
109.5606927623648
 21
145.6059634582115
 31
0.0
  0
LINE
  5
16EF
330
18
100
AcDbEntity
  8
目盛
100
AcDbLine
 10
101.8300771559866
 20
149.0806572545583
 30
0.0
 11
101.8300771559866
 21
146.0806572545583
 31
0.0
  0
LINE
  5
16F0
330
18
100
AcDbEntity
  8
目盛
100
AcDbLine
 10
103.274259105161
 20
149.0352720084086
 30
0.0
 11
103.1486780661023
 21
147.039218551552
 31
0.0
  0
LINE
  5
16F1
330
18
100
AcDbEntity
  8
目盛
100
AcDbLine
 10
104.7127415279658
 20
148.8992953847913
 30
0.0
 11
104.4620750608371
 21
146.9150659821623
 31
0.0
  0
LINE
  5
16F2
330
18
100
AcDbEntity
  8
目盛
100
AcDbLine
 10
106.1398473914582
 20
148.6732640213181
 30
0.0
 11
105.7650847622869
 21
146.7086895198607
 31
0.0
  0
LINE
  5
16F3
330
18
100
AcDbEntity
  8
目盛
100
AcDbLine
 10
107.5499445607784
 20
148.3580699605168
 30
0.0
 11
107.0525647864485
 21
146.4209036382595
 31
0.0
  0
LINE
  5
16F4
330
18
100
AcDbEntity
  8
目盛
100
AcDbLine
 10
108.9374680266105
 20
147.9549571293468
 30
0.0
 11
108.0104170434856
 21
145.1017875804613
 31
0.0
  0
LINE
  5
16F5
330
18
100
AcDbEntity
  8
外形線
  6
Continuous
100
AcDbLine
 10
105.5300771559865
 20
153.0806572545581
 30
0.0
 11
105.5300771559865
 21
152.2200910663301
 31
0.0
  0
LINE
  5
16F6
330
18
100
AcDbEntity
  8
目盛
100
AcDbLine
 10
114.1540934405036
 20
145.5001995411046
 30
0.0
 11
113.0824398505456
 21
143.8115436901005
 31
0.0
  0
LINE
  5
16F7
330
18
100
AcDbEntity
  8
目盛
100
AcDbLine
 10
115.3491379587135
 20
144.688048125182
 30
0.0
 11
113.5857822018361
 21
142.2609971420572
 31
0.0
  0
LINE
  5
16F8
330
18
100
AcDbEntity
  8
目盛
100
AcDbLine
 10
111.6230008619834
 20
146.8916794612766
 30
0.0
 11
110.7714422788531
 21
145.0820253563446
 31
0.0
  0
LINE
  5
16F9
330
18
100
AcDbEntity
  8
目盛
100
AcDbLine
 10
112.9104116603262
 20
146.2357108955671
 30
0.0
 11
111.9469043121225
 21
144.4830975354793
 31
0.0
  0
LINE
  5
16FA
330
18
100
AcDbEntity
  8
目盛
100
AcDbLine
 10
116.4908289202065
 20
143.8024618384013
 30
0.0
 11
115.2159809407089
 21
142.2614353528498
 31
0.0
  0
LINE
  5
16FB
330
18
100
AcDbEntity
  8
目盛
100
AcDbLine
 10
124.4226839227462
 20
130.3904274900299
 30
0.0
 11
122.458109421289
 21
130.0156648608585
 31
0.0
  0
LINE
  5
16FC
330
18
100
AcDbEntity
  8
目盛
100
AcDbLine
 10
123.2149363314163
 20
117.6137925428107
 30
0.0
 11
121.3553833596397
 21
118.3500416481801
 31
0.0
  0
LINE
  5
16FD
330
18
100
AcDbEntity
  8
目盛
100
AcDbLine
 10
122.641099362705
 20
116.2877335485617
 30
0.0
 11
120.8314452577729
 21
117.1392921316918
 31
0.0
  0
LINE
  5
16FE
330
18
100
AcDbEntity
  8
目盛
100
AcDbLine
 10
121.9851307969954
 20
115.0003227502189
 30
0.0
 11
120.2325174369077
 21
115.9638300984223
 31
0.0
  0
LINE
  5
16FF
330
18
100
AcDbEntity
  8
目盛
100
AcDbLine
 10
121.249619442533
 20
113.7566409700415
 30
0.0
 11
119.5609635915289
 21
114.8282945599994
 31
0.0
  0
LINE
  5
1700
330
18
100
AcDbEntity
  8
目盛
100
AcDbLine
 10
124.1074898619449
 20
120.3607898497666
 30
0.0
 11
122.1703235396878
 21
120.8581696240964
 31
0.0
  0
LINE
  5
1701
330
18
100
AcDbEntity
  8
目盛
100
AcDbLine
 10
123.704377030775
 20
118.9732663839345
 30
0.0
 11
120.8512074818895
 21
119.9003173670594
 31
0.0
  0
LINE
  5
1702
330
18
100
AcDbEntity
  8
目盛
100
AcDbLine
 10
124.6487152862196
 20
123.1979928825794
 30
0.0
 11
122.6644858835905
 21
123.448659349708
 31
0.0
  0
LINE
  5
1703
330
18
100
AcDbEntity
  8
目盛
100
AcDbLine
 10
124.4226839227462
 20
121.7708870190866
 30
0.0
 11
122.458109421289
 21
122.1456496482581
 31
0.0
  0
LINE
  5
1704
330
18
100
AcDbEntity
  8
目盛
100
AcDbLine
 10
121.8300771559866
 20
126.0806572545583
 30
0.0
 11
124.8300771559866
 21
126.0806572545583
 31
0.0
  0
POINT
  5
1705
330
18
100
AcDbEntity
  8
DEFPOINTS
  6
ByBlock
 62
     0
100
AcDbPoint
 10
124.8300771559866
 20
126.0806572545583
 30
0.0
  0
LINE
  5
1706
330
18
100
AcDbEntity
  8
目盛
100
AcDbLine
 10
124.6487152862196
 20
128.9633216265374
 30
0.0
 11
122.6644858835905
 21
128.7126551594087
 31
0.0
  0
LINE
  5
1707
330
18
100
AcDbEntity
  8
目盛
100
AcDbLine
 10
124.7846919098367
 20
127.5248392037324
 30
0.0
 11
122.7886384529802
 21
127.3992581646739
 31
0.0
  0
LINE
  5
1708
330
18
100
AcDbEntity
  8
目盛
100
AcDbLine
 10
124.7846919098367
 20
124.6364753053841
 30
0.0
 11
122.7886384529802
 21
124.7620563444427
 31
0.0
  0
LINE
  5
1709
330
18
100
AcDbEntity
  8
目盛
100
AcDbLine
 10
122.641099362705
 20
135.873580960555
 30
0.0
 11
120.8314452577729
 21
135.0220223774248
 31
0.0
  0
LINE
  5
170A
330
18
100
AcDbEntity
  8
目盛
100
AcDbLine
 10
123.2149363314163
 20
134.5475219663059
 30
0.0
 11
121.3553833596397
 21
133.8112728609365
 31
0.0
  0
LINE
  5
170B
330
18
100
AcDbEntity
  8
目盛
100
AcDbLine
 10
123.704377030775
 20
133.1880481251821
 30
0.0
 11
120.8512074818895
 21
132.2609971420573
 31
0.0
  0
LINE
  5
170C
330
18
100
AcDbEntity
  8
目盛
100
AcDbLine
 10
124.1074898619451
 20
131.8005246593499
 30
0.0
 11
122.1703235396878
 21
131.3031448850202
 31
0.0
  0
LINE
  5
170D
330
18
100
AcDbEntity
  8
目盛
100
AcDbLine
 10
121.249619442533
 20
138.4046735390752
 30
0.0
 11
119.5609635915289
 21
137.3330199491172
 31
0.0
  0
LINE
  5
170E
330
18
100
AcDbEntity
  8
目盛
100
AcDbLine
 10
121.9851307969954
 20
137.1609917588977
 30
0.0
 11
120.2325174369077
 21
136.1974844106943
 31
0.0
  0
LINE
  5
170F
330
18
100
AcDbEntity
  8
外形線
100
AcDbLine
 10
194.0562534910024
 20
150.5806572545584
 30
0.0
 11
194.0562534910024
 21
101.5806572545583
 31
0.0
  0
LINE
  5
1710
330
18
100
AcDbEntity
  8
外形線
100
AcDbLine
 10
195.1562534910023
 20
149.0806572545583
 30
0.0
 11
195.1562534910023
 21
103.0806572545583
 31
0.0
  0
LINE
  5
1711
330
18
100
AcDbEntity
  8
外形線
  6
Continuous
100
AcDbLine
 10
182.5562534910023
 20
151.0806572545583
 30
0.0
 11
182.5562534910023
 21
101.0806572545583
 31
0.0
  0
LINE
  5
1712
330
18
100
AcDbEntity
  8
外形線
  6
Continuous
100
AcDbLine
 10
181.0562534910023
 20
152.4806572545583
 30
0.0
 11
181.0562534910023
 21
99.68065725455836
 31
0.0
  0
LINE
  5
1713
330
18
100
AcDbEntity
  8
外形線
  6
Continuous
100
AcDbLine
 10
177.2562534910024
 20
152.4806572545583
 30
0.0
 11
177.2562534910024
 21
99.68065725455836
 31
0.0
  0
LINE
  5
1714
330
18
100
AcDbEntity
  8
外形線
  6
Continuous
100
AcDbLine
 10
176.0562534910023
 20
151.0806572545583
 30
0.0
 11
176.0562534910023
 21
101.0806572545583
 31
0.0
  0
ARC
  5
1715
330
18
100
AcDbEntity
  8
外形線
  6
Continuous
100
AcDbCircle
 10
278.7229201576687
 20
126.0806572545583
 30
0.0
 40
105.6666666666664
100
AcDbArc
 50
166.3144531747381
 51
193.685546825262
  0
LINE
  5
1721
330
18
100
AcDbEntity
  8
外形線
  6
Continuous
 62
     4
100
AcDbLine
 10
177.2562534910024
 20
104.6806572545583
 30
0.0
 11
181.0562534910023
 21
104.6806572545583
 31
0.0
  0
LINE
  5
1722
330
18
100
AcDbEntity
  8
外形線
  6
Continuous
 62
     4
100
AcDbLine
 10
177.2562534910024
 20
100.6806572545583
 30
0.0
 11
181.0562534910023
 21
100.6806572545583
 31
0.0
  0
LINE
  5
1723
330
18
100
AcDbEntity
  8
外形線
  6
Continuous
 62
     4
100
AcDbLine
 10
177.2562534910024
 20
101.6806572545583
 30
0.0
 11
181.0562534910023
 21
101.6806572545583
 31
0.0
  0
LINE
  5
1724
330
18
100
AcDbEntity
  8
外形線
  6
Continuous
 62
     4
100
AcDbLine
 10
177.2562534910024
 20
102.6806572545583
 30
0.0
 11
181.0562534910023
 21
102.6806572545583
 31
0.0
  0
LINE
  5
1725
330
18
100
AcDbEntity
  8
外形線
  6
Continuous
 62
     4
100
AcDbLine
 10
177.2562534910024
 20
103.6806572545583
 30
0.0
 11
181.0562534910023
 21
103.6806572545583
 31
0.0
  0
LINE
  5
1726
330
18
100
AcDbEntity
  8
外形線
  6
Continuous
100
AcDbLine
 10
177.2562534910024
 20
99.68065725455836
 30
0.0
 11
181.0562534910023
 21
99.68065725455836
 31
0.0
  0
POINT
  5
1741
330
18
100
AcDbEntity
  8
DEFPOINTS
  6
ByBlock
 62
     0
100
AcDbPoint
 10
177.2562534910024
 20
99.68065725455836
 30
0.0
  0
POINT
  5
1742
330
18
100
AcDbEntity
  8
DEFPOINTS
  6
ByBlock
 62
     0
100
AcDbPoint
 10
177.2562534910024
 20
99.68065725455836
 30
0.0
  0
LINE
  5
1743
330
18
100
AcDbEntity
  8
外形線
  6
Continuous
100
AcDbLine
 10
177.2562534910024
 20
100.5806572545583
 30
0.0
 11
176.0562534910023
 21
101.0806572545583
 31
0.0
  0
LINE
  5
174E
330
18
100
AcDbEntity
  8
外形線
100
AcDbLine
 10
182.5562534910023
 20
101.5806572545583
 30
0.0
 11
194.0562534910024
 21
101.5806572545583
 31
0.0
  0
LINE
  5
1750
330
18
100
AcDbEntity
  8
外形線
 48
0.5
100
AcDbLine
 10
183.5562534910024
 20
101.5806572545583
 30
0.0
 11
183.5562534910025
 21
99.58065725455837
 31
0.0
  0
LINE
  5
1751
330
18
100
AcDbEntity
  8
外形線
  6
CENTER2
100
AcDbLine
 10
182.5562534910023
 20
101.0806572545583
 30
0.0
 11
181.0562534910023
 21
101.0806572545583
 31
0.0
  0
LINE
  5
1752
330
18
100
AcDbEntity
  8
外形線
 48
0.5
100
AcDbLine
 10
191.5562534910024
 20
101.5806572545583
 30
0.0
 11
191.5562534910024
 21
99.58065725455835
 31
0.0
  0
LINE
  5
1753
330
18
100
AcDbEntity
  8
外形線
100
AcDbLine
 10
194.0562534910025
 20
103.0806572545583
 30
0.0
 11
195.1562534910023
 21
103.0806572545583
 31
0.0
  0
LINE
  5
1754
330
18
100
AcDbEntity
  8
中心線
100
AcDbLine
 10
168.2189393808377
 20
126.0806572545583
 30
0.0
 11
198.1698046780804
 21
126.0806572545583
 31
0.0
  0
LINE
  5
1755
330
18
100
AcDbEntity
  8
外形線
  6
Continuous
 62
     4
100
AcDbLine
 10
181.0562534910023
 20
128.0806572545583
 30
0.0
 11
177.2562534910024
 21
128.0806572545583
 31
0.0
  0
LINE
  5
1756
330
18
100
AcDbEntity
  8
外形線
  6
Continuous
 62
     4
100
AcDbLine
 10
181.0562534910023
 20
129.0806572545583
 30
0.0
 11
177.2562534910024
 21
129.0806572545583
 31
0.0
  0
LINE
  5
1757
330
18
100
AcDbEntity
  8
外形線
  6
Continuous
 62
     4
100
AcDbLine
 10
181.0562534910023
 20
127.0806572545583
 30
0.0
 11
177.2562534910024
 21
127.0806572545583
 31
0.0
  0
LINE
  5
1758
330
18
100
AcDbEntity
  8
外形線
  6
Continuous
 62
     4
100
AcDbLine
 10
181.0562534910023
 20
126.0806572545583
 30
0.0
 11
177.2562534910024
 21
126.0806572545583
 31
0.0
  0
LINE
  5
1759
330
18
100
AcDbEntity
  8
外形線
  6
Continuous
 62
     4
100
AcDbLine
 10
181.0562534910023
 20
125.0806572545583
 30
0.0
 11
177.2562534910024
 21
125.0806572545583
 31
0.0
  0
LINE
  5
175A
330
18
100
AcDbEntity
  8
外形線
  6
Continuous
 62
     4
100
AcDbLine
 10
181.0562534910023
 20
124.0806572545583
 30
0.0
 11
177.2562534910024
 21
124.0806572545583
 31
0.0
  0
POINT
  5
175B
330
18
100
AcDbEntity
  8
DEFPOINTS
  6
ByBlock
 62
     0
100
AcDbPoint
 10
173.0562534910023
 20
126.0806572545583
 30
0.0
  0
LINE
  5
175C
330
18
100
AcDbEntity
  8
外形線
  6
Continuous
100
AcDbLine
 10
177.2562534910024
 20
152.4806572545583
 30
0.0
 11
181.0562534910023
 21
152.4806572545583
 31
0.0
  0
LINE
  5
175D
330
18
100
AcDbEntity
  8
外形線
  6
Continuous
 62
     4
100
AcDbLine
 10
177.2562534910024
 20
151.4806572545583
 30
0.0
 11
181.0562534910023
 21
151.4806572545583
 31
0.0
  0
LINE
  5
175E
330
18
100
AcDbEntity
  8
外形線
  6
Continuous
 62
     4
100
AcDbLine
 10
177.2562534910024
 20
150.4806572545583
 30
0.0
 11
181.0562534910023
 21
150.4806572545583
 31
0.0
  0
LINE
  5
175F
330
18
100
AcDbEntity
  8
外形線
  6
Continuous
 62
     4
100
AcDbLine
 10
177.2562534910024
 20
149.4806572545583
 30
0.0
 11
181.0562534910023
 21
149.4806572545583
 31
0.0
  0
LINE
  5
1760
330
18
100
AcDbEntity
  8
外形線
  6
Continuous
 62
     4
100
AcDbLine
 10
177.2562534910024
 20
148.4806572545583
 30
0.0
 11
181.0562534910023
 21
148.4806572545583
 31
0.0
  0
LINE
  5
1761
330
18
100
AcDbEntity
  8
外形線
  6
Continuous
 62
     4
100
AcDbLine
 10
177.2562534910024
 20
147.4806572545583
 30
0.0
 11
181.0562534910023
 21
147.4806572545583
 31
0.0
  0
POINT
  5
1762
330
18
100
AcDbEntity
  8
DEFPOINTS
  6
ByBlock
 62
     0
100
AcDbPoint
 10
177.2562534910024
 20
152.4806572545583
 30
0.0
  0
LINE
  5
1763
330
18
100
AcDbEntity
  8
外形線
  6
Continuous
100
AcDbLine
 10
177.2562534910024
 20
151.5806572545583
 30
0.0
 11
176.0562534910023
 21
151.0806572545583
 31
0.0
  0
LINE
  5
1764
330
18
100
AcDbEntity
  8
外形線
100
AcDbLine
 10
182.5562534910023
 20
150.5806572545583
 30
0.0
 11
194.0562534910024
 21
150.5806572545584
 31
0.0
  0
LINE
  5
1765
330
18
100
AcDbEntity
  8
外形線
  6
Continuous
100
AcDbLine
 10
191.5562534910023
 20
154.0806572545583
 30
0.0
 11
183.5562534910023
 21
154.0806572545583
 31
0.0
  0
LINE
  5
1766
330
18
100
AcDbEntity
  8
寸法線
  6
Continuous
100
AcDbLine
 10
183.6077991373212
 20
154.0806572545583
 30
0.0
 11
183.5562534910022
 21
154.1322029008773
 31
0.0
  0
LINE
  5
1767
330
18
100
AcDbEntity
  8
外形線
  6
Continuous
100
AcDbLine
 10
183.8562534910022
 20
154.0806572545583
 30
0.0
 11
183.8562534910021
 21
150.5806572545583
 31
0.0
  0
LINE
  5
1768
330
18
100
AcDbEntity
  8
外形線
  6
CENTER2
100
AcDbLine
 10
182.5562534910023
 20
151.0806572545583
 30
0.0
 11
181.0562534910023
 21
151.0806572545583
 31
0.0
  0
LINE
  5
1769
330
18
100
AcDbEntity
  8
外形線
  6
Continuous
100
AcDbLine
 10
191.2562534910023
 20
154.0806572545583
 30
0.0
 11
191.2562534910023
 21
150.5806572545583
 31
0.0
  0
POINT
  5
176A
330
18
100
AcDbEntity
  8
DEFPOINTS
  6
ByBlock
 62
     0
100
AcDbPoint
 10
195.1562534910023
 20
149.0806572545583
 30
0.0
  0
POINT
  5
176B
330
18
100
AcDbEntity
  8
DEFPOINTS
  6
ByBlock
 62
     0
100
AcDbPoint
 10
195.1562534910023
 20
149.0806572545583
 30
0.0
  0
LINE
  5
176C
330
18
100
AcDbEntity
  8
外形線
100
AcDbLine
 10
194.0562534910024
 20
149.0806572545583
 30
0.0
 11
195.1562534910023
 21
149.0806572545583
 31
0.0
  0
LINE
  5
176E
330
18
100
AcDbEntity
  8
寸法線
  6
Continuous
100
AcDbLine
 10
101.8300771559866
 20
157.9710376657089
 30
0.0
 11
100.7204575671373
 21
159.0806572545581
 31
0.0
  0
LINE
  5
176F
330
18
100
AcDbEntity
  8
寸法線
  6
Continuous
100
AcDbLine
 10
101.8300771559866
 20
156.2032707127426
 30
0.0
 11
98.95269061417094
 21
159.0806572545581
 31
0.0
  0
LINE
  5
1770
330
18
100
AcDbEntity
  8
寸法線
  6
Continuous
100
AcDbLine
 10
101.8300771559866
 20
154.4355037597761
 30
0.0
 11
97.8300771559866
 21
158.4355037597761
 31
0.0
  0
ARC
  5
1771
330
18
100
AcDbEntity
  8
外形線
  6
Continuous
100
AcDbCircle
 10
101.8300771559865
 20
160.2356572545583
 30
0.0
 40
7.344999999999885
100
AcDbArc
 50
59.75198538337817
 51
120.2480146166212
  0
LINE
  5
1772
330
18
100
AcDbEntity
  8
外形線
  6
Continuous
100
AcDbLine
 10
97.8300771559866
 20
159.0806572545581
 30
0.0
 11
105.8300771559865
 21
159.0806572545581
 31
0.0
  0
LINE
  5
1773
330
18
100
AcDbEntity
  8
外形線
  6
Continuous
100
AcDbLine
 10
98.13007715598656
 20
166.5806572545581
 30
0.0
 11
105.5300771559865
 21
166.5806572545581
 31
0.0
  0
LINE
  5
1774
330
18
100
AcDbEntity
  8
外形線
  6
Continuous
100
AcDbLine
 10
98.13007715598656
 20
166.5806572545581
 30
0.0
 11
98.13007715598656
 21
159.0806572545581
 31
0.0
  0
LINE
  5
1775
330
18
100
AcDbEntity
  8
寸法線
  6
Continuous
100
AcDbLine
 10
97.8300771559866
 20
155.3116171449232
 30
0.0
 11
101.5991172656215
 21
159.0806572545581
 31
0.0
  0
LINE
  5
1776
330
18
100
AcDbEntity
  8
寸法線
  6
Continuous
100
AcDbLine
 10
97.8300771559866
 20
157.0793840978895
 30
0.0
 11
99.83135031265511
 21
159.0806572545581
 31
0.0
  0
LINE
  5
1777
330
18
100
AcDbEntity
  8
寸法線
  6
Continuous
100
AcDbLine
 10
97.8300771559866
 20
158.8471510508559
 30
0.0
 11
98.06358335968878
 21
159.0806572545581
 31
0.0
  0
LINE
  5
1778
330
18
100
AcDbEntity
  8
外形線
  6
Continuous
100
AcDbLine
 10
105.5300771559865
 20
166.5806572545581
 30
0.0
 11
105.5300771559865
 21
159.0806572545581
 31
0.0
  0
POINT
  5
1779
330
18
100
AcDbEntity
  8
DEFPOINTS
  6
ByBlock
 62
     0
100
AcDbPoint
 10
101.8300771559865
 20
166.5806572545582
 30
0.0
  0
LINE
  5
177B
330
18
100
AcDbEntity
  8
外形線
  6
Continuous
100
AcDbLine
 10
183.8562534910022
 20
166.5806572545583
 30
0.0
 11
183.8562534910022
 21
160.0806572545583
 31
0.0
  0
LINE
  5
177C
330
18
100
AcDbEntity
  8
外形線
  6
Continuous
100
AcDbLine
 10
191.2562534910023
 20
166.5806572545583
 30
0.0
 11
191.2562534910023
 21
160.0806572545583
 31
0.0
  0
LINE
  5
177D
330
18
100
AcDbEntity
  8
外形線
  6
Continuous
100
AcDbLine
 10
191.5562534910023
 20
160.0806572545583
 30
0.0
 11
183.5562534910023
 21
160.0806572545583
 31
0.0
  0
LINE
  5
177E
330
18
100
AcDbEntity
  8
寸法線
  6
Continuous
100
AcDbLine
 10
187.5562534910023
 20
155.4355037597764
 30
0.0
 11
183.5562534910023
 21
159.4355037597764
 31
0.0
  0
LINE
  5
177F
330
18
100
AcDbEntity
  8
寸法線
  6
Continuous
100
AcDbLine
 10
183.5562534910023
 20
156.3116171449233
 30
0.0
 11
187.3252936006372
 21
160.0806572545583
 31
0.0
  0
LINE
  5
1780
330
18
100
AcDbEntity
  8
寸法線
  6
Continuous
100
AcDbLine
 10
183.5562534910022
 20
158.0793840978897
 30
0.0
 11
185.5575266476708
 21
160.0806572545583
 31
0.0
  0
LINE
  5
1781
330
18
100
AcDbEntity
  8
寸法線
  6
Continuous
100
AcDbLine
 10
183.5562534910022
 20
159.847151050856
 30
0.0
 11
183.7897596947044
 21
160.0806572545583
 31
0.0
  0
LINE
  5
1782
330
18
100
AcDbEntity
  8
寸法線
  6
Continuous
100
AcDbLine
 10
187.5562534910023
 20
158.9710376657091
 30
0.0
 11
186.4466339021531
 21
160.0806572545583
 31
0.0
  0
LINE
  5
1783
330
18
100
AcDbEntity
  8
寸法線
  6
Continuous
100
AcDbLine
 10
187.5562534910023
 20
157.2032707127426
 30
0.0
 11
184.6788669491867
 21
160.0806572545582
 31
0.0
  0
LINE
  5
1784
330
18
100
AcDbEntity
  8
外形線
  6
Continuous
100
AcDbLine
 10
191.2562534910023
 20
166.5806572545583
 30
0.0
 11
183.8562534910022
 21
166.5806572545583
 31
0.0
  0
ARC
  5
1785
330
18
100
AcDbEntity
  8
外形線
  6
Continuous
100
AcDbCircle
 10
187.5562534910023
 20
160.2356572545585
 30
0.0
 40
7.344999999999885
100
AcDbArc
 50
59.75198538337879
 51
120.2480146166218
  0
POINT
  5
1786
330
18
100
AcDbEntity
  8
DEFPOINTS
  6
ByBlock
 62
     0
100
AcDbPoint
 10
187.5562534910023
 20
167.5806572545583
 30
0.0
  0
POINT
  5
1787
330
18
100
AcDbEntity
  8
DEFPOINTS
  6
ByBlock
 62
     0
100
AcDbPoint
 10
187.5562534910023
 20
167.5806572545583
 30
0.0
  0
LINE
  5
17C2
330
18
100
AcDbEntity
  8
外形線
100
AcDbLine
 10
110.8300771559866
 20
99.58065725455833
 30
0.0
 11
92.8300771559866
 21
99.58065725455835
 31
0.0
  0
TEXT
  5
17D2
330
18
100
AcDbEntity
  8
文字
100
AcDbText
 10
99.40386993054893
 20
132.1129230425017
 30
0.0
 40
1.3
  1
T-2C
  7
STYLE3
100
AcDbText
  0
LINE
  5
17D4
330
18
100
AcDbEntity
  8
外形線
100
AcDbLine
 10
101.8300771559866
 20
51.48065725455833
 30
0.0
 11
101.9800771559866
 21
51.48065725455833
 31
0.0
  0
LINE
  5
17D5
330
18
100
AcDbEntity
  8
外形線
100
AcDbLine
 10
102.4504202932415
 20
61.58065725455833
 30
0.0
 11
101.9800771559866
 21
51.48065725455833
 31
0.0
  0
LINE
  5
17D8
330
18
100
AcDbEntity
  8
外形線
100
AcDbLine
 10
101.2097340187317
 20
61.58065725455833
 30
0.0
 11
101.6800771559866
 21
51.48065725455833
 31
0.0
  0
LINE
  5
17D9
330
18
100
AcDbEntity
  8
外形線
100
AcDbLine
 10
101.8300771559866
 20
51.48065725455833
 30
0.0
 11
101.6800771559866
 21
51.48065725455833
 31
0.0
  0
LINE
  5
17DA
330
18
100
AcDbEntity
  8
外形線
100
AcDbLine
 10
186.9359103537473
 20
61.58065725455833
 30
0.0
 11
187.4062534910022
 21
51.48065725455833
 31
0.0
  0
LINE
  5
17DB
330
18
100
AcDbEntity
  8
外形線
100
AcDbLine
 10
188.1765966282571
 20
61.58065725455833
 30
0.0
 11
187.7062534910022
 21
51.48065725455833
 31
0.0
  0
LINE
  5
17DC
330
18
100
AcDbEntity
  8
外形線
100
AcDbLine
 10
187.5562534910022
 20
51.48065725455833
 30
0.0
 11
187.4062534910022
 21
51.48065725455833
 31
0.0
  0
LINE
  5
17DD
330
18
100
AcDbEntity
  8
外形線
100
AcDbLine
 10
187.5562534910022
 20
51.48065725455833
 30
0.0
 11
187.7062534910022
 21
51.48065725455833
 31
0.0
  0
DIMENSION
  5
17F5
330
18
100
AcDbEntity
  8
外形線
100
AcDbDimension
  2
*D2
 10
50.05848551390329
 20
61.58065725455833
 30
0.0
 11
48.18348551390328
 21
56.53065725455835
 31
0.0
 70
    32
 71
     5
 42
10.09999999999999
  3
STYLE3
100
AcDbAlignedDimension
 13
101.6800771559866
 23
51.48065725455833
 33
0.0
 14
64.3300771559866
 24
61.58065725455833
 34
0.0
 50
90.0
100
AcDbRotatedDimension
1001
ACAD
1000
DSTYLE
1002
{
1070
   271
1070
     2
1002
}
  0
DIMENSION
  5
1801
330
18
100
AcDbEntity
  8
外形線
100
AcDbDimension
  2
*D3
 10
50.05848551390329
 20
126.0806572545583
 30
0.0
 11
48.18348551390327
 21
93.83065725455834
 31
0.0
 70
    32
 71
     5
 42
64.5
  3
STYLE3
100
AcDbAlignedDimension
 13
64.3300771559866
 23
61.58065725455833
 33
0.0
 14
72.65875160166718
 24
126.0806572545583
 34
0.0
 50
90.0
100
AcDbRotatedDimension
1001
ACAD
1000
DSTYLE
1002
{
1070
    75
1070
     1
1070
   271
1070
     2
1070
   279
1070
     1
1002
}
  0
DIMENSION
  5
180D
330
18
100
AcDbEntity
  8
外形線
100
AcDbDimension
  2
*D4
 10
50.0584855139033
 20
167.5806572545582
 30
0.0
 11
48.18348551390327
 21
146.8306572545583
 31
0.0
 70
    32
 71
     5
 42
41.4999999999999
  3
STYLE3
100
AcDbAlignedDimension
 13
72.65875160166718
 23
126.0806572545583
 33
0.0
 14
101.8300771559865
 24
167.5806572545582
 34
0.0
 50
90.0
100
AcDbRotatedDimension
1001
ACAD
1000
DSTYLE
1002
{
1070
    75
1070
     1
1070
   271
1070
     2
1070
   279
1070
     1
1002
}
  0
DIMENSION
  5
181A
330
18
100
AcDbEntity
  8
外形線
100
AcDbDimension
  2
*D5
 10
43.09677279507866
 20
167.5806572545582
 30
0.0
 11
41.22177279507863
 21
109.5306572545583
 31
0.0
 70
    32
 71
     5
 42
116.0999999999998
  3
STYLE3
100
AcDbAlignedDimension
 13
48.80848551390329
 23
51.48065725455833
 33
0.0
 14
48.80848551390331
 24
167.5806572545582
 34
0.0
 50
90.0
100
AcDbRotatedDimension
1001
ACAD
1000
DSTYLE
1002
{
1070
   271
1070
     2
1002
}
  0
DIMENSION
  5
1827
330
18
100
AcDbEntity
  8
外形線
100
AcDbDimension
  2
*D6
 10
162.2484052669083
 20
152.4806572545583
 30
0.0
 11
160.3734052669083
 21
126.0806572545583
 31
0.0
 70
    32
  1
φ53
 71
     5
 42
52.79999999999994
  3
STYLE3
100
AcDbAlignedDimension
 13
177.2562534910024
 23
99.68065725455836
 33
0.0
 14
177.2562534910024
 24
152.4806572545583
 34
0.0
 50
90.0
100
AcDbRotatedDimension
1001
ACAD
1000
DSTYLE
1002
{
1070
   271
1070
     2
1002
}
  0
TEXT
  5
1F64
330
18
100
AcDbEntity
  8
文字
100
AcDbText
 10
102.4480348936526
 20
111.1244540776711
 30
0.0
 40
0.5
  1
H
 50
2.253742863733529
  7
STYLE3
100
AcDbText
  0
TEXT
  5
1F65
330
18
100
AcDbEntity
  8
文字
100
AcDbText
 10
105.9536540248794
 20
125.5927652851719
 30
0.0
 40
1.0
  1
0.01×10mm
  7
STYLE3
100
AcDbText
  0
TEXT
  5
1F66
330
18
100
AcDbEntity
  8
文字
100
AcDbText
 10
106.5334279241663
 20
123.5829600303468
 30
0.0
 40
1.0
  1
J
  7
STYLE3
100
AcDbText
  0
TEXT
  5
1F67
330
18
100
AcDbEntity
  8
文字
100
AcDbText
 10
107.6649789214585
 20
123.5829600303468
 30
0.0
 40
1.0
  1
E
  7
STYLE3
100
AcDbText
  0
TEXT
  5
1F68
330
18
100
AcDbEntity
  8
文字
100
AcDbText
 10
108.7687962547317
 20
123.5829600303468
 30
0.0
 40
1.0
  1
W
  7
STYLE3
100
AcDbText
  0
TEXT
  5
1F69
330
18
100
AcDbEntity
  8
文字
100
AcDbText
 10
110.2267807340163
 20
123.5829600303468
 30
0.0
 40
1.0
  1
E
  7
STYLE3
100
AcDbText
  0
TEXT
  5
1F6A
330
18
100
AcDbEntity
  8
文字
100
AcDbText
 10
111.4713084886427
 20
123.5829600303468
 30
0.0
 40
1.0
  1
L
  7
STYLE3
100
AcDbText
  0
TEXT
  5
1F6B
330
18
100
AcDbEntity
  8
文字
100
AcDbText
 10
112.55261978102
 20
123.5829600303468
 30
0.0
 40
1.0
  1
E
  7
STYLE3
100
AcDbText
  0
TEXT
  5
1F6C
330
18
100
AcDbEntity
  8
文字
100
AcDbText
 10
113.8184967760752
 20
123.5829600303468
 30
0.0
 40
1.0
  1
D
  7
STYLE3
100
AcDbText
  0
TEXT
  5
1F6D
330
18
100
AcDbEntity
  8
文字
100
AcDbText
 10
103.0801768213329
 20
111.163984165006
 30
0.0
 40
0.5
  1
O
 50
4.678260640401779
  7
STYLE3
100
AcDbText
  0
TEXT
  5
1F6E
330
18
100
AcDbEntity
  8
文字
100
AcDbText
 10
103.7035314634847
 20
111.2293928574913
 30
0.0
 40
0.5
  1
C
 50
7.077511247252963
  7
STYLE3
100
AcDbText
  0
TEXT
  5
1F6F
330
18
100
AcDbEntity
  8
文字
100
AcDbText
 10
104.3243196185528
 20
111.3209607884448
 30
0.0
 40
0.5
  1
K
 50
9.479549582207715
  7
STYLE3
100
AcDbText
  0
TEXT
  5
1F70
330
18
100
AcDbEntity
  8
文字
100
AcDbText
 10
105.5302000244423
 20
111.5762104884039
 30
0.0
 40
0.5
  1
P
 50
14.19882608269905
  7
STYLE3
100
AcDbText
  0
TEXT
  5
1F71
330
18
100
AcDbEntity
  8
文字
100
AcDbText
 10
106.1879384215459
 20
111.7676875757245
 30
0.0
 40
0.5
  1
R
 50
16.91289403427807
  7
STYLE3
100
AcDbText
  0
TEXT
  5
1F72
330
18
100
AcDbEntity
  8
文字
100
AcDbText
 10
106.7791948674789
 20
111.9535160323694
 30
0.0
 40
0.5
  1
O
 50
19.19448273687436
  7
STYLE3
100
AcDbText
  0
TEXT
  5
1F73
330
18
100
AcDbEntity
  8
文字
100
AcDbText
 10
107.3481016440274
 20
112.1658704799342
 30
0.0
 40
0.5
  1
O
 50
21.51896529503815
  7
STYLE3
100
AcDbText
  0
TEXT
  5
1F74
330
18
100
AcDbEntity
  8
文字
100
AcDbText
 10
107.9350068045415
 20
112.4131878757718
 30
0.0
 40
0.5
  1
F
 50
23.9569177780882
  7
STYLE3
100
AcDbText
  0
TEXT
  5
1F75
330
18
100
AcDbEntity
  8
文字
100
AcDbText
 10
101.8192403243574
 20
111.1116971104149
 30
0.0
 40
0.5
  1
S
 50
359.8462723455846
  7
STYLE3
100
AcDbText
  0
LINE
  5
1F9D
330
18
100
AcDbEntity
  8
針
100
AcDbLine
 10
88.97161313504568
 20
143.9319318035135
 30
0.0
 11
100.4940642398347
 21
128.940302247888
 31
0.0
  0
LINE
  5
1F9E
330
18
100
AcDbEntity
  8
針
100
AcDbLine
 10
88.82599007605824
 20
143.8261304581009
 30
0.0
 11
99.52324384658471
 21
128.2349599451369
 31
0.0
  0
HATCH
  5
1F9F
330
18
100
AcDbEntity
  8
針
100
AcDbHatch
 10
0.0
 20
0.0
 30
0.0
210
0.0
220
0.0
230
1.0
  2
SOLID
 70
     1
 71
     0
 91
        2
 92
        7
 72
     1
 73
     1
 93
        5
 10
88.97161313504581
 20
143.9319318035135
 42
0.0
 10
88.89880160555208
 20
143.8790311308073
 42
0.0
 10
88.82599007605836
 20
143.8261304581009
 42
0.0
 10
92.50599078225366
 20
138.4625558688731
 42
-0.0085634322047721
 10
92.93549294124
 20
138.7746074532467
 42
0.0
 97
        0
 92
        7
 72
     1
 73
     1
 93
        6
 10
92.93549294124
 20
138.7746074532467
 42
0.0085634322047721
 10
92.50599078225366
 20
138.4625558688731
 42
0.0
 10
99.52324384658504
 20
128.2349599451365
 42
-0.1293106770632391
 10
100.0767437718193
 20
126.8126559184676
 42
-0.2805221108582334
 10
101.6757148692688
 20
127.9743764218161
 42
-0.1293106770632486
 10
100.4940642398351
 20
128.9403022478877
 42
0.0
 97
        0
 75
     0
 76
     1
 47
0.0423559757596284
 98
        2
 10
92.31864745453345
 20
139.1030076401122
 10
95.01073368038829
 20
135.6140167516045
450
        0
451
        0
460
0.0
461
0.0
452
        0
462
0.0
453
        0
470

  0
LINE
  5
1FA0
330
18
100
AcDbEntity
  8
針
100
AcDbLine
 10
88.97161313504581
 20
143.9319318035135
 30
0.0
 11
100.4940642398348
 21
128.940302247888
 31
0.0
  0
LINE
  5
1FA1
330
18
100
AcDbEntity
  8
針
100
AcDbLine
 10
88.82599007605836
 20
143.8261304581009
 30
0.0
 11
99.52324384658481
 21
128.2349599451369
 31
0.0
  0
HATCH
  5
1FA2
330
18
100
AcDbEntity
  8
針
100
AcDbHatch
 10
0.0
 20
0.0
 30
0.0
210
0.0
220
0.0
230
1.0
  2
SOLID
 70
     1
 71
     0
 91
        2
 92
        7
 72
     1
 73
     1
 93
        5
 10
88.97161313504581
 20
143.9319318035135
 42
0.0
 10
88.89880160555208
 20
143.8790311308073
 42
0.0
 10
88.82599007605836
 20
143.8261304581009
 42
0.0
 10
92.50599078225366
 20
138.4625558688731
 42
-0.0085634322047721
 10
92.93549294124
 20
138.7746074532467
 42
0.0
 97
        0
 92
        7
 72
     1
 73
     1
 93
        6
 10
92.93549294124
 20
138.7746074532467
 42
0.0085634322047721
 10
92.50599078225366
 20
138.4625558688731
 42
0.0
 10
99.52324384658504
 20
128.2349599451365
 42
-0.1293106770632391
 10
100.0767437718193
 20
126.8126559184676
 42
-0.2805221108582334
 10
101.6757148692688
 20
127.9743764218161
 42
-0.1293106770632486
 10
100.4940642398351
 20
128.9403022478877
 42
0.0
 97
        0
 75
     0
 76
     1
 47
0.0423559757596284
 98
        2
 10
92.31864745453345
 20
139.1030076401122
 10
95.01073368038829
 20
135.6140167516045
450
        0
451
        0
460
0.0
461
0.0
452
        0
462
0.0
453
        0
470

  0
DIMENSION
  5
1FAC
330
18
100
AcDbEntity
  8
寸法線
100
AcDbDimension
  2
*D8
 10
188.5776196453441
 20
46.52127216723761
 30
0.0
 11
197.9526196453441
 21
48.39627216723761
 31
0.0
 70
    32
  1
%%C<>
 71
     5
 42
0.2993508167240861
  3
STYLE3
100
AcDbAlignedDimension
 13
187.4062534910022
 23
51.48065725455833
 33
0.0
 14
187.7056043077263
 24
51.46671689789716
 34
0.0
100
AcDbRotatedDimension
1001
ACAD
1000
DSTYLE
1002
{
1070
   271
1070
     2
1070
   341
1005
0
1002
}
  0
TEXT
  5
201C
330
18
100
AcDbEntity
  8
文字
100
AcDbText
 10
84.06845273359122
 20
186.496523645568
 30
0.0
 40
4.0
  1
Model No.T-2C Dial Depth Gauge
  7
STYLE3
100
AcDbText
  0
LINE
  5
201D
330
18
100
AcDbEntity
  8
外形線
100
AcDbLine
 10
83.06958573359121
 20
183.601608645568
 30
0.0
 11
183.0695857335912
 21
183.601608645568
 31
0.0
  0
LINE
  5
201E
330
18
100
AcDbEntity
  8
外形線
100
AcDbLine
 10
83.06958573359121
 20
184.601608645568
 30
0.0
 11
183.0695857335912
 21
184.601608645568
 31
0.0
  0
LINE
  5
201F
330
18
100
AcDbEntity
  8
外形線
100
AcDbLine
 10
215.6238767335912
 20
10.28478590643341
 30
0.0
 11
215.6238767335912
 21
0.6700079064334095
 31
0.0
  0
TEXT
  5
2020
330
18
100
AcDbEntity
  8
0
  6
Continuous
100
AcDbText
 10
187.4401177335912
 20
5.751233906433409
 30
0.0
 40
3.0
  1
日 付
  7
STYLE3
100
AcDbText
  0
TEXT
  5
2021
330
18
100
AcDbEntity
  8
0
  6
Continuous
100
AcDbText
 10
187.8234787335912
 20
2.418150906433409
 30
0.0
 40
2.1
  1
Date
  7
STYLE3
100
AcDbText
  0
TEXT
  5
2022
330
18
100
AcDbEntity
  8
0
  6
Continuous
100
AcDbText
 10
177.7297067335912
 20
4.457648906433409
 30
0.0
 40
2.399999999999999
  1
1/1
  7
STYLE3
100
AcDbText
  0
LINE
  5
2023
330
18
100
AcDbEntity
  8
外形線
100
AcDbLine
 10
185.8915277335912
 20
10.28478590643341
 30
0.0
 11
185.8915277335912
 21
0.6700079064334095
 31
0.0
  0
TEXT
  5
2024
330
18
100
AcDbEntity
  8
0
  6
Continuous
100
AcDbText
 10
196.5682857335912
 20
4.166290906433409
 30
0.0
 40
2.1
  1
2010.06.23
  7
STYLE3
100
AcDbText
  0
TEXT
  5
2025
330
18
100
AcDbEntity
  8
0
  6
Continuous
100
AcDbText
 10
150.3293077335912
 20
5.920385906433409
 30
0.0
 40
3.0
  1
単位
  7
STYLE3
100
AcDbText
  0
TEXT
  5
2026
330
18
100
AcDbEntity
  8
0
  6
Continuous
100
AcDbText
 10
150.5010287335912
 20
2.418149906433409
 30
0.0
 40
2.1
  1
Unit
  7
STYLE3
100
AcDbText
  0
TEXT
  5
2027
330
18
100
AcDbEntity
  8
0
  6
Continuous
100
AcDbText
 10
158.3713547335912
 20
4.166291906433409
 30
0.0
 40
2.399999999999999
  1
mm
  7
STYLE3
100
AcDbText
  0
LINE
  5
2028
330
18
100
AcDbEntity
  8
外形線
100
AcDbLine
 10
148.8718377335912
 20
10.28478590643341
 30
0.0
 11
148.8718377335912
 21
0.6700079064334095
 31
0.0
  0
LINE
  5
2029
330
18
100
AcDbEntity
  8
外形線
100
AcDbLine
 10
166.3614557335912
 20
10.28478590643341
 30
0.0
 11
166.3614557335912
 21
0.6700079064334095
 31
0.0
  0
TEXT
  5
202A
330
18
100
AcDbEntity
  8
0
  6
Continuous
100
AcDbText
 10
168.1104187335912
 20
2.709506906433409
 30
0.0
 40
2.1
  1
Scale
  7
STYLE3
100
AcDbText
  0
TEXT
  5
202B
330
18
100
AcDbEntity
  8
0
  6
Continuous
100
AcDbText
 10
167.6472027335912
 20
5.62902890643341
 30
0.0
 40
3.0
  1
尺 度
  7
STYLE3
100
AcDbText
  0
TEXT
  5
202C
330
18
100
AcDbEntity
  8
0
  6
Continuous
100
AcDbText
 10
216.9728407335912
 20
6.205788906433409
 30
0.0
 40
3.0
  1
株式会社　尾崎製作所
  7
STYLE3
100
AcDbText
  0
TEXT
  5
202D
330
18
100
AcDbEntity
  8
0
  6
Continuous
100
AcDbText
 10
217.8473197335912
 20
2.418148906433409
 30
0.0
 40
2.1
  1
OZAKI MFG. CO., LTD.
  7
STYLE3
100
AcDbText
  0
LINE
  5
202E
330
18
100
AcDbEntity
  8
外形線
100
AcDbLine
 10
113.6011107335912
 20
0.6700079064334095
 30
0.0
 11
113.6011107335912
 21
21.06499190643341
 31
0.0
  0
TEXT
  5
202F
330
18
100
AcDbEntity
  8
0
  6
Continuous
100
AcDbText
 10
115.0585777335912
 20
12.18277590643341
 30
0.0
 40
2.1
  1
Design and specifications are subject to change without notice for future improvement.
  7
STYLE3
100
AcDbText
  0
LINE
  5
2030
330
18
100
AcDbEntity
  8
外形線
100
AcDbLine
 10
113.6011107335912
 20
10.28478590643341
 30
0.0
 11
254.3925277335912
 21
10.28478590643341
 31
0.0
  0
TEXT
  5
2031
330
18
100
AcDbEntity
  8
0
  6
Continuous
100
AcDbText
 10
117.3905287335912
 20
5.914431906433409
 30
0.0
 40
3.0
  1
三　　角　　法
  7
STYLE3
100
AcDbText
  0
TEXT
  5
2032
330
18
100
AcDbEntity
  8
0
  6
Continuous
100
AcDbText
 10
114.7670867335912
 20
2.418148906433409
 30
0.0
 40
2.1
  1
3RD Angle Projection
  7
STYLE3
100
AcDbText
  0
TEXT
  5
2033
330
18
100
AcDbEntity
  8
0
  6
Continuous
100
AcDbText
 10
115.3500717335912
 20
16.11192390643341
 30
0.0
 40
3.5
  1
仕様及び外観は予告なく変更される場合がございますのでご了承下さい。
  7
STYLE3
100
AcDbText
  0
LINE
  5
2034
330
18
100
AcDbEntity
  8
外形線
100
AcDbLine
 10
113.6011107335912
 20
21.06499190643341
 30
0.0
 11
254.3925277335912
 21
21.06499190643341
 31
0.0
  0
VIEWPORT
  5
177
330
15
100
AcDbEntity
 67
     1
  8
0
100
AcDbViewport
 10
127.5041203589828
 20
97.49391214526822
 30
0.0
 40
418.3086347473814
 41
243.0346063651093
 68
     1
 69
     1
 12
127.5041203589828
 22
97.49391214526822
 13
0.0
 23
0.0
 14
10.0
 24
10.0
 15
10.0
 25
10.0
 16
0.0
 26
0.0
 36
1.0
 17
0.0
 27
0.0
 37
0.0
 42
50.0
 43
0.0
 44
0.0
 45
243.0346063651093
 50
0.0
 51
0.0
 72
   100
 90
    32800
  1

281
     0
 71
     1
 74
     0
110
0.0
120
0.0
130
0.0
111
1.0
121
0.0
131
0.0
112
0.0
122
1.0
132
0.0
 79
     0
146
0.0
170
     0
  0
ENDSEC
  0
SECTION
  2
OBJECTS
  0
DICTIONARY
  5
C
330
0
100
AcDbDictionary
281
     1
  3
ACAD_COLOR
350
1A27
  3
ACAD_GROUP
350
D
  3
ACAD_IMAGE_DICT
350
5E8
  3
ACAD_LAYOUT
350
1A2A
  3
ACAD_MATERIAL
350
1A26
  3
ACAD_MLINESTYLE
350
1B
  3
ACAD_PLOTSETTINGS
350
1A2B
  3
ACAD_PLOTSTYLENAME
350
1A24
  3
ACAD_TABLESTYLE
350
1A28
  3
AcadDim
350
1FDA
  3
AcDbVariableDictionary
350
1F7D
  0
DICTIONARY
  5
1ADC
330
2
100
AcDbDictionary
280
     1
281
     1
  3
ACAD_LAYERSTATES
360
1ADD
  0
DICTIONARY
  5
1F99
330
18
100
AcDbDictionary
280
     1
281
     1
  3
ACAD_SORTENTS
360
1F9A
  0
DICTIONARY
  5
1A27
102
{ACAD_REACTORS
330
C
102
}
330
C
100
AcDbDictionary
281
     1
  0
DICTIONARY
  5
D
102
{ACAD_REACTORS
330
C
102
}
330
C
100
AcDbDictionary
281
     1
  0
DICTIONARY
  5
5E8
102
{ACAD_REACTORS
330
C
102
}
330
C
100
AcDbDictionary
281
     1
  3
ROGO01
350
5E9
  0
DICTIONARY
  5
1A2A
102
{ACAD_REACTORS
330
C
102
}
330
C
100
AcDbDictionary
281
     1
  3
Model
350
1A2C
  3
レイアウト1
350
1A2D
  0
DICTIONARY
  5
1A26
102
{ACAD_REACTORS
330
C
102
}
330
C
100
AcDbDictionary
281
     1
  0
DICTIONARY
  5
1B
102
{ACAD_REACTORS
330
C
102
}
330
C
100
AcDbDictionary
281
     1
  3
STANDARD
350
1C
  0
DICTIONARY
  5
1A2B
102
{ACAD_REACTORS
330
C
102
}
330
C
100
AcDbDictionary
281
     1
  0
ACDBDICTIONARYWDFLT
  5
1A24
102
{ACAD_REACTORS
330
C
102
}
330
C
100
AcDbDictionary
281
     1
  3
Normal
350
1A25
100
AcDbDictionaryWithDefault
340
1A25
  0
DICTIONARY
  5
1A28
102
{ACAD_REACTORS
330
C
102
}
330
C
100
AcDbDictionary
281
     1
  3
Standard
350
1A29
  0
XRECORD
  5
1FDA
102
{ACAD_REACTORS
330
C
102
}
330
C
100
AcDbXrecord
280
     1
 90
   990106
  3

 60
     0
 61
     0
 62
     1
 63
     3
 64
     1
 65
     0
 66
     0
 67
     3
 68
     1
 69
     0
 70
     0
 71
     0
 72
     0
 40
0.0
170
     2
340
1FDC
  0
DICTIONARY
  5
1F7D
102
{ACAD_REACTORS
330
C
102
}
330
C
100
AcDbDictionary
281
     1
  3
CTABLESTYLE
350
1F7E
  0
DICTIONARY
  5
1ADD
102
{ACAD_REACTORS
330
1ADC
102
}
330
1ADC
100
AcDbDictionary
281
     1
  0
SORTENTSTABLE
  5
1F9A
102
{ACAD_REACTORS
330
1F99
102
}
330
1F99
100
AcDbSortentsTable
330
18
331
934
  5
934
331
1610
  5
1613
331
16D1
  5
16D4
331
1692
  5
1695
331
1708
  5
170B
331
1F7B
  5
1F9B
331
176F
  5
1772
331
1710
  5
1713
331
169A
  5
169D
331
16D9
  5
16DC
331
1A0C
  5
1A0F
331
1A14
  5
1F64
331
16E1
  5
16E4
331
16A2
  5
16A5
331
1777
  5
177B
331
177F
  5
1782
331
16AA
  5
16AD
331
1F9B
  5
134A
331
15D9
  5
15DC
331
944
  5
944
331
29E
  5
29E
331
305
  5
305
331
1312
  5
1312
331
1618
  5
161B
331
1620
  5
1624
331
954
  5
954
331
2A6
  5
2A6
331
15E1
  5
15EA
331
1628
  5
162B
331
134A
  5
134B
331
2AE
  5
2AE
331
D14
  5
D14
331
15E9
  5
15EC
331
1273
  5
1273
331
277
  5
277
331
1352
  5
1353
331
1630
  5
1633
331
16E9
  5
16EC
331
16B2
  5
16B5
331
1653
  5
1656
331
1787
  5
17D4
331
1750
  5
1753
331
16BA
  5
16BD
331
16F1
  5
16F4
331
19ED
  5
19F0
331
19F5
  5
19F8
331
1758
  5
175B
331
16C2
  5
16C5
331
1663
  5
168C
331
16F9
  5
16FC
331
1F64
  5
1F67
331
1F6C
  5
1F6F
331
1760
  5
1763
331
1701
  5
1704
331
168B
  5
168E
331
16CA
  5
16CD
331
19FD
  5
1A00
331
1F74
  5
1F79
331
1A05
  5
1A08
331
15F9
  5
15FC
331
DAC
  5
DAC
331
27F
  5
27F
331
15C2
  5
15C5
331
1638
  5
163B
331
1640
  5
1643
331
15CA
  5
15CD
331
287
  5
287
331
12F3
  5
12F3
331
1601
  5
1604
331
1609
  5
160D
331
92D
  5
92D
331
28F
  5
28F
331
15D2
  5
15D5
331
1648
  5
1650
331
1611
  5
1614
331
297
  5
297
331
1709
  5
170C
331
16D2
  5
16D5
331
1693
  5
1696
331
1768
  5
176B
331
1A0D
  5
1A10
331
1770
  5
1773
331
16DA
  5
16DD
331
169B
  5
169E
331
1711
  5
1714
331
1A15
  5
1F65
331
1778
  5
177C
331
1721
  5
1724
331
16A3
  5
16A6
331
16E2
  5
16E5
331
16AB
  5
16AE
331
1741
  5
174E
331
1619
  5
161C
331
1313
  5
1313
331
29F
  5
29F
331
945
  5
945
331
15DA
  5
15DD
331
15E2
  5
15EB
331
2A7
  5
2A7
331
133B
  5
133B
331
1621
  5
1625
331
15EA
  5
15ED
331
2AF
  5
2AF
331
134B
  5
134C
331
1629
  5
162C
331
1631
  5
1634
331
1353
  5
1354
331
1274
  5
1274
331
15F2
  5
15F5
331
16EA
  5
16ED
331
1654
  5
165C
331
16B3
  5
16B6
331
1780
  5
1783
331
1751
  5
1754
331
16F2
  5
16F5
331
165C
  5
1663
331
16BB
  5
16BE
331
19EE
  5
19F1
331
1F65
  5
1F68
331
19F6
  5
19F9
331
16FA
  5
16FD
331
16C3
  5
16C6
331
1664
  5
168D
331
1759
  5
175C
331
17D8
  5
17DB
331
1761
  5
1764
331
16CB
  5
16CE
331
168C
  5
168F
331
1702
  5
1705
331
19FE
  5
1A01
331
1F6D
  5
1F70
331
1A06
  5
1A09
331
1827
  5
19EB
331
1F75
  5
1F7A
331
278
  5
278
331
1639
  5
163C
331
15FA
  5
15FD
331
2EF
  5
2EF
331
280
  5
280
331
15C3
  5
15C6
331
1602
  5
1605
331
12F4
  5
12F4
331
288
  5
288
331
15CB
  5
15CE
331
1641
  5
1644
331
160A
  5
160E
331
15D3
  5
15D6
331
2FF
  5
2FF
331
290
  5
290
331
92E
  5
92E
331
1649
  5
1651
331
1612
  5
1615
331
1769
  5
176C
331
16D3
  5
16D6
331
1694
  5
1697
331
170A
  5
170D
331
1771
  5
1774
331
1712
  5
1715
331
169C
  5
169F
331
16DB
  5
16DE
331
1A0E
  5
1A11
331
1A16
  5
1F66
331
1722
  5
1725
331
16E3
  5
16E6
331
16A4
  5
16A7
331
1779
  5
177D
331
16AC
  5
16AF
331
1742
  5
1750
331
298
  5
298
331
161A
  5
161D
331
1314
  5
1314
331
2A0
  5
2A0
331
15DB
  5
15DE
331
133C
  5
133C
331
2A8
  5
2A8
331
1622
  5
1626
331
162A
  5
162D
331
134C
  5
134D
331
2B0
  5
2B0
331
15EB
  5
15EE
331
15F3
  5
15F6
331
1275
  5
1275
331
D5E
  5
D5E
331
1354
  5
1356
331
1632
  5
1635
331
16EB
  5
16EE
331
16B4
  5
16B7
331
1655
  5
1661
331
1781
  5
1784
331
19EF
  5
19F2
331
1752
  5
1755
331
16BC
  5
16BF
331
16F3
  5
16F6
331
1F66
  5
1F69
331
175A
  5
175D
331
16FB
  5
16FE
331
16C4
  5
16C7
331
19F7
  5
19FA
331
1F6E
  5
1F71
331
1762
  5
1765
331
1703
  5
1706
331
168D
  5
1690
331
16CC
  5
16CF
331
17D9
  5
17DC
331
19FF
  5
1A02
331
1A07
  5
1A0A
331
279
  5
279
331
15FB
  5
15FE
331
2F0
  5
2F0
331
281
  5
281
331
15C4
  5
15C7
331
163A
  5
163D
331
1642
  5
1645
331
15CC
  5
15CF
331
289
  5
289
331
12F5
  5
12F5
331
1603
  5
1608
331
160B
  5
160F
331
92F
  5
92F
331
291
  5
291
331
15D4
  5
15D7
331
164A
  5
1652
331
1613
  5
1616
331
170B
  5
170E
331
16D4
  5
16D7
331
1695
  5
1698
331
176A
  5
176E
331
1A0F
  5
1A12
331
1772
  5
1775
331
16DC
  5
16DF
331
169D
  5
16A0
331
1713
  5
1721
331
1723
  5
1726
331
16A5
  5
16A8
331
16E4
  5
16E7
331
16AD
  5
16B0
331
1743
  5
1751
331
1801
  5
1827
331
300
  5
300
331
299
  5
299
331
161B
  5
161E
331
102E
  5
102E
331
2A1
  5
2A1
331
15DC
  5
15DF
331
2A9
  5
2A9
331
26A
  5
26A
331
133D
  5
133D
331
162B
  5
162E
331
134D
  5
134E
331
10C6
  5
10C6
331
15EC
  5
15EF
331
1633
  5
1636
331
15F4
  5
15F7
331
16EC
  5
16EF
331
1656
  5
1662
331
16B5
  5
16B8
331
1782
  5
1785
331
17C2
  5
17D5
331
16F4
  5
16F7
331
16BD
  5
16C0
331
1753
  5
1756
331
19F0
  5
19F3
331
17D2
  5
17D8
331
16FC
  5
16FF
331
16C5
  5
16C8
331
175B
  5
175E
331
19F8
  5
19FB
331
1F67
  5
1F6A
331
17DA
  5
17DD
331
1763
  5
1766
331
16CD
  5
16D0
331
168E
  5
1691
331
1704
  5
1707
331
1A00
  5
1A03
331
1F6F
  5
1F72
331
27A
  5
27A
331
163B
  5
163E
331
15FC
  5
15FF
331
2F1
  5
2F1
331
282
  5
282
331
15C5
  5
15C8
331
1604
  5
1609
331
F97
  5
F97
331
28A
  5
28A
331
15CD
  5
15D1
331
1643
  5
1646
331
15D5
  5
15D8
331
292
  5
292
331
130E
  5
130E
331
1614
  5
1617
331
176B
  5
176F
331
170C
  5
170F
331
1696
  5
1699
331
16D5
  5
16D8
331
1A08
  5
1A0B
331
1773
  5
1776
331
1714
  5
1722
331
169E
  5
16A1
331
16DD
  5
16E0
331
1A10
  5
1A13
331
1724
  5
1741
331
16E5
  5
16E8
331
16A6
  5
16A9
331
177B
  5
177E
331
1F97
  5
15C3
331
16AE
  5
16B1
331
29A
  5
29A
331
161C
  5
161F
331
102F
  5
102F
331
2A2
  5
2A2
331
15DD
  5
15E0
331
1624
  5
1627
331
26B
  5
26B
331
2AA
  5
2AA
331
162C
  5
162F
331
134E
  5
134F
331
273
  5
273
331
15ED
  5
15F0
331
15F5
  5
15F8
331
1356
  5
1357
331
1634
  5
1637
331
16ED
  5
16F0
331
16B6
  5
16B9
331
1783
  5
1786
331
19E9
  5
19EC
331
19F1
  5
19F4
331
1754
  5
1757
331
16BE
  5
16C1
331
16F5
  5
16F8
331
1F68
  5
1F6B
331
175C
  5
175F
331
16FD
  5
1700
331
16C6
  5
16C9
331
181A
  5
19EA
331
19F9
  5
19FC
331
1F70
  5
1F73
331
17DB
  5
17F5
331
1705
  5
1708
331
168F
  5
1692
331
16CE
  5
16D1
331
1764
  5
1767
331
1A01
  5
1A04
331
27B
  5
27B
331
163C
  5
163F
331
15C6
  5
15C9
331
283
  5
283
331
15FD
  5
1600
331
1644
  5
1647
331
15CE
  5
15D2
331
F98
  5
F98
331
28B
  5
28B
331
12F7
  5
12F7
331
1605
  5
160A
331
160D
  5
1610
331
15D6
  5
15D9
331
293
  5
293
331
130F
  5
130F
331
1615
  5
1618
331
1A09
  5
1A0C
331
170D
  5
1710
331
16D6
  5
16D9
331
1697
  5
169A
331
176C
  5
1770
331
1F78
  5
1F7B
331
1A11
  5
1A14
331
1774
  5
1777
331
16DE
  5
16E1
331
169F
  5
16A2
331
1715
  5
1723
331
177C
  5
177F
331
1725
  5
1742
331
16A7
  5
16AA
331
16E6
  5
16E9
331
1F98
  5
15C4
331
16AF
  5
16B2
331
302
  5
302
331
29B
  5
29B
331
941
  5
941
331
161D
  5
1620
331
1078
  5
1078
331
2A3
  5
2A3
331
15DE
  5
15E1
331
2AB
  5
2AB
331
26C
  5
26C
331
1625
  5
1628
331
162D
  5
1630
331
274
  5
274
331
134F
  5
1350
331
15EE
  5
15F2
331
1635
  5
1638
331
1357
  5
15C2
331
15F6
  5
15F9
331
1650
  5
1653
331
16EE
  5
16F1
331
16B7
  5
16BA
331
1784
  5
1787
331
19EA
  5
19ED
331
19F2
  5
19F5
331
16F6
  5
16F9
331
16BF
  5
16C2
331
1755
  5
1758
331
17D4
  5
17D9
331
16FE
  5
1701
331
16C7
  5
16CA
331
175D
  5
1760
331
19FA
  5
19FD
331
1F69
  5
1F6C
331
17DC
  5
1801
331
1765
  5
1768
331
16CF
  5
16D2
331
1706
  5
1709
331
1A02
  5
1A05
331
1F71
  5
1F74
331
27C
  5
27C
331
163D
  5
1640
331
15FE
  5
1601
331
15C7
  5
15CA
331
284
  5
284
331
12F8
  5
12F8
331
F99
  5
F99
331
28C
  5
28C
331
15CF
  5
15D3
331
1645
  5
1648
331
15D7
  5
15DA
331
294
  5
294
331
932
  5
932
331
160E
  5
1611
331
1616
  5
1619
331
1690
  5
1693
331
1F79
  5
1F97
331
170E
  5
1711
331
1698
  5
169B
331
16D7
  5
16DA
331
1A0A
  5
1A0D
331
1A12
  5
1A15
331
16A0
  5
16A3
331
16DF
  5
16E2
331
1775
  5
1778
331
1726
  5
1743
331
16E7
  5
16EA
331
16A8
  5
16AB
331
177D
  5
1780
331
29C
  5
29C
331
942
  5
942
331
161E
  5
1621
331
952
  5
952
331
2A4
  5
2A4
331
15DF
  5
15E2
331
1626
  5
1629
331
663
  5
663
331
2AC
  5
2AC
331
162E
  5
1631
331
15EF
  5
15F3
331
275
  5
275
331
1350
  5
1351
331
15F7
  5
15FA
331
1636
  5
1639
331
16B0
  5
16B3
331
1651
  5
1654
331
1785
  5
17C2
331
174E
  5
1752
331
16B8
  5
16BB
331
16EF
  5
16F2
331
19EB
  5
19EE
331
19F3
  5
19F6
331
1756
  5
1759
331
16C0
  5
16C3
331
1661
  5
1664
331
16F7
  5
16FA
331
1F6A
  5
1F6D
331
175E
  5
1761
331
16FF
  5
1702
331
16C8
  5
16CB
331
17D5
  5
17DA
331
19FB
  5
19FE
331
1F72
  5
1F75
331
17DD
  5
180D
331
1707
  5
170A
331
1766
  5
1769
331
1A03
  5
1A06
331
27D
  5
27D
331
71B
  5
71B
331
163E
  5
1641
331
15C8
  5
15CB
331
285
  5
285
331
12F1
  5
12F1
331
15FF
  5
1602
331
1646
  5
1649
331
28D
  5
28D
331
F9A
  5
F9A
331
933
  5
933
331
295
  5
295
331
160F
  5
1612
331
1617
  5
161A
331
16D0
  5
16D3
331
1691
  5
1694
331
1A0B
  5
1A0E
331
170F
  5
1712
331
16D8
  5
16DB
331
1699
  5
169C
331
176E
  5
1771
331
1F7A
  5
1F98
331
1A13
  5
1A16
331
1776
  5
1779
331
16A1
  5
16A4
331
16E0
  5
16E3
331
17F5
  5
181A
331
16A9
  5
16AC
331
177E
  5
1781
331
1311
  5
1311
331
29D
  5
29D
331
943
  5
943
331
15D8
  5
15DB
331
15E0
  5
15E9
331
2A5
  5
2A5
331
161F
  5
1622
331
2AD
  5
2AD
331
1627
  5
162A
331
162F
  5
1632
331
1351
  5
1352
331
276
  5
276
331
6BC
  5
6BC
331
1272
  5
1272
331
15F0
  5
15F4
331
1637
  5
163A
331
16B1
  5
16B4
331
1652
  5
1655
331
16E8
  5
16EB
331
180D
  5
19E9
331
16F0
  5
16F3
331
16B9
  5
16BC
331
1786
  5
17D2
331
19EC
  5
19EF
331
19F4
  5
19F7
331
16F8
  5
16FB
331
16C1
  5
16C4
331
1662
  5
168B
331
1757
  5
175A
331
19FC
  5
19FF
331
175F
  5
1762
331
16C9
  5
16CC
331
1700
  5
1703
331
1F6B
  5
1F6E
331
1A04
  5
1A07
331
1767
  5
176A
331
1F73
  5
1F78
331
15F8
  5
15FB
331
27E
  5
27E
331
163F
  5
1642
331
1600
  5
1603
331
8EC
  5
8EC
331
286
  5
286
331
12F2
  5
12F2
331
15C9
  5
15CC
331
1608
  5
160B
331
2FD
  5
2FD
331
28E
  5
28E
331
15D1
  5
15D4
331
1647
  5
164A
  0
IMAGEDEF
  5
5E9
102
{ACAD_REACTORS
330
5E8
102
}
330
5E8
100
AcDbRasterImageDef
 90
        0
  1
D:\ﾃｽﾄ\rogo01.TIF
 10
3388.0
 20
4668.0
 11
0.0635
 21
0.0635
280
     1
281
     5
  0
LAYOUT
  5
1A2C
102
{ACAD_REACTORS
330
1A2A
102
}
330
1A2A
100
AcDbPlotSettings
  1

  2
A4 EPSON LP-6100.pc3
  4
A4
  6

 40
5.873749732971191
 41
5.873747825622558
 42
5.873748779296875
 43
5.873748779296875
 44
209.9733276367187
 45
297.0106506347656
 46
-99.0
 47
0.0
 48
0.0
 49
0.0
140
0.0
141
0.0
142
1.0
143
1.0
 70
 28336
 72
     1
 73
     0
 74
     0
  7
AutoCAD LT 98.ctb
 75
    16
147
1.0
 76
     1
 77
     2
 78
   300
148
18.42828175740723
149
1.012121307631204
100
AcDbLayout
  1
Model
 70
     1
 71
     0
 10
0.0
 20
0.0
 11
12.0
 21
9.0
 12
0.0
 22
0.0
 32
0.0
 14
0.0
 24
0.0
 34
0.0
 15
0.0
 25
0.0
 35
0.0
146
0.0
 13
0.0
 23
0.0
 33
0.0
 16
1.0
 26
0.0
 36
0.0
 17
0.0
 27
1.0
 37
0.0
 76
     0
330
18
1001
ACAD_PSEXT
1000
A4 EPSON LP-6100.pc3
1000
EPSON LP-6100
1000
\\SATO-MATE2
1000

1070
     0
  0
LAYOUT
  5
1A2D
102
{ACAD_REACTORS
330
1A2A
102
}
330
1A2A
100
AcDbPlotSettings
  1

  2
WIDR Printer
  4

  6

 40
0.0
 41
0.0
 42
0.0
 43
0.0
 44
0.0
 45
0.0
 46
0.0
 47
0.0
 48
0.0
 49
0.0
140
0.0
141
0.0
142
1.0
143
1.0
 70
   688
 72
     0
 73
     0
 74
     5
  7
AutoCad LT 98.ctb
 75
    16
147
1.0
 76
     0
 77
     2
 78
   300
148
0.0
149
0.0
100
AcDbLayout
  1
レイアウト1
 70
     1
 71
     1
 10
0.0
 20
0.0
 11
420.0
 21
297.0
 12
0.0
 22
0.0
 32
0.0
 14
-0.2
 24
-0.2
 34
0.0
 15
255.2
 25
195.2
 35
0.0
146
0.0
 13
0.0
 23
0.0
 33
0.0
 16
1.0
 26
0.0
 36
0.0
 17
0.0
 27
1.0
 37
0.0
 76
     0
330
15
331
177
  0
MLINESTYLE
  5
1C
102
{ACAD_REACTORS
330
1B
102
}
330
1B
100
AcDbMlineStyle
  2
STANDARD
 70
     0
  3

 62
   256
 51
90.0
 52
90.0
 71
     2
 49
0.5
 62
   256
  6
BYLAYER
 49
-0.5
 62
   256
  6
BYLAYER
  0
ACDBPLACEHOLDER
  5
1A25
102
{ACAD_REACTORS
330
1A24
102
}
330
1A24
  0
ACAD_PROXY_OBJECT
  5
1A29
102
{ACAD_REACTORS
330
1A28
102
}
330
1A28
100
AcDbProxyObject
 90
      499
 91
      504
 95
  2555929
 70
     0
 93
     1849
310
4214DD185B99185C992420000000000000F83F0000000000003E0FC00000000000004901028000000C1008070000C3001FDFF8000000C1003FBFF000000182007F7FE00000030400FEFFC00000060801FDFF8000000C1003FBFF000000182000000000000000C2020B0000001820100E000186003FBFF000000182007F7FE0
310
0000030400FEFFC00000060801FDFF8000000C1003FBFF000000182007F7FE0000003040000000000000012404160000003040201C00030C007F7FE00000030400FEFFC00000060801FDFF8000000C1003FBFF000000182007F7FE00000030400FEFFC000000608000
340
F
340
F
340
F
 94
        0
  0
DICTIONARYVAR
  5
1F7E
102
{ACAD_REACTORS
330
1F7D
102
}
330
1F7D
100
DictionaryVariables
280
     0
  1
STANDARD
  0
ENDSEC
  0
EOF
