  0
SECTION
  2
HEADER
  9
$ACADVER
  1
AC1018
  9
$ACADMAINTVER
 70
     0
  9
$DWGCODEPAGE
  3
ANSI_932
  9
$INSBASE
 10
0.0
 20
0.0
 30
0.0
  9
$EXTMIN
 10
-0.2192307289083146
 20
-0.2136015531452813
 30
-0.0000305122223523
  9
$EXTMAX
 10
255.2285122392454
 20
195.2214160090128
 30
0.0000457828865983
  9
$LIMMIN
 10
0.0
 20
0.0
  9
$LIMMAX
 10
420.0
 20
297.0
  9
$ORTHOMODE
 70
     1
  9
$REGENMODE
 70
     1
  9
$FILLMODE
 70
     1
  9
$QTEXTMODE
 70
     0
  9
$MIRRTEXT
 70
     1
  9
$LTSCALE
 40
1.0
  9
$ATTMODE
 70
     1
  9
$TEXTSIZE
 40
2.5
  9
$TRACEWID
 40
1.0
  9
$TEXTSTYLE
  7
STYLE3
  9
$CLAYER
  8
外形線
  9
$CELTYPE
  6
BYLAYER
  9
$CECOLOR
 62
   256
  9
$CELTSCALE
 40
1.0
  9
$DISPSILH
 70
     0
  9
$DIMSCALE
 40
1.0
  9
$DIMASZ
 40
2.5
  9
$DIMEXO
 40
0.0
  9
$DIMDLI
 40
3.75
  9
$DIMRND
 40
0.0
  9
$DIMDLE
 40
0.0
  9
$DIMEXE
 40
1.25
  9
$DIMTP
 40
0.0
  9
$DIMTM
 40
0.0
  9
$DIMTXT
 40
2.5
  9
$DIMCEN
 40
2.5
  9
$DIMTSZ
 40
0.0
  9
$DIMTOL
 70
     0
  9
$DIMLIM
 70
     0
  9
$DIMTIH
 70
     0
  9
$DIMTOH
 70
     0
  9
$DIMSE1
 70
     0
  9
$DIMSE2
 70
     0
  9
$DIMTAD
 70
     1
  9
$DIMZIN
 70
     8
  9
$DIMBLK
  1

  9
$DIMASO
 70
     1
  9
$DIMSHO
 70
     1
  9
$DIMPOST
  1

  9
$DIMAPOST
  1

  9
$DIMALT
 70
     0
  9
$DIMALTD
 70
     4
  9
$DIMALTF
 40
0.0394
  9
$DIMLFAC
 40
1.0
  9
$DIMTOFL
 70
     1
  9
$DIMTVP
 40
0.0
  9
$DIMTIX
 70
     0
  9
$DIMSOXD
 70
     0
  9
$DIMSAH
 70
     1
  9
$DIMBLK1
  1
OPEN
  9
$DIMBLK2
  1
OPEN
  9
$DIMSTYLE
  2
STYLE3
  9
$DIMCLRD
 70
     2
  9
$DIMCLRE
 70
     2
  9
$DIMCLRT
 70
     6
  9
$DIMTFAC
 40
1.0
  9
$DIMGAP
 40
0.625
  9
$DIMJUST
 70
     0
  9
$DIMSD1
 70
     0
  9
$DIMSD2
 70
     0
  9
$DIMTOLJ
 70
     1
  9
$DIMTZIN
 70
     0
  9
$DIMALTZ
 70
     0
  9
$DIMALTTZ
 70
     0
  9
$DIMUPT
 70
     0
  9
$DIMDEC
 70
     2
  9
$DIMTDEC
 70
     4
  9
$DIMALTU
 70
     8
  9
$DIMALTTD
 70
     4
  9
$DIMTXSTY
  7
STYLE3
  9
$DIMAUNIT
 70
     0
  9
$DIMADEC
 70
     0
  9
$DIMALTRND
 40
0.0
  9
$DIMAZIN
 70
     0
  9
$DIMDSEP
 70
    46
  9
$DIMATFIT
 70
     3
  9
$DIMFRAC
 70
     0
  9
$DIMLDRBLK
  1

  9
$DIMLUNIT
 70
     2
  9
$DIMLWD
 70
    -2
  9
$DIMLWE
 70
    -2
  9
$DIMTMOVE
 70
     0
  9
$LUNITS
 70
     2
  9
$LUPREC
 70
     4
  9
$SKETCHINC
 40
1.0
  9
$FILLETRAD
 40
0.0
  9
$AUNITS
 70
     0
  9
$AUPREC
 70
     0
  9
$MENU
  1
.
  9
$ELEVATION
 40
0.0
  9
$PELEVATION
 40
0.0
  9
$THICKNESS
 40
0.0
  9
$LIMCHECK
 70
     0
  9
$CHAMFERA
 40
0.3
  9
$CHAMFERB
 40
0.3
  9
$CHAMFERC
 40
20.0
  9
$CHAMFERD
 40
0.0
  9
$SKPOLY
 70
     0
  9
$TDCREATE
 40
2451400.687391204
  9
$TDUCREATE
 40
2451400.312391204
  9
$TDUPDATE
 40
2455371.357325301
  9
$TDUUPDATE
 40
2455370.982325301
  9
$TDINDWG
 40
0.4627547569
  9
$TDUSRTIMER
 40
0.4627547569
  9
$USRTIMER
 70
     1
  9
$ANGBASE
 50
0.0
  9
$ANGDIR
 70
     0
  9
$PDMODE
 70
     0
  9
$PDSIZE
 40
0.0
  9
$PLINEWID
 40
0.0
  9
$SPLFRAME
 70
     0
  9
$SPLINETYPE
 70
     6
  9
$SPLINESEGS
 70
     8
  9
$HANDSEED
  5
14ED
  9
$SURFTAB1
 70
     6
  9
$SURFTAB2
 70
     6
  9
$SURFTYPE
 70
     6
  9
$SURFU
 70
     6
  9
$SURFV
 70
     6
  9
$UCSBASE
  2

  9
$UCSNAME
  2

  9
$UCSORG
 10
0.0
 20
0.0
 30
0.0
  9
$UCSXDIR
 10
1.0
 20
0.0
 30
0.0
  9
$UCSYDIR
 10
0.0
 20
1.0
 30
0.0
  9
$UCSORTHOREF
  2

  9
$UCSORTHOVIEW
 70
     0
  9
$UCSORGTOP
 10
0.0
 20
0.0
 30
0.0
  9
$UCSORGBOTTOM
 10
0.0
 20
0.0
 30
0.0
  9
$UCSORGLEFT
 10
0.0
 20
0.0
 30
0.0
  9
$UCSORGRIGHT
 10
0.0
 20
0.0
 30
0.0
  9
$UCSORGFRONT
 10
0.0
 20
0.0
 30
0.0
  9
$UCSORGBACK
 10
0.0
 20
0.0
 30
0.0
  9
$PUCSBASE
  2

  9
$PUCSNAME
  2

  9
$PUCSORG
 10
0.0
 20
0.0
 30
0.0
  9
$PUCSXDIR
 10
1.0
 20
0.0
 30
0.0
  9
$PUCSYDIR
 10
0.0
 20
1.0
 30
0.0
  9
$PUCSORTHOREF
  2

  9
$PUCSORTHOVIEW
 70
     0
  9
$PUCSORGTOP
 10
0.0
 20
0.0
 30
0.0
  9
$PUCSORGBOTTOM
 10
0.0
 20
0.0
 30
0.0
  9
$PUCSORGLEFT
 10
0.0
 20
0.0
 30
0.0
  9
$PUCSORGRIGHT
 10
0.0
 20
0.0
 30
0.0
  9
$PUCSORGFRONT
 10
0.0
 20
0.0
 30
0.0
  9
$PUCSORGBACK
 10
0.0
 20
0.0
 30
0.0
  9
$USERI1
 70
     0
  9
$USERI2
 70
     0
  9
$USERI3
 70
     0
  9
$USERI4
 70
     0
  9
$USERI5
 70
     0
  9
$USERR1
 40
0.0
  9
$USERR2
 40
0.0
  9
$USERR3
 40
0.0
  9
$USERR4
 40
0.0
  9
$USERR5
 40
0.0
  9
$WORLDVIEW
 70
     1
  9
$SHADEDGE
 70
     3
  9
$SHADEDIF
 70
    70
  9
$TILEMODE
 70
     1
  9
$MAXACTVP
 70
    48
  9
$PINSBASE
 10
0.0
 20
0.0
 30
0.0
  9
$PLIMCHECK
 70
     0
  9
$PEXTMIN
 10
-0.2
 20
-0.2
 30
0.0
  9
$PEXTMAX
 10
255.2
 20
195.2
 30
0.0
  9
$PLIMMIN
 10
0.0
 20
0.0
  9
$PLIMMAX
 10
420.0
 20
297.0
  9
$UNITMODE
 70
     0
  9
$VISRETAIN
 70
     1
  9
$PLINEGEN
 70
     0
  9
$PSLTSCALE
 70
     1
  9
$TREEDEPTH
 70
  3020
  9
$CMLSTYLE
  2
STANDARD
  9
$CMLJUST
 70
     0
  9
$CMLSCALE
 40
20.0
  9
$PROXYGRAPHICS
 70
     1
  9
$MEASUREMENT
 70
     1
  9
$CELWEIGHT
370
    -1
  9
$ENDCAPS
280
     0
  9
$JOINSTYLE
280
     0
  9
$LWDISPLAY
290
     0
  9
$INSUNITS
 70
     0
  9
$HYPERLINKBASE
  1

  9
$STYLESHEET
  1

  9
$XEDIT
290
     1
  9
$CEPSNTYPE
380
     0
  9
$PSTYLEMODE
290
     1
  9
$FINGERPRINTGUID
  2
{82C20FF1-8522-4A20-BA44-5BD75E8F2F80}
  9
$VERSIONGUID
  2
{EB29CA66-9440-4848-A47C-4C555E2B6CFD}
  9
$EXTNAMES
290
     1
  9
$PSVPSCALE
 40
0.0
  9
$OLESTARTUP
290
     0
  9
$SORTENTS
280
   127
  9
$INDEXCTL
280
     0
  9
$HIDETEXT
280
     0
  9
$XCLIPFRAME
290
     0
  9
$HALOGAP
280
     0
  9
$OBSCOLOR
 70
   257
  9
$OBSLTYPE
280
     0
  9
$INTERSECTIONDISPLAY
280
     0
  9
$INTERSECTIONCOLOR
 70
   257
  9
$DIMASSOC
280
     1
  9
$PROJECTNAME
  1

  0
ENDSEC
  0
SECTION
  2
CLASSES
  0
CLASS
  1
HATCH
  2
AcDbHatch
  3
ObjectDBX Classes
 90
        0
 91
       13
280
     0
281
     1
  0
CLASS
  1
IMAGEDEF
  2
AcDbRasterImageDef
  3
ISM
 90
        0
 91
        1
280
     0
281
     0
  0
CLASS
  1
LWPOLYLINE
  2
AcDbPolyline
  3
ObjectDBX Classes
 90
        0
 91
        7
280
     0
281
     1
  0
CLASS
  1
ACDBDICTIONARYWDFLT
  2
AcDbDictionaryWithDefault
  3
ObjectDBX Classes
 90
        0
 91
        1
280
     0
281
     0
  0
CLASS
  1
TABLESTYLE
  2
AcDbTableStyle
  3
ObjectDBX Classes
 90
     2047
 91
        1
280
     0
281
     0
  0
CLASS
  1
DICTIONARYVAR
  2
AcDbDictionaryVar
  3
ObjectDBX Classes
 90
        0
 91
        1
280
     0
281
     0
  0
ENDSEC
  0
SECTION
  2
TABLES
  0
TABLE
  2
VPORT
  5
8
330
0
100
AcDbSymbolTable
 70
     2
  0
VPORT
  5
14EC
330
8
100
AcDbSymbolTableRecord
100
AcDbViewportTableRecord
  2
*Active
 70
     0
 10
0.0
 20
0.0
 11
1.0
 21
1.0
 12
127.5046407551685
 22
97.50390722793376
 13
0.0
 23
0.0
 14
10.0
 24
10.0
 15
10.0
 25
10.0
 16
0.0
 26
0.0
 36
1.0
 17
0.0
 27
0.0
 37
0.0
 40
196.9212154143418
 41
1.530456852791878
 42
50.0
 43
0.0
 44
0.0
 50
0.0
 51
0.0
 71
     0
 72
   100
 73
     1
 74
     1
 75
     0
 76
     0
 77
     0
 78
     0
281
     0
 65
     1
110
0.0
120
0.0
130
0.0
111
1.0
121
0.0
131
0.0
112
0.0
122
1.0
132
0.0
 79
     0
146
0.0
  0
ENDTAB
  0
TABLE
  2
LTYPE
  5
5
330
0
100
AcDbSymbolTable
 70
    12
  0
LTYPE
  5
12
330
5
100
AcDbSymbolTableRecord
100
AcDbLinetypeTableRecord
  2
BYBLOCK
 70
     0
  3

 72
    65
 73
     0
 40
0.0
  0
LTYPE
  5
13
330
5
100
AcDbSymbolTableRecord
100
AcDbLinetypeTableRecord
  2
BYLAYER
 70
     0
  3

 72
    65
 73
     0
 40
0.0
  0
LTYPE
  5
14
330
5
100
AcDbSymbolTableRecord
100
AcDbLinetypeTableRecord
  2
CONTINUOUS
 70
     0
  3
Solid line
 72
    65
 73
     0
 40
0.0
  0
LTYPE
  5
22
330
5
100
AcDbSymbolTableRecord
100
AcDbLinetypeTableRecord
  2
CENTER2
 70
     0
  3
Center (.5x) ___ _ ___ _ ___ _ ___ _ ___ _ ___
 72
    65
 73
     4
 40
28.575
 49
19.05
 74
     0
 49
-3.174999999999999
 74
     0
 49
3.174999999999999
 74
     0
 49
-3.174999999999999
 74
     0
  0
ENDTAB
  0
TABLE
  2
LAYER
  5
2
330
0
100
AcDbSymbolTable
 70
    15
  0
LAYER
  5
E
330
2
100
AcDbSymbolTableRecord
100
AcDbLayerTableRecord
  2
0
 70
     0
 62
     7
  6
CONTINUOUS
370
    -3
390
145D
  0
LAYER
  5
25
330
2
100
AcDbSymbolTableRecord
100
AcDbLayerTableRecord
  2
外形線
 70
     0
 62
     7
  6
CONTINUOUS
370
    -3
390
145D
  0
LAYER
  5
27
330
2
100
AcDbSymbolTableRecord
100
AcDbLayerTableRecord
  2
中心線
 70
     0
 62
     4
  6
CENTER2
370
    -3
390
145D
  0
LAYER
  5
2B
330
2
100
AcDbSymbolTableRecord
100
AcDbLayerTableRecord
  2
文字
 70
     0
 62
     6
  6
CONTINUOUS
370
    -3
390
145D
  0
LAYER
  5
2C
330
2
100
AcDbSymbolTableRecord
100
AcDbLayerTableRecord
  2
目盛
 70
     0
 62
    70
  6
CONTINUOUS
370
    -3
390
145D
  0
LAYER
  5
2D
330
2
100
AcDbSymbolTableRecord
100
AcDbLayerTableRecord
  2
針
 70
     0
 62
     5
  6
CONTINUOUS
370
    -3
390
145D
  0
LAYER
  5
53
330
2
100
AcDbSymbolTableRecord
100
AcDbLayerTableRecord
  2
DEFPOINTS
 70
     0
 62
     7
  6
CONTINUOUS
290
     0
370
    -3
390
145D
  0
LAYER
  5
A5
330
2
100
AcDbSymbolTableRecord
100
AcDbLayerTableRecord
  2
C
 70
     0
 62
     7
  6
CONTINUOUS
370
    -3
390
145D
  0
LAYER
  5
306
330
2
100
AcDbSymbolTableRecord
100
AcDbLayerTableRecord
  2
ROGO
 70
     0
 62
     6
  6
CONTINUOUS
370
    -3
390
145D
  0
ENDTAB
  0
TABLE
  2
STYLE
  5
3
330
0
100
AcDbSymbolTable
 70
     6
  0
STYLE
  5
F
330
3
100
AcDbSymbolTableRecord
100
AcDbTextStyleTableRecord
  2
STANDARD
 70
     0
 40
0.0
 41
1.0
 50
0.0
 71
     0
 42
2.5
  3
txt
  4

  0
STYLE
  5
3F
330
3
100
AcDbSymbolTableRecord
100
AcDbTextStyleTableRecord
  2
STYLE3
 70
     0
 40
0.0
 41
1.0
 50
0.0
 71
     0
 42
2.5
  3
romans.shx
  4
bigfont.shx
  0
ENDTAB
  0
TABLE
  2
VIEW
  5
6
330
0
100
AcDbSymbolTable
 70
     0
  0
ENDTAB
  0
TABLE
  2
UCS
  5
7
330
0
100
AcDbSymbolTable
 70
     0
  0
ENDTAB
  0
TABLE
  2
APPID
  5
9
330
0
100
AcDbSymbolTable
 70
     1
  0
APPID
  5
10
330
9
100
AcDbSymbolTableRecord
100
AcDbRegAppTableRecord
  2
ACAD
 70
     0
  0
ENDTAB
  0
TABLE
  2
DIMSTYLE
  5
A
330
0
100
AcDbSymbolTable
 70
     4
100
AcDbDimStyleTable
 71
     1
340
8F
  0
DIMSTYLE
105
1D
330
A
100
AcDbSymbolTableRecord
100
AcDbDimStyleTableRecord
  2
STANDARD
 70
     0
 41
2.5
 42
0.625
 43
3.75
 44
1.25
 73
     0
 74
     0
 77
     1
 78
     8
140
2.5
141
2.5
143
0.0394
147
0.625
171
     4
172
     1
273
     8
274
     4
277
     6
340
F
  0
DIMSTYLE
105
8F
102
{ACAD_REACTORS
330
12A7
330
12B3
330
12BF
330
12D9
330
12F1
330
13CB
102
}
330
A
100
AcDbSymbolTableRecord
100
AcDbDimStyleTableRecord
  2
STYLE3
 70
     0
 41
2.5
 42
0.0
 43
3.75
 44
1.25
 73
     0
 74
     0
 77
     1
 78
     8
140
2.5
141
2.5
143
0.0394
147
0.625
171
     4
172
     1
173
     1
176
     2
177
     2
178
     6
271
     1
273
     8
274
     4
340
3F
341
45
343
45
344
45
  0
ENDTAB
  0
TABLE
  2
BLOCK_RECORD
  5
1
330
0
100
AcDbSymbolTable
 70
    10
  0
BLOCK_RECORD
  5
18
330
1
100
AcDbSymbolTableRecord
100
AcDbBlockTableRecord
  2
*MODEL_SPACE
340
1464
  0
BLOCK_RECORD
  5
15
330
1
100
AcDbSymbolTableRecord
100
AcDbBlockTableRecord
  2
*PAPER_SPACE
340
1465
  0
BLOCK_RECORD
  5
45
330
1
100
AcDbSymbolTableRecord
100
AcDbBlockTableRecord
  2
_OPEN
340
0
102
{BLKREFS
331
134D
331
134E
331
14B0
331
14B1
331
14B9
331
14BA
331
14C2
331
14C3
331
14CA
331
14CB
331
14D2
331
14D3
331
14DB
331
14DC
102
}
  0
BLOCK_RECORD
  5
129B
330
1
100
AcDbSymbolTableRecord
100
AcDbBlockTableRecord
  2
*D1
340
0
  0
BLOCK_RECORD
  5
12A8
330
1
100
AcDbSymbolTableRecord
100
AcDbBlockTableRecord
  2
*D2
340
0
  0
BLOCK_RECORD
  5
12B4
330
1
100
AcDbSymbolTableRecord
100
AcDbBlockTableRecord
  2
*D3
340
0
  0
BLOCK_RECORD
  5
12CD
330
1
100
AcDbSymbolTableRecord
100
AcDbBlockTableRecord
  2
*D4
340
0
  0
BLOCK_RECORD
  5
12E5
330
1
100
AcDbSymbolTableRecord
100
AcDbBlockTableRecord
  2
*D5
340
0
  0
BLOCK_RECORD
  5
13BF
330
1
100
AcDbSymbolTableRecord
100
AcDbBlockTableRecord
  2
*D6
340
0
  0
ENDTAB
  0
ENDSEC
  0
SECTION
  2
BLOCKS
  0
BLOCK
  5
19
330
18
100
AcDbEntity
  8
0
100
AcDbBlockBegin
  2
*MODEL_SPACE
 70
     0
 10
0.0
 20
0.0
 30
0.0
  3
*MODEL_SPACE
  1

  0
ENDBLK
  5
1A
330
18
100
AcDbEntity
  8
0
100
AcDbBlockEnd
  0
BLOCK
  5
16
330
15
100
AcDbEntity
 67
     1
  8
0
100
AcDbBlockBegin
  2
*PAPER_SPACE
 70
     0
 10
0.0
 20
0.0
 30
0.0
  3
*PAPER_SPACE
  1

  0
ENDBLK
  5
17
330
15
100
AcDbEntity
 67
     1
  8
0
100
AcDbBlockEnd
  0
BLOCK
  5
46
330
45
100
AcDbEntity
  8
0
100
AcDbBlockBegin
  2
_OPEN
 70
     0
 10
0.0
 20
0.0
 30
0.0
  3
_OPEN
  1

  0
LINE
  5
47
330
45
100
AcDbEntity
  8
0
  6
ByBlock
 62
     0
100
AcDbLine
 10
-1.0
 20
0.1666666666666666
 30
0.0
 11
0.0
 21
0.0
 31
0.0
  0
LINE
  5
48
330
45
100
AcDbEntity
  8
0
  6
ByBlock
 62
     0
100
AcDbLine
 10
0.0
 20
0.0
 30
0.0
 11
-1.0
 21
-0.1666666666666666
 31
0.0
  0
LINE
  5
49
330
45
100
AcDbEntity
  8
0
  6
ByBlock
 62
     0
100
AcDbLine
 10
0.0
 20
0.0
 30
0.0
 11
-1.0
 21
0.0
 31
0.0
  0
ENDBLK
  5
4A
330
45
100
AcDbEntity
  8
0
100
AcDbBlockEnd
  0
BLOCK
  5
129C
330
129B
100
AcDbEntity
  8
0
100
AcDbBlockBegin
  2
*D1
 70
     1
 10
0.0
 20
0.0
 30
0.0
  3
*D1
  1

  0
LINE
  5
14D8
330
129B
100
AcDbEntity
  8
外形線
 62
     2
370
    -2
100
AcDbLine
 10
102.0833108180478
 20
175.5806572545583
 30
0.0
 11
50.38112759385422
 21
175.5806572545583
 31
0.0
  0
LINE
  5
14D9
330
129B
100
AcDbEntity
  8
外形線
 62
     2
370
    -2
100
AcDbLine
 10
68.49316428543364
 20
125.0806572545583
 30
0.0
 11
50.38112759385422
 21
125.0806572545583
 31
0.0
  0
LINE
  5
14DA
330
129B
100
AcDbEntity
  8
外形線
 62
     2
370
    -2
100
AcDbLine
 10
51.63112759385422
 20
173.0806572545583
 30
0.0
 11
51.63112759385422
 21
127.5806572545583
 31
0.0
  0
INSERT
  5
14DB
330
129B
100
AcDbEntity
  8
外形線
 62
     2
370
    -2
100
AcDbBlockReference
  2
_OPEN
 10
51.63112759385422
 20
175.5806572545583
 30
0.0
 41
2.5
 42
2.5
 43
2.5
 50
90.0
  0
INSERT
  5
14DC
330
129B
100
AcDbEntity
  8
外形線
 62
     2
370
    -2
100
AcDbBlockReference
  2
_OPEN
 10
51.63112759385422
 20
125.0806572545583
 30
0.0
 41
2.5
 42
2.5
 43
2.5
 50
270.0
  0
MTEXT
  5
14DD
330
129B
100
AcDbEntity
  8
外形線
 62
     6
100
AcDbMText
 10
49.7561275938542
 20
150.3306572545583
 30
0.0
 40
2.5
 41
0.0
 71
     5
 72
     1
  1
\A1;50.5
  7
STYLE3
 11
0.0000000000000001
 21
1.0
 31
0.0
 73
     1
 44
1.0
  0
POINT
  5
14DE
330
129B
100
AcDbEntity
  8
DEFPOINTS
 62
     0
100
AcDbPoint
 10
102.0833108180478
 20
175.5806572545583
 30
0.0
  0
POINT
  5
14DF
330
129B
100
AcDbEntity
  8
DEFPOINTS
 62
     0
100
AcDbPoint
 10
68.49316428543364
 20
125.0806572545583
 30
0.0
  0
POINT
  5
14E0
330
129B
100
AcDbEntity
  8
DEFPOINTS
 62
     0
100
AcDbPoint
 10
51.63112759385422
 20
125.0806572545583
 30
0.0
  0
ENDBLK
  5
12A6
330
129B
100
AcDbEntity
  8
0
100
AcDbBlockEnd
  0
BLOCK
  5
12A9
330
12A8
100
AcDbEntity
  8
0
100
AcDbBlockBegin
  2
*D2
 70
     1
 10
0.0
 20
0.0
 30
0.0
  3
*D2
  1

  0
LINE
  5
14D0
330
12A8
100
AcDbEntity
  8
外形線
 62
     2
370
    -2
100
AcDbLine
 10
64.58331081804783
 20
61.58065725455833
 30
0.0
 11
50.38112759385422
 21
61.58065725455833
 31
0.0
  0
LINE
  5
14D1
330
12A8
100
AcDbEntity
  8
外形線
 62
     2
370
    -2
100
AcDbLine
 10
51.63112759385423
 20
122.5806572545583
 30
0.0
 11
51.63112759385422
 21
64.08065725455833
 31
0.0
  0
INSERT
  5
14D2
330
12A8
100
AcDbEntity
  8
外形線
 62
     2
370
    -2
100
AcDbBlockReference
  2
_OPEN
 10
51.63112759385423
 20
125.0806572545583
 30
0.0
 41
2.5
 42
2.5
 43
2.5
 50
90.0
  0
INSERT
  5
14D3
330
12A8
100
AcDbEntity
  8
外形線
 62
     2
370
    -2
100
AcDbBlockReference
  2
_OPEN
 10
51.63112759385422
 20
61.58065725455833
 30
0.0
 41
2.5
 42
2.5
 43
2.5
 50
270.0
  0
MTEXT
  5
14D4
330
12A8
100
AcDbEntity
  8
外形線
 62
     6
100
AcDbMText
 10
49.75612759385421
 20
93.33065725455835
 30
0.0
 40
2.5
 41
0.0
 71
     5
 72
     1
  1
\A1;63.5
  7
STYLE3
 11
0.0000000000000001
 21
1.0
 31
0.0
 73
     1
 44
1.0
  0
POINT
  5
14D5
330
12A8
100
AcDbEntity
  8
DEFPOINTS
 62
     0
100
AcDbPoint
 10
68.49316428543364
 20
125.0806572545583
 30
0.0
  0
POINT
  5
14D6
330
12A8
100
AcDbEntity
  8
DEFPOINTS
 62
     0
100
AcDbPoint
 10
64.58331081804783
 20
61.58065725455833
 30
0.0
  0
POINT
  5
14D7
330
12A8
100
AcDbEntity
  8
DEFPOINTS
 62
     0
100
AcDbPoint
 10
51.63112759385422
 20
61.58065725455833
 30
0.0
  0
ENDBLK
  5
12B2
330
12A8
100
AcDbEntity
  8
0
100
AcDbBlockEnd
  0
BLOCK
  5
12B5
330
12B4
100
AcDbEntity
  8
0
100
AcDbBlockBegin
  2
*D3
 70
     1
 10
0.0
 20
0.0
 30
0.0
  3
*D3
  1

  0
LINE
  5
14C8
330
12B4
100
AcDbEntity
  8
外形線
 62
     2
370
    -2
100
AcDbLine
 10
102.0833108180478
 20
41.48065725455833
 30
0.0
 11
50.38112759385422
 21
41.48065725455834
 31
0.0
  0
LINE
  5
14C9
330
12B4
100
AcDbEntity
  8
外形線
 62
     2
370
    -2
100
AcDbLine
 10
51.63112759385422
 20
59.08065725455833
 30
0.0
 11
51.63112759385422
 21
43.98065725455834
 31
0.0
  0
INSERT
  5
14CA
330
12B4
100
AcDbEntity
  8
外形線
 62
     2
370
    -2
100
AcDbBlockReference
  2
_OPEN
 10
51.63112759385422
 20
61.58065725455833
 30
0.0
 41
2.5
 42
2.5
 43
2.5
 50
90.0
  0
INSERT
  5
14CB
330
12B4
100
AcDbEntity
  8
外形線
 62
     2
370
    -2
100
AcDbBlockReference
  2
_OPEN
 10
51.63112759385422
 20
41.48065725455834
 30
0.0
 41
2.5
 42
2.5
 43
2.5
 50
270.0
  0
MTEXT
  5
14CC
330
12B4
100
AcDbEntity
  8
外形線
 62
     6
100
AcDbMText
 10
49.75612759385421
 20
51.53065725455835
 30
0.0
 40
2.5
 41
0.0
 71
     5
 72
     1
  1
\A1;20.1
  7
STYLE3
 11
0.0000000000000001
 21
1.0
 31
0.0
 73
     1
 44
1.0
  0
POINT
  5
14CD
330
12B4
100
AcDbEntity
  8
DEFPOINTS
 62
     0
100
AcDbPoint
 10
64.58331081804783
 20
61.58065725455833
 30
0.0
  0
POINT
  5
14CE
330
12B4
100
AcDbEntity
  8
DEFPOINTS
 62
     0
100
AcDbPoint
 10
102.0833108180478
 20
41.48065725455833
 30
0.0
  0
POINT
  5
14CF
330
12B4
100
AcDbEntity
  8
DEFPOINTS
 62
     0
100
AcDbPoint
 10
51.63112759385422
 20
41.48065725455834
 30
0.0
  0
ENDBLK
  5
12BE
330
12B4
100
AcDbEntity
  8
0
100
AcDbBlockEnd
  0
BLOCK
  5
1329
330
12CD
100
AcDbEntity
  8
0
100
AcDbBlockBegin
  2
*D4
 70
     1
 10
0.0
 20
0.0
 30
0.0
  3
*D4
  1

  0
LINE
  5
14BF
330
12CD
100
AcDbEntity
  8
外形線
 62
     2
370
    -2
100
AcDbLine
 10
181.138039999849
 20
152.5806572545585
 30
0.0
 11
160.4377523680843
 21
152.5806572545585
 31
0.0
  0
LINE
  5
14C0
330
12CD
100
AcDbEntity
  8
外形線
 62
     2
370
    -2
100
AcDbLine
 10
180.0960197623117
 20
97.58065725455816
 30
0.0
 11
160.4377523680843
 21
97.58065725455816
 31
0.0
  0
LINE
  5
14C1
330
12CD
100
AcDbEntity
  8
外形線
 62
     2
370
    -2
100
AcDbLine
 10
161.6877523680843
 20
150.0806572545585
 30
0.0
 11
161.6877523680843
 21
100.0806572545581
 31
0.0
  0
INSERT
  5
14C2
330
12CD
100
AcDbEntity
  8
外形線
 62
     2
370
    -2
100
AcDbBlockReference
  2
_OPEN
 10
161.6877523680843
 20
152.5806572545585
 30
0.0
 41
2.5
 42
2.5
 43
2.5
 50
90.0
  0
INSERT
  5
14C3
330
12CD
100
AcDbEntity
  8
外形線
 62
     2
370
    -2
100
AcDbBlockReference
  2
_OPEN
 10
161.6877523680843
 20
97.58065725455816
 30
0.0
 41
2.5
 42
2.5
 43
2.5
 50
270.0
  0
MTEXT
  5
14C4
330
12CD
100
AcDbEntity
  8
外形線
 62
     6
100
AcDbMText
 10
159.8127523680843
 20
125.0806572545583
 30
0.0
 40
2.5
 41
0.0
 71
     5
 72
     1
  1
\A1;φ55
  7
STYLE3
 11
0.0000000000000001
 21
1.0
 31
0.0
 73
     1
 44
1.0
  0
POINT
  5
14C5
330
12CD
100
AcDbEntity
  8
DEFPOINTS
 62
     0
100
AcDbPoint
 10
181.138039999849
 20
152.5806572545585
 30
0.0
  0
POINT
  5
14C6
330
12CD
100
AcDbEntity
  8
DEFPOINTS
 62
     0
100
AcDbPoint
 10
180.0960197623117
 20
97.58065725455816
 30
0.0
  0
POINT
  5
14C7
330
12CD
100
AcDbEntity
  8
DEFPOINTS
 62
     0
100
AcDbPoint
 10
161.6877523680843
 20
97.58065725455816
 30
0.0
  0
ENDBLK
  5
1333
330
12CD
100
AcDbEntity
  8
0
100
AcDbBlockEnd
  0
BLOCK
  5
12E6
330
12E5
100
AcDbEntity
  8
0
100
AcDbBlockBegin
  2
*D5
 70
     1
 10
0.0
 20
0.0
 30
0.0
  3
*D5
  1

  0
LINE
  5
14B6
330
12E5
100
AcDbEntity
  8
外形線
 62
     2
370
    -2
100
AcDbLine
 10
184.1725549361899
 20
61.58065725455833
 30
0.0
 11
184.1725549361899
 21
30.62957505866445
 31
0.0
  0
LINE
  5
14B7
330
12E5
100
AcDbEntity
  8
外形線
 62
     2
370
    -2
100
AcDbLine
 10
195.1725549361899
 20
61.58065725455833
 30
0.0
 11
195.1725549361899
 21
30.62957505866445
 31
0.0
  0
LINE
  5
14B8
330
12E5
100
AcDbEntity
  8
外形線
 62
     2
370
    -2
100
AcDbLine
 10
186.6725549361899
 20
31.87957505866445
 30
0.0
 11
192.6725549361899
 21
31.87957505866445
 31
0.0
  0
INSERT
  5
14B9
330
12E5
100
AcDbEntity
  8
外形線
 62
     2
370
    -2
100
AcDbBlockReference
  2
_OPEN
 10
184.1725549361899
 20
31.87957505866445
 30
0.0
 41
2.5
 42
2.5
 43
2.5
 50
180.0
  0
INSERT
  5
14BA
330
12E5
100
AcDbEntity
  8
外形線
 62
     2
370
    -2
100
AcDbBlockReference
  2
_OPEN
 10
195.1725549361899
 20
31.87957505866445
 30
0.0
 41
2.5
 42
2.5
 43
2.5
  0
MTEXT
  5
14BB
330
12E5
100
AcDbEntity
  8
外形線
 62
     6
100
AcDbMText
 10
189.6725549361899
 20
33.75457505866445
 30
0.0
 40
2.5
 41
0.0
 71
     5
 72
     1
  1
\A1;11
  7
STYLE3
 73
     1
 44
1.0
  0
POINT
  5
14BC
330
12E5
100
AcDbEntity
  8
DEFPOINTS
 62
     0
100
AcDbPoint
 10
184.1725549361899
 20
61.58065725455833
 30
0.0
  0
POINT
  5
14BD
330
12E5
100
AcDbEntity
  8
DEFPOINTS
 62
     0
100
AcDbPoint
 10
195.1725549361899
 20
61.58065725455833
 30
0.0
  0
POINT
  5
14BE
330
12E5
100
AcDbEntity
  8
DEFPOINTS
 62
     0
100
AcDbPoint
 10
195.1725549361899
 20
31.87957505866445
 30
0.0
  0
ENDBLK
  5
12F0
330
12E5
100
AcDbEntity
  8
0
100
AcDbBlockEnd
  0
BLOCK
  5
13C0
330
13BF
100
AcDbEntity
  8
0
100
AcDbBlockBegin
  2
*D6
 70
     1
 10
0.0
 20
0.0
 30
0.0
  3
*D6
  1

  0
LINE
  5
14AD
330
13BF
100
AcDbEntity
  8
外形線
 62
     2
370
    -2
100
AcDbLine
 10
102.0833108180478
 20
175.5806572545583
 30
0.0
 11
40.28839944802385
 21
175.5806572545583
 31
0.0
  0
LINE
  5
14AE
330
13BF
100
AcDbEntity
  8
外形線
 62
     2
370
    -2
100
AcDbLine
 10
102.0833108180478
 20
41.48065725455832
 30
0.0
 11
40.28839944802382
 21
41.48065725455834
 31
0.0
  0
LINE
  5
14AF
330
13BF
100
AcDbEntity
  8
外形線
 62
     2
370
    -2
100
AcDbLine
 10
41.53839944802385
 20
173.0806572545583
 30
0.0
 11
41.53839944802382
 21
43.98065725455834
 31
0.0
  0
INSERT
  5
14B0
330
13BF
100
AcDbEntity
  8
外形線
 62
     2
370
    -2
100
AcDbBlockReference
  2
_OPEN
 10
41.53839944802385
 20
175.5806572545583
 30
0.0
 41
2.5
 42
2.5
 43
2.5
 50
90.0
  0
INSERT
  5
14B1
330
13BF
100
AcDbEntity
  8
外形線
 62
     2
370
    -2
100
AcDbBlockReference
  2
_OPEN
 10
41.53839944802382
 20
41.48065725455834
 30
0.0
 41
2.5
 42
2.5
 43
2.5
 50
270.0
  0
MTEXT
  5
14B2
330
13BF
100
AcDbEntity
  8
外形線
 62
     6
100
AcDbMText
 10
39.66339944802383
 20
108.5306572545583
 30
0.0
 40
2.5
 41
0.0
 71
     5
 72
     1
  1
\A1;134.1
  7
STYLE3
 11
0.0000000000000001
 21
1.0
 31
0.0
 73
     1
 44
1.0
  0
POINT
  5
14B3
330
13BF
100
AcDbEntity
  8
DEFPOINTS
 62
     0
100
AcDbPoint
 10
102.0833108180478
 20
175.5806572545583
 30
0.0
  0
POINT
  5
14B4
330
13BF
100
AcDbEntity
  8
DEFPOINTS
 62
     0
100
AcDbPoint
 10
102.0833108180478
 20
41.48065725455832
 30
0.0
  0
POINT
  5
14B5
330
13BF
100
AcDbEntity
  8
DEFPOINTS
 62
     0
100
AcDbPoint
 10
41.53839944802382
 20
41.48065725455834
 30
0.0
  0
ENDBLK
  5
13CA
330
13BF
100
AcDbEntity
  8
0
100
AcDbBlockEnd
  0
ENDSEC
  0
SECTION
  2
ENTITIES
  0
LWPOLYLINE
  5
26C
330
18
100
AcDbEntity
  8
C
100
AcDbPolyline
 90
        5
 70
     0
 43
0.4
 10
0.0
 20
195.0
 10
255.0
 20
195.0
 10
255.0
 20
0.0
 10
0.0
 20
0.0
 10
0.0
 20
195.0
  0
LINE
  5
304
330
18
100
AcDbEntity
  8
中心線
100
AcDbLine
 10
70.25891028179149
 20
125.0806572545583
 30
0.0
 11
134.0390226079731
 21
125.0806572545583
 31
0.0
  0
LINE
  5
305
330
18
100
AcDbEntity
  8
中心線
100
AcDbLine
 10
102.0833108180478
 20
178.9587122612506
 30
0.0
 11
102.0833108180478
 21
39.93182159792571
 31
0.0
  0
MTEXT
  5
663
330
18
100
AcDbEntity
  8
DEFPOINTS
  6
Continuous
100
AcDbMText
 10
1007.302375181315
 20
334.9201117568839
 30
0.0
 40
1.0
 41
0.0
 71
     4
 72
     1
  1
\A1;
 73
     1
 44
1.0
  0
MTEXT
  5
6BC
330
18
100
AcDbEntity
  8
文字
100
AcDbMText
 10
574.4415847393145
 20
360.9980939951181
 30
0.0
 40
1.0
 41
6.927999999999999
 71
     1
 72
     5
  1

  7
STYLE3
 73
     1
 44
1.0
  0
MTEXT
  5
71B
330
18
100
AcDbEntity
  8
DEFPOINTS
  6
Continuous
100
AcDbMText
 10
896.177394394456
 20
284.2456452825689
 30
0.0
 40
0.35
 41
0.0
 71
     4
 72
     1
  1
\A1;
 73
     1
 44
1.0
  0
LINE
  5
8EC
330
18
100
AcDbEntity
  8
外形線
100
AcDbLine
 10
64.58331081804783
 20
61.58065725455833
 30
0.0
 11
139.5833108180478
 21
61.58065725455833
 31
0.0
  0
LINE
  5
92D
330
18
100
AcDbEntity
  8
外形線
100
AcDbLine
 10
91.08331081804783
 20
97.58065725455834
 30
0.0
 11
91.08331081804783
 21
83.58065725455835
 31
0.0
  0
LINE
  5
92E
330
18
100
AcDbEntity
  8
外形線
100
AcDbLine
 10
113.0833108180478
 20
97.58065725455834
 30
0.0
 11
113.0833108180478
 21
83.58065725455833
 31
0.0
  0
LINE
  5
92F
330
18
100
AcDbEntity
  8
外形線
100
AcDbLine
 10
123.0833108180478
 20
73.58065725455833
 30
0.0
 11
135.5833108180478
 21
73.58065725455833
 31
0.0
  0
ARC
  5
932
330
18
100
AcDbEntity
  8
外形線
100
AcDbCircle
 10
123.0833108180478
 20
83.58065725455833
 30
0.0
 40
10.0
100
AcDbArc
 50
180.0
 51
270.0
  0
LINE
  5
933
330
18
100
AcDbEntity
  8
外形線
100
AcDbLine
 10
68.58331081804784
 20
73.58065725455833
 30
0.0
 11
81.08331081804783
 21
73.58065725455834
 31
0.0
  0
ARC
  5
934
330
18
100
AcDbEntity
  8
外形線
100
AcDbCircle
 10
81.08331081804783
 20
83.58065725455835
 30
0.0
 40
10.0
100
AcDbArc
 50
270.0
 51
0.0
  0
LINE
  5
941
330
18
100
AcDbEntity
  8
外形線
100
AcDbLine
 10
92.72471916510751
 20
99.222065601618
 30
0.0
 11
91.08331081804783
 21
97.58065725455834
 31
0.0
  0
LINE
  5
942
330
18
100
AcDbEntity
  8
外形線
100
AcDbLine
 10
111.4419024709881
 20
99.222065601618
 30
0.0
 11
113.0833108180478
 21
97.58065725455834
 31
0.0
  0
LINE
  5
943
330
18
100
AcDbEntity
  8
中心線
100
AcDbLine
 10
89.5043001018347
 20
92.58065725455834
 30
0.0
 11
114.9547172268376
 21
92.58065725455834
 31
0.0
  0
LINE
  5
944
330
18
100
AcDbEntity
  8
中心線
100
AcDbLine
 10
95.08331081804783
 20
96.62274783381125
 30
0.0
 11
95.08331081804783
 21
83.62734190682923
 31
0.0
  0
LINE
  5
945
330
18
100
AcDbEntity
  8
中心線
100
AcDbLine
 10
109.0833108180478
 20
96.93246213664819
 30
0.0
 11
109.0833108180478
 21
83.99814500965007
 31
0.0
  0
CIRCLE
  5
952
330
18
100
AcDbEntity
  8
外形線
100
AcDbCircle
 10
95.08331081804783
 20
92.58065725455834
 30
0.0
 40
3.0
  0
CIRCLE
  5
954
330
18
100
AcDbEntity
  8
外形線
100
AcDbCircle
 10
109.0833108180478
 20
92.58065725455834
 30
0.0
 40
3.0
  0
LINE
  5
95C
330
18
100
AcDbEntity
  8
外形線
100
AcDbLine
 10
103.3333108180478
 20
59.98065725455834
 30
0.0
 11
102.0833108180478
 21
59.9806572545583
 31
0.0
  0
LINE
  5
95D
330
18
100
AcDbEntity
  8
外形線
100
AcDbLine
 10
104.523914834872
 20
54.98065725455839
 30
0.0
 11
102.0833108180478
 21
54.98065725455834
 31
0.0
  0
LINE
  5
95E
330
18
100
AcDbEntity
  8
外形線
100
AcDbLine
 10
104.5833108180478
 20
54.48065725455833
 30
0.0
 11
102.0833108180478
 21
54.48065725455831
 31
0.0
  0
LINE
  5
960
330
18
100
AcDbEntity
  8
外形線
100
AcDbLine
 10
103.9333108180478
 20
42.78065725455829
 30
0.0
 11
103.6333108180478
 21
42.78065725455829
 31
0.0
  0
LINE
  5
961
330
18
100
AcDbEntity
  8
外形線
100
AcDbLine
 10
104.5833108180478
 20
45.18065725455829
 30
0.0
 11
99.5833108180478
 21
45.18065725455835
 31
0.0
  0
LINE
  5
962
330
18
100
AcDbEntity
  8
外形線
100
AcDbLine
 10
104.5833108180478
 20
59.68065725455833
 30
0.0
 11
104.5833108180478
 21
54.98065725455834
 31
0.0
  0
LINE
  5
96B
330
18
100
AcDbEntity
  8
外形線
100
AcDbLine
 10
104.2833108180478
 20
59.98065725455834
 30
0.0
 11
104.5833108180478
 21
59.68065725455833
 31
0.0
  0
LINE
  5
96D
330
18
100
AcDbEntity
  8
外形線
100
AcDbLine
 10
104.5833108180478
 20
59.68065725455833
 30
0.0
 11
102.0833108180478
 21
59.68065725455833
 31
0.0
  0
ARC
  5
96E
330
18
100
AcDbEntity
  8
外形線
100
AcDbCircle
 10
104.5570866531258
 20
54.73286776633552
 30
0.0
 40
0.25
100
AcDbArc
 50
83.19143105406302
 51
276.8085689459369
  0
LINE
  5
972
330
18
100
AcDbEntity
  8
外形線
100
AcDbLine
 10
104.5833108180478
 20
54.48804770693837
 30
0.0
 11
104.5833108180478
 21
45.18065725455833
 31
0.0
  0
LINE
  5
977
330
18
100
AcDbEntity
  8
外形線
100
AcDbLine
 10
104.2833108180478
 20
59.98065725455834
 30
0.0
 11
103.3333108180478
 21
59.98065725455834
 31
0.0
  0
LINE
  5
978
330
18
100
AcDbEntity
  8
外形線
100
AcDbLine
 10
99.88331081804782
 20
59.98065725455834
 30
0.0
 11
99.5833108180478
 21
59.68065725455833
 31
0.0
  0
LINE
  5
979
330
18
100
AcDbEntity
  8
外形線
100
AcDbLine
 10
99.88331081804782
 20
59.98065725455834
 30
0.0
 11
100.8333108180478
 21
59.98065725455834
 31
0.0
  0
LINE
  5
97A
330
18
100
AcDbEntity
  8
外形線
100
AcDbLine
 10
99.5833108180478
 20
59.68065725455833
 30
0.0
 11
102.0833108180478
 21
59.68065725455833
 31
0.0
  0
LINE
  5
97B
330
18
100
AcDbEntity
  8
外形線
100
AcDbLine
 10
99.5833108180478
 20
59.68065725455833
 30
0.0
 11
99.5833108180478
 21
54.98065725455834
 31
0.0
  0
LINE
  5
97C
330
18
100
AcDbEntity
  8
外形線
100
AcDbLine
 10
100.8333108180478
 20
59.98065725455834
 30
0.0
 11
102.0833108180478
 21
59.9806572545583
 31
0.0
  0
LINE
  5
97D
330
18
100
AcDbEntity
  8
外形線
100
AcDbLine
 10
99.5833108180478
 20
54.48804770693837
 30
0.0
 11
99.5833108180478
 21
45.18065725455833
 31
0.0
  0
LINE
  5
97E
330
18
100
AcDbEntity
  8
外形線
100
AcDbLine
 10
99.58331081804784
 20
54.48065725455833
 30
0.0
 11
102.0833108180478
 21
54.48065725455831
 31
0.0
  0
LINE
  5
97F
330
18
100
AcDbEntity
  8
外形線
100
AcDbLine
 10
99.64270680122366
 20
54.98065725455839
 30
0.0
 11
102.0833108180478
 21
54.98065725455834
 31
0.0
  0
ARC
  5
980
330
18
100
AcDbEntity
  8
外形線
100
AcDbCircle
 10
99.60953498296985
 20
54.73286776633552
 30
0.0
 40
0.25
100
AcDbArc
 50
263.1914310540631
 51
96.80856894593695
  0
ARC
  5
986
330
18
100
AcDbEntity
  8
外形線
100
AcDbCircle
 10
102.0833108180478
 20
43.03065725455832
 30
0.0
 40
1.55
100
AcDbArc
 50
189.281799086679
 51
350.7182009133209
  0
LINE
  5
98D
330
18
100
AcDbEntity
  8
外形線
100
AcDbLine
 10
104.5833108180478
 20
45.18065725455833
 30
0.0
 11
103.9333108180478
 21
42.78065725455829
 31
0.0
  0
LINE
  5
98E
330
18
100
AcDbEntity
  8
外形線
100
AcDbLine
 10
99.5833108180478
 20
45.18065725455833
 30
0.0
 11
100.2333108180478
 21
42.78065725455832
 31
0.0
  0
LINE
  5
991
330
18
100
AcDbEntity
  8
外形線
100
AcDbLine
 10
100.5333108180478
 20
42.78065725455832
 30
0.0
 11
100.2333108180478
 21
42.78065725455832
 31
0.0
  0
LINE
  5
C83
330
18
100
AcDbEntity
  8
中心線
 48
0.5
100
AcDbLine
 10
68.49316428543364
 20
125.0806572545583
 30
0.0
 11
131.68394216368
 21
125.0806572545583
 31
0.0
  0
CIRCLE
  5
C85
330
18
100
AcDbEntity
  8
外形線
100
AcDbCircle
 10
102.0833108180478
 20
125.0806572545583
 30
0.0
 40
15.5
  0
CIRCLE
  5
C86
330
18
100
AcDbEntity
  8
外形線
100
AcDbCircle
 10
102.0833108180478
 20
125.0806572545583
 30
0.0
 40
23.0
  0
LINE
  5
C87
330
18
100
AcDbEntity
  8
目盛
100
AcDbLine
 10
100.6391288688736
 20
148.0352720084086
 30
0.0
 11
100.7647099079323
 21
146.039218551552
 31
0.0
  0
LINE
  5
C88
330
18
100
AcDbEntity
  8
目盛
100
AcDbLine
 10
99.20064644606885
 20
147.8992953847913
 30
0.0
 11
99.45131291319752
 21
145.9150659821623
 31
0.0
  0
LINE
  5
C89
330
18
100
AcDbEntity
  8
目盛
100
AcDbLine
 10
97.77354058257618
 20
147.6732640213182
 30
0.0
 11
98.1483032117477
 21
145.7086895198608
 31
0.0
  0
LINE
  5
C8A
330
18
100
AcDbEntity
  8
目盛
100
AcDbLine
 10
96.36344341325628
 20
147.3580699605168
 30
0.0
 11
96.86082318758588
 21
145.4209036382595
 31
0.0
  0
LINE
  5
C8B
330
18
100
AcDbEntity
  8
目盛
100
AcDbLine
 10
94.97591994742412
 20
146.9549571293469
 30
0.0
 11
95.9029709305488
 21
144.1017875804614
 31
0.0
  0
LINE
  5
C8C
330
18
100
AcDbEntity
  8
目盛
100
AcDbLine
 10
93.61644610630026
 20
146.4655164299881
 30
0.0
 11
94.35269521166958
 21
144.6059634582116
 31
0.0
  0
LINE
  5
C8D
330
18
100
AcDbEntity
  8
目盛
100
AcDbLine
 10
92.29038711205101
 20
145.8916794612767
 30
0.0
 11
93.14194569518134
 21
144.0820253563447
 31
0.0
  0
LINE
  5
C8E
330
18
100
AcDbEntity
  8
目盛
100
AcDbLine
 10
91.00297631370825
 20
145.2357108955672
 30
0.0
 11
91.96648366191187
 21
143.4830975354795
 31
0.0
  0
LINE
  5
C8F
330
18
100
AcDbEntity
  8
目盛
100
AcDbLine
 10
89.7592945335308
 20
144.5001995411046
 30
0.0
 11
90.83094812348884
 21
142.8115436901006
 31
0.0
  0
LINE
  5
C90
330
18
100
AcDbEntity
  8
目盛
100
AcDbLine
 10
88.56425001532091
 20
143.6880481251821
 30
0.0
 11
90.32760577219836
 21
141.2609971420573
 31
0.0
  0
LINE
  5
C91
330
18
100
AcDbEntity
  8
目盛
100
AcDbLine
 10
87.42255905382796
 20
142.8024618384015
 30
0.0
 11
88.69740703332524
 21
141.2614353528499
 31
0.0
  0
LINE
  5
C92
330
18
100
AcDbEntity
  8
目盛
100
AcDbLine
 10
86.33872738168804
 20
141.8469356852508
 30
0.0
 11
87.70782159354542
 21
140.388998430408
 31
0.0
  0
LINE
  5
C93
330
18
100
AcDbEntity
  8
目盛
100
AcDbLine
 10
85.31703238735543
 20
140.8252406909181
 30
0.0
 11
86.77496964219825
 21
139.4561464790608
 31
0.0
  0
LINE
  5
C94
330
18
100
AcDbEntity
  8
目盛
100
AcDbLine
 10
84.36150623420473
 20
139.7414090187782
 30
0.0
 11
85.90253271975631
 21
138.4665610392808
 31
0.0
  0
LINE
  5
C95
330
18
100
AcDbEntity
  8
目盛
100
AcDbLine
 10
83.47591994742391
 20
138.5997180572852
 30
0.0
 11
85.9029709305488
 21
136.8363623004077
 31
0.0
  0
LINE
  5
C96
330
18
100
AcDbEntity
  8
目盛
100
AcDbLine
 10
82.66376853150143
 20
137.4046735390752
 30
0.0
 11
84.35242438250554
 21
136.3330199491173
 31
0.0
  0
LINE
  5
C97
330
18
100
AcDbEntity
  8
目盛
100
AcDbLine
 10
81.92825717703897
 20
136.1609917588978
 30
0.0
 11
83.68087053712669
 21
135.1974844106943
 31
0.0
  0
LINE
  5
C98
330
18
100
AcDbEntity
  8
目盛
100
AcDbLine
 10
81.27228861132937
 20
134.873580960555
 30
0.0
 11
83.08194271626133
 21
134.0220223774248
 31
0.0
  0
LINE
  5
C99
330
18
100
AcDbEntity
  8
目盛
100
AcDbLine
 10
80.6984516426179
 20
133.5475219663059
 30
0.0
 11
82.55800461439447
 21
132.8112728609366
 31
0.0
  0
LINE
  5
C9A
330
18
100
AcDbEntity
  8
目盛
100
AcDbLine
 10
80.20901094325916
 20
132.1880481251821
 30
0.0
 11
83.06218049214464
 21
131.2609971420573
 31
0.0
  0
LINE
  5
C9B
330
18
100
AcDbEntity
  8
目盛
100
AcDbLine
 10
79.80589811208926
 20
130.80052465935
 30
0.0
 11
81.74306443434659
 21
130.3031448850203
 31
0.0
  0
LINE
  5
C9C
330
18
100
AcDbEntity
  8
目盛
100
AcDbLine
 10
79.49070405128793
 20
129.39042749003
 30
0.0
 11
81.45527855274542
 21
129.0156648608585
 31
0.0
  0
LINE
  5
C9D
330
18
100
AcDbEntity
  8
目盛
100
AcDbLine
 10
79.26467268781482
 20
127.9633216265373
 30
0.0
 11
81.24890209044371
 21
127.7126551594087
 31
0.0
  0
LINE
  5
C9E
330
18
100
AcDbEntity
  8
目盛
100
AcDbLine
 10
79.12869606419747
 20
126.5248392037325
 30
0.0
 11
81.12474952105401
 21
126.3992581646739
 31
0.0
  0
LINE
  5
C9F
330
18
100
AcDbEntity
  8
目盛
100
AcDbLine
 10
79.12869606419747
 20
123.6364753053841
 30
0.0
 11
81.12474952105401
 21
123.7620563444427
 31
0.0
  0
LINE
  5
CA0
330
18
100
AcDbEntity
  8
目盛
100
AcDbLine
 10
79.26467268781482
 20
122.1979928825793
 30
0.0
 11
81.24890209044394
 21
122.4486593497079
 31
0.0
  0
LINE
  5
CA1
330
18
100
AcDbEntity
  8
目盛
100
AcDbLine
 10
79.49070405128793
 20
120.7708870190866
 30
0.0
 11
81.4552785527452
 21
121.1456496482581
 31
0.0
  0
LINE
  5
CA2
330
18
100
AcDbEntity
  8
目盛
100
AcDbLine
 10
79.80589811208926
 20
119.3607898497666
 30
0.0
 11
81.74306443434659
 21
119.8581696240964
 31
0.0
  0
LINE
  5
CA3
330
18
100
AcDbEntity
  8
目盛
100
AcDbLine
 10
80.20901094325939
 20
117.9732663839345
 30
0.0
 11
83.06218049214464
 21
118.9003173670593
 31
0.0
  0
LINE
  5
CA4
330
18
100
AcDbEntity
  8
目盛
100
AcDbLine
 10
80.69845164261812
 20
116.6137925428107
 30
0.0
 11
82.55800461439447
 21
117.35004164818
 31
0.0
  0
LINE
  5
CA5
330
18
100
AcDbEntity
  8
目盛
100
AcDbLine
 10
81.27228861132937
 20
115.2877335485616
 30
0.0
 11
83.08194271626133
 21
116.1392921316918
 31
0.0
  0
LINE
  5
CA6
330
18
100
AcDbEntity
  8
目盛
100
AcDbLine
 10
81.92825717703897
 20
114.0003227502188
 30
0.0
 11
83.68087053712669
 21
114.9638300984222
 31
0.0
  0
LINE
  5
CA7
330
18
100
AcDbEntity
  8
目盛
100
AcDbLine
 10
82.66376853150143
 20
112.7566409700414
 30
0.0
 11
84.35242438250554
 21
113.8282945599994
 31
0.0
  0
LINE
  5
CA8
330
18
100
AcDbEntity
  8
目盛
100
AcDbLine
 10
83.47591994742414
 20
111.5615964518314
 30
0.0
 11
85.9029709305488
 21
113.3249522087088
 31
0.0
  0
LINE
  5
CA9
330
18
100
AcDbEntity
  8
目盛
100
AcDbLine
 10
84.36150623420473
 20
110.4199054903384
 30
0.0
 11
85.90253271975631
 21
111.6947534698358
 31
0.0
  0
LINE
  5
CAA
330
18
100
AcDbEntity
  8
目盛
100
AcDbLine
 10
85.31703238735543
 20
109.3360738181984
 30
0.0
 11
86.77496964219825
 21
110.7051680300558
 31
0.0
  0
LINE
  5
CAB
330
18
100
AcDbEntity
  8
目盛
100
AcDbLine
 10
86.33872738168804
 20
108.3143788238658
 30
0.0
 11
87.70782159354542
 21
109.7723160787086
 31
0.0
  0
LINE
  5
CAC
330
18
100
AcDbEntity
  8
目盛
100
AcDbLine
 10
87.42255905382796
 20
107.3588526707151
 30
0.0
 11
88.69740703332524
 21
108.8998791562667
 31
0.0
  0
LINE
  5
CAD
330
18
100
AcDbEntity
  8
目盛
100
AcDbLine
 10
88.56425001532091
 20
106.4732663839345
 30
0.0
 11
90.32760577219836
 21
108.9003173670593
 31
0.0
  0
LINE
  5
CAE
330
18
100
AcDbEntity
  8
目盛
100
AcDbLine
 10
89.7592945335308
 20
105.6611149680119
 30
0.0
 11
90.83094812348884
 21
107.349770819016
 31
0.0
  0
LINE
  5
CAF
330
18
100
AcDbEntity
  8
目盛
100
AcDbLine
 10
91.00297631370848
 20
104.9256036135495
 30
0.0
 11
91.96648366191187
 21
106.6782169736371
 31
0.0
  0
LINE
  5
CB0
330
18
100
AcDbEntity
  8
目盛
100
AcDbLine
 10
92.29038711205124
 20
104.2696350478399
 30
0.0
 11
93.14194569518134
 21
106.0792891527719
 31
0.0
  0
LINE
  5
CB1
330
18
100
AcDbEntity
  8
目盛
100
AcDbLine
 10
93.61644610630026
 20
103.6957980791285
 30
0.0
 11
94.35269521166958
 21
105.555351050905
 31
0.0
  0
LINE
  5
CB2
330
18
100
AcDbEntity
  8
目盛
100
AcDbLine
 10
94.97591994742412
 20
103.2063573797697
 30
0.0
 11
95.90297093054903
 21
106.0595269286552
 31
0.0
  0
LINE
  5
CB3
330
18
100
AcDbEntity
  8
目盛
100
AcDbLine
 10
96.36344341325628
 20
102.8032445485998
 30
0.0
 11
96.86082318758588
 21
104.7404108708571
 31
0.0
  0
LINE
  5
CB4
330
18
100
AcDbEntity
  8
目盛
100
AcDbLine
 10
97.77354058257618
 20
102.4880504877985
 30
0.0
 11
98.1483032117477
 21
104.4526249892558
 31
0.0
  0
LINE
  5
CB5
330
18
100
AcDbEntity
  8
目盛
100
AcDbLine
 10
99.20064644606885
 20
102.2620191243253
 30
0.0
 11
99.45131291319752
 21
104.2462485269542
 31
0.0
  0
LINE
  5
CB6
330
18
100
AcDbEntity
  8
目盛
100
AcDbLine
 10
100.6391288688736
 20
102.1260425007081
 30
0.0
 11
100.7647099079323
 21
104.1220959575646
 31
0.0
  0
LINE
  5
CB7
330
18
100
AcDbEntity
  8
目盛
100
AcDbLine
 10
103.527492767222
 20
102.1260425007081
 30
0.0
 11
103.4019117281633
 21
104.1220959575646
 31
0.0
  0
LINE
  5
CB8
330
18
100
AcDbEntity
  8
目盛
100
AcDbLine
 10
104.9659751900268
 20
102.2620191243253
 30
0.0
 11
104.7153087228981
 21
104.2462485269543
 31
0.0
  0
LINE
  5
CB9
330
18
100
AcDbEntity
  8
目盛
100
AcDbLine
 10
106.3930810535195
 20
102.4880504877985
 30
0.0
 11
106.0183184243482
 21
104.4526249892559
 31
0.0
  0
LINE
  5
CBA
330
18
100
AcDbEntity
  8
目盛
100
AcDbLine
 10
107.8031782228394
 20
102.8032445485998
 30
0.0
 11
107.3057984485098
 21
104.7404108708571
 31
0.0
  0
LINE
  5
CBB
330
18
100
AcDbEntity
  8
目盛
100
AcDbLine
 10
109.1907016886717
 20
103.2063573797698
 30
0.0
 11
108.2636507055468
 21
106.0595269286552
 31
0.0
  0
LINE
  5
CBC
330
18
100
AcDbEntity
  8
目盛
100
AcDbLine
 10
110.5501755297954
 20
103.6957980791285
 30
0.0
 11
109.8139264244261
 21
105.555351050905
 31
0.0
  0
LINE
  5
CBD
330
18
100
AcDbEntity
  8
目盛
100
AcDbLine
 10
111.8762345240444
 20
104.2696350478399
 30
0.0
 11
111.0246759409143
 21
106.079289152772
 31
0.0
  0
LINE
  5
CBE
330
18
100
AcDbEntity
  8
目盛
100
AcDbLine
 10
113.1636453223872
 20
104.9256036135495
 30
0.0
 11
112.2001379741838
 21
106.6782169736373
 31
0.0
  0
LINE
  5
CBF
330
18
100
AcDbEntity
  8
目盛
100
AcDbLine
 10
114.4073271025648
 20
105.661114968012
 30
0.0
 11
113.3356735126068
 21
107.349770819016
 31
0.0
  0
LINE
  5
CC0
330
18
100
AcDbEntity
  8
目盛
100
AcDbLine
 10
115.6023716207747
 20
106.4732663839345
 30
0.0
 11
113.8390158638973
 21
108.9003173670593
 31
0.0
  0
LINE
  5
CC1
330
18
100
AcDbEntity
  8
目盛
100
AcDbLine
 10
116.7440625822677
 20
107.3588526707152
 30
0.0
 11
115.4692146027704
 21
108.8998791562667
 31
0.0
  0
LINE
  5
CC2
330
18
100
AcDbEntity
  8
目盛
100
AcDbLine
 10
117.8278942544076
 20
108.3143788238659
 30
0.0
 11
116.4588000425502
 21
109.7723160787087
 31
0.0
  0
LINE
  5
CC3
330
18
100
AcDbEntity
  8
目盛
100
AcDbLine
 10
118.8495892487402
 20
109.3360738181985
 30
0.0
 11
117.3916519938974
 21
110.7051680300559
 31
0.0
  0
LINE
  5
CC4
330
18
100
AcDbEntity
  8
目盛
100
AcDbLine
 10
119.8051154018909
 20
110.4199054903384
 30
0.0
 11
118.2640889163393
 21
111.6947534698358
 31
0.0
  0
LINE
  5
CC5
330
18
100
AcDbEntity
  8
目盛
100
AcDbLine
 10
120.6907016886715
 20
111.5615964518314
 30
0.0
 11
118.2636507055468
 21
113.3249522087089
 31
0.0
  0
LINE
  5
CC6
330
18
100
AcDbEntity
  8
目盛
100
AcDbLine
 10
121.5028531045942
 20
112.7566409700414
 30
0.0
 11
119.8141972535901
 21
113.8282945599994
 31
0.0
  0
LINE
  5
CC7
330
18
100
AcDbEntity
  8
目盛
100
AcDbLine
 10
122.2383644590567
 20
114.0003227502189
 30
0.0
 11
120.485751098969
 21
114.9638300984223
 31
0.0
  0
LINE
  5
CC8
330
18
100
AcDbEntity
  8
目盛
100
AcDbLine
 10
122.8943330247663
 20
115.2877335485617
 30
0.0
 11
121.0846789198341
 21
116.1392921316918
 31
0.0
  0
LINE
  5
CC9
330
18
100
AcDbEntity
  8
目盛
100
AcDbLine
 10
123.4681699934775
 20
116.6137925428107
 30
0.0
 11
121.608617021701
 21
117.3500416481801
 31
0.0
  0
LINE
  5
CCA
330
18
100
AcDbEntity
  8
目盛
100
AcDbLine
 10
123.9576106928363
 20
117.9732663839345
 30
0.0
 11
121.1044411439508
 21
118.9003173670594
 31
0.0
  0
LINE
  5
CCB
330
18
100
AcDbEntity
  8
目盛
100
AcDbLine
 10
124.3607235240064
 20
119.3607898497666
 30
0.0
 11
122.4235572017491
 21
119.8581696240964
 31
0.0
  0
LINE
  5
CCC
330
18
100
AcDbEntity
  8
目盛
100
AcDbLine
 10
124.6759175848077
 20
120.7708870190866
 30
0.0
 11
122.7113430833502
 21
121.1456496482581
 31
0.0
  0
LINE
  5
CCD
330
18
100
AcDbEntity
  8
目盛
100
AcDbLine
 10
124.9019489482808
 20
122.1979928825794
 30
0.0
 11
122.9177195456519
 21
122.448659349708
 31
0.0
  0
LINE
  5
CCE
330
18
100
AcDbEntity
  8
目盛
100
AcDbLine
 10
125.0379255718979
 20
123.6364753053841
 30
0.0
 11
123.0418721150414
 21
123.7620563444427
 31
0.0
  0
LINE
  5
CCF
330
18
100
AcDbEntity
  8
目盛
100
AcDbLine
 10
125.0379255718979
 20
126.5248392037324
 30
0.0
 11
123.0418721150414
 21
126.3992581646738
 31
0.0
  0
LINE
  5
CD0
330
18
100
AcDbEntity
  8
目盛
100
AcDbLine
 10
124.9019489482808
 20
127.9633216265374
 30
0.0
 11
122.9177195456517
 21
127.7126551594087
 31
0.0
  0
LINE
  5
CD1
330
18
100
AcDbEntity
  8
目盛
100
AcDbLine
 10
124.6759175848077
 20
129.3904274900299
 30
0.0
 11
122.7113430833502
 21
129.0156648608585
 31
0.0
  0
LINE
  5
CD2
330
18
100
AcDbEntity
  8
目盛
100
AcDbLine
 10
124.3607235240064
 20
130.8005246593499
 30
0.0
 11
122.4235572017491
 21
130.3031448850202
 31
0.0
  0
LINE
  5
CD3
330
18
100
AcDbEntity
  8
目盛
100
AcDbLine
 10
123.9576106928363
 20
132.1880481251821
 30
0.0
 11
121.1044411439508
 21
131.2609971420573
 31
0.0
  0
LINE
  5
CD4
330
18
100
AcDbEntity
  8
目盛
100
AcDbLine
 10
123.4681699934775
 20
133.5475219663059
 30
0.0
 11
121.608617021701
 21
132.8112728609365
 31
0.0
  0
LINE
  5
CD5
330
18
100
AcDbEntity
  8
目盛
100
AcDbLine
 10
122.8943330247663
 20
134.873580960555
 30
0.0
 11
121.0846789198343
 21
134.0220223774248
 31
0.0
  0
LINE
  5
CD6
330
18
100
AcDbEntity
  8
目盛
100
AcDbLine
 10
122.2383644590567
 20
136.1609917588977
 30
0.0
 11
120.485751098969
 21
135.1974844106943
 31
0.0
  0
LINE
  5
CD7
330
18
100
AcDbEntity
  8
目盛
100
AcDbLine
 10
121.5028531045942
 20
137.4046735390752
 30
0.0
 11
119.8141972535901
 21
136.3330199491172
 31
0.0
  0
LINE
  5
CD8
330
18
100
AcDbEntity
  8
目盛
100
AcDbLine
 10
120.6907016886715
 20
138.5997180572851
 30
0.0
 11
118.2636507055468
 21
136.8363623004077
 31
0.0
  0
LINE
  5
CD9
330
18
100
AcDbEntity
  8
目盛
100
AcDbLine
 10
119.8051154018909
 20
139.7414090187781
 30
0.0
 11
118.2640889163393
 21
138.4665610392807
 31
0.0
  0
LINE
  5
CDA
330
18
100
AcDbEntity
  8
目盛
100
AcDbLine
 10
118.8495892487402
 20
140.8252406909181
 30
0.0
 11
117.3916519938974
 21
139.4561464790607
 31
0.0
  0
LINE
  5
CDB
330
18
100
AcDbEntity
  8
目盛
100
AcDbLine
 10
117.8278942544076
 20
141.8469356852507
 30
0.0
 11
116.4588000425502
 21
140.3889984304079
 31
0.0
  0
LINE
  5
CDC
330
18
100
AcDbEntity
  8
目盛
100
AcDbLine
 10
116.7440625822677
 20
142.8024618384013
 30
0.0
 11
115.4692146027704
 21
141.2614353528498
 31
0.0
  0
LINE
  5
CDD
330
18
100
AcDbEntity
  8
目盛
100
AcDbLine
 10
115.6023716207747
 20
143.688048125182
 30
0.0
 11
113.8390158638973
 21
141.2609971420572
 31
0.0
  0
LINE
  5
CDE
330
18
100
AcDbEntity
  8
目盛
100
AcDbLine
 10
114.4073271025648
 20
144.5001995411046
 30
0.0
 11
113.3356735126068
 21
142.8115436901005
 31
0.0
  0
LINE
  5
CDF
330
18
100
AcDbEntity
  8
目盛
100
AcDbLine
 10
113.1636453223874
 20
145.2357108955671
 30
0.0
 11
112.200137974184
 21
143.4830975354794
 31
0.0
  0
LINE
  5
CE0
330
18
100
AcDbEntity
  8
目盛
100
AcDbLine
 10
111.8762345240446
 20
145.8916794612767
 30
0.0
 11
111.0246759409145
 21
144.0820253563446
 31
0.0
  0
LINE
  5
CE1
330
18
100
AcDbEntity
  8
目盛
100
AcDbLine
 10
110.5501755297956
 20
146.465516429988
 30
0.0
 11
109.8139264244261
 21
144.6059634582115
 31
0.0
  0
LINE
  5
CE2
330
18
100
AcDbEntity
  8
目盛
100
AcDbLine
 10
109.1907016886717
 20
146.9549571293468
 30
0.0
 11
108.2636507055468
 21
144.1017875804613
 31
0.0
  0
LINE
  5
CE3
330
18
100
AcDbEntity
  8
目盛
100
AcDbLine
 10
107.8031782228396
 20
147.3580699605168
 30
0.0
 11
107.30579844851
 21
145.4209036382595
 31
0.0
  0
LINE
  5
CE4
330
18
100
AcDbEntity
  8
目盛
100
AcDbLine
 10
106.3930810535197
 20
147.6732640213181
 30
0.0
 11
106.0183184243482
 21
145.7086895198607
 31
0.0
  0
LINE
  5
CE5
330
18
100
AcDbEntity
  8
目盛
100
AcDbLine
 10
104.965975190027
 20
147.8992953847913
 30
0.0
 11
104.7153087228984
 21
145.9150659821623
 31
0.0
  0
LINE
  5
CE6
330
18
100
AcDbEntity
  8
目盛
100
AcDbLine
 10
103.5274927672222
 20
148.0352720084086
 30
0.0
 11
103.4019117281635
 21
146.039218551552
 31
0.0
  0
LINE
  5
CE7
330
18
100
AcDbEntity
  8
目盛
100
AcDbLine
 10
122.0833108180478
 20
125.0806572545583
 30
0.0
 11
125.0833108180478
 21
125.0806572545583
 31
0.0
  0
LINE
  5
CE8
330
18
100
AcDbEntity
  8
目盛
100
AcDbLine
 10
102.0833108180478
 20
105.0806572545583
 30
0.0
 11
102.0833108180478
 21
102.0806572545583
 31
0.0
  0
LINE
  5
CE9
330
18
100
AcDbEntity
  8
目盛
100
AcDbLine
 10
79.08331081804783
 20
125.0806572545583
 30
0.0
 11
82.08331081804784
 21
125.0806572545583
 31
0.0
  0
LINE
  5
CEA
330
18
100
AcDbEntity
  8
目盛
100
AcDbLine
 10
102.0833108180478
 20
148.0806572545583
 30
0.0
 11
102.0833108180478
 21
145.0806572545583
 31
0.0
  0
TEXT
  5
CEB
330
18
100
AcDbEntity
  8
文字
100
AcDbText
 10
100.869000295599
 20
142.201176649071
 30
0.0
 40
2.5
  1
0
  7
STYLE3
100
AcDbText
  0
TEXT
  5
CEC
330
18
100
AcDbEntity
  8
文字
100
AcDbText
 10
87.68011816306227
 20
138.4694374190702
 30
0.0
 40
2.5
  1
10
  7
STYLE3
100
AcDbText
  0
TEXT
  5
CED
330
18
100
AcDbEntity
  8
文字
100
AcDbText
 10
82.11027340064857
 20
129.4885317725378
 30
0.0
 40
2.5
  1
20
  7
STYLE3
100
AcDbText
  0
TEXT
  5
CEE
330
18
100
AcDbEntity
  8
文字
100
AcDbText
 10
82.59814461926522
 20
117.8318281835226
 30
0.0
 40
2.5
  1
30
  7
STYLE3
100
AcDbText
  0
TEXT
  5
CEF
330
18
100
AcDbEntity
  8
文字
100
AcDbText
 10
90.08373196353023
 20
109.208228148082
 30
0.0
 40
2.5
  1
40
  7
STYLE3
100
AcDbText
  0
TEXT
  5
CF0
330
18
100
AcDbEntity
  8
文字
100
AcDbText
 10
99.77006335089903
 20
105.3977699811998
 30
0.0
 40
2.5
  1
50
  7
STYLE3
100
AcDbText
  0
TEXT
  5
CF1
330
18
100
AcDbEntity
  8
文字
100
AcDbText
 10
110.2208094243307
 20
109.1286469570666
 30
0.0
 40
2.5
  1
60
  7
STYLE3
100
AcDbText
  0
TEXT
  5
CF2
330
18
100
AcDbEntity
  8
文字
100
AcDbText
 10
116.3306162087457
 20
117.8555133687216
 30
0.0
 40
2.5
  1
70
  7
STYLE3
100
AcDbText
  0
TEXT
  5
CF3
330
18
100
AcDbEntity
  8
文字
100
AcDbText
 10
116.2149109172944
 20
129.5900444935259
 30
0.0
 40
2.5
  1
80
  7
STYLE3
100
AcDbText
  0
TEXT
  5
CF4
330
18
100
AcDbEntity
  8
文字
100
AcDbText
 10
109.5689792334207
 20
138.4906322681151
 30
0.0
 40
2.5
  1
90
  7
STYLE3
100
AcDbText
  0
TEXT
  5
D08
330
18
100
AcDbEntity
  8
文字
  6
Continuous
 62
     4
100
AcDbText
 10
101.5767353300692
 20
140.8580323107454
 30
0.0
 40
1.0
  1
0
  7
STYLE3
100
AcDbText
  0
TEXT
  5
D09
330
18
100
AcDbEntity
  8
文字
  6
Continuous
 62
     4
100
AcDbText
 10
90.17118926260252
 20
136.9816143796038
 30
0.0
 40
1.0
  1
90
  7
STYLE3
100
AcDbText
  0
TEXT
  5
D0A
330
18
100
AcDbEntity
  8
文字
  6
Continuous
 62
     4
100
AcDbText
 10
84.48687558955521
 20
126.8802673436871
 30
0.0
 40
1.0
  1
80
  7
STYLE3
100
AcDbText
  0
TEXT
  5
D0B
330
18
100
AcDbEntity
  8
文字
  6
Continuous
 62
     4
100
AcDbText
 10
85.3167152695047
 20
121.160145451751
 30
0.0
 40
1.0
  1
70
  7
STYLE3
100
AcDbText
  0
TEXT
  5
D0C
330
18
100
AcDbEntity
  8
文字
  6
Continuous
 62
     4
100
AcDbText
 10
90.72833292537712
 20
112.0678973740787
 30
0.0
 40
1.0
  1
60
  7
STYLE3
100
AcDbText
  0
TEXT
  5
D0D
330
18
100
AcDbEntity
  8
文字
  6
Continuous
 62
     4
100
AcDbText
 10
101.1493412105402
 20
108.2191958597452
 30
0.0
 40
1.0
  1
50
  7
STYLE3
100
AcDbText
  0
TEXT
  5
D0E
330
18
100
AcDbEntity
  8
文字
  6
Continuous
 62
     4
100
AcDbText
 10
111.7034949332359
 20
111.8455716356278
 30
0.0
 40
1.0
  1
40
  7
STYLE3
100
AcDbText
  0
TEXT
  5
D0F
330
18
100
AcDbEntity
  8
文字
  6
Continuous
 62
     4
100
AcDbText
 10
117.1128954114114
 20
120.921914079862
 30
0.0
 40
1.0
  1
30
  7
STYLE3
100
AcDbText
  0
TEXT
  5
D10
330
18
100
AcDbEntity
  8
文字
  6
Continuous
 62
     4
100
AcDbText
 10
117.8553345618586
 20
128.0247912983366
 30
0.0
 40
1.0
  1
20
  7
STYLE3
100
AcDbText
  0
TEXT
  5
D11
330
18
100
AcDbEntity
  8
文字
  6
Continuous
 62
     4
100
AcDbText
 10
112.4379666995095
 20
136.9321165553398
 30
0.0
 40
1.0
  1
10
  7
STYLE3
100
AcDbText
  0
MTEXT
  5
D14
330
18
100
AcDbEntity
  8
DEFPOINTS
  6
Continuous
100
AcDbMText
 10
998.3960534921905
 20
332.695293381138
 30
0.0
 40
1.0
 41
0.0
 71
     4
 72
     1
  1
\A1;
 73
     1
 44
1.0
  0
POINT
  5
D45
330
18
100
AcDbEntity
  8
DEFPOINTS
  6
ByBlock
 62
     0
100
AcDbPoint
 10
102.0833108180478
 20
125.0806572545583
 30
0.0
  0
POINT
  5
D4A
330
18
100
AcDbEntity
  8
DEFPOINTS
  6
ByBlock
 62
     0
100
AcDbPoint
 10
102.0833108180478
 20
125.0806572545583
 30
0.0
  0
MTEXT
  5
D5E
330
18
100
AcDbEntity
  8
文字
100
AcDbMText
 10
565.53526305019
 20
358.7732756193721
 30
0.0
 40
1.0
 41
6.927999999999999
 71
     1
 72
     5
  1

  7
STYLE3
 73
     1
 44
1.0
  0
MTEXT
  5
DAC
330
18
100
AcDbEntity
  8
DEFPOINTS
  6
Continuous
100
AcDbMText
 10
887.2710727053314
 20
282.0208269068229
 30
0.0
 40
0.35
 41
0.0
 71
     4
 72
     1
  1
\A1;
 73
     1
 44
1.0
  0
LINE
  5
DAD
102
{ACAD_REACTORS
330
DEB
102
}
330
18
100
AcDbEntity
  8
ROGO
 62
     4
100
AcDbLine
 10
95.41593470320606
 20
131.1325360394643
 30
0.0
 11
97.02843301619124
 21
131.1325360394643
 31
0.0
  0
LINE
  5
DAE
102
{ACAD_REACTORS
330
DEB
330
DEA
102
}
330
18
100
AcDbEntity
  8
ROGO
 62
     4
100
AcDbLine
 10
94.40068416311339
 20
129.0806572545583
 30
0.0
 11
108.2898614301372
 21
129.0806572545583
 31
0.0
  0
LINE
  5
DAF
102
{ACAD_REACTORS
330
DEB
102
}
330
18
100
AcDbEntity
  8
ROGO
 62
     4
100
AcDbLine
 10
95.41593470320606
 20
131.1325360394643
 30
0.0
 11
94.40068416311339
 21
129.0806572545583
 31
0.0
  0
SPLINE
  5
DB0
102
{ACAD_REACTORS
330
DEB
102
}
330
18
100
AcDbEntity
  8
ROGO
 62
     4
100
AcDbSpline
210
0.0
220
0.0
230
1.0
 70
     8
 71
     3
 72
    18
 73
    14
 74
     0
 42
0.0000000001
 43
0.0000000001
 40
0.1087402787915014
 40
0.1087402787915014
 40
0.1087402787915014
 40
0.1087402787915014
 40
0.5992371417938475
 40
1.083176791562496
 40
1.448211145705696
 40
1.714037220764907
 40
2.164002567013297
 40
2.740236056362883
 40
3.395137510199602
 40
4.071816045172726
 40
4.784906178399433
 40
5.506895915094292
 40
6.060470601257719
 40
6.060470601257719
 40
6.060470601257719
 40
6.060470601257719
 10
97.02843301619124
 20
131.1325360394643
 30
0.0
 10
97.08009255382728
 20
131.1136036846166
 30
0.0
 10
97.18168050167776
 20
131.0735777933013
 30
0.0
 10
97.30566573722501
 20
130.9822254835099
 30
0.0
 10
97.37328193114969
 20
130.8767667063372
 30
0.0
 10
97.43832113969268
 20
130.7728559640343
 30
0.0
 10
97.44742325820368
 20
130.6237784298779
 30
0.0
 10
97.43251337315655
 20
130.4353082943062
 30
0.0
 10
97.33625650228043
 20
130.2386591567855
 30
0.0
 10
97.18175856319897
 20
130.0666621259837
 30
0.0
 10
96.98993859010602
 20
129.9289979456419
 30
0.0
 10
96.78765781199878
 20
129.8209351091465
 30
0.0
 10
96.64306745494526
 20
129.819858388538
 30
0.0
 10
96.58031753805051
 20
129.8193911089068
 30
0.0
  0
LINE
  5
DB1
102
{ACAD_REACTORS
330
DEB
102
}
330
18
100
AcDbEntity
  8
ROGO
 62
     4
100
AcDbLine
 10
96.58031753835963
 20
129.8193911089068
 30
0.0
 11
95.68870926987836
 21
129.8193911089068
 31
0.0
  0
LINE
  5
DB2
102
{ACAD_REACTORS
330
DEB
102
}
330
18
100
AcDbEntity
  8
ROGO
 62
     4
100
AcDbLine
 10
96.05307155854587
 20
130.6247391282509
 30
0.0
 11
95.89507376218852
 21
130.2755174433656
 31
0.0
  0
SPLINE
  5
DB3
102
{ACAD_REACTORS
330
DEB
102
}
330
18
100
AcDbEntity
  8
ROGO
 62
     4
100
AcDbSpline
210
0.0
220
0.0
230
1.0
 70
     8
 71
     3
 72
    15
 73
    11
 74
     9
 42
0.0000000001
 43
0.0000000001
 44
0.0000000001
 40
0.0
 40
0.0
 40
0.0
 40
0.0
 40
0.1539705029176134
 40
0.2241725832588156
 40
0.3038566179397562
 40
0.3581410872475068
 40
0.4439925384673412
 40
0.4954152125470444
 40
0.5836396705646413
 40
0.6130478420066522
 40
0.6130478420066522
 40
0.6130478420066522
 40
0.6130478420066522
 10
96.45905855764329
 20
130.6247391282509
 30
0.0
 10
96.51688689270255
 20
130.6250040128934
 30
0.0
 10
96.6010817677607
 20
130.6253896703631
 30
0.0
 10
96.64712252412527
 20
130.5212403664336
 30
0.0
 10
96.62648486189171
 20
130.4541844617961
 30
0.0
 10
96.60054163846771
 20
130.3853389475484
 30
0.0
 10
96.55469408692525
 20
130.3385573822791
 30
0.0
 10
96.49315995733017
 20
130.293498848642
 30
0.0
 10
96.4350072642744
 20
130.2880443113825
 30
0.0
 10
96.39718546530184
 20
130.2780228179284
 30
0.0
 10
96.38773001103254
 20
130.2755174433656
 30
0.0
 11
96.45905855764329
 21
130.6247391282509
 31
0.0
 11
96.60884862857223
 21
130.589104167611
 31
0.0
 11
96.63738012924717
 21
130.5249614708056
 31
0.0
 11
96.62311458398631
 21
130.4465647897442
 31
0.0
 11
96.60171606101847
 21
130.3966758448484
 31
0.0
 11
96.54465305966835
 21
130.332533148043
 31
0.0
 11
96.50185601373255
 21
130.3040251795311
 31
0.0
 11
96.41626151170761
 21
130.2826444354935
 31
0.0
 11
96.38773001103254
 21
130.2755174433656
 31
0.0
  0
LINE
  5
DB4
102
{ACAD_REACTORS
330
DEB
102
}
330
18
100
AcDbEntity
  8
ROGO
 62
     4
100
AcDbLine
 10
96.4590585576434
 20
130.6247391282509
 30
0.0
 11
96.05307155854587
 21
130.6247391282509
 31
0.0
  0
LINE
  5
DB5
102
{ACAD_REACTORS
330
DEB
102
}
330
18
100
AcDbEntity
  8
ROGO
 62
     4
100
AcDbLine
 10
96.38773001103267
 20
130.2755174433656
 30
0.0
 11
95.89507376218852
 21
130.2755174433656
 31
0.0
  0
LINE
  5
DB6
102
{ACAD_REACTORS
330
DEB
102
}
330
18
100
AcDbEntity
  8
ROGO
 62
     4
100
AcDbLine
 10
95.68870926987836
 20
129.8193911089068
 30
0.0
 11
95.35448511904986
 21
129.0806572545583
 31
0.0
  0
LINE
  5
DB7
102
{ACAD_REACTORS
330
DE6
102
}
330
18
100
AcDbEntity
  8
ROGO
 62
     4
100
AcDbLine
 10
97.98105700939675
 20
131.1325360394643
 30
0.0
 11
97.33132511013673
 21
129.8193911089068
 31
0.0
  0
LINE
  5
DB8
102
{ACAD_REACTORS
330
DE6
102
}
330
18
100
AcDbEntity
  8
ROGO
 62
     4
100
AcDbLine
 10
99.75714015788071
 20
131.1325360394643
 30
0.0
 11
99.60830596214613
 21
130.8317337087722
 31
0.0
  0
LINE
  5
DB9
102
{ACAD_REACTORS
330
DE6
102
}
330
18
100
AcDbEntity
  8
ROGO
 62
     4
100
AcDbLine
 10
97.33132511013673
 20
129.8193911089068
 30
0.0
 11
99.1074082586207
 21
129.8193911089068
 31
0.0
  0
LINE
  5
DBA
102
{ACAD_REACTORS
330
DE6
102
}
330
18
100
AcDbEntity
  8
ROGO
 62
     4
100
AcDbLine
 10
98.67484153992826
 20
130.8317337087722
 30
0.0
 11
98.55847169385175
 21
130.596543665588
 31
0.0
  0
LINE
  5
DBB
102
{ACAD_REACTORS
330
DE6
102
}
330
18
100
AcDbEntity
  8
ROGO
 62
     4
100
AcDbLine
 10
98.67484153992826
 20
130.8317337087722
 30
0.0
 11
99.60830596214613
 21
130.8317337087722
 31
0.0
  0
LINE
  5
DBC
102
{ACAD_REACTORS
330
DE6
102
}
330
18
100
AcDbEntity
  8
ROGO
 62
     4
100
AcDbLine
 10
98.55847169385175
 20
130.596543665588
 30
0.0
 11
99.49193611606972
 21
130.596543665588
 31
0.0
  0
LINE
  5
DBD
102
{ACAD_REACTORS
330
DE6
102
}
330
18
100
AcDbEntity
  8
ROGO
 62
     4
100
AcDbLine
 10
98.32277054561155
 20
130.1201783089068
 30
0.0
 11
99.25623496782954
 21
130.1201783089068
 31
0.0
  0
LINE
  5
DBE
102
{ACAD_REACTORS
330
DE6
102
}
330
18
100
AcDbEntity
  8
ROGO
 62
     4
100
AcDbLine
 10
98.43914531822782
 20
130.3553783089068
 30
0.0
 11
99.3726097404458
 21
130.3553783089068
 31
0.0
  0
LINE
  5
DBF
102
{ACAD_REACTORS
330
DE6
102
}
330
18
100
AcDbEntity
  8
ROGO
 62
     4
100
AcDbLine
 10
99.49193611606972
 20
130.596543665588
 30
0.0
 11
99.3726097404458
 21
130.3553783089068
 31
0.0
  0
LINE
  5
DC0
102
{ACAD_REACTORS
330
DE6
102
}
330
18
100
AcDbEntity
  8
ROGO
 62
     4
100
AcDbLine
 10
99.25623496782954
 20
130.1201783089068
 30
0.0
 11
99.1074082586207
 21
129.8193911089068
 31
0.0
  0
LINE
  5
DC1
102
{ACAD_REACTORS
330
DE6
102
}
330
18
100
AcDbEntity
  8
ROGO
 62
     4
100
AcDbLine
 10
98.43914531822782
 20
130.3553783089068
 30
0.0
 11
98.32277054561144
 21
130.1201783089068
 31
0.0
  0
LINE
  5
DC2
102
{ACAD_REACTORS
330
DEF
102
}
330
18
100
AcDbEntity
  8
ROGO
 62
     4
100
AcDbLine
 10
100.2716344230783
 20
131.1325360394643
 30
0.0
 11
99.32470009297924
 21
129.8193911089068
 31
0.0
  0
LINE
  5
DC3
102
{ACAD_REACTORS
330
DEF
102
}
330
18
100
AcDbEntity
  8
ROGO
 62
     4
100
AcDbLine
 10
100.7457622797101
 20
130.7815270625125
 30
0.0
 11
100.4223955433968
 21
130.3331037906936
 31
0.0
  0
LINE
  5
DC4
102
{ACAD_REACTORS
330
DEF
102
}
330
18
100
AcDbEntity
  8
ROGO
 62
     4
100
AcDbLine
 10
100.2322377822518
 20
130.0694057789976
 30
0.0
 11
101.0621147710361
 21
130.0694057789976
 31
0.0
  0
LINE
  5
DC5
102
{ACAD_REACTORS
330
DEF
102
}
330
18
100
AcDbEntity
  8
ROGO
 62
     4
100
AcDbLine
 10
100.4223955433968
 20
130.3331037906937
 30
0.0
 11
100.9449696654355
 21
130.3331037906937
 31
0.0
  0
LINE
  5
DC6
102
{ACAD_REACTORS
330
DEF
102
}
330
18
100
AcDbEntity
  8
ROGO
 62
     4
100
AcDbLine
 10
100.2322377822518
 20
130.0694057789976
 30
0.0
 11
100.0519473446709
 21
129.8193911089069
 31
0.0
  0
LINE
  5
DC7
102
{ACAD_REACTORS
330
DEF
102
}
330
18
100
AcDbEntity
  8
ROGO
 62
     4
100
AcDbLine
 10
99.32470009297924
 20
129.8193911089068
 30
0.0
 11
100.0519473446708
 21
129.8193911089068
 31
0.0
  0
LINE
  5
DC8
102
{ACAD_REACTORS
330
DEF
102
}
330
18
100
AcDbEntity
  8
ROGO
 62
     4
100
AcDbLine
 10
100.2716344230783
 20
131.1325360394643
 30
0.0
 11
101.3220379058499
 21
131.1325360394643
 31
0.0
  0
LINE
  5
DC9
102
{ACAD_REACTORS
330
DEF
102
}
330
18
100
AcDbEntity
  8
ROGO
 62
     4
100
AcDbLine
 10
101.9053889162331
 20
129.8193911089069
 30
0.0
 11
101.173181194105
 21
129.8193911089068
 31
0.0
  0
LINE
  5
DCA
102
{ACAD_REACTORS
330
DE7
102
}
330
18
100
AcDbEntity
  8
ROGO
 62
     4
100
AcDbLine
 10
102.2650083312389
 20
129.8193911089068
 30
0.0
 11
103.3960373462436
 21
129.8193911089068
 31
0.0
  0
LINE
  5
DCB
102
{ACAD_REACTORS
330
DE7
102
}
330
18
100
AcDbEntity
  8
ROGO
 62
     4
100
AcDbLine
 10
104.0508138192527
 20
131.1325360394643
 30
0.0
 11
103.8071945187122
 21
130.6439609872474
 31
0.0
  0
LINE
  5
DCC
102
{ACAD_REACTORS
330
DE7
102
}
330
18
100
AcDbEntity
  8
ROGO
 62
     4
100
AcDbLine
 10
102.9854275953611
 20
130.6439609872474
 30
0.0
 11
103.8071945187122
 21
130.6439609872474
 31
0.0
  0
LINE
  5
DCD
102
{ACAD_REACTORS
330
DE7
102
}
330
18
100
AcDbEntity
  8
ROGO
 62
     4
100
AcDbLine
 10
102.7999730460502
 20
130.3079609872474
 30
0.0
 11
103.6396540669224
 21
130.3079609872474
 31
0.0
  0
SPLINE
  5
DCE
102
{ACAD_REACTORS
330
DE7
102
}
330
18
100
AcDbEntity
  8
ROGO
 62
     4
100
AcDbSpline
210
0.0
220
0.0
230
1.0
 70
     8
 71
     3
 72
    26
 73
    22
 74
    20
 42
0.0000000001
 43
0.0000000001
 44
0.0000000001
 40
0.0
 40
0.0
 40
0.0
 40
0.0
 40
0.2382195346592458
 40
0.397689067266165
 40
0.5126795869788247
 40
0.5985392873136309
 40
0.709903824925031
 40
0.791189080749497
 40
0.9379713068544484
 40
1.057449928673148
 40
1.138714535893377
 40
1.218398644003578
 40
1.360938021870431
 40
1.461730374800337
 40
1.516014844108087
 40
1.59312432922058
 40
1.64880681859371
 40
1.729472362005597
 40
1.775122082164457
 40
1.874460993765154
 40
1.919820003751323
 40
1.919820003751323
 40
1.919820003751323
 40
1.919820003751323
 10
102.7357774771466
 20
131.1325360394643
 30
0.0
 10
102.6549220863879
 20
131.1277120681991
 30
0.0
 10
102.5199402723219
 20
131.1196588217024
 30
0.0
 10
102.3717310616101
 20
131.0296233178442
 30
0.0
 10
102.2631443171999
 20
130.9772806325017
 30
0.0
 10
102.1857003827757
 20
130.9061252110821
 30
0.0
 10
102.1289336649082
 20
130.8326268585608
 30
0.0
 10
102.0573685602108
 20
130.7450541104353
 30
0.0
 10
101.9990092623046
 20
130.6430791889709
 30
0.0
 10
101.9692904197716
 20
130.5306850479075
 30
0.0
 10
101.9429657511179
 20
130.4411062653486
 30
0.0
 10
101.9234429361448
 20
130.3412824024561
 30
0.0
 10
101.9284100929577
 20
130.2334375143338
 30
0.0
 10
101.9355232888423
 20
130.1332767033301
 30
0.0
 10
101.9672819787663
 20
130.0617768804034
 30
0.0
 10
102.0034495011563
 20
130.010873933474
 30
0.0
 10
102.0477361370113
 20
129.9548099807753
 30
0.0
 10
102.0961954013286
 20
129.917679006445
 30
0.0
 10
102.1362751684394
 20
129.8504137513046
 30
0.0
 10
102.2064334487017
 20
129.8418302196282
 30
0.0
 10
102.2510288427776
 20
129.8247464297513
 30
0.0
 10
102.2650083312391
 20
129.8193911089068
 30
0.0
 11
102.7357774771466
 21
131.1325360394643
 31
0.0
 11
102.5003929041927
 21
131.0958938573706
 31
0.0
 11
102.3577354008176
 21
131.0246241684372
 31
0.0
 11
102.2578753535318
 21
130.9676084637597
 31
0.0
 11
102.1936797846281
 21
130.9105925267359
 31
0.0
 11
102.1223512380173
 21
130.8250688535465
 31
0.0
 11
102.0724212143744
 21
130.7609261567411
 31
0.0
 11
102.0010922576101
 21
130.6326405307839
 31
0.0
 11
101.9654281893814
 21
130.5186088890827
 31
0.0
 11
101.9440296664136
 21
130.4402122080212
 31
0.0
 11
101.9297637109993
 21
130.3618155269599
 31
0.0
 11
101.9297637109993
 21
130.219276149093
 31
0.0
 11
101.9440296664136
 21
130.1194984916478
 31
0.0
 11
101.9654281893814
 21
130.0696095467519
 31
0.0
 11
102.0082252353172
 21
130.0054668499464
 31
0.0
 11
102.0438897136994
 21
129.9627048971786
 31
0.0
 11
102.1009523048959
 21
129.9056891925011
 31
0.0
 11
102.1294838055711
 21
129.8700542318613
 31
0.0
 11
102.2222112853031
 21
129.8344195035677
 31
0.0
 11
102.2650083312391
 21
129.8193911089068
 31
0.0
  0
SPLINE
  5
DCF
102
{ACAD_REACTORS
330
DE7
102
}
330
18
100
AcDbEntity
  8
ROGO
 62
     4
100
AcDbSpline
210
0.0
220
0.0
230
1.0
 70
     8
 71
     3
 72
    16
 73
    12
 74
    10
 42
0.0000000001
 43
0.0000000001
 44
0.0000000001
 40
0.0
 40
0.0
 40
0.0
 40
0.0
 40
0.1255907025629711
 40
0.1869327038470372
 40
0.2171823804790188
 40
0.2490606136884752
 40
0.2947101524738125
 40
0.3362763310931553
 40
0.3796288870083466
 40
0.4523125795610991
 40
0.5242542460841629
 40
0.5242542460841629
 40
0.5242542460841629
 40
0.5242542460841629
 10
102.9854275953611
 20
130.6439609872474
 30
0.0
 10
102.9428968877396
 20
130.6374768939434
 30
0.0
 10
102.8795929965283
 20
130.6278257886579
 30
0.0
 10
102.8223472451372
 20
130.5825106816822
 30
0.0
 10
102.7900646160131
 20
130.5555512093656
 30
0.0
 10
102.7790819217614
 20
130.5198492151836
 30
0.0
 10
102.7495858539009
 20
130.4924355641478
 30
0.0
 10
102.7252727040236
 20
130.4547603834318
 30
0.0
 10
102.7194672749618
 20
130.4030129124726
 30
0.0
 10
102.7237285928096
 20
130.3303932233354
 30
0.0
 10
102.7746453073786
 20
130.315412779336
 30
0.0
 10
102.7999730460502
 20
130.3079609872474
 30
0.0
 11
102.9854275953611
 21
130.6439609872474
 31
0.0
 11
102.8641690251073
 21
130.6112595544
 31
0.0
 11
102.8142390014644
 21
130.5756248261065
 31
0.0
 11
102.7928404784966
 21
130.5542438497224
 31
0.0
 11
102.7785745230823
 21
130.5257358812106
 31
0.0
 11
102.7500430224073
 21
130.4901011529171
 31
0.0
 11
102.7286444994394
 21
130.4544661922772
 31
0.0
 11
102.7215115217323
 21
130.4117044718557
 31
0.0
 11
102.7357774771466
 21
130.340434550576
 31
0.0
 11
102.7999730460502
 21
130.3079609872474
 31
0.0
  0
LINE
  5
DD0
102
{ACAD_REACTORS
330
DE7
102
}
330
18
100
AcDbEntity
  8
ROGO
 62
     4
100
AcDbLine
 10
103.6396540669224
 20
130.3079609872474
 30
0.0
 11
103.3960373462436
 21
129.8193911089068
 31
0.0
  0
LINE
  5
DD1
102
{ACAD_REACTORS
330
DE7
102
}
330
18
100
AcDbEntity
  8
ROGO
 62
     4
100
AcDbLine
 10
102.7357774771469
 20
131.1325360394643
 30
0.0
 11
104.0508138192527
 21
131.1325360394643
 31
0.0
  0
LINE
  5
DD2
102
{ACAD_REACTORS
330
DE8
102
}
330
18
100
AcDbEntity
  8
ROGO
 62
     4
100
AcDbLine
 10
106.4960781021667
 20
129.8193911089068
 30
0.0
 11
107.6271071171714
 21
129.8193911089068
 31
0.0
  0
LINE
  5
DD3
102
{ACAD_REACTORS
330
DE8
102
}
330
18
100
AcDbEntity
  8
ROGO
 62
     4
100
AcDbLine
 10
106.9668472480747
 20
131.1325360394643
 30
0.0
 11
108.2818835901806
 21
131.1325360394643
 31
0.0
  0
SPLINE
  5
DD4
102
{ACAD_REACTORS
330
DE8
102
}
330
18
100
AcDbEntity
  8
ROGO
 62
     4
100
AcDbSpline
210
0.0
220
0.0
230
1.0
 70
     8
 71
     3
 72
    16
 73
    12
 74
    10
 42
0.0000000001
 43
0.0000000001
 44
0.0000000001
 40
0.0
 40
0.0
 40
0.0
 40
0.0
 40
0.1255907025629711
 40
0.1869327038470702
 40
0.217182380479092
 40
0.2490606136884975
 40
0.2947101524738793
 40
0.336276331093222
 40
0.3796288870083573
 40
0.4523125795611433
 40
0.5242542460843084
 40
0.5242542460843084
 40
0.5242542460843084
 40
0.5242542460843084
 10
107.216497366289
 20
130.6439609872474
 30
0.0
 10
107.1739666586675
 20
130.6374768939434
 30
0.0
 10
107.1106627674561
 20
130.627825788658
 30
0.0
 10
107.0534170160652
 20
130.5825106816821
 30
0.0
 10
107.0211343869408
 20
130.5555512093657
 30
0.0
 10
107.0101516926893
 20
130.5198492151836
 30
0.0
 10
106.9806556248288
 20
130.4924355641478
 30
0.0
 10
106.9563424749515
 20
130.4547603834317
 30
0.0
 10
106.9505370458897
 20
130.4030129124726
 30
0.0
 10
106.9547983637373
 20
130.3303932233353
 30
0.0
 10
107.0057150783064
 20
130.3154127793359
 30
0.0
 10
107.0310428169781
 20
130.3079609872474
 30
0.0
 11
107.216497366289
 21
130.6439609872474
 31
0.0
 11
107.0952387960352
 21
130.6112595544
 31
0.0
 11
107.0453087723923
 21
130.5756248261064
 31
0.0
 11
107.0239102494243
 21
130.5542438497224
 31
0.0
 11
107.0096442940101
 21
130.5257358812106
 31
0.0
 11
106.9811127933352
 21
130.4901011529171
 31
0.0
 11
106.9597142703673
 21
130.4544661922772
 31
0.0
 11
106.9525812926601
 21
130.4117044718557
 31
0.0
 11
106.9668472480743
 21
130.3404345505759
 31
0.0
 11
107.0310428169781
 21
130.3079609872474
 31
0.0
  0
SPLINE
  5
DD5
102
{ACAD_REACTORS
330
DE8
102
}
330
18
100
AcDbEntity
  8
ROGO
 62
     4
100
AcDbSpline
210
0.0
220
0.0
230
1.0
 70
     8
 71
     3
 72
    26
 73
    22
 74
    20
 42
0.0000000001
 43
0.0000000001
 44
0.0000000001
 40
0.0
 40
0.0
 40
0.0
 40
0.0
 40
0.2382195346592458
 40
0.3976890672660633
 40
0.512679586978723
 40
0.5985392873135292
 40
0.709903824924973
 40
0.7911890807494641
 40
0.9379713068544097
 40
1.057449928673164
 40
1.138714535893313
 40
1.218398644003493
 40
1.360938021870347
 40
1.461730374800236
 40
1.516014844108084
 40
1.593124329220467
 40
1.648806818593713
 40
1.72947236200556
 40
1.775122082164349
 40
1.874460993765152
 40
1.919820003751213
 40
1.919820003751213
 40
1.919820003751213
 40
1.919820003751213
 10
106.9668472480743
 20
131.1325360394643
 30
0.0
 10
106.8859918573157
 20
131.1277120681992
 30
0.0
 10
106.7510100432497
 20
131.1196588217025
 30
0.0
 10
106.602800832538
 20
131.0296233178441
 30
0.0
 10
106.4942140881278
 20
130.9772806325017
 30
0.0
 10
106.4167701537036
 20
130.9061252110821
 30
0.0
 10
106.3600034358361
 20
130.8326268585606
 30
0.0
 10
106.2884383311385
 20
130.7450541104354
 30
0.0
 10
106.2300790332325
 20
130.6430791889708
 30
0.0
 10
106.2003601906996
 20
130.5306850479074
 30
0.0
 10
106.1740355220456
 20
130.4411062653485
 30
0.0
 10
106.1545127070727
 20
130.3412824024561
 30
0.0
 10
106.1594798638856
 20
130.2334375143338
 30
0.0
 10
106.1665930597701
 20
130.13327670333
 30
0.0
 10
106.1983517496942
 20
130.0617768804034
 30
0.0
 10
106.2345192720841
 20
130.0108739334739
 30
0.0
 10
106.2788059079391
 20
129.9548099807753
 30
0.0
 10
106.3272651722565
 20
129.917679006445
 30
0.0
 10
106.3673449393671
 20
129.8504137513045
 30
0.0
 10
106.4375032196296
 20
129.8418302196283
 30
0.0
 10
106.4820986137054
 20
129.8247464297513
 30
0.0
 10
106.4960781021668
 20
129.8193911089068
 30
0.0
 11
106.9668472480743
 21
131.1325360394643
 31
0.0
 11
106.7314626751205
 21
131.0958938573706
 31
0.0
 11
106.5888051717455
 21
131.0246241684372
 31
0.0
 11
106.4889451244597
 21
130.9676084637597
 31
0.0
 11
106.424749555556
 21
130.9105925267359
 31
0.0
 11
106.3534210089452
 21
130.8250688535465
 31
0.0
 11
106.3034909853022
 21
130.7609261567411
 31
0.0
 11
106.232162028538
 21
130.6326405307838
 31
0.0
 11
106.1964979603093
 21
130.5186088890826
 31
0.0
 11
106.1750994373414
 21
130.4402122080212
 31
0.0
 11
106.1608334819271
 21
130.3618155269599
 31
0.0
 11
106.1608334819271
 21
130.219276149093
 31
0.0
 11
106.1750994373414
 21
130.1194984916478
 31
0.0
 11
106.1964979603093
 21
130.0696095467519
 31
0.0
 11
106.239295006245
 21
130.0054668499464
 31
0.0
 11
106.2749594846273
 21
129.9627048971786
 31
0.0
 11
106.3320220758238
 21
129.9056891925011
 31
0.0
 11
106.3605535764989
 21
129.8700542318613
 31
0.0
 11
106.453281056231
 21
129.8344195035677
 31
0.0
 11
106.4960781021668
 21
129.8193911089068
 31
0.0
  0
LINE
  5
DD6
102
{ACAD_REACTORS
330
DE8
102
}
330
18
100
AcDbEntity
  8
ROGO
 62
     4
100
AcDbLine
 10
107.8707238378503
 20
130.3079609872474
 30
0.0
 11
107.6271071171714
 21
129.8193911089068
 31
0.0
  0
LINE
  5
DD7
102
{ACAD_REACTORS
330
DE8
102
}
330
18
100
AcDbEntity
  8
ROGO
 62
     4
100
AcDbLine
 10
107.0310428169781
 20
130.3079609872474
 30
0.0
 11
107.8707238378503
 21
130.3079609872474
 31
0.0
  0
LINE
  5
DD8
102
{ACAD_REACTORS
330
DE8
102
}
330
18
100
AcDbEntity
  8
ROGO
 62
     4
100
AcDbLine
 10
107.2164973662889
 20
130.6439609872474
 30
0.0
 11
108.0382642896401
 21
130.6439609872474
 31
0.0
  0
LINE
  5
DD9
102
{ACAD_REACTORS
330
DE8
102
}
330
18
100
AcDbEntity
  8
ROGO
 62
     4
100
AcDbLine
 10
108.2818835901806
 20
131.1325360394643
 30
0.0
 11
108.0382642896401
 21
130.6439609872474
 31
0.0
  0
LINE
  5
DDA
102
{ACAD_REACTORS
330
DEA
102
}
330
18
100
AcDbEntity
  8
ROGO
 62
     4
100
AcDbLine
 10
108.5569107193029
 20
131.1325360394643
 30
0.0
 11
109.3129944618071
 21
131.1325360394643
 31
0.0
  0
LINE
  5
DDB
102
{ACAD_REACTORS
330
DEA
102
}
330
18
100
AcDbEntity
  8
ROGO
 62
     4
100
AcDbLine
 10
108.5569107193029
 20
131.1325360394643
 30
0.0
 11
107.533777687633
 21
129.0806572545583
 31
0.0
  0
LINE
  5
DDC
102
{ACAD_REACTORS
330
DEA
102
}
330
18
100
AcDbEntity
  8
ROGO
 62
     4
100
AcDbLine
 10
109.3129944618071
 20
131.1325360394643
 30
0.0
 11
109.201289154886
 21
130.9085126306427
 31
0.0
  0
LINE
  5
DDD
102
{ACAD_REACTORS
330
DEA
102
}
330
18
100
AcDbEntity
  8
ROGO
 62
     4
100
AcDbLine
 10
109.201289154886
 20
130.9085126306427
 30
0.0
 11
109.5553022379648
 21
131.1325360394643
 31
0.0
  0
LINE
  5
DDE
102
{ACAD_REACTORS
330
DEA
102
}
330
18
100
AcDbEntity
  8
ROGO
 62
     4
100
AcDbLine
 10
108.5569107193029
 20
129.6162208166778
 30
0.0
 11
108.8239600084686
 21
129.0806572545583
 31
0.0
  0
LINE
  5
DDF
102
{ACAD_REACTORS
330
DEA
102
}
330
18
100
AcDbEntity
  8
ROGO
 62
     4
100
AcDbLine
 10
109.0684606926336
 20
130.1065966470113
 30
0.0
 11
109.5800272084685
 21
129.0806572545583
 31
0.0
  0
LINE
  5
DE0
102
{ACAD_REACTORS
330
DEA
102
}
330
18
100
AcDbEntity
  8
ROGO
 62
     4
100
AcDbLine
 10
108.5569107193029
 20
129.6162208166778
 30
0.0
 11
108.2898614301372
 21
129.0806572545583
 31
0.0
  0
LINE
  5
DE1
102
{ACAD_REACTORS
330
DEA
102
}
330
18
100
AcDbEntity
  8
ROGO
 62
     4
100
AcDbLine
 10
109.0684606926336
 20
130.1065966470113
 30
0.0
 11
110.3113694379648
 21
131.1325360394643
 31
0.0
  0
LINE
  5
DE2
102
{ACAD_REACTORS
330
DEA
102
}
330
18
100
AcDbEntity
  8
ROGO
 62
     4
100
AcDbLine
 10
109.5553022379648
 20
131.1325360394643
 30
0.0
 11
110.3113694379648
 21
131.1325360394643
 31
0.0
  0
LINE
  5
DE3
102
{ACAD_REACTORS
330
DEA
102
}
330
18
100
AcDbEntity
  8
ROGO
 62
     4
100
AcDbLine
 10
108.8239600084686
 20
129.0806572545583
 30
0.0
 11
109.5800272084685
 21
129.0806572545583
 31
0.0
  0
LINE
  5
DE4
102
{ACAD_REACTORS
330
DE6
102
}
330
18
100
AcDbEntity
  8
ROGO
 62
     4
100
AcDbLine
 10
97.98105700939675
 20
131.1325360394643
 30
0.0
 11
99.75714015788071
 21
131.1325360394643
 31
0.0
  0
LINE
  5
DE5
330
18
100
AcDbEntity
  8
ROGO
 62
     4
100
AcDbLine
 10
95.43327270755515
 20
129.2863274608496
 30
0.0
 11
107.6363314950191
 21
129.2863274608496
 31
0.0
  0
HATCH
  5
DE6
330
18
100
AcDbEntity
  8
ROGO
 62
     4
100
AcDbHatch
 10
0.0
 20
0.0
 30
0.0
210
0.0
220
0.0
230
1.0
  2
SOLID
 70
     1
 71
     1
 91
        1
 92
        1
 93
       12
 72
     1
 10
97.98105700939675
 20
131.1325360394643
 11
99.75714015788071
 21
131.1325360394643
 72
     1
 10
99.75714015788071
 20
131.1325360394643
 11
99.60830596214613
 21
130.8317337087722
 72
     1
 10
99.60830596214613
 20
130.8317337087722
 11
98.67484153992826
 21
130.8317337087722
 72
     1
 10
98.67484153992826
 20
130.8317337087722
 11
98.55847169385175
 21
130.596543665588
 72
     1
 10
98.55847169385175
 20
130.596543665588
 11
99.49193611606972
 21
130.596543665588
 72
     1
 10
99.49193611606972
 20
130.596543665588
 11
99.3726097404458
 21
130.3553783089068
 72
     1
 10
99.3726097404458
 20
130.3553783089068
 11
98.43914531822782
 21
130.3553783089068
 72
     1
 10
98.43914531822782
 20
130.3553783089068
 11
98.32277054561144
 21
130.1201783089068
 72
     1
 10
98.32277054561155
 20
130.1201783089068
 11
99.25623496782954
 21
130.1201783089068
 72
     1
 10
99.25623496782954
 20
130.1201783089068
 11
99.1074082586207
 21
129.8193911089068
 72
     1
 10
99.1074082586207
 20
129.8193911089068
 11
97.33132511013673
 21
129.8193911089068
 72
     1
 10
97.33132511013673
 20
129.8193911089068
 11
97.98105700939675
 21
131.1325360394643
 97
       12
330
DE4
330
DB8
330
DBB
330
DBA
330
DBC
330
DBF
330
DBE
330
DC1
330
DBD
330
DC0
330
DB9
330
DB7
 75
     0
 76
     1
 98
        1
 10
25.33092803068786
 20
40.334439991353
450
        0
451
        0
460
0.0
461
0.0
452
        0
462
0.0
453
        0
470

  0
HATCH
  5
DE7
330
18
100
AcDbEntity
  8
ROGO
 62
     4
100
AcDbHatch
 10
0.0
 20
0.0
 30
0.0
210
0.0
220
0.0
230
1.0
  2
SOLID
 70
     1
 71
     1
 91
        1
 92
        5
 93
        8
 72
     1
 10
103.8071945187122
 20
130.6439609872474
 11
104.0508138192528
 21
131.1325360394643
 72
     1
 10
104.0508138192528
 20
131.1325360394643
 11
102.7357774771468
 21
131.1325360394643
 72
     4
 94
        3
 73
     0
 74
     0
 95
       26
 96
       22
 40
0.0
 40
0.0
 40
0.0
 40
0.0
 40
0.2382195346592458
 40
0.397689067266165
 40
0.5126795869788247
 40
0.5985392873136309
 40
0.709903824925031
 40
0.791189080749497
 40
0.9379713068544484
 40
1.057449928673148
 40
1.138714535893377
 40
1.218398644003578
 40
1.360938021870431
 40
1.461730374800337
 40
1.516014844108087
 40
1.59312432922058
 40
1.64880681859371
 40
1.729472362005597
 40
1.775122082164457
 40
1.874460993765154
 40
1.919820003751323
 40
1.919820003751323
 40
1.919820003751323
 40
1.919820003751323
 10
102.7357774771466
 20
131.1325360394643
 10
102.6549220863879
 20
131.1277120681991
 10
102.5199402723219
 20
131.1196588217024
 10
102.3717310616101
 20
131.0296233178442
 10
102.2631443171999
 20
130.9772806325017
 10
102.1857003827757
 20
130.9061252110821
 10
102.1289336649082
 20
130.8326268585608
 10
102.0573685602108
 20
130.7450541104353
 10
101.9990092623046
 20
130.6430791889709
 10
101.9692904197716
 20
130.5306850479075
 10
101.9429657511179
 20
130.4411062653486
 10
101.9234429361448
 20
130.3412824024561
 10
101.9284100929577
 20
130.2334375143338
 10
101.9355232888423
 20
130.1332767033301
 10
101.9672819787663
 20
130.0617768804034
 10
102.0034495011563
 20
130.010873933474
 10
102.0477361370113
 20
129.9548099807753
 10
102.0961954013286
 20
129.917679006445
 10
102.1362751684394
 20
129.8504137513046
 10
102.2064334487017
 20
129.8418302196282
 10
102.2510288427776
 20
129.8247464297513
 10
102.2650083312391
 20
129.8193911089068
 72
     1
 10
102.265008331239
 20
129.8193911089068
 11
103.3960373462436
 21
129.8193911089068
 72
     1
 10
103.3960373462436
 20
129.8193911089068
 11
103.6396540669224
 21
130.3079609872474
 72
     1
 10
103.6396540669224
 20
130.3079609872474
 11
102.7999730460502
 21
130.3079609872474
 72
     4
 94
        3
 73
     0
 74
     0
 95
       16
 96
       12
 40
0.0
 40
0.0
 40
0.0
 40
0.0
 40
0.0719416665230637
 40
0.1446253590758162
 40
0.1879779149910075
 40
0.2295440936103503
 40
0.2751936323956877
 40
0.3070718656051441
 40
0.3373215422371256
 40
0.3986635435211917
 40
0.5242542460841629
 40
0.5242542460841629
 40
0.5242542460841629
 40
0.5242542460841629
 10
102.7999730460502
 20
130.3079609872474
 10
102.7746453073786
 20
130.315412779336
 10
102.7237285928096
 20
130.3303932233354
 10
102.7194672749618
 20
130.4030129124726
 10
102.7252727040236
 20
130.4547603834318
 10
102.7495858539009
 20
130.4924355641478
 10
102.7790819217614
 20
130.5198492151836
 10
102.7900646160131
 20
130.5555512093656
 10
102.8223472451372
 20
130.5825106816822
 10
102.8795929965283
 20
130.6278257886579
 10
102.9428968877396
 20
130.6374768939434
 10
102.9854275953611
 20
130.6439609872474
 72
     1
 10
102.9854275953611
 20
130.6439609872474
 11
103.8071945187122
 21
130.6439609872474
 97
        8
330
DD1
330
DCE
330
DCA
330
DD0
330
DCD
330
DCF
330
DCC
330
DCB
 75
     0
 76
     1
 47
0.0514683685270805
 98
        1
 10
103.1956943743534
 20
130.8402145831173
450
        0
451
        0
460
0.0
461
0.0
452
        0
462
0.0
453
        0
470

  0
HATCH
  5
DE8
330
18
100
AcDbEntity
  8
ROGO
 62
     4
100
AcDbHatch
 10
0.0
 20
0.0
 30
0.0
210
0.0
220
0.0
230
1.0
  2
SOLID
 70
     1
 71
     1
 91
        1
 92
        5
 93
        8
 72
     4
 94
        3
 73
     0
 74
     0
 95
       26
 96
       22
 40
0.0
 40
0.0
 40
0.0
 40
0.0
 40
0.2382195346592458
 40
0.3976890672660633
 40
0.512679586978723
 40
0.5985392873135292
 40
0.709903824924973
 40
0.7911890807494641
 40
0.9379713068544097
 40
1.057449928673164
 40
1.138714535893313
 40
1.218398644003493
 40
1.360938021870347
 40
1.461730374800236
 40
1.516014844108084
 40
1.593124329220467
 40
1.648806818593713
 40
1.72947236200556
 40
1.775122082164349
 40
1.874460993765152
 40
1.919820003751213
 40
1.919820003751213
 40
1.919820003751213
 40
1.919820003751213
 10
106.9668472480743
 20
131.1325360394643
 10
106.8859918573157
 20
131.1277120681992
 10
106.7510100432497
 20
131.1196588217025
 10
106.602800832538
 20
131.0296233178441
 10
106.4942140881278
 20
130.9772806325017
 10
106.4167701537036
 20
130.9061252110821
 10
106.3600034358361
 20
130.8326268585606
 10
106.2884383311385
 20
130.7450541104354
 10
106.2300790332325
 20
130.6430791889708
 10
106.2003601906996
 20
130.5306850479074
 10
106.1740355220456
 20
130.4411062653485
 10
106.1545127070727
 20
130.3412824024561
 10
106.1594798638856
 20
130.2334375143338
 10
106.1665930597701
 20
130.13327670333
 10
106.1983517496942
 20
130.0617768804034
 10
106.2345192720841
 20
130.0108739334739
 10
106.2788059079391
 20
129.9548099807753
 10
106.3272651722565
 20
129.917679006445
 10
106.3673449393671
 20
129.8504137513045
 10
106.4375032196296
 20
129.8418302196283
 10
106.4820986137054
 20
129.8247464297513
 10
106.4960781021668
 20
129.8193911089068
 72
     1
 10
106.4960781021668
 20
129.8193911089068
 11
107.6271071171715
 21
129.8193911089068
 72
     1
 10
107.6271071171715
 20
129.8193911089068
 11
107.8707238378503
 21
130.3079609872474
 72
     1
 10
107.8707238378503
 20
130.3079609872474
 11
107.0310428169781
 21
130.3079609872474
 72
     4
 94
        3
 73
     0
 74
     0
 95
       16
 96
       12
 40
0.0
 40
0.0
 40
0.0
 40
0.0
 40
0.0719416665231652
 40
0.1446253590759511
 40
0.1879779149910863
 40
0.2295440936104291
 40
0.2751936323958108
 40
0.3070718656052164
 40
0.3373215422372382
 40
0.3986635435213372
 40
0.5242542460843084
 40
0.5242542460843084
 40
0.5242542460843084
 40
0.5242542460843084
 10
107.0310428169781
 20
130.3079609872474
 10
107.0057150783064
 20
130.3154127793359
 10
106.9547983637373
 20
130.3303932233353
 10
106.9505370458897
 20
130.4030129124726
 10
106.9563424749515
 20
130.4547603834317
 10
106.9806556248288
 20
130.4924355641478
 10
107.0101516926893
 20
130.5198492151836
 10
107.0211343869408
 20
130.5555512093657
 10
107.0534170160652
 20
130.5825106816821
 10
107.1106627674561
 20
130.627825788658
 10
107.1739666586675
 20
130.6374768939434
 10
107.216497366289
 20
130.6439609872474
 72
     1
 10
107.216497366289
 20
130.6439609872474
 11
108.0382642896401
 21
130.6439609872474
 72
     1
 10
108.0382642896401
 20
130.6439609872474
 11
108.2818835901806
 21
131.1325360394643
 72
     1
 10
108.2818835901806
 20
131.1325360394643
 11
106.9668472480744
 21
131.1325360394643
 97
        8
330
DD3
330
DD5
330
DD2
330
DD6
330
DD7
330
DD4
330
DD8
330
DD9
 75
     0
 76
     1
 47
0.0514683685270805
 98
        1
 10
107.1937646777593
 20
130.8920947362852
450
        0
451
        0
460
0.0
461
0.0
452
        0
462
0.0
453
        0
470

  0
HATCH
  5
DE9
330
18
100
AcDbEntity
  8
ROGO
 62
     4
100
AcDbHatch
 10
0.0
 20
0.0
 30
0.0
210
0.0
220
0.0
230
1.0
  2
SOLID
 70
     1
 71
     0
 91
        1
 92
        7
 72
     0
 73
     1
 93
        4
 10
95.44753615447186
 20
129.2863274608496
 10
95.35448511904986
 20
129.0806572545583
 10
107.533777687633
 20
129.0806572545583
 10
107.6363314950191
 20
129.2863274608495
 97
        0
 75
     0
 76
     1
 47
0.0514683685270805
 98
        1
 10
103.1437714153602
 20
129.2319309966448
450
        0
451
        0
460
0.0
461
0.0
452
        0
462
0.0
453
        0
470

  0
HATCH
  5
DEA
330
18
100
AcDbEntity
  8
ROGO
 62
     4
100
AcDbHatch
 10
0.0
 20
0.0
 30
0.0
210
0.0
220
0.0
230
1.0
  2
SOLID
 70
     1
 71
     1
 91
        1
 92
        7
 72
     0
 73
     1
 93
       11
 10
107.533777687633
 20
129.0806572545583
 10
108.2898614301372
 20
129.0806572545583
 10
108.5569107193029
 20
129.6162208166778
 10
108.8239600084686
 20
129.0806572545583
 10
109.5800272084686
 20
129.0806572545583
 10
109.0684606926336
 20
130.1065966470113
 10
110.3113694379648
 20
131.1325360394643
 10
109.5553022379648
 20
131.1325360394643
 10
109.201289154886
 20
130.9085126306427
 10
109.3129944618071
 20
131.1325360394643
 10
108.5569107193029
 20
131.1325360394643
 97
       11
330
DE2
330
DDD
330
DDC
330
DDA
330
DDB
330
DAE
330
DE0
330
DDE
330
DE3
330
DDF
330
DE1
 75
     0
 76
     1
 47
0.0514683685270805
 98
        1
 10
108.4918394728989
 20
130.2522400560228
450
        0
451
        0
460
0.0
461
0.0
452
        0
462
0.0
453
        0
470

  0
HATCH
  5
DEB
330
18
100
AcDbEntity
  8
ROGO
 62
     4
100
AcDbHatch
 10
0.0
 20
0.0
 30
0.0
210
0.0
220
0.0
230
1.0
  2
SOLID
 70
     1
 71
     1
 91
        2
 92
        5
 93
        6
 72
     1
 10
94.40068416311341
 20
129.0806572545583
 11
95.35448511904986
 21
129.0806572545583
 72
     1
 10
95.35448511904986
 20
129.0806572545583
 11
95.68870926987836
 21
129.8193911089068
 72
     1
 10
95.68870926987836
 20
129.8193911089068
 11
96.58031753805055
 21
129.8193911089068
 72
     4
 94
        3
 73
     0
 74
     0
 95
       18
 96
       14
 40
0.108740278791501
 40
0.108740278791501
 40
0.108740278791501
 40
0.108740278791501
 40
0.6623149649549278
 40
1.384304701649787
 40
2.097394834876493
 40
2.774073369849618
 40
3.428974823686337
 40
4.005208313035923
 40
4.455173659284313
 40
4.720999734343524
 40
5.086034088486724
 40
5.569973738255373
 40
6.060470601257719
 40
6.060470601257719
 40
6.060470601257719
 40
6.060470601257719
 10
96.58031753805051
 20
129.8193911089068
 10
96.64306745494526
 20
129.819858388538
 10
96.78765781199878
 20
129.8209351091465
 10
96.98993859010602
 20
129.9289979456419
 10
97.18175856319897
 20
130.0666621259837
 10
97.33625650228043
 20
130.2386591567855
 10
97.43251337315655
 20
130.4353082943062
 10
97.44742325820368
 20
130.6237784298779
 10
97.43832113969268
 20
130.7728559640343
 10
97.37328193114969
 20
130.8767667063372
 10
97.30566573722501
 20
130.9822254835099
 10
97.18168050167776
 20
131.0735777933013
 10
97.08009255382728
 20
131.1136036846166
 10
97.02843301619124
 20
131.1325360394643
 72
     1
 10
97.02843301619132
 20
131.1325360394643
 11
95.41593470320608
 21
131.1325360394643
 72
     1
 10
95.41593470320608
 20
131.1325360394643
 11
94.40068416311341
 21
129.0806572545583
 97
        6
330
DB0
330
DAD
330
DAF
330
DAE
330
DB6
330
DB1
 92
       20
 93
        4
 72
     1
 10
95.89507376218854
 20
130.2755174433656
 11
96.05307155854587
 21
130.6247391282509
 72
     1
 10
96.05307155854587
 20
130.6247391282509
 11
96.45905855764327
 21
130.6247391282509
 72
     4
 94
        3
 73
     0
 74
     0
 95
       15
 96
       11
 40
0.0
 40
0.0
 40
0.0
 40
0.0
 40
0.1539705029176134
 40
0.2241725832588156
 40
0.3038566179397562
 40
0.3581410872475068
 40
0.4439925384673412
 40
0.4954152125470444
 40
0.5836396705646413
 40
0.6130478420066522
 40
0.6130478420066522
 40
0.6130478420066522
 40
0.6130478420066522
 10
96.45905855764329
 20
130.6247391282509
 10
96.51688689270255
 20
130.6250040128934
 10
96.6010817677607
 20
130.6253896703631
 10
96.64712252412527
 20
130.5212403664336
 10
96.62648486189171
 20
130.4541844617961
 10
96.60054163846771
 20
130.3853389475484
 10
96.55469408692525
 20
130.3385573822791
 10
96.49315995733017
 20
130.293498848642
 10
96.4350072642744
 20
130.2880443113825
 10
96.39718546530184
 20
130.2780228179284
 10
96.38773001103254
 20
130.2755174433656
 72
     1
 10
96.38773001103253
 20
130.2755174433655
 11
95.89507376218854
 21
130.2755174433656
 97
        4
330
DB2
330
DB4
330
DB3
330
DB5
 75
     0
 76
     1
 47
0.0514683685270805
 98
        2
 10
95.42455325651292
 20
130.4943472825753
 10
95.42455325651292
 20
130.4943472825753
450
        0
451
        0
460
0.0
461
0.0
452
        0
462
0.0
453
        0
470

  0
LINE
  5
DEC
102
{ACAD_REACTORS
330
DEF
102
}
330
18
100
AcDbEntity
  8
ROGO
 62
     4
100
AcDbLine
 10
101.3220379058499
 20
131.1325360394643
 30
0.0
 11
101.9053889162331
 21
129.8193911089068
 31
0.0
  0
LINE
  5
DED
102
{ACAD_REACTORS
330
DEF
102
}
330
18
100
AcDbEntity
  8
ROGO
 62
     4
100
AcDbLine
 10
100.7457622797102
 20
130.7815270625125
 30
0.0
 11
100.9449696654355
 21
130.3331037906936
 31
0.0
  0
LINE
  5
DEE
102
{ACAD_REACTORS
330
DEF
102
}
330
18
100
AcDbEntity
  8
ROGO
 62
     4
100
AcDbLine
 10
101.0621147710361
 20
130.0694057789976
 30
0.0
 11
101.173181194105
 21
129.8193911089068
 31
0.0
  0
HATCH
  5
DEF
330
18
100
AcDbEntity
  8
ROGO
 62
     4
100
AcDbHatch
 10
0.0
 20
0.0
 30
0.0
210
0.0
220
0.0
230
1.0
  2
SOLID
 70
     1
 71
     1
 91
        2
 92
        7
 72
     0
 73
     1
 93
        8
 10
101.3220379058499
 20
131.1325360394643
 10
100.2716344230783
 20
131.1325360394643
 10
99.32470009297926
 20
129.8193911089068
 10
100.0519473446708
 20
129.8193911089068
 10
100.2322377822518
 20
130.0694057789976
 10
101.0621147710361
 20
130.0694057789976
 10
101.173181194105
 20
129.8193911089068
 10
101.9053889162331
 20
129.8193911089069
 97
        8
330
DC8
330
DC2
330
DC7
330
DC6
330
DC4
330
DEE
330
DC9
330
DEC
 92
       22
 72
     0
 73
     1
 93
        3
 10
100.9449696654355
 20
130.3331037906937
 10
100.4223955433969
 20
130.3331037906937
 10
100.7457622797102
 20
130.7815270625127
 97
        3
330
DC5
330
DC3
330
DED
 75
     0
 76
     1
 47
0.0128389261915577
 98
        2
 10
101.2397830133541
 20
130.8174941226552
 10
101.2397830133541
 20
130.8174941226552
450
        0
451
        0
460
0.0
461
0.0
452
        0
462
0.0
453
        0
470

  0
SPLINE
  5
DF0
102
{ACAD_REACTORS
330
DF7
102
}
330
18
100
AcDbEntity
  8
ROGO
 62
     4
100
AcDbSpline
210
0.0
220
0.0
230
1.0
 70
     8
 71
     3
 72
    38
 73
    34
 74
    32
 42
0.0000000001
 43
0.0000000001
 44
0.0000000001
 40
0.0
 40
0.0
 40
0.0
 40
0.0
 40
0.1807680148264315
 40
0.2375392910068956
 40
0.3104865209605649
 40
0.371275998244695
 40
0.4225667543873034
 40
0.4906925837207053
 40
0.5255021974951975
 40
0.5647069597052399
 40
0.6224874016818859
 40
0.6879401044674396
 40
0.730398631755179
 40
0.7765228362185655
 40
0.8277951442290374
 40
0.9056034697002331
 40
0.9795294930264308
 40
1.013897332333026
 40
1.053089255536057
 40
1.099518741889677
 40
1.132570569820754
 40
1.160277520290309
 40
1.199836786293901
 40
1.24330564316918
 40
1.286774258017005
 40
1.324809356515716
 40
1.411916492917686
 40
1.446284332224282
 40
1.515020051661241
 40
1.575779369908466
 40
1.692098529536296
 40
1.835624328519119
 40
2.042896467983974
 40
2.042896467983974
 40
2.042896467983974
 40
2.042896467983974
 10
104.7800391392956
 20
131.1380132586366
 30
0.0
 10
104.7197837416699
 20
131.1337566395357
 30
0.0
 10
104.6406047760487
 20
131.1281632037485
 30
0.0
 10
104.5400660035392
 20
131.1006185775436
 30
0.0
 10
104.4852612490982
 20
131.0678040580857
 30
0.0
 10
104.4282259477811
 20
131.0436838133852
 30
0.0
 10
104.379598041396
 20
131.007966514136
 30
0.0
 10
104.3304119407001
 20
130.9895617339426
 30
0.0
 10
104.2959703273242
 20
130.9563746255699
 30
0.0
 10
104.2561069691914
 20
130.9361025073949
 30
0.0
 10
104.2243630693561
 20
130.8907276133806
 30
0.0
 10
104.1888823928244
 20
130.848303731722
 30
0.0
 10
104.1477203444171
 20
130.8173361901447
 30
0.0
 10
104.1139380988578
 20
130.7848112111823
 30
0.0
 10
104.0829475859334
 20
130.7346153959984
 30
0.0
 10
104.0646060133623
 20
130.6679200213128
 30
0.0
 10
104.012904198953
 20
130.6258109670277
 30
0.0
 10
104.0051195244698
 20
130.5751833193514
 30
0.0
 10
103.9765216742742
 20
130.5453138591608
 30
0.0
 10
103.9640863288182
 20
130.5067566771758
 30
0.0
 10
103.9593503506945
 20
130.4714314878551
 30
0.0
 10
103.9536660476521
 20
130.4384402064267
 30
0.0
 10
103.9387969874194
 20
130.403734835689
 30
0.0
 10
103.9436502999808
 20
130.360864556754
 30
0.0
 10
103.9422677369387
 20
130.3193518427275
 30
0.0
 10
103.9430813769119
 20
130.263308386116
 30
0.0
 10
103.9401448375659
 20
130.2087431891965
 30
0.0
 10
103.9635625880811
 20
130.1493633130281
 30
0.0
 10
103.9774204356838
 20
130.0964343683616
 30
0.0
 10
104.0153724056275
 20
130.0231478261101
 30
0.0
 10
104.0808387584454
 20
129.9385910024012
 30
0.0
 10
104.2053285044629
 20
129.8359550391084
 30
0.0
 10
104.3250290350222
 20
129.8255430983911
 30
0.0
 10
104.3957551777524
 20
129.8193911089068
 30
0.0
 11
104.7800391392956
 21
131.1380132586366
 31
0.0
 11
104.6005825023483
 21
131.1162787091852
 31
0.0
 11
104.5462017162201
 21
131.0999781601379
 31
0.0
 11
104.4809450292122
 21
131.0673765779883
 31
0.0
 11
104.426564243084
 21
131.0402087542152
 31
0.0
 11
104.3830597850786
 21
131.0130406884147
 31
0.0
 11
104.3232410485105
 21
130.9804393482926
 31
0.0
 11
104.2960504418249
 21
130.9587050408687
 31
0.0
 11
104.2634218846995
 21
130.9369704914173
 31
0.0
 11
104.225355377134
 21
130.8935018765694
 31
0.0
 11
104.1818509191288
 21
130.8445997453725
 31
0.0
 11
104.1492223620031
 21
130.817431679572
 31
0.0
 11
104.1165942321207
 21
130.7848303394499
 31
0.0
 11
104.0894036254351
 21
130.7413617246021
 31
0.0
 11
104.0567754955527
 21
130.6707250439538
 31
0.0
 11
104.0132706103043
 21
130.6109556380311
 31
0.0
 11
104.0023947094245
 21
130.5783540558815
 31
0.0
 11
103.9806424804218
 21
130.5457527157593
 31
0.0
 11
103.9643282018591
 21
130.5022838588841
 31
0.0
 11
103.9588898241761
 21
130.4696825187619
 31
0.0
 11
103.9534518737363
 21
130.4425144529614
 31
0.0
 11
103.9425759728564
 21
130.4044795964901
 31
0.0
 11
103.9425759728564
 21
130.3610107396149
 31
0.0
 11
103.9425759728564
 21
130.317542124767
 31
0.0
 11
103.9425759728564
 21
130.2795070262683
 31
0.0
 11
103.9480139232963
 21
130.1925697965726
 31
0.0
 11
103.9588898241761
 21
130.159968214423
 31
0.0
 11
103.9806424804218
 21
130.0947652921513
 31
0.0
 11
104.0078326598644
 21
130.0404294025778
 31
0.0
 11
104.0785277245553
 21
129.9480586565329
 31
0.0
 11
104.1927272472516
 21
129.8611211848098
 31
0.0
 11
104.3957551777524
 21
129.8193911089068
 31
0.0
  0
SPLINE
  5
DF1
102
{ACAD_REACTORS
330
DF7
102
}
330
18
100
AcDbEntity
  8
ROGO
 62
     4
100
AcDbSpline
210
0.0
220
0.0
230
1.0
 70
     8
 71
     3
 72
    25
 73
    21
 74
     0
 42
0.0000000001
 43
0.0000000001
 40
0.0
 40
0.0
 40
0.0
 40
0.0
 40
0.4087168505087288
 40
0.6887487002771746
 40
0.9415836120477687
 40
1.17452070575514
 40
1.41154617586699
 40
1.599156012919487
 40
1.80099909059943
 40
2.178735911501585
 40
2.521686161369157
 40
2.762704659361267
 40
3.06256558063785
 40
3.222432137207705
 40
3.399493810628493
 40
3.567459719866414
 40
3.743172740007509
 40
3.995988754699505
 40
4.17170091132118
 40
4.337226830236035
 40
4.337226830236035
 40
4.337226830236035
 40
4.337226830236035
 10
105.5304929624809
 20
131.1380132586366
 30
0.0
 10
105.5797130129065
 20
131.1364318691805
 30
0.0
 10
105.662656120625
 20
131.1337669926745
 30
0.0
 10
105.7517057792462
 20
131.064164303299
 30
0.0
 10
105.8198440000054
 20
131.006458340984
 30
0.0
 10
105.868209354866
 20
130.9366945346498
 30
0.0
 10
105.9106029435085
 20
130.8725504309727
 30
0.0
 10
105.9385371042777
 20
130.8048290163066
 30
0.0
 10
105.9765330819524
 20
130.7235695207697
 30
0.0
 10
105.9922615395997
 20
130.6148563883387
 30
0.0
 10
105.981635096263
 20
130.5024913352931
 30
0.0
 10
105.9539050407655
 20
130.4028900515897
 30
0.0
 10
105.9248184420655
 20
130.3264782864455
 30
0.0
 10
105.8905364231482
 20
130.2599571044549
 30
0.0
 10
105.8496678758441
 20
130.2168846339559
 30
0.0
 10
105.8213149203051
 20
130.1621184076084
 30
0.0
 10
105.7668525195878
 20
130.1173225747349
 30
0.0
 10
105.7227023597812
 20
130.0620508042809
 30
0.0
 10
105.6726011231416
 20
130.0146104559423
 30
0.0
 10
105.6443538238376
 20
129.9853403327206
 30
0.0
 10
105.6294611664439
 20
129.9730335887749
 30
0.0
  0
LINE
  5
DF2
102
{ACAD_REACTORS
330
DF7
102
}
330
18
100
AcDbEntity
  8
ROGO
 62
     4
100
AcDbLine
 10
104.7800391392956
 20
131.1380132586366
 30
0.0
 11
105.5304929624809
 21
131.1380132586366
 31
0.0
  0
LINE
  5
DF3
102
{ACAD_REACTORS
330
DF7
102
}
330
18
100
AcDbEntity
  8
ROGO
 62
     4
100
AcDbLine
 10
104.3957551777524
 20
129.8193911089068
 30
0.0
 11
105.1462090009378
 21
129.8193911089068
 31
0.0
  0
SPLINE
  5
DF4
102
{ACAD_REACTORS
330
DF7
102
}
330
18
100
AcDbEntity
  8
ROGO
 62
     4
100
AcDbSpline
210
0.0
220
0.0
230
1.0
 70
     8
 71
     3
 72
    11
 73
     7
 74
     0
 42
0.0000000001
 43
0.0000000001
 40
0.1647869275458134
 40
0.1647869275458134
 40
0.1647869275458134
 40
0.1647869275458134
 40
0.2895635144633836
 40
0.5387013147903714
 40
0.7953622617455423
 40
0.8850764140209602
 40
0.8850764140209602
 40
0.8850764140209602
 40
0.8850764140209602
 10
105.3962264595558
 20
129.8486675558154
 30
0.0
 10
105.382247916755
 20
129.8447766230989
 30
0.0
 10
105.3389069053207
 20
129.837849033315
 30
0.0
 10
105.2662081381826
 20
129.8283366389416
 30
0.0
 10
105.1971115960863
 20
129.818410108357
 30
0.0
 10
105.1566809012578
 20
129.8191892932638
 30
0.0
 10
105.1462090009378
 20
129.8193911089068
 30
0.0
  0
SPLINE
  5
DF5
102
{ACAD_REACTORS
330
DF7
102
}
330
18
100
AcDbEntity
  8
ROGO
 62
     4
100
AcDbSpline
210
0.0
220
0.0
230
1.0
 70
     8
 71
     3
 72
     9
 73
     5
 74
     3
 42
0.0000000001
 43
0.0000000001
 44
0.0000000001
 40
0.0
 40
0.0
 40
0.0
 40
0.0
 40
0.1135793343552172
 40
0.2662938392177403
 40
0.2662938392177403
 40
0.2662938392177403
 40
0.2662938392177403
 10
105.3962264595558
 20
129.8486675558154
 30
0.0
 10
105.4327114278738
 20
129.8598298955386
 30
0.0
 10
105.5182527135512
 20
129.8860006977925
 30
0.0
 10
105.588929410788
 20
129.941313015567
 30
0.0
 10
105.6294611664439
 20
129.9730335887749
 30
0.0
 11
105.3962264595558
 21
129.8486675558154
 31
0.0
 11
105.5029772237805
 21
129.8874559500851
 31
0.0
 11
105.6294611664439
 21
129.9730335887749
 31
0.0
  0
ELLIPSE
  5
DF6
102
{ACAD_REACTORS
330
DF7
102
}
330
18
100
AcDbEntity
  8
ROGO
 62
     4
100
AcDbEllipse
 10
104.9524975339262
 20
130.4603172664176
 30
0.0
 11
0.1782847090673272
 21
0.1567790921840611
 31
0.0
210
0.0
220
0.0
230
1.0
 40
0.6788083417438792
 41
0.0
 42
6.283185307179586
  0
HATCH
  5
DF7
330
18
100
AcDbEntity
  8
ROGO
 62
     4
100
AcDbHatch
 10
0.0
 20
0.0
 30
0.0
210
0.0
220
0.0
230
1.0
  2
SOLID
 70
     1
 71
     1
 91
        2
 92
        5
 93
        6
 72
     4
 94
        3
 73
     0
 74
     0
 95
       38
 96
       34
 40
0.0
 40
0.0
 40
0.0
 40
0.0
 40
0.1807680148264315
 40
0.2375392910068956
 40
0.3104865209605649
 40
0.371275998244695
 40
0.4225667543873034
 40
0.4906925837207053
 40
0.5255021974951975
 40
0.5647069597052399
 40
0.6224874016818859
 40
0.6879401044674396
 40
0.730398631755179
 40
0.7765228362185655
 40
0.8277951442290374
 40
0.9056034697002331
 40
0.9795294930264308
 40
1.013897332333026
 40
1.053089255536057
 40
1.099518741889677
 40
1.132570569820754
 40
1.160277520290309
 40
1.199836786293901
 40
1.24330564316918
 40
1.286774258017005
 40
1.324809356515716
 40
1.411916492917686
 40
1.446284332224282
 40
1.515020051661241
 40
1.575779369908466
 40
1.692098529536296
 40
1.835624328519119
 40
2.042896467983974
 40
2.042896467983974
 40
2.042896467983974
 40
2.042896467983974
 10
104.7800391392956
 20
131.1380132586366
 10
104.7197837416699
 20
131.1337566395357
 10
104.6406047760487
 20
131.1281632037485
 10
104.5400660035392
 20
131.1006185775436
 10
104.4852612490982
 20
131.0678040580857
 10
104.4282259477811
 20
131.0436838133852
 10
104.379598041396
 20
131.007966514136
 10
104.3304119407001
 20
130.9895617339426
 10
104.2959703273242
 20
130.9563746255699
 10
104.2561069691914
 20
130.9361025073949
 10
104.2243630693561
 20
130.8907276133806
 10
104.1888823928244
 20
130.848303731722
 10
104.1477203444171
 20
130.8173361901447
 10
104.1139380988578
 20
130.7848112111823
 10
104.0829475859334
 20
130.7346153959984
 10
104.0646060133623
 20
130.6679200213128
 10
104.012904198953
 20
130.6258109670277
 10
104.0051195244698
 20
130.5751833193514
 10
103.9765216742742
 20
130.5453138591608
 10
103.9640863288182
 20
130.5067566771758
 10
103.9593503506945
 20
130.4714314878551
 10
103.9536660476521
 20
130.4384402064267
 10
103.9387969874194
 20
130.403734835689
 10
103.9436502999808
 20
130.360864556754
 10
103.9422677369387
 20
130.3193518427275
 10
103.9430813769119
 20
130.263308386116
 10
103.9401448375659
 20
130.2087431891965
 10
103.9635625880811
 20
130.1493633130281
 10
103.9774204356838
 20
130.0964343683616
 10
104.0153724056275
 20
130.0231478261101
 10
104.0808387584454
 20
129.9385910024012
 10
104.2053285044629
 20
129.8359550391084
 10
104.3250290350222
 20
129.8255430983911
 10
104.3957551777524
 20
129.8193911089068
 72
     1
 10
104.3957551777523
 20
129.8193911089068
 11
105.1462090009377
 21
129.8193911089068
 72
     4
 94
        3
 73
     0
 74
     0
 95
       11
 96
        7
 40
0.1647869275458135
 40
0.1647869275458135
 40
0.1647869275458135
 40
0.1647869275458135
 40
0.2545010798212315
 40
0.5111620267764023
 40
0.7602998271033902
 40
0.8850764140209603
 40
0.8850764140209603
 40
0.8850764140209603
 40
0.8850764140209603
 10
105.1462090009378
 20
129.8193911089068
 10
105.1566809012578
 20
129.8191892932638
 10
105.1971115960863
 20
129.818410108357
 10
105.2662081381826
 20
129.8283366389416
 10
105.3389069053207
 20
129.837849033315
 10
105.382247916755
 20
129.8447766230989
 10
105.3962264595558
 20
129.8486675558154
 72
     4
 94
        3
 73
     0
 74
     0
 95
        9
 96
        5
 40
0.0
 40
0.0
 40
0.0
 40
0.0
 40
0.1135793343552172
 40
0.2662938392177403
 40
0.2662938392177403
 40
0.2662938392177403
 40
0.2662938392177403
 10
105.3962264595558
 20
129.8486675558154
 10
105.4327114278738
 20
129.8598298955386
 10
105.5182527135512
 20
129.8860006977925
 10
105.588929410788
 20
129.941313015567
 10
105.6294611664439
 20
129.9730335887749
 72
     4
 94
        3
 73
     0
 74
     0
 95
       25
 96
       21
 40
0.0
 40
0.0
 40
0.0
 40
0.0
 40
0.165525918914855
 40
0.3412380755365305
 40
0.5940540902285263
 40
0.7697671103696209
 40
0.9377330196075423
 40
1.11479469302833
 40
1.274661249598185
 40
1.574522170874768
 40
1.815540668866877
 40
2.15849091873445
 40
2.536227739636605
 40
2.738070817316548
 40
2.925680654369045
 40
3.162706124480894
 40
3.395643218188267
 40
3.648478129958861
 40
3.928509979727306
 40
4.337226830236035
 40
4.337226830236035
 40
4.337226830236035
 40
4.337226830236035
 10
105.6294611664439
 20
129.9730335887749
 10
105.6443538238376
 20
129.9853403327206
 10
105.6726011231416
 20
130.0146104559423
 10
105.7227023597812
 20
130.0620508042809
 10
105.7668525195878
 20
130.1173225747349
 10
105.8213149203051
 20
130.1621184076084
 10
105.8496678758441
 20
130.2168846339559
 10
105.8905364231482
 20
130.2599571044549
 10
105.9248184420655
 20
130.3264782864455
 10
105.9539050407655
 20
130.4028900515897
 10
105.981635096263
 20
130.5024913352931
 10
105.9922615395997
 20
130.6148563883387
 10
105.9765330819524
 20
130.7235695207697
 10
105.9385371042777
 20
130.8048290163066
 10
105.9106029435085
 20
130.8725504309727
 10
105.868209354866
 20
130.9366945346498
 10
105.8198440000054
 20
131.006458340984
 10
105.7517057792462
 20
131.064164303299
 10
105.662656120625
 20
131.1337669926745
 10
105.5797130129065
 20
131.1364318691805
 10
105.5304929624809
 20
131.1380132586366
 72
     1
 10
105.530492962481
 20
131.1380132586366
 11
104.7800391392956
 21
131.1380132586366
 97
        6
330
DF1
330
DF2
330
DF0
330
DF3
330
DF4
330
DF5
 92
       20
 93
        1
 72
     3
 10
104.9524975339262
 20
130.4603172664176
 11
0.1782847090673273
 21
0.1567790921840611
 40
0.6788083417438792
 50
0.0
 51
360.0
 73
     1
 97
        1
330
DF6
 75
     0
 76
     1
 47
0.088756267210375
 98
        2
 10
105.0049288096949
 20
130.7738045367416
 10
105.0049288096949
 20
130.7738045367416
450
        0
451
        0
460
0.0
461
0.0
452
        0
462
0.0
453
        0
470

  0
CIRCLE
  5
E28
330
18
100
AcDbEntity
  8
針
100
AcDbCircle
 10
102.0833108180478
 20
125.0806572545583
 30
0.0
 40
1.9
  0
LINE
  5
E29
330
18
100
AcDbEntity
  8
針
100
AcDbLine
 10
89.22484679710704
 20
142.9319318035135
 30
0.0
 11
100.7472979018962
 21
127.940302247888
 31
0.0
  0
ARC
  5
E2A
330
18
100
AcDbEntity
  8
針
100
AcDbCircle
 10
103.174348885021
 20
129.7036580047654
 30
0.0
 40
3.0
100
AcDbArc
 50
216.0
 51
245.4722791770396
  0
LINE
  5
E2B
330
18
100
AcDbEntity
  8
針
100
AcDbLine
 10
89.15203526761343
 20
142.8790311308073
 30
0.0
 11
89.22484679710704
 21
142.9319318035135
 31
0.0
  0
ARC
  5
E2C
330
18
100
AcDbEntity
  8
針
100
AcDbCircle
 10
97.34942652552138
 20
125.4716041882595
 30
0.0
 40
3.0
100
AcDbArc
 50
6.527720822960354
 51
36.00000000000001
  0
LINE
  5
E2D
330
18
100
AcDbEntity
  8
針
100
AcDbLine
 10
89.0792237381197
 20
142.8261304581009
 30
0.0
 11
99.77647750864605
 21
127.2349599451369
 31
0.0
  0
LINE
  5
E2E
330
18
100
AcDbEntity
  8
針
100
AcDbLine
 10
89.15203526761331
 20
142.8790311308072
 30
0.0
 11
89.0792237381197
 21
142.8261304581009
 31
0.0
  0
CIRCLE
  5
E2F
330
18
100
AcDbEntity
  8
針
100
AcDbCircle
 10
102.0833108180478
 20
125.0806572545583
 30
0.0
 40
0.475
  0
CIRCLE
  5
E30
330
18
100
AcDbEntity
  8
針
100
AcDbCircle
 10
102.0833108180478
 20
125.0806572545583
 30
0.0
 40
1.5
  0
HATCH
  5
E31
330
18
100
AcDbEntity
  8
針
100
AcDbHatch
 10
0.0
 20
0.0
 30
0.0
210
0.0
220
0.0
230
1.0
  2
SOLID
 70
     1
 71
     0
 91
        2
 92
        7
 72
     1
 73
     1
 93
        5
 10
89.22484679710704
 20
142.9319318035135
 42
0.0
 10
89.15203526761343
 20
142.8790311308073
 42
0.0
 10
89.0792237381197
 20
142.8261304581009
 42
0.0
 10
92.759224444315
 20
137.4625558688731
 42
-0.0085634322047721
 10
93.18872660330123
 20
137.7746074532467
 42
0.0
 97
        0
 92
        7
 72
     1
 73
     1
 93
        6
 10
93.18872660330123
 20
137.7746074532467
 42
0.0085634322047721
 10
92.759224444315
 20
137.4625558688731
 42
0.0
 10
99.7764775086464
 20
127.2349599451365
 42
-0.1293106770632391
 10
100.3299774338807
 20
125.8126559184676
 42
-0.2805221108582334
 10
101.9289485313302
 20
126.9743764218161
 42
-0.1293106770632486
 10
100.7472979018964
 20
127.9403022478877
 42
0.0
 97
        0
 75
     0
 76
     1
 47
0.0423559757596284
 98
        2
 10
92.57188111659479
 20
138.1030076401122
 10
95.26396734244952
 20
134.6140167516045
450
        0
451
        0
460
0.0
461
0.0
452
        0
462
0.0
453
        0
470

  0
CIRCLE
  5
E4D
330
18
100
AcDbEntity
  8
外形線
100
AcDbCircle
 10
102.0833108180478
 20
125.0806572545583
 30
0.0
 40
27.5
  0
TEXT
  5
E60
330
18
100
AcDbEntity
  8
文字
100
AcDbText
 10
101.3907811137624
 20
135.4224502117739
 30
0.0
 40
1.5
  1
0
  7
STYLE3
100
AcDbText
  0
TEXT
  5
E61
330
18
100
AcDbEntity
  8
文字
100
AcDbText
 10
98.2062552231871
 20
134.7388004492565
 30
0.0
 40
1.5
  1
1
  7
STYLE3
100
AcDbText
  0
TEXT
  5
E62
330
18
100
AcDbEntity
  8
文字
100
AcDbText
 10
94.97398235175172
 20
133.1378861783943
 30
0.0
 40
1.5
  1
2
  7
STYLE3
100
AcDbText
  0
TEXT
  5
E63
330
18
100
AcDbEntity
  8
文字
100
AcDbText
 10
92.19005280931298
 20
130.5579930119543
 30
0.0
 40
1.5
  1
3
  7
STYLE3
100
AcDbText
  0
TEXT
  5
E64
330
18
100
AcDbEntity
  8
文字
100
AcDbText
 10
90.69636190486267
 20
127.650313978128
 30
0.0
 40
1.5
  1
4
  7
STYLE3
100
AcDbText
  0
TEXT
  5
E65
330
18
100
AcDbEntity
  8
文字
100
AcDbText
 10
90.86550422718756
 20
124.2562047496816
 30
0.0
 40
1.5
  1
5
  7
STYLE3
100
AcDbText
  0
TEXT
  5
E66
330
18
100
AcDbEntity
  8
文字
100
AcDbText
 10
91.0080415937208
 20
121.0539983776852
 30
0.0
 40
1.5
  1
6
  7
STYLE3
100
AcDbText
  0
TEXT
  5
E67
330
18
100
AcDbEntity
  8
文字
100
AcDbText
 10
92.51969999197866
 20
117.9819022141143
 30
0.0
 40
1.5
  1
7
  7
STYLE3
100
AcDbText
  0
TEXT
  5
E68
330
18
100
AcDbEntity
  8
文字
100
AcDbText
 10
94.83569720906269
 20
115.471101202378
 30
0.0
 40
1.5
  1
8
  7
STYLE3
100
AcDbText
  0
TEXT
  5
E69
330
18
100
AcDbEntity
  8
文字
100
AcDbText
 10
98.09968253350735
 20
113.9677010156754
 30
0.0
 40
1.5
  1
9
  7
STYLE3
100
AcDbText
  0
TEXT
  5
E6A
330
18
100
AcDbEntity
  8
文字
100
AcDbText
 10
100.6575193165127
 20
113.337827713549
 30
0.0
 40
1.5
  1
10
  7
STYLE3
100
AcDbText
  0
ARC
  5
E6B
330
18
100
AcDbEntity
  8
針
100
AcDbCircle
 10
102.0833108180478
 20
125.0806572545583
 30
0.0
 40
2.25
100
AcDbArc
 50
106.1215319403884
 51
73.87846805961146
  0
LINE
  5
E6C
330
18
100
AcDbEntity
  8
針
100
AcDbLine
 10
102.0833108180478
 20
139.5806572545582
 30
0.0
 11
102.1833108180478
 21
139.5806572545583
 31
0.0
  0
LINE
  5
E6D
330
18
100
AcDbEntity
  8
針
100
AcDbLine
 10
102.3469665422096
 20
127.7156172528316
 30
0.0
 11
102.1833108180478
 21
139.5806572545583
 31
0.0
  0
ARC
  5
E6E
330
18
100
AcDbEntity
  8
針
100
AcDbCircle
 10
102.8469189865692
 20
127.7225131486159
 30
0.0
 40
0.5
100
AcDbArc
 50
180.7902365024304
 51
253.8784680596089
  0
LINE
  5
E6F
330
18
100
AcDbEntity
  8
針
100
AcDbLine
 10
101.819655093886
 20
127.7156172528316
 30
0.0
 11
101.9833108180477
 21
139.5806572545583
 31
0.0
  0
ARC
  5
E70
330
18
100
AcDbEntity
  8
針
100
AcDbCircle
 10
101.3197026495263
 20
127.7225131486158
 30
0.0
 40
0.5
100
AcDbArc
 50
286.121531940391
 51
359.2097634975695
  0
LINE
  5
E71
330
18
100
AcDbEntity
  8
針
100
AcDbLine
 10
102.0833108180478
 20
139.5806572545582
 30
0.0
 11
101.9833108180477
 21
139.5806572545583
 31
0.0
  0
HATCH
  5
E72
330
18
100
AcDbEntity
  8
針
100
AcDbHatch
 10
0.0
 20
0.0
 30
0.0
210
0.0
220
0.0
230
1.0
  2
SOLID
 70
     1
 71
     0
 91
        1
 92
        7
 72
     1
 73
     1
 93
       13
 10
99.8832513881639
 20
125.5520790455042
 42
0.0451637842092326
 10
100.3414255620466
 20
125.8394956793402
 42
-0.4382411104070623
 10
102.981157271299
 20
126.7551338134817
 42
-1.000000154483609
 10
101.1854643647966
 20
123.4061806956348
 42
-0.0991965089619077
 10
100.6096588368789
 20
123.8813450189844
 42
0.0451637842092322
 10
100.0910705939086
 20
124.0349618451193
 42
1.513476680661748
 10
102.7080811377471
 20
127.2421757133327
 42
-0.3301774454167336
 10
102.3469665422096
 20
127.7156172528317
 42
0.0
 10
102.1833108180479
 20
139.5806572545584
 42
0.0
 10
102.0833108180478
 20
139.5806572545582
 42
0.0
 10
101.9833108180477
 20
139.5806572545583
 42
0.0
 10
101.8196550938859
 20
127.7156172528317
 42
-0.3301774454167854
 10
101.4585404983483
 20
127.2421757133326
 42
0.2763107710147353
 97
        0
 75
     0
 76
     1
 47
0.0351216412536765
 98
        1
 10
101.1624099023212
 20
126.9143039371556
450
        0
451
        0
460
0.0
461
0.0
452
        0
462
0.0
453
        0
470

  0
LINE
  5
E87
330
18
100
AcDbEntity
  8
外形線
  6
Continuous
100
AcDbLine
 10
98.08331081804794
 20
174.052793209558
 30
0.0
 11
98.08331081804784
 21
152.2881929753839
 31
0.0
  0
LINE
  5
E88
330
18
100
AcDbEntity
  8
外形線
  6
Continuous
100
AcDbLine
 10
106.0833108180478
 20
174.0527932095579
 30
0.0
 11
106.0833108180478
 21
152.2881929753839
 31
0.0
  0
LINE
  5
E89
330
18
100
AcDbEntity
  8
外形線
100
AcDbLine
 10
98.08331081804794
 20
174.052793209558
 30
0.0
 11
106.0833108180478
 21
174.0527932095579
 31
0.0
  0
ARC
  5
E8A
330
18
100
AcDbEntity
  8
外形線
100
AcDbCircle
 10
102.0833108180478
 20
169.5806572545583
 30
0.0
 40
6.0
100
AcDbArc
 50
48.18968510422154
 51
131.8103148957773
  0
POINT
  5
E8B
330
18
100
AcDbEntity
  8
DEFPOINTS
  6
ByBlock
 62
     0
100
AcDbPoint
 10
102.0833108180478
 20
175.5806572545583
 30
0.0
  0
CIRCLE
  5
E91
330
18
100
AcDbEntity
  8
目盛
100
AcDbCircle
 10
102.0833108180478
 20
125.0806572545583
 30
0.0
 40
14.25
  0
LINE
  5
E92
330
18
100
AcDbEntity
  8
目盛
100
AcDbLine
 10
102.0833108180478
 20
139.3306572545583
 30
0.0
 11
102.0833108180478
 21
137.3306572545583
 31
0.0
  0
LINE
  5
E93
330
18
100
AcDbEntity
  8
目盛
100
AcDbLine
 10
97.67981864820491
 20
138.6332126117642
 30
0.0
 11
98.29785263695487
 21
136.7310995791739
 31
0.0
  0
LINE
  5
E94
330
18
100
AcDbEntity
  8
目盛
100
AcDbLine
 10
93.70737097288008
 20
136.6091494244014
 30
0.0
 11
94.88294147746513
 21
134.9911154356515
 31
0.0
  0
LINE
  5
E95
330
18
100
AcDbEntity
  8
目盛
100
AcDbLine
 10
90.55481864820491
 20
133.4565970997261
 30
0.0
 11
92.17285263695476
 21
132.2810265951411
 31
0.0
  0
LINE
  5
E96
330
18
100
AcDbEntity
  8
目盛
100
AcDbLine
 10
88.53075546084198
 20
129.4841494244014
 30
0.0
 11
90.43286849343223
 21
128.8661154356515
 31
0.0
  0
LINE
  5
E97
330
18
100
AcDbEntity
  8
目盛
100
AcDbLine
 10
87.83331081804783
 20
125.0806572545584
 30
0.0
 11
89.83331081804783
 21
125.0806572545584
 31
0.0
  0
LINE
  5
E98
330
18
100
AcDbEntity
  8
目盛
100
AcDbLine
 10
88.53075546084175
 20
120.6771650847154
 30
0.0
 11
90.43286849343212
 21
121.2951990734652
 31
0.0
  0
LINE
  5
E99
330
18
100
AcDbEntity
  8
目盛
100
AcDbLine
 10
90.55481864820478
 20
116.7047174093906
 30
0.0
 11
92.17285263695476
 21
117.8802879139755
 31
0.0
  0
LINE
  5
E9A
330
18
100
AcDbEntity
  8
目盛
100
AcDbLine
 10
93.70737097287998
 20
113.5521650847153
 30
0.0
 11
94.8829414774649
 21
115.1701990734652
 31
0.0
  0
LINE
  5
E9B
330
18
100
AcDbEntity
  8
目盛
100
AcDbLine
 10
97.67981864820479
 20
111.5281018973524
 30
0.0
 11
98.29785263695464
 21
113.4302149299427
 31
0.0
  0
LINE
  5
E9C
330
18
100
AcDbEntity
  8
目盛
100
AcDbLine
 10
102.0833108180477
 20
110.8306572545584
 30
0.0
 11
102.0833108180477
 21
112.8306572545584
 31
0.0
  0
LINE
  5
E9D
330
18
100
AcDbEntity
  8
目盛
100
AcDbLine
 10
106.4868029878906
 20
111.5281018973523
 30
0.0
 11
105.8687689991408
 21
113.4302149299426
 31
0.0
  0
LINE
  5
E9E
330
18
100
AcDbEntity
  8
目盛
100
AcDbLine
 10
110.4592506632156
 20
113.5521650847153
 30
0.0
 11
109.2836801586305
 21
115.1701990734652
 31
0.0
  0
LINE
  5
E9F
330
18
100
AcDbEntity
  8
目盛
100
AcDbLine
 10
113.6118029878909
 20
116.7047174093905
 30
0.0
 11
111.9937689991409
 21
117.8802879139754
 31
0.0
  0
LINE
  5
EA0
330
18
100
AcDbEntity
  8
目盛
100
AcDbLine
 10
115.6358661752536
 20
120.6771650847152
 30
0.0
 11
113.7337531426634
 21
121.2951990734651
 31
0.0
  0
LINE
  5
EA1
330
18
100
AcDbEntity
  8
目盛
100
AcDbLine
 10
116.3333108180478
 20
125.0806572545583
 30
0.0
 11
114.3333108180478
 21
125.0806572545583
 31
0.0
  0
LINE
  5
EA2
330
18
100
AcDbEntity
  8
目盛
100
AcDbLine
 10
115.6358661752538
 20
129.4841494244012
 30
0.0
 11
113.7337531426635
 21
128.8661154356513
 31
0.0
  0
LINE
  5
EA3
330
18
100
AcDbEntity
  8
目盛
100
AcDbLine
 10
113.6118029878909
 20
133.456597099726
 30
0.0
 11
111.9937689991409
 21
132.2810265951411
 31
0.0
  0
LINE
  5
EA4
330
18
100
AcDbEntity
  8
目盛
100
AcDbLine
 10
110.4592506632156
 20
136.6091494244012
 30
0.0
 11
109.2836801586307
 21
134.9911154356514
 31
0.0
  0
LINE
  5
EA5
330
18
100
AcDbEntity
  8
目盛
100
AcDbLine
 10
106.4868029878909
 20
138.6332126117642
 30
0.0
 11
105.868768999141
 21
136.7310995791739
 31
0.0
  0
TEXT
  5
EA6
330
18
100
AcDbEntity
  8
文字
100
AcDbText
 10
103.8750454658475
 20
114.2671895196802
 30
0.0
 40
1.5
  1
11
  7
STYLE3
100
AcDbText
  0
TEXT
  5
EA7
330
18
100
AcDbEntity
  8
文字
100
AcDbText
 10
106.8050379958953
 20
115.5243304714224
 30
0.0
 40
1.5
  1
12
  7
STYLE3
100
AcDbText
  0
TEXT
  5
EA8
330
18
100
AcDbEntity
  8
文字
100
AcDbText
 10
109.2571602895585
 20
117.74185916081
 30
0.0
 40
1.5
  1
13
  7
STYLE3
100
AcDbText
  0
TEXT
  5
EA9
330
18
100
AcDbEntity
  8
文字
100
AcDbText
 10
110.7177678004709
 20
120.7558839445243
 30
0.0
 40
1.5
  1
14
  7
STYLE3
100
AcDbText
  0
TEXT
  5
EAA
330
18
100
AcDbEntity
  8
文字
100
AcDbText
 10
110.4120132896967
 20
124.2035657703271
 30
0.0
 40
1.5
  1
15
  7
STYLE3
100
AcDbText
  0
TEXT
  5
EAB
330
18
100
AcDbEntity
  8
文字
100
AcDbText
 10
110.8682846055209
 20
127.341690138928
 30
0.0
 40
1.5
  1
16
  7
STYLE3
100
AcDbText
  0
TEXT
  5
EAC
330
18
100
AcDbEntity
  8
文字
100
AcDbText
 10
109.8727195685424
 20
130.3867403939945
 30
0.0
 40
1.5
  1
17
  7
STYLE3
100
AcDbText
  0
TEXT
  5
EAD
330
18
100
AcDbEntity
  8
文字
100
AcDbText
 10
106.9690516183053
 20
132.7546638282721
 30
0.0
 40
1.5
  1
18
  7
STYLE3
100
AcDbText
  0
TEXT
  5
EAE
330
18
100
AcDbEntity
  8
文字
100
AcDbText
 10
104.2206221663542
 20
134.6444124518207
 30
0.0
 40
1.5
  1
19
  7
STYLE3
100
AcDbText
  0
TEXT
  5
EAF
330
18
100
AcDbEntity
  8
文字
100
AcDbText
 10
96.29410399900155
 20
120.7868493242147
 30
0.0
 40
1.3
  1
NO.207WF-T
  7
STYLE3
100
AcDbText
  0
HATCH
  5
EB0
330
18
100
AcDbEntity
  8
針
100
AcDbHatch
 10
0.0
 20
0.0
 30
0.0
210
0.0
220
0.0
230
1.0
  2
SOLID
 70
     1
 71
     0
 91
        2
 92
        7
 72
     1
 73
     1
 93
        4
 10
100.1833108180478
 20
125.0806572545583
 42
0.0
 10
99.83331081804784
 20
125.0806572545583
 42
0.4142135623730913
 10
102.0833108180478
 20
122.8306572545583
 42
0.0
 10
102.0833108180478
 20
123.1806572545583
 42
-0.4142135623730968
 97
        0
 92
        7
 72
     1
 73
     1
 93
        4
 10
100.3299774338807
 20
125.8126559184678
 42
0.0451637842092276
 10
100.2203012021809
 20
126.3422812758845
 42
0.1499226670973565
 10
99.83331081804784
 20
125.0806572545583
 42
0.0
 10
100.1833108180478
 20
125.0806572545583
 42
-0.0991965089619315
 97
        0
 75
     0
 76
     1
 47
0.0389134658665618
 98
        2
 10
100.185237773225
 20
124.5173519950595
 10
100.1073505722547
 20
125.3734479971987
450
        0
451
        0
460
0.0
461
0.0
452
        0
462
0.0
453
        0
470

  0
POINT
  5
EB8
330
18
100
AcDbEntity
  8
DEFPOINTS
  6
ByBlock
 62
     0
100
AcDbPoint
 10
102.0833108180478
 20
148.0806572545583
 30
0.0
  0
POINT
  5
EB9
330
18
100
AcDbEntity
  8
DEFPOINTS
  6
ByBlock
 62
     0
100
AcDbPoint
 10
102.0833108180478
 20
102.0806572545583
 30
0.0
  0
POINT
  5
EDC
330
18
100
AcDbEntity
  8
DEFPOINTS
  6
ByBlock
 62
     0
100
AcDbPoint
 10
69.89859706593063
 20
125.0806572545583
 30
0.0
  0
POINT
  5
EDD
330
18
100
AcDbEntity
  8
DEFPOINTS
  6
ByBlock
 62
     0
100
AcDbPoint
 10
102.0833108180478
 20
175.5806572545583
 30
0.0
  0
LINE
  5
EEA
102
{ACAD_REACTORS
330
EED
102
}
330
18
100
AcDbEntity
  8
外形線
100
AcDbLine
 10
104.8380317495052
 20
119.0227099607552
 30
0.0
 11
103.8380317495052
 21
119.0227099607552
 31
0.0
  0
LINE
  5
EEB
102
{ACAD_REACTORS
330
EED
102
}
330
18
100
AcDbEntity
  8
外形線
100
AcDbLine
 10
104.8380317495052
 20
118.8435432940885
 30
0.0
 11
103.8380317495052
 21
118.8435432940886
 31
0.0
  0
TEXT
  5
EEC
330
18
100
AcDbEntity
  8
文字
100
AcDbText
 10
99.06777813229155
 20
116.4468363930094
 30
0.0
 40
1.0
  1
0.01mm
  7
STYLE3
100
AcDbText
  0
HATCH
  5
EED
330
18
100
AcDbEntity
  8
外形線
100
AcDbHatch
 10
0.0
 20
0.0
 30
0.0
210
0.0
220
0.0
230
1.0
  2
SOLID
 70
     1
 71
     1
 91
        2
 92
        1
 93
        7
 72
     1
 10
102.6713650828385
 20
118.9331266274219
 11
103.8380317495052
 21
118.5084946874447
 72
     1
 10
103.8380317495052
 20
118.5084946874447
 11
103.8380317495052
 21
118.8435432940886
 72
     1
 10
103.8380317495052
 20
118.8435432940886
 11
104.8380317495052
 21
118.8435432940885
 72
     1
 10
104.8380317495052
 20
118.8435432940885
 11
104.8380317495052
 21
119.0227099607552
 72
     1
 10
104.8380317495052
 20
119.0227099607552
 11
103.8380317495052
 21
119.0227099607552
 72
     1
 10
103.8380317495052
 20
119.0227099607552
 11
103.8380317495052
 21
119.3577585673991
 72
     1
 10
103.8380317495052
 20
119.3577585673991
 11
102.6713650828385
 21
118.9331266274219
 97
        7
330
EF6
330
EF9
330
EEB
330
F12
330
EEA
330
EF5
330
EFC
 92
        1
 93
        4
 72
     1
 10
102.6713650828385
 20
119.6831266274219
 11
102.6713650828385
 21
118.1831266274219
 72
     1
 10
102.6713650828385
 20
118.1831266274219
 11
102.5046984161719
 21
118.1831266274219
 72
     1
 10
102.5046984161719
 20
118.1831266274219
 11
102.5046984161719
 21
119.6831266274219
 72
     1
 10
102.5046984161719
 20
119.6831266274219
 11
102.6713650828385
 21
119.6831266274219
 97
        4
330
EFB
330
F08
330
EFA
330
EF2
 75
     0
 76
     1
 98
        1
 10
10.34180837635824
 20
50.27097582024089
450
        0
451
        0
460
0.0
461
0.0
452
        0
462
0.0
453
        0
470

  0
LINE
  5
EEE
102
{ACAD_REACTORS
330
EF0
102
}
330
18
100
AcDbEntity
  8
外形線
100
AcDbLine
 10
99.33803174950526
 20
119.0227099607552
 30
0.0
 11
100.3380317495052
 21
119.0227099607552
 31
0.0
  0
LINE
  5
EEF
102
{ACAD_REACTORS
330
EF0
102
}
330
18
100
AcDbEntity
  8
外形線
100
AcDbLine
 10
99.33803174950526
 20
118.8435432940885
 30
0.0
 11
100.3380317495052
 21
118.8435432940886
 31
0.0
  0
HATCH
  5
EF0
330
18
100
AcDbEntity
  8
外形線
100
AcDbHatch
 10
0.0
 20
0.0
 30
0.0
210
0.0
220
0.0
230
1.0
  2
SOLID
 70
     1
 71
     1
 91
        2
 92
        1
 93
        7
 72
     1
 10
101.504698416172
 20
118.9331266274219
 11
100.3380317495052
 21
118.5084946874447
 72
     1
 10
100.3380317495052
 20
118.5084946874447
 11
100.3380317495052
 21
118.8435432940886
 72
     1
 10
100.3380317495052
 20
118.8435432940886
 11
99.33803174950526
 21
118.8435432940885
 72
     1
 10
99.33803174950526
 20
118.8435432940885
 11
99.33803174950526
 21
119.0227099607552
 72
     1
 10
99.33803174950526
 20
119.0227099607552
 11
100.3380317495052
 21
119.0227099607552
 72
     1
 10
100.3380317495052
 20
119.0227099607552
 11
100.3380317495052
 21
119.3577585673991
 72
     1
 10
100.3380317495052
 20
119.3577585673991
 11
101.504698416172
 21
118.9331266274219
 97
        7
330
F04
330
F01
330
EEF
330
EF1
330
EEE
330
EFE
330
F05
 92
        1
 93
        4
 72
     1
 10
101.504698416172
 20
119.6831266274219
 11
101.504698416172
 21
118.1831266274219
 72
     1
 10
101.504698416172
 20
118.1831266274219
 11
101.6713650828385
 21
118.1831266274219
 72
     1
 10
101.6713650828385
 20
118.1831266274219
 11
101.6713650828385
 21
119.6831266274219
 72
     1
 10
101.6713650828385
 20
119.6831266274219
 11
101.504698416172
 21
119.6831266274219
 97
        4
330
F06
330
F11
330
F07
330
EFD
 75
     0
 76
     1
 98
        1
 10
193.8342551226523
 20
50.27097582024089
450
        0
451
        0
460
0.0
461
0.0
452
        0
462
0.0
453
        0
470

  0
LINE
  5
EF1
102
{ACAD_REACTORS
330
EF0
102
}
330
18
100
AcDbEntity
  8
外形線
100
AcDbLine
 10
99.33803174950526
 20
119.0227099607552
 30
0.0
 11
99.33803174950526
 21
118.8435432940885
 31
0.0
  0
LINE
  5
EF2
102
{ACAD_REACTORS
330
EED
102
}
330
18
100
AcDbEntity
  8
外形線
100
AcDbLine
 10
102.5046984161719
 20
119.6831266274219
 30
0.0
 11
102.6713650828385
 21
119.6831266274219
 31
0.0
  0
POINT
  5
EF3
330
18
100
AcDbEntity
  8
DEFPOINTS
  6
ByBlock
 62
     0
100
AcDbPoint
 10
103.8380317495052
 20
119.3577585673991
 30
0.0
  0
POINT
  5
EF4
330
18
100
AcDbEntity
  8
DEFPOINTS
  6
ByBlock
 62
     0
100
AcDbPoint
 10
103.8380317495052
 20
119.3577585673991
 30
0.0
  0
LINE
  5
EF5
102
{ACAD_REACTORS
330
EED
102
}
330
18
100
AcDbEntity
  8
外形線
100
AcDbLine
 10
103.8380317495052
 20
119.3577585673991
 30
0.0
 11
103.8380317495052
 21
119.0227099607552
 31
0.0
  0
LINE
  5
EF6
102
{ACAD_REACTORS
330
EED
102
}
330
18
100
AcDbEntity
  8
外形線
100
AcDbLine
 10
102.6713650828385
 20
118.9331266274219
 30
0.0
 11
103.8380317495052
 21
118.5084946874447
 31
0.0
  0
POINT
  5
EF7
330
18
100
AcDbEntity
  8
DEFPOINTS
  6
ByBlock
 62
     0
100
AcDbPoint
 10
103.8380317495052
 20
118.5084946874447
 30
0.0
  0
POINT
  5
EF8
330
18
100
AcDbEntity
  8
DEFPOINTS
  6
ByBlock
 62
     0
100
AcDbPoint
 10
103.8380317495052
 20
118.5084946874447
 30
0.0
  0
LINE
  5
EF9
102
{ACAD_REACTORS
330
EED
102
}
330
18
100
AcDbEntity
  8
外形線
100
AcDbLine
 10
103.8380317495052
 20
118.8435432940886
 30
0.0
 11
103.8380317495052
 21
118.5084946874447
 31
0.0
  0
LINE
  5
EFA
102
{ACAD_REACTORS
330
EED
102
}
330
18
100
AcDbEntity
  8
外形線
100
AcDbLine
 10
102.5046984161719
 20
119.6831266274219
 30
0.0
 11
102.5046984161719
 21
118.1831266274219
 31
0.0
  0
LINE
  5
EFB
102
{ACAD_REACTORS
330
EED
102
}
330
18
100
AcDbEntity
  8
外形線
100
AcDbLine
 10
102.6713650828385
 20
119.6831266274219
 30
0.0
 11
102.6713650828385
 21
118.1831266274219
 31
0.0
  0
LINE
  5
EFC
102
{ACAD_REACTORS
330
EED
102
}
330
18
100
AcDbEntity
  8
外形線
100
AcDbLine
 10
102.6713650828385
 20
118.9331266274219
 30
0.0
 11
103.8380317495052
 21
119.3577585673991
 31
0.0
  0
LINE
  5
EFD
102
{ACAD_REACTORS
330
EF0
102
}
330
18
100
AcDbEntity
  8
外形線
100
AcDbLine
 10
101.6713650828385
 20
119.6831266274219
 30
0.0
 11
101.504698416172
 21
119.6831266274219
 31
0.0
  0
LINE
  5
EFE
102
{ACAD_REACTORS
330
EF0
102
}
330
18
100
AcDbEntity
  8
外形線
100
AcDbLine
 10
100.3380317495052
 20
119.3577585673991
 30
0.0
 11
100.3380317495052
 21
119.0227099607552
 31
0.0
  0
POINT
  5
EFF
330
18
100
AcDbEntity
  8
DEFPOINTS
  6
ByBlock
 62
     0
100
AcDbPoint
 10
100.3380317495052
 20
119.3577585673991
 30
0.0
  0
POINT
  5
F00
330
18
100
AcDbEntity
  8
DEFPOINTS
  6
ByBlock
 62
     0
100
AcDbPoint
 10
100.3380317495052
 20
119.3577585673991
 30
0.0
  0
LINE
  5
F01
102
{ACAD_REACTORS
330
EF0
102
}
330
18
100
AcDbEntity
  8
外形線
100
AcDbLine
 10
100.3380317495052
 20
118.8435432940886
 30
0.0
 11
100.3380317495052
 21
118.5084946874447
 31
0.0
  0
POINT
  5
F02
330
18
100
AcDbEntity
  8
DEFPOINTS
  6
ByBlock
 62
     0
100
AcDbPoint
 10
100.3380317495052
 20
118.5084946874447
 30
0.0
  0
POINT
  5
F03
330
18
100
AcDbEntity
  8
DEFPOINTS
  6
ByBlock
 62
     0
100
AcDbPoint
 10
100.3380317495052
 20
118.5084946874447
 30
0.0
  0
LINE
  5
F04
102
{ACAD_REACTORS
330
EF0
102
}
330
18
100
AcDbEntity
  8
外形線
100
AcDbLine
 10
101.504698416172
 20
118.9331266274219
 30
0.0
 11
100.3380317495052
 21
118.5084946874447
 31
0.0
  0
LINE
  5
F05
102
{ACAD_REACTORS
330
EF0
102
}
330
18
100
AcDbEntity
  8
外形線
100
AcDbLine
 10
101.504698416172
 20
118.9331266274219
 30
0.0
 11
100.3380317495052
 21
119.3577585673991
 31
0.0
  0
LINE
  5
F06
102
{ACAD_REACTORS
330
EF0
102
}
330
18
100
AcDbEntity
  8
外形線
100
AcDbLine
 10
101.504698416172
 20
119.6831266274219
 30
0.0
 11
101.504698416172
 21
118.1831266274219
 31
0.0
  0
LINE
  5
F07
102
{ACAD_REACTORS
330
EF0
102
}
330
18
100
AcDbEntity
  8
外形線
100
AcDbLine
 10
101.6713650828385
 20
119.6831266274219
 30
0.0
 11
101.6713650828385
 21
118.1831266274219
 31
0.0
  0
LINE
  5
F08
102
{ACAD_REACTORS
330
EED
102
}
330
18
100
AcDbEntity
  8
外形線
100
AcDbLine
 10
102.5046984161719
 20
118.1831266274219
 30
0.0
 11
102.6713650828385
 21
118.1831266274219
 31
0.0
  0
POINT
  5
F09
330
18
100
AcDbEntity
  8
DEFPOINTS
  6
ByBlock
 62
     0
100
AcDbPoint
 10
102.6713650828385
 20
118.1831266274219
 30
0.0
  0
POINT
  5
F0A
330
18
100
AcDbEntity
  8
DEFPOINTS
  6
ByBlock
 62
     0
100
AcDbPoint
 10
102.5046984161719
 20
118.1831266274219
 30
0.0
  0
POINT
  5
F0B
330
18
100
AcDbEntity
  8
DEFPOINTS
  6
ByBlock
 62
     0
100
AcDbPoint
 10
102.6713650828385
 20
118.1831266274219
 30
0.0
  0
POINT
  5
F0C
330
18
100
AcDbEntity
  8
DEFPOINTS
  6
ByBlock
 62
     0
100
AcDbPoint
 10
102.5046984161719
 20
118.1831266274219
 30
0.0
  0
POINT
  5
F0D
330
18
100
AcDbEntity
  8
DEFPOINTS
  6
ByBlock
 62
     0
100
AcDbPoint
 10
101.6713650828385
 20
118.1831266274219
 30
0.0
  0
POINT
  5
F0E
330
18
100
AcDbEntity
  8
DEFPOINTS
  6
ByBlock
 62
     0
100
AcDbPoint
 10
101.504698416172
 20
118.1831266274219
 30
0.0
  0
POINT
  5
F0F
330
18
100
AcDbEntity
  8
DEFPOINTS
  6
ByBlock
 62
     0
100
AcDbPoint
 10
101.6713650828385
 20
118.1831266274219
 30
0.0
  0
POINT
  5
F10
330
18
100
AcDbEntity
  8
DEFPOINTS
  6
ByBlock
 62
     0
100
AcDbPoint
 10
101.504698416172
 20
118.1831266274219
 30
0.0
  0
LINE
  5
F11
102
{ACAD_REACTORS
330
EF0
102
}
330
18
100
AcDbEntity
  8
外形線
100
AcDbLine
 10
101.6713650828385
 20
118.1831266274219
 30
0.0
 11
101.504698416172
 21
118.1831266274219
 31
0.0
  0
LINE
  5
F12
102
{ACAD_REACTORS
330
EED
102
}
330
18
100
AcDbEntity
  8
外形線
100
AcDbLine
 10
104.8380317495052
 20
119.0227099607552
 30
0.0
 11
104.8380317495052
 21
118.8435432940885
 31
0.0
  0
LINE
  5
F87
330
18
100
AcDbEntity
  8
外形線
100
AcDbLine
 10
100.5333108180478
 20
42.78065725455829
 30
0.0
 11
103.6333108180478
 21
42.78065725455829
 31
0.0
  0
LINE
  5
F8A
330
18
100
AcDbEntity
  8
外形線
100
AcDbLine
 10
99.88331081804782
 20
59.98065725455834
 30
0.0
 11
99.88331081804782
 21
61.58065725455833
 31
0.0
  0
LINE
  5
F8B
330
18
100
AcDbEntity
  8
外形線
100
AcDbLine
 10
104.2833108180478
 20
59.98065725455834
 30
0.0
 11
104.2833108180478
 21
61.58065725455833
 31
0.0
  0
LINE
  5
F8D
330
18
100
AcDbEntity
  8
外形線
100
AcDbLine
 10
99.5833108180478
 20
59.68065725455833
 30
0.0
 11
102.0833108180478
 21
56.11629138237361
 31
0.0
  0
LINE
  5
F8E
330
18
100
AcDbEntity
  8
外形線
100
AcDbLine
 10
102.0262138195086
 20
59.68065725455833
 30
0.0
 11
102.0833108180478
 21
59.59925141735945
 31
0.0
  0
LINE
  5
F8F
330
18
100
AcDbEntity
  8
外形線
100
AcDbLine
 10
99.5833108180478
 20
56.19769721957244
 30
0.0
 11
100.436926866916
 21
54.98065725455837
 31
0.0
  0
LINE
  5
F90
330
18
100
AcDbEntity
  8
外形線
100
AcDbLine
 10
99.5833108180478
 20
57.93917723706539
 30
0.0
 11
101.653239652448
 21
54.98798375899048
 31
0.0
  0
LINE
  5
F91
330
18
100
AcDbEntity
  8
外形線
100
AcDbLine
 10
100.8047623187782
 20
59.68065725455833
 30
0.0
 11
102.0833108180478
 21
57.85777139986652
 31
0.0
  0
LINE
  5
F92
330
18
100
AcDbEntity
  8
外形線
100
AcDbLine
 10
99.5833108180478
 20
58.34458214939366
 30
0.0
 11
101.2840504067956
 21
59.68065725455833
 31
0.0
  0
LINE
  5
F93
330
18
100
AcDbEntity
  8
外形線
100
AcDbLine
 10
99.5833108180478
 20
57.07291260961842
 30
0.0
 11
102.0833108180478
 21
59.03687451478635
 31
0.0
  0
LINE
  5
F94
330
18
100
AcDbEntity
  8
外形線
100
AcDbLine
 10
99.5833108180478
 20
55.80124306984322
 30
0.0
 11
102.0833108180478
 21
57.76520497501113
 31
0.0
  0
LINE
  5
F95
330
18
100
AcDbEntity
  8
外形線
100
AcDbLine
 10
100.1575120325716
 20
54.98065725455837
 30
0.0
 11
102.0833108180478
 21
56.49353543523591
 31
0.0
  0
LINE
  5
F96
330
18
100
AcDbEntity
  8
外形線
100
AcDbLine
 10
101.7762673867729
 20
54.98065725455837
 30
0.0
 11
102.0833108180478
 21
55.2218658954607
 31
0.0
  0
LINE
  5
F97
330
18
100
AcDbEntity
  8
外形線
100
AcDbLine
 10
64.58331081804783
 20
69.58065725455833
 30
0.0
 11
64.58331081804783
 21
61.58065725455833
 31
0.0
  0
LINE
  5
F98
330
18
100
AcDbEntity
  8
外形線
100
AcDbLine
 10
139.5833108180478
 20
69.58065725455833
 30
0.0
 11
139.5833108180478
 21
61.58065725455833
 31
0.0
  0
ARC
  5
F99
330
18
100
AcDbEntity
  8
外形線
100
AcDbCircle
 10
135.5833108180478
 20
69.58065725455833
 30
0.0
 40
4.0
100
AcDbArc
 50
0.0
 51
90.0
  0
ARC
  5
F9A
330
18
100
AcDbEntity
  8
外形線
100
AcDbCircle
 10
68.58331081804784
 20
69.58065725455833
 30
0.0
 40
4.0
100
AcDbArc
 50
90.00000000000005
 51
180.0
  0
ARC
  5
102C
330
18
100
AcDbEntity
  8
外形線
  6
Continuous
100
AcDbCircle
 10
281.0392216028563
 20
125.0806572545585
 30
0.0
 40
105.6666666666664
100
AcDbArc
 50
166.3144531747381
 51
193.685546825262
  0
LINE
  5
102D
330
18
100
AcDbEntity
  8
外形線
  6
Continuous
100
AcDbLine
 10
196.1725549361897
 20
149.5806572545583
 30
0.0
 11
196.1725549361897
 21
100.5806572545583
 31
0.0
  0
MTEXT
  5
102E
330
18
100
AcDbEntity
  8
DEFPOINTS
  6
Continuous
100
AcDbMText
 10
1001.73119290509
 20
331.5882610650886
 30
0.0
 40
1.0
 41
0.0
 71
     4
 72
     1
  1
\A1;
 73
     1
 44
1.0
  0
LINE
  5
102F
330
18
100
AcDbEntity
  8
中心線
100
AcDbLine
 10
189.6725549361897
 20
179.7860154985101
 30
0.0
 11
189.6725549361899
 21
38.51187446999075
 31
0.0
  0
LINE
  5
1030
330
18
100
AcDbEntity
  8
外形線
100
AcDbLine
 10
189.6725549361898
 20
100.5806572545583
 30
0.0
 11
196.1725549361897
 21
100.5806572545583
 31
0.0
  0
LINE
  5
1031
330
18
100
AcDbEntity
  8
外形線
100
AcDbLine
 10
189.6725549361898
 20
149.5806572545583
 30
0.0
 11
196.1725549361897
 21
149.5806572545583
 31
0.0
  0
LINE
  5
105E
330
18
100
AcDbEntity
  8
中心線
100
AcDbLine
 10
171.6958551902357
 20
125.0806572545583
 30
0.0
 11
200.3162978520552
 21
125.0806572545583
 31
0.0
  0
MTEXT
  5
1078
330
18
100
AcDbEntity
  8
文字
100
AcDbMText
 10
568.8704024630892
 20
357.6662433033228
 30
0.0
 40
1.0
 41
6.927999999999999
 71
     1
 72
     5
  1

  7
STYLE3
 73
     1
 44
1.0
  0
MTEXT
  5
10C6
330
18
100
AcDbEntity
  8
DEFPOINTS
  6
Continuous
100
AcDbMText
 10
890.6062121182308
 20
280.9137945907736
 30
0.0
 40
0.35
 41
0.0
 71
     4
 72
     1
  1
\A1;
 73
     1
 44
1.0
  0
LINE
  5
111E
330
18
100
AcDbEntity
  8
外形線
100
AcDbLine
 10
196.1725549361897
 20
148.1806572545583
 30
0.0
 11
196.3725549361898
 21
148.1806572545582
 31
0.0
  0
POINT
  5
113E
330
18
100
AcDbEntity
  8
DEFPOINTS
  6
ByBlock
 62
     0
100
AcDbPoint
 10
196.1725549361897
 20
149.5806572545583
 30
0.0
  0
POINT
  5
1140
330
18
100
AcDbEntity
  8
DEFPOINTS
  6
ByBlock
 62
     0
100
AcDbPoint
 10
175.1725549361897
 20
125.0806572545583
 30
0.0
  0
LINE
  5
1166
330
18
100
AcDbEntity
  8
外形線
100
AcDbLine
 10
179.6225549361898
 20
152.5806572545585
 30
0.0
 11
182.9225549361899
 21
152.5806572545585
 31
0.0
  0
LINE
  5
1168
330
18
100
AcDbEntity
  8
外形線
100
AcDbLine
 10
178.3725549361899
 20
150.5806572545585
 30
0.0
 11
178.3725549361899
 21
99.58065725455817
 31
0.0
  0
LINE
  5
1169
330
18
100
AcDbEntity
  8
外形線
100
AcDbLine
 10
179.3725549361899
 20
152.3306572545585
 30
0.0
 11
179.3725549361899
 21
151.1306572545585
 31
0.0
  0
LINE
  5
116A
330
18
100
AcDbEntity
  8
外形線
100
AcDbLine
 10
178.3725549361899
 20
150.5806572545585
 30
0.0
 11
179.3725549361897
 21
151.1306572545585
 31
0.0
  0
LINE
  5
116B
330
18
100
AcDbEntity
  8
外形線
 48
0.5
100
AcDbLine
 10
179.3725549361899
 20
152.3306572545585
 30
0.0
 11
179.6225549361898
 21
152.5806572545585
 31
0.0
  0
LINE
  5
116C
330
18
100
AcDbEntity
  8
外形線
100
AcDbLine
 10
183.1725549361898
 20
152.3306572545585
 30
0.0
 11
183.1725549361898
 21
150.8806572545584
 31
0.0
  0
LINE
  5
116D
330
18
100
AcDbEntity
  8
外形線
 48
0.5
100
AcDbLine
 10
183.1725549361899
 20
152.3306572545585
 30
0.0
 11
182.9225549361899
 21
152.5806572545585
 31
0.0
  0
LINE
  5
1171
330
18
100
AcDbEntity
  8
外形線
100
AcDbLine
 10
179.6225549361898
 20
97.58065725455816
 30
0.0
 11
182.9225549361899
 21
97.58065725455816
 31
0.0
  0
LINE
  5
1172
330
18
100
AcDbEntity
  8
外形線
 48
0.5
100
AcDbLine
 10
179.37255493619
 20
97.83065725455816
 30
0.0
 11
179.62255493619
 21
97.58065725455816
 31
0.0
  0
LINE
  5
1173
330
18
100
AcDbEntity
  8
外形線
100
AcDbLine
 10
178.37255493619
 20
99.58065725455817
 30
0.0
 11
179.3725549361899
 21
99.0306572545581
 31
0.0
  0
LINE
  5
1174
330
18
100
AcDbEntity
  8
外形線
100
AcDbLine
 10
179.37255493619
 20
97.83065725455816
 30
0.0
 11
179.37255493619
 21
98.3306572545581
 31
0.0
  0
LINE
  5
1175
330
18
100
AcDbEntity
  8
外形線
 48
0.5
100
AcDbLine
 10
183.17255493619
 20
97.83065725455816
 30
0.0
 11
182.92255493619
 21
97.58065725455816
 31
0.0
  0
LINE
  5
1176
330
18
100
AcDbEntity
  8
外形線
100
AcDbLine
 10
183.1725549361899
 20
97.83065725455816
 30
0.0
 11
183.1725549361899
 21
98.3306572545581
 31
0.0
  0
LINE
  5
1179
330
18
100
AcDbEntity
  8
外形線
100
AcDbLine
 10
179.3725549361897
 20
151.1306572545585
 30
0.0
 11
179.3725549361897
 21
98.33065725455805
 31
0.0
  0
LINE
  5
118D
330
18
100
AcDbEntity
  8
外形線
100
AcDbLine
 10
183.1725549361898
 20
150.8806572545584
 30
0.0
 11
183.1725549361899
 21
98.3306572545581
 31
0.0
  0
LINE
  5
118E
330
18
100
AcDbEntity
  8
外形線
100
AcDbLine
 10
179.6225549361898
 20
152.5806572545585
 30
0.0
 11
179.6225549361897
 21
97.58065725455816
 31
0.0
  0
LINE
  5
118F
330
18
100
AcDbEntity
  8
外形線
100
AcDbLine
 10
182.9225549361899
 20
152.5806572545585
 30
0.0
 11
182.9225549361898
 21
97.58065725455816
 31
0.0
  0
LINE
  5
1190
330
18
100
AcDbEntity
  8
外形線
 62
     4
100
AcDbLine
 10
179.6225549361898
 20
151.6806572545585
 30
0.0
 11
182.9225549361899
 21
151.6806572545585
 31
0.0
  0
LINE
  5
1191
330
18
100
AcDbEntity
  8
外形線
 62
     4
100
AcDbLine
 10
179.6225549361898
 20
150.7806572545585
 30
0.0
 11
182.9225549361899
 21
150.7806572545585
 31
0.0
  0
LINE
  5
1192
330
18
100
AcDbEntity
  8
外形線
 62
     4
100
AcDbLine
 10
179.6225549361898
 20
149.7806572545585
 30
0.0
 11
182.9225549361899
 21
149.7806572545585
 31
0.0
  0
LINE
  5
1193
330
18
100
AcDbEntity
  8
外形線
 62
     4
100
AcDbLine
 10
179.6225549361898
 20
148.5806572545585
 30
0.0
 11
182.9225549361899
 21
148.5806572545585
 31
0.0
  0
LINE
  5
1194
330
18
100
AcDbEntity
  8
外形線
 62
     4
100
AcDbLine
 10
179.6225549361898
 20
147.2806572545585
 30
0.0
 11
182.9225549361899
 21
147.2806572545585
 31
0.0
  0
LINE
  5
1195
330
18
100
AcDbEntity
  8
外形線
 62
     4
100
AcDbLine
 10
179.6225549361898
 20
102.8806572545581
 30
0.0
 11
182.9225549361899
 21
102.8806572545581
 31
0.0
  0
LINE
  5
1196
330
18
100
AcDbEntity
  8
外形線
 62
     4
100
AcDbLine
 10
179.6225549361898
 20
101.5806572545581
 30
0.0
 11
182.9225549361899
 21
101.5806572545581
 31
0.0
  0
LINE
  5
1197
330
18
100
AcDbEntity
  8
外形線
 62
     4
100
AcDbLine
 10
179.6225549361898
 20
100.3806572545581
 30
0.0
 11
182.9225549361899
 21
100.3806572545581
 31
0.0
  0
LINE
  5
1198
330
18
100
AcDbEntity
  8
外形線
 62
     4
100
AcDbLine
 10
179.6225549361898
 20
99.38065725455812
 30
0.0
 11
182.9225549361899
 21
99.38065725455812
 31
0.0
  0
LINE
  5
1199
330
18
100
AcDbEntity
  8
外形線
 62
     4
100
AcDbLine
 10
179.6225549361898
 20
98.48065725455814
 30
0.0
 11
182.9225549361899
 21
98.48065725455814
 31
0.0
  0
LINE
  5
119A
330
18
100
AcDbEntity
  8
外形線
 62
     4
100
AcDbLine
 10
177.4225549361897
 20
125.0806572545583
 30
0.0
 11
180.7225549361897
 21
125.0806572545583
 31
0.0
  0
LINE
  5
119B
330
18
100
AcDbEntity
  8
外形線
 62
     4
100
AcDbLine
 10
179.6225549361898
 20
126.3806572545583
 30
0.0
 11
182.9225549361898
 21
126.3806572545583
 31
0.0
  0
LINE
  5
119C
330
18
100
AcDbEntity
  8
外形線
 62
     4
100
AcDbLine
 10
179.6225549361898
 20
123.7806572545583
 30
0.0
 11
182.9225549361898
 21
123.7806572545583
 31
0.0
  0
LINE
  5
119D
330
18
100
AcDbEntity
  8
外形線
 62
     4
100
AcDbLine
 10
179.6225549361898
 20
127.4806572545583
 30
0.0
 11
182.9225549361898
 21
127.4806572545583
 31
0.0
  0
LINE
  5
119E
330
18
100
AcDbEntity
  8
外形線
 62
     4
100
AcDbLine
 10
179.6225549361898
 20
122.6806572545583
 30
0.0
 11
182.9225549361898
 21
122.6806572545583
 31
0.0
  0
LINE
  5
119F
330
18
100
AcDbEntity
  8
外形線
 62
     4
100
AcDbLine
 10
179.6225549361898
 20
128.4806572545583
 30
0.0
 11
182.9225549361898
 21
128.4806572545583
 31
0.0
  0
LINE
  5
11A0
330
18
100
AcDbEntity
  8
外形線
 62
     4
100
AcDbLine
 10
179.6225549361898
 20
121.6806572545583
 30
0.0
 11
182.9225549361898
 21
121.6806572545583
 31
0.0
  0
LINE
  5
11A6
330
18
100
AcDbEntity
  8
外形線
  6
Continuous
100
AcDbLine
 10
185.6725549361899
 20
174.052793209558
 30
0.0
 11
185.6725549361897
 21
149.5806572545583
 31
0.0
  0
LINE
  5
11A7
330
18
100
AcDbEntity
  8
外形線
  6
Continuous
100
AcDbLine
 10
193.6725549361897
 20
174.0527932095579
 30
0.0
 11
193.6725549361897
 21
149.5806572545583
 31
0.0
  0
ARC
  5
11A8
330
18
100
AcDbEntity
  8
外形線
100
AcDbCircle
 10
189.6725549361897
 20
169.5806572545583
 30
0.0
 40
6.0
100
AcDbArc
 50
48.18968510422154
 51
131.8103148957773
  0
LINE
  5
11A9
330
18
100
AcDbEntity
  8
外形線
100
AcDbLine
 10
185.6725549361899
 20
174.052793209558
 30
0.0
 11
193.6725549361897
 21
174.0527932095579
 31
0.0
  0
POINT
  5
11DB
330
18
100
AcDbEntity
  8
DEFPOINTS
  6
ByBlock
 62
     0
100
AcDbPoint
 10
179.6225549361898
 20
152.5806572545585
 30
0.0
  0
POINT
  5
11DC
330
18
100
AcDbEntity
  8
DEFPOINTS
  6
ByBlock
 62
     0
100
AcDbPoint
 10
180.0960197623117
 20
97.58065725455816
 30
0.0
  0
POINT
  5
11E4
330
18
100
AcDbEntity
  8
DEFPOINTS
  6
ByBlock
 62
     0
100
AcDbPoint
 10
173.1725549361897
 20
125.0806572545585
 30
0.0
  0
POINT
  5
1255
330
18
100
AcDbEntity
  8
DEFPOINTS
  6
ByBlock
 62
     0
100
AcDbPoint
 10
180.0960197623117
 20
97.58065725455816
 30
0.0
  0
LINE
  5
1272
330
18
100
AcDbEntity
  8
外形線
100
AcDbLine
 10
184.1725549361899
 20
73.58065725455833
 30
0.0
 11
195.1725549361898
 21
73.58065725455833
 31
0.0
  0
LINE
  5
1273
330
18
100
AcDbEntity
  8
外形線
100
AcDbLine
 10
184.1725549361899
 20
61.58065725455833
 30
0.0
 11
195.1725549361899
 21
61.58065725455833
 31
0.0
  0
LINE
  5
1274
330
18
100
AcDbEntity
  8
外形線
 48
0.5
100
AcDbLine
 10
184.1725549361898
 20
99.58065725455833
 30
0.0
 11
184.1725549361899
 21
61.58065725455833
 31
0.0
  0
LINE
  5
1275
330
18
100
AcDbEntity
  8
外形線
 48
0.5
100
AcDbLine
 10
195.1725549361898
 20
99.58065725455833
 30
0.0
 11
195.1725549361899
 21
61.58065725455833
 31
0.0
  0
LINE
  5
1276
330
18
100
AcDbEntity
  8
外形線
100
AcDbLine
 10
187.7467561507137
 20
54.98065725455837
 30
0.0
 11
189.6725549361899
 21
56.49353543523591
 31
0.0
  0
LINE
  5
1277
330
18
100
AcDbEntity
  8
外形線
100
AcDbLine
 10
187.1725549361899
 20
56.19769721957244
 30
0.0
 11
188.0261709850582
 21
54.98065725455837
 31
0.0
  0
LINE
  5
1278
330
18
100
AcDbEntity
  8
外形線
100
AcDbLine
 10
187.1725549361899
 20
57.93917723706539
 30
0.0
 11
189.2424837705901
 21
54.98798375899048
 31
0.0
  0
LINE
  5
1279
330
18
100
AcDbEntity
  8
外形線
100
AcDbLine
 10
192.1725549361899
 20
59.68065725455833
 30
0.0
 11
192.1725549361899
 21
54.98065725455834
 31
0.0
  0
LINE
  5
127A
330
18
100
AcDbEntity
  8
外形線
100
AcDbLine
 10
187.1725549361899
 20
59.68065725455833
 30
0.0
 11
187.1725549361899
 21
54.98065725455834
 31
0.0
  0
ARC
  5
127B
330
18
100
AcDbEntity
  8
外形線
100
AcDbCircle
 10
189.6725549361899
 20
43.03065725455832
 30
0.0
 40
1.55
100
AcDbArc
 50
189.281799086679
 51
350.7182009133209
  0
LINE
  5
127C
330
18
100
AcDbEntity
  8
外形線
100
AcDbLine
 10
188.1225549361899
 20
42.78065725455829
 30
0.0
 11
191.2225549361899
 21
42.78065725455829
 31
0.0
  0
LINE
  5
127D
330
18
100
AcDbEntity
  8
外形線
100
AcDbLine
 10
192.1725549361899
 20
45.18065725455829
 30
0.0
 11
187.1725549361899
 21
45.18065725455835
 31
0.0
  0
LINE
  5
127E
330
18
100
AcDbEntity
  8
外形線
100
AcDbLine
 10
187.2319509193657
 20
54.98065725455839
 30
0.0
 11
189.6725549361899
 21
54.98065725455834
 31
0.0
  0
LINE
  5
127F
330
18
100
AcDbEntity
  8
外形線
100
AcDbLine
 10
187.1725549361899
 20
54.48065725455833
 30
0.0
 11
189.6725549361899
 21
54.48065725455831
 31
0.0
  0
LINE
  5
1280
330
18
100
AcDbEntity
  8
外形線
100
AcDbLine
 10
187.1725549361899
 20
45.18065725455833
 30
0.0
 11
187.8225549361899
 21
42.78065725455832
 31
0.0
  0
LINE
  5
1281
330
18
100
AcDbEntity
  8
外形線
100
AcDbLine
 10
188.1225549361899
 20
42.78065725455832
 30
0.0
 11
187.8225549361899
 21
42.78065725455832
 31
0.0
  0
LINE
  5
1282
330
18
100
AcDbEntity
  8
外形線
100
AcDbLine
 10
187.1725549361899
 20
54.48804770693837
 30
0.0
 11
187.1725549361899
 21
45.18065725455833
 31
0.0
  0
ARC
  5
1283
330
18
100
AcDbEntity
  8
外形線
100
AcDbCircle
 10
187.1987791011119
 20
54.73286776633552
 30
0.0
 40
0.25
100
AcDbArc
 50
263.1914310540631
 51
96.80856894593695
  0
LINE
  5
1284
330
18
100
AcDbEntity
  8
外形線
100
AcDbLine
 10
192.1725549361899
 20
45.18065725455833
 30
0.0
 11
191.5225549361899
 21
42.78065725455829
 31
0.0
  0
LINE
  5
1285
330
18
100
AcDbEntity
  8
外形線
100
AcDbLine
 10
191.5225549361899
 20
42.78065725455829
 30
0.0
 11
191.2225549361899
 21
42.78065725455829
 31
0.0
  0
LINE
  5
1286
330
18
100
AcDbEntity
  8
外形線
100
AcDbLine
 10
192.1725549361899
 20
54.48804770693837
 30
0.0
 11
192.1725549361899
 21
45.18065725455833
 31
0.0
  0
LINE
  5
1287
330
18
100
AcDbEntity
  8
外形線
100
AcDbLine
 10
189.365511504915
 20
54.98065725455837
 30
0.0
 11
189.6725549361899
 21
55.2218658954607
 31
0.0
  0
ARC
  5
1288
330
18
100
AcDbEntity
  8
外形線
100
AcDbCircle
 10
192.1463307712679
 20
54.73286776633552
 30
0.0
 40
0.25
100
AcDbArc
 50
83.19143105406302
 51
276.8085689459369
  0
LINE
  5
1289
330
18
100
AcDbEntity
  8
外形線
100
AcDbLine
 10
192.1725549361899
 20
54.48065725455833
 30
0.0
 11
189.6725549361899
 21
54.48065725455831
 31
0.0
  0
LINE
  5
128A
330
18
100
AcDbEntity
  8
外形線
100
AcDbLine
 10
192.1131589530141
 20
54.98065725455839
 30
0.0
 11
189.6725549361899
 21
54.98065725455834
 31
0.0
  0
LINE
  5
128B
330
18
100
AcDbEntity
  8
外形線
100
AcDbLine
 10
187.1725549361899
 20
57.07291260961842
 30
0.0
 11
189.6725549361899
 21
59.03687451478635
 31
0.0
  0
LINE
  5
128C
330
18
100
AcDbEntity
  8
外形線
100
AcDbLine
 10
187.1725549361899
 20
55.80124306984322
 30
0.0
 11
189.6725549361899
 21
57.76520497501113
 31
0.0
  0
LINE
  5
128D
330
18
100
AcDbEntity
  8
外形線
100
AcDbLine
 10
188.3940064369203
 20
59.68065725455833
 30
0.0
 11
189.6725549361899
 21
57.85777139986652
 31
0.0
  0
LINE
  5
128E
330
18
100
AcDbEntity
  8
外形線
100
AcDbLine
 10
187.1725549361899
 20
59.68065725455833
 30
0.0
 11
189.6725549361899
 21
56.11629138237361
 31
0.0
  0
LINE
  5
128F
330
18
100
AcDbEntity
  8
外形線
100
AcDbLine
 10
188.4225549361899
 20
59.98065725455834
 30
0.0
 11
189.6725549361899
 21
59.9806572545583
 31
0.0
  0
LINE
  5
1290
330
18
100
AcDbEntity
  8
外形線
100
AcDbLine
 10
187.1725549361899
 20
59.68065725455833
 30
0.0
 11
189.6725549361899
 21
59.68065725455833
 31
0.0
  0
LINE
  5
1291
330
18
100
AcDbEntity
  8
外形線
100
AcDbLine
 10
187.4725549361899
 20
59.98065725455834
 30
0.0
 11
187.4725549361899
 21
61.58065725455833
 31
0.0
  0
LINE
  5
1292
330
18
100
AcDbEntity
  8
外形線
100
AcDbLine
 10
187.1725549361899
 20
58.34458214939366
 30
0.0
 11
188.8732945249378
 21
59.68065725455833
 31
0.0
  0
LINE
  5
1293
330
18
100
AcDbEntity
  8
外形線
100
AcDbLine
 10
187.4725549361899
 20
59.98065725455834
 30
0.0
 11
187.1725549361899
 21
59.68065725455833
 31
0.0
  0
LINE
  5
1294
330
18
100
AcDbEntity
  8
外形線
100
AcDbLine
 10
187.4725549361899
 20
59.98065725455834
 30
0.0
 11
188.4225549361899
 21
59.98065725455834
 31
0.0
  0
LINE
  5
1295
330
18
100
AcDbEntity
  8
外形線
100
AcDbLine
 10
191.8725549361899
 20
59.98065725455834
 30
0.0
 11
191.8725549361899
 21
61.58065725455833
 31
0.0
  0
LINE
  5
1296
330
18
100
AcDbEntity
  8
外形線
100
AcDbLine
 10
189.6154579376507
 20
59.68065725455833
 30
0.0
 11
189.6725549361899
 21
59.59925141735945
 31
0.0
  0
LINE
  5
1297
330
18
100
AcDbEntity
  8
外形線
100
AcDbLine
 10
191.8725549361899
 20
59.98065725455834
 30
0.0
 11
192.1725549361899
 21
59.68065725455833
 31
0.0
  0
LINE
  5
1298
330
18
100
AcDbEntity
  8
外形線
100
AcDbLine
 10
190.9225549361899
 20
59.98065725455834
 30
0.0
 11
189.6725549361899
 21
59.9806572545583
 31
0.0
  0
LINE
  5
1299
330
18
100
AcDbEntity
  8
外形線
100
AcDbLine
 10
192.1725549361899
 20
59.68065725455833
 30
0.0
 11
189.6725549361899
 21
59.68065725455833
 31
0.0
  0
LINE
  5
129A
330
18
100
AcDbEntity
  8
外形線
100
AcDbLine
 10
191.8725549361899
 20
59.98065725455834
 30
0.0
 11
190.9225549361899
 21
59.98065725455834
 31
0.0
  0
DIMENSION
  5
12A7
330
18
100
AcDbEntity
  8
外形線
100
AcDbDimension
  2
*D1
 10
51.63112759385422
 20
125.0806572545583
 30
0.0
 11
49.7561275938542
 21
150.3306572545583
 31
0.0
 70
    32
 71
     5
 42
50.50000000000001
  3
STYLE3
100
AcDbAlignedDimension
 13
102.0833108180478
 23
175.5806572545583
 33
0.0
 14
68.49316428543364
 24
125.0806572545583
 34
0.0
 50
90.0
100
AcDbRotatedDimension
1001
ACAD
1000
DSTYLE
1002
{
1070
   271
1070
     2
1002
}
  0
DIMENSION
  5
12B3
330
18
100
AcDbEntity
  8
外形線
100
AcDbDimension
  2
*D2
 10
51.63112759385422
 20
61.58065725455833
 30
0.0
 11
49.75612759385421
 21
93.33065725455835
 31
0.0
 70
    32
 71
     5
 42
63.5
  3
STYLE3
100
AcDbAlignedDimension
 13
68.49316428543364
 23
125.0806572545583
 33
0.0
 14
64.58331081804783
 24
61.58065725455833
 34
0.0
 50
90.0
100
AcDbRotatedDimension
1001
ACAD
1000
DSTYLE
1002
{
1070
    75
1070
     1
1070
   271
1070
     2
1070
   279
1070
     1
1002
}
  0
DIMENSION
  5
12BF
330
18
100
AcDbEntity
  8
外形線
100
AcDbDimension
  2
*D3
 10
51.63112759385422
 20
41.48065725455834
 30
0.0
 11
49.75612759385421
 21
51.53065725455835
 31
0.0
 70
    32
 71
     5
 42
20.09999999999999
  3
STYLE3
100
AcDbAlignedDimension
 13
64.58331081804783
 23
61.58065725455833
 33
0.0
 14
102.0833108180478
 24
41.48065725455833
 34
0.0
 50
90.0
100
AcDbRotatedDimension
1001
ACAD
1000
DSTYLE
1002
{
1070
    75
1070
     1
1070
   271
1070
     2
1070
   279
1070
     1
1002
}
  0
DIMENSION
  5
12D9
330
18
100
AcDbEntity
  8
外形線
100
AcDbDimension
  2
*D4
 10
161.6877523680843
 20
97.58065725455816
 30
0.0
 11
159.8127523680843
 21
125.0806572545583
 31
0.0
 70
    32
  1
φ55
 71
     5
 42
55.00000000000032
  3
STYLE3
100
AcDbAlignedDimension
 13
181.138039999849
 23
152.5806572545585
 33
0.0
 14
180.0960197623117
 24
97.58065725455816
 34
0.0
 50
90.0
100
AcDbRotatedDimension
1001
ACAD
1000
DSTYLE
1002
{
1070
   271
1070
     2
1002
}
  0
DIMENSION
  5
12F1
330
18
100
AcDbEntity
  8
外形線
100
AcDbDimension
  2
*D5
 10
195.1725549361899
 20
31.87957505866445
 30
0.0
 11
189.6725549361899
 21
33.75457505866445
 31
0.0
 70
    32
 71
     5
 42
10.99999999999997
  3
STYLE3
100
AcDbAlignedDimension
 13
184.1725549361899
 23
61.58065725455833
 33
0.0
 14
195.1725549361899
 24
61.58065725455833
 34
0.0
100
AcDbRotatedDimension
1001
ACAD
1000
DSTYLE
1002
{
1070
   271
1070
     2
1002
}
  0
LWPOLYLINE
  5
12F2
330
18
100
AcDbEntity
  8
外形線
100
AcDbPolyline
 90
        6
 70
     1
 43
0.0
 10
94.20831081804783
 20
94.0962017111811
 10
93.33331081804784
 20
92.58065725455834
 10
94.20831081804783
 20
91.06511279793556
 10
95.95831081804783
 20
91.06511279793556
 10
96.83331081804784
 20
92.58065725455834
 10
95.95831081804783
 20
94.0962017111811
  0
LWPOLYLINE
  5
12F3
330
18
100
AcDbEntity
  8
外形線
100
AcDbPolyline
 90
        6
 70
     1
 43
0.0
 10
108.2083108180478
 20
94.0962017111811
 10
107.3333108180478
 20
92.58065725455834
 10
108.2083108180478
 20
91.06511279793556
 10
109.9583108180478
 20
91.06511279793556
 10
110.8333108180478
 20
92.58065725455834
 10
109.9583108180478
 20
94.0962017111811
  0
LINE
  5
12F4
330
18
100
AcDbEntity
  8
外形線
 48
0.5
100
AcDbLine
 10
188.9225549361899
 20
99.58065725455835
 30
0.0
 11
188.9225549361899
 21
75.58065725455833
 31
0.0
  0
LINE
  5
12F5
330
18
100
AcDbEntity
  8
外形線
 48
0.5
100
AcDbLine
 10
190.4225549361898
 20
99.58065725455835
 30
0.0
 11
190.4225549361899
 21
75.58065725455833
 31
0.0
  0
LINE
  5
12F7
330
18
100
AcDbEntity
  8
外形線
100
AcDbLine
 10
184.1725549361898
 20
99.58065725455833
 30
0.0
 11
188.9225549361899
 21
99.58065725455835
 31
0.0
  0
LINE
  5
12F8
330
18
100
AcDbEntity
  8
外形線
100
AcDbLine
 10
188.9225549361899
 20
75.58065725455833
 30
0.0
 11
190.4225549361899
 21
75.58065725455833
 31
0.0
  0
LINE
  5
130C
330
18
100
AcDbEntity
  8
外形線
 48
0.5
100
AcDbLine
 10
185.6725549361898
 20
100.5806572545584
 30
0.0
 11
185.6725549361898
 21
99.58065725455833
 31
0.0
  0
LINE
  5
130D
330
18
100
AcDbEntity
  8
外形線
 48
0.5
100
AcDbLine
 10
193.6725549361898
 20
100.5806572545583
 30
0.0
 11
193.6725549361898
 21
99.58065725455835
 31
0.0
  0
LINE
  5
130E
330
18
100
AcDbEntity
  8
外形線
100
AcDbLine
 10
190.4225549361898
 20
99.58065725455835
 30
0.0
 11
195.1725549361898
 21
99.58065725455833
 31
0.0
  0
LINE
  5
130F
330
18
100
AcDbEntity
  8
中心線
 48
0.5
100
AcDbLine
 10
180.6120676256813
 20
92.58065725455834
 30
0.0
 11
199.1653174881445
 21
92.58065725455834
 31
0.0
  0
LINE
  5
1311
330
18
100
AcDbEntity
  8
中心線
100
AcDbLine
 10
188.9225549361899
 20
95.58065725455833
 30
0.0
 11
190.4225549361898
 21
95.58065725455831
 31
0.0
  0
LINE
  5
1312
330
18
100
AcDbEntity
  8
中心線
100
AcDbLine
 10
188.9225549361899
 20
89.58065725455833
 30
0.0
 11
190.4225549361898
 21
89.58065725455833
 31
0.0
  0
LINE
  5
1313
330
18
100
AcDbEntity
  8
中心線
100
AcDbLine
 10
188.9225549361899
 20
94.33065725455831
 30
0.0
 11
190.4225549361898
 21
94.33065725455831
 31
0.0
  0
LINE
  5
1314
330
18
100
AcDbEntity
  8
中心線
100
AcDbLine
 10
188.9225549361899
 20
90.83065725455831
 30
0.0
 11
190.4225549361898
 21
90.83065725455833
 31
0.0
  0
LINE
  5
1317
330
18
100
AcDbEntity
  8
外形線
100
AcDbLine
 10
196.3725549361898
 20
148.1806572545582
 30
0.0
 11
197.1644905554164
 21
148.1806572545582
 31
0.0
  0
LINE
  5
1318
330
18
100
AcDbEntity
  8
外形線
100
AcDbLine
 10
197.1644905554164
 20
148.1806572545582
 30
0.0
 11
197.1644905554164
 21
101.7644176981386
 31
0.0
  0
LINE
  5
1319
330
18
100
AcDbEntity
  8
外形線
100
AcDbLine
 10
197.1644905554164
 20
101.7644176981386
 30
0.0
 11
196.1725549361897
 21
101.7644176981386
 31
0.0
  0
LINE
  5
131B
330
18
100
AcDbEntity
  8
外形線
100
AcDbLine
 10
189.6725549361898
 20
100.5806572545583
 30
0.0
 11
183.1725549361899
 21
100.5806572545583
 31
0.0
  0
LINE
  5
131C
330
18
100
AcDbEntity
  8
外形線
  6
Continuous
100
AcDbLine
 10
183.1725549361898
 20
149.5806572545583
 30
0.0
 11
183.1725549361899
 21
100.5806572545583
 31
0.0
  0
LINE
  5
131D
330
18
100
AcDbEntity
  8
外形線
100
AcDbLine
 10
189.6725549361898
 20
149.5806572545583
 30
0.0
 11
183.1725549361898
 21
149.5806572545583
 31
0.0
  0
LINE
  5
134A
330
18
100
AcDbEntity
  8
0
  6
ByBlock
 62
     2
100
AcDbLine
 10
64.58331081804783
 20
61.58065725455833
 30
0.0
 11
64.58331081804783
 21
30.62957505866445
 31
0.0
  0
LINE
  5
134B
330
18
100
AcDbEntity
  8
0
  6
ByBlock
 62
     2
100
AcDbLine
 10
139.5833108180478
 20
61.58065725455833
 30
0.0
 11
139.5833108180478
 21
30.62957505866445
 31
0.0
  0
LINE
  5
134C
330
18
100
AcDbEntity
  8
0
  6
ByBlock
 62
     2
100
AcDbLine
 10
67.08331081804783
 20
31.87957505866445
 30
0.0
 11
137.0833108180478
 21
31.87957505866445
 31
0.0
  0
INSERT
  5
134D
330
18
100
AcDbEntity
  8
0
  6
ByBlock
 62
     2
100
AcDbBlockReference
  2
_OPEN
 10
64.58331081804783
 20
31.87957505866445
 30
0.0
 41
2.5
 42
2.5
 43
2.5
 50
180.0
  0
INSERT
  5
134E
330
18
100
AcDbEntity
  8
0
  6
ByBlock
 62
     2
100
AcDbBlockReference
  2
_OPEN
 10
139.5833108180478
 20
31.87957505866445
 30
0.0
 41
2.5
 42
2.5
 43
2.5
  0
MTEXT
  5
134F
330
18
100
AcDbEntity
  8
0
  6
ByBlock
 62
     6
100
AcDbMText
 10
102.0833108180478
 20
33.75457505866445
 30
0.0
 40
2.5
 41
0.0
 71
     5
 72
     1
  1
\A1;75
  7
STYLE3
 73
     1
 44
1.0
  0
POINT
  5
1350
330
18
100
AcDbEntity
  8
DEFPOINTS
  6
ByBlock
 62
     0
100
AcDbPoint
 10
64.58331081804783
 20
61.58065725455833
 30
0.0
  0
POINT
  5
1351
330
18
100
AcDbEntity
  8
DEFPOINTS
  6
ByBlock
 62
     0
100
AcDbPoint
 10
139.5833108180478
 20
61.58065725455833
 30
0.0
  0
POINT
  5
1352
330
18
100
AcDbEntity
  8
DEFPOINTS
  6
ByBlock
 62
     0
100
AcDbPoint
 10
139.5833108180478
 20
31.87957505866445
 30
0.0
  0
LINE
  5
1356
330
18
100
AcDbEntity
  8
外形線
100
AcDbLine
 10
184.1725549361898
 20
97.58065725455834
 30
0.0
 11
188.9225549361899
 21
97.58065725455832
 31
0.0
  0
LINE
  5
1357
330
18
100
AcDbEntity
  8
外形線
100
AcDbLine
 10
190.4225549361898
 20
97.58065725455832
 30
0.0
 11
195.1725549361898
 21
97.58065725455834
 31
0.0
  0
DIMENSION
  5
13CB
330
18
100
AcDbEntity
  8
外形線
100
AcDbDimension
  2
*D6
 10
41.53839944802382
 20
41.48065725455834
 30
0.0
 11
39.66339944802383
 21
108.5306572545583
 31
0.0
 70
    32
 71
     5
 42
134.1
  3
STYLE3
100
AcDbAlignedDimension
 13
102.0833108180478
 23
175.5806572545583
 33
0.0
 14
102.0833108180478
 24
41.48065725455832
 34
0.0
 50
90.0
100
AcDbRotatedDimension
1001
ACAD
1000
DSTYLE
1002
{
1070
   271
1070
     2
1002
}
  0
TEXT
  5
1494
330
18
100
AcDbEntity
  8
文字
100
AcDbText
 10
84.30785107178929
 20
188.4885104734548
 30
0.0
 40
4.0
  1
Model No.T-2W Dial Depth Gauge
  7
STYLE3
100
AcDbText
  0
LINE
  5
1495
330
18
100
AcDbEntity
  8
外形線
100
AcDbLine
 10
83.3089840717893
 20
185.5935954734548
 30
0.0
 11
183.3089840717893
 21
185.5935954734548
 31
0.0
  0
LINE
  5
1496
330
18
100
AcDbEntity
  8
外形線
100
AcDbLine
 10
83.3089840717893
 20
186.5935954734548
 30
0.0
 11
183.3089840717893
 21
186.5935954734548
 31
0.0
  0
LINE
  5
1497
330
18
100
AcDbEntity
  8
外形線
100
AcDbLine
 10
215.8632750717893
 20
10.28036847345482
 30
0.0
 11
215.8632750717893
 21
0.6655904734548263
 31
0.0
  0
TEXT
  5
1498
330
18
100
AcDbEntity
  8
0
  6
Continuous
100
AcDbText
 10
187.6795160717893
 20
5.746816473454826
 30
0.0
 40
3.0
  1
日 付
  7
STYLE3
100
AcDbText
  0
TEXT
  5
1499
330
18
100
AcDbEntity
  8
0
  6
Continuous
100
AcDbText
 10
188.0628770717893
 20
2.413733473454826
 30
0.0
 40
2.1
  1
Date
  7
STYLE3
100
AcDbText
  0
TEXT
  5
149A
330
18
100
AcDbEntity
  8
0
  6
Continuous
100
AcDbText
 10
177.9691050717892
 20
4.453231473454826
 30
0.0
 40
2.399999999999999
  1
1/1
  7
STYLE3
100
AcDbText
  0
LINE
  5
149B
330
18
100
AcDbEntity
  8
外形線
100
AcDbLine
 10
186.1309260717893
 20
10.28036847345482
 30
0.0
 11
186.1309260717893
 21
0.6655904734548263
 31
0.0
  0
TEXT
  5
149C
330
18
100
AcDbEntity
  8
0
  6
Continuous
100
AcDbText
 10
196.8076840717893
 20
4.161873473454825
 30
0.0
 40
2.1
  1
2010.06.23
  7
STYLE3
100
AcDbText
  0
TEXT
  5
149D
330
18
100
AcDbEntity
  8
0
  6
Continuous
100
AcDbText
 10
150.5687060717893
 20
5.915968473454826
 30
0.0
 40
3.0
  1
単位
  7
STYLE3
100
AcDbText
  0
TEXT
  5
149E
330
18
100
AcDbEntity
  8
0
  6
Continuous
100
AcDbText
 10
150.7404270717893
 20
2.413732473454826
 30
0.0
 40
2.1
  1
Unit
  7
STYLE3
100
AcDbText
  0
TEXT
  5
149F
330
18
100
AcDbEntity
  8
0
  6
Continuous
100
AcDbText
 10
158.6107530717893
 20
4.161874473454826
 30
0.0
 40
2.399999999999999
  1
mm
  7
STYLE3
100
AcDbText
  0
LINE
  5
14A0
330
18
100
AcDbEntity
  8
外形線
100
AcDbLine
 10
149.1112360717893
 20
10.28036847345482
 30
0.0
 11
149.1112360717893
 21
0.6655904734548263
 31
0.0
  0
LINE
  5
14A1
330
18
100
AcDbEntity
  8
外形線
100
AcDbLine
 10
166.6008540717893
 20
10.28036847345482
 30
0.0
 11
166.6008540717893
 21
0.6655904734548263
 31
0.0
  0
TEXT
  5
14A2
330
18
100
AcDbEntity
  8
0
  6
Continuous
100
AcDbText
 10
168.3498170717893
 20
2.705089473454826
 30
0.0
 40
2.1
  1
Scale
  7
STYLE3
100
AcDbText
  0
TEXT
  5
14A3
330
18
100
AcDbEntity
  8
0
  6
Continuous
100
AcDbText
 10
167.8866010717893
 20
5.624611473454826
 30
0.0
 40
3.0
  1
尺 度
  7
STYLE3
100
AcDbText
  0
TEXT
  5
14A4
330
18
100
AcDbEntity
  8
0
  6
Continuous
100
AcDbText
 10
217.2122390717893
 20
6.201371473454826
 30
0.0
 40
3.0
  1
株式会社　尾崎製作所
  7
STYLE3
100
AcDbText
  0
TEXT
  5
14A5
330
18
100
AcDbEntity
  8
0
  6
Continuous
100
AcDbText
 10
218.0867180717893
 20
2.413731473454826
 30
0.0
 40
2.1
  1
OZAKI MFG. CO., LTD.
  7
STYLE3
100
AcDbText
  0
LINE
  5
14A6
330
18
100
AcDbEntity
  8
外形線
100
AcDbLine
 10
113.8405090717893
 20
0.6655904734548263
 30
0.0
 11
113.8405090717893
 21
21.06057447345483
 31
0.0
  0
TEXT
  5
14A7
330
18
100
AcDbEntity
  8
0
  6
Continuous
100
AcDbText
 10
115.2979760717893
 20
12.17835847345482
 30
0.0
 40
2.1
  1
Design and specifications are subject to change without notice for future improvement.
  7
STYLE3
100
AcDbText
  0
LINE
  5
14A8
330
18
100
AcDbEntity
  8
外形線
100
AcDbLine
 10
113.8405090717893
 20
10.28036847345482
 30
0.0
 11
254.6319260717893
 21
10.28036847345482
 31
0.0
  0
TEXT
  5
14A9
330
18
100
AcDbEntity
  8
0
  6
Continuous
100
AcDbText
 10
117.6299270717893
 20
5.910014473454825
 30
0.0
 40
3.0
  1
三　　角　　法
  7
STYLE3
100
AcDbText
  0
TEXT
  5
14AA
330
18
100
AcDbEntity
  8
0
  6
Continuous
100
AcDbText
 10
115.0064850717892
 20
2.413731473454826
 30
0.0
 40
2.1
  1
3RD Angle Projection
  7
STYLE3
100
AcDbText
  0
TEXT
  5
14AB
330
18
100
AcDbEntity
  8
0
  6
Continuous
100
AcDbText
 10
115.5894700717893
 20
16.10750647345482
 30
0.0
 40
3.5
  1
仕様及び外観は予告なく変更される場合がございますのでご了承下さい。
  7
STYLE3
100
AcDbText
  0
LINE
  5
14AC
330
18
100
AcDbEntity
  8
外形線
100
AcDbLine
 10
113.8405090717893
 20
21.06057447345483
 30
0.0
 11
254.6319260717893
 21
21.06057447345483
 31
0.0
  0
VIEWPORT
  5
177
330
15
100
AcDbEntity
 67
     1
  8
0
100
AcDbViewport
 10
127.5041203589828
 20
97.49391214526822
 30
0.0
 40
418.3086347473814
 41
243.0346063651093
 68
     1
 69
     1
 12
127.5041203589828
 22
97.49391214526822
 13
0.0
 23
0.0
 14
10.0
 24
10.0
 15
10.0
 25
10.0
 16
0.0
 26
0.0
 36
1.0
 17
0.0
 27
0.0
 37
0.0
 42
50.0
 43
0.0
 44
0.0
 45
243.0346063651093
 50
0.0
 51
0.0
 72
   100
 90
    32800
  1

281
     0
 71
     1
 74
     0
110
0.0
120
0.0
130
0.0
111
1.0
121
0.0
131
0.0
112
0.0
122
1.0
132
0.0
 79
     0
146
0.0
170
     0
  0
ENDSEC
  0
SECTION
  2
OBJECTS
  0
DICTIONARY
  5
C
330
0
100
AcDbDictionary
281
     1
  3
ACAD_COLOR
350
145F
  3
ACAD_GROUP
350
D
  3
ACAD_IMAGE_DICT
350
5E8
  3
ACAD_LAYOUT
350
1462
  3
ACAD_MATERIAL
350
145E
  3
ACAD_MLINESTYLE
350
1B
  3
ACAD_PLOTSETTINGS
350
1463
  3
ACAD_PLOTSTYLENAME
350
145C
  3
ACAD_TABLESTYLE
350
1460
  3
AcDbVariableDictionary
350
146C
  0
DICTIONARY
  5
145F
102
{ACAD_REACTORS
330
C
102
}
330
C
100
AcDbDictionary
281
     1
  0
DICTIONARY
  5
D
102
{ACAD_REACTORS
330
C
102
}
330
C
100
AcDbDictionary
281
     1
  0
DICTIONARY
  5
5E8
102
{ACAD_REACTORS
330
C
102
}
330
C
100
AcDbDictionary
281
     1
  3
ROGO01
350
5E9
  0
DICTIONARY
  5
1462
102
{ACAD_REACTORS
330
C
102
}
330
C
100
AcDbDictionary
281
     1
  3
Model
350
1464
  3
レイアウト1
350
1465
  0
DICTIONARY
  5
145E
102
{ACAD_REACTORS
330
C
102
}
330
C
100
AcDbDictionary
281
     1
  0
DICTIONARY
  5
1B
102
{ACAD_REACTORS
330
C
102
}
330
C
100
AcDbDictionary
281
     1
  3
STANDARD
350
1C
  0
DICTIONARY
  5
1463
102
{ACAD_REACTORS
330
C
102
}
330
C
100
AcDbDictionary
281
     1
  0
ACDBDICTIONARYWDFLT
  5
145C
102
{ACAD_REACTORS
330
C
102
}
330
C
100
AcDbDictionary
281
     1
  3
Normal
350
145D
100
AcDbDictionaryWithDefault
340
145D
  0
DICTIONARY
  5
1460
102
{ACAD_REACTORS
330
C
102
}
330
C
100
AcDbDictionary
281
     1
  3
Standard
350
1461
  0
DICTIONARY
  5
146C
102
{ACAD_REACTORS
330
C
102
}
330
C
100
AcDbDictionary
281
     1
  3
CTABLESTYLE
350
146D
  0
IMAGEDEF
  5
5E9
102
{ACAD_REACTORS
330
5E8
102
}
330
5E8
100
AcDbRasterImageDef
 90
        0
  1
D:\ﾃｽﾄ\rogo01.TIF
 10
3388.0
 20
4668.0
 11
0.0635
 21
0.0635
280
     1
281
     5
  0
LAYOUT
  5
1464
102
{ACAD_REACTORS
330
1462
102
}
330
1462
100
AcDbPlotSettings
  1

  2
\\SATO-MATE2\EPSON LP-6100
  4

  6

 40
0.0
 41
0.0
 42
0.0
 43
0.0
 44
0.0
 45
0.0
 46
0.0
 47
0.0
 48
0.0
 49
0.0
140
0.0
141
0.0
142
1.0
143
1.0
 70
  1712
 72
     0
 73
     0
 74
     0
  7
AutoCAD LT 98.ctb
 75
     0
147
1.0
 76
     0
 77
     2
 78
   300
148
0.0
149
0.0
100
AcDbLayout
  1
Model
 70
     1
 71
     0
 10
0.0
 20
0.0
 11
12.0
 21
9.0
 12
0.0
 22
0.0
 32
0.0
 14
0.0
 24
0.0
 34
0.0
 15
0.0
 25
0.0
 35
0.0
146
0.0
 13
0.0
 23
0.0
 33
0.0
 16
1.0
 26
0.0
 36
0.0
 17
0.0
 27
1.0
 37
0.0
 76
     0
330
18
  0
LAYOUT
  5
1465
102
{ACAD_REACTORS
330
1462
102
}
330
1462
100
AcDbPlotSettings
  1

  2
\\SATO-MATE2\EPSON LP-6100
  4

  6

 40
0.0
 41
0.0
 42
0.0
 43
0.0
 44
0.0
 45
0.0
 46
0.0
 47
0.0
 48
0.0
 49
0.0
140
0.0
141
0.0
142
1.0
143
1.0
 70
   688
 72
     0
 73
     0
 74
     5
  7
AutoCAD LT 98.ctb
 75
    16
147
1.0
 76
     0
 77
     2
 78
   300
148
0.0
149
0.0
100
AcDbLayout
  1
レイアウト1
 70
     1
 71
     1
 10
0.0
 20
0.0
 11
420.0
 21
297.0
 12
0.0
 22
0.0
 32
0.0
 14
-0.2
 24
-0.2
 34
0.0
 15
255.2
 25
195.2
 35
0.0
146
0.0
 13
0.0
 23
0.0
 33
0.0
 16
1.0
 26
0.0
 36
0.0
 17
0.0
 27
1.0
 37
0.0
 76
     0
330
15
331
177
  0
MLINESTYLE
  5
1C
102
{ACAD_REACTORS
330
1B
102
}
330
1B
100
AcDbMlineStyle
  2
STANDARD
 70
     0
  3

 62
   256
 51
90.0
 52
90.0
 71
     2
 49
0.5
 62
   256
  6
BYLAYER
 49
-0.5
 62
   256
  6
BYLAYER
  0
ACDBPLACEHOLDER
  5
145D
102
{ACAD_REACTORS
330
145C
102
}
330
145C
  0
ACAD_PROXY_OBJECT
  5
1461
102
{ACAD_REACTORS
330
1460
102
}
330
1460
100
AcDbProxyObject
 90
      499
 91
      504
 95
  2555929
 70
     0
 93
     1849
310
4214DD185B99185C992420000000000000F83F0000000000003E0FC00000000000004901028000000C1008070000C3001FDFF8000000C1003FBFF000000182007F7FE00000030400FEFFC00000060801FDFF8000000C1003FBFF000000182000000000000000C2020B0000001820100E000186003FBFF000000182007F7FE0
310
0000030400FEFFC00000060801FDFF8000000C1003FBFF000000182007F7FE0000003040000000000000012404160000003040201C00030C007F7FE00000030400FEFFC00000060801FDFF8000000C1003FBFF000000182007F7FE00000030400FEFFC000000608000
340
F
340
F
340
F
 94
        0
  0
DICTIONARYVAR
  5
146D
102
{ACAD_REACTORS
330
146C
102
}
330
146C
100
DictionaryVariables
280
     0
  1
STANDARD
  0
ENDSEC
  0
EOF
