  0
SECTION
  2
HEADER
  9
$ACADVER
  1
AC1018
  9
$ACADMAINTVER
 70
     0
  9
$DWGCODEPAGE
  3
ANSI_932
  9
$INSBASE
 10
0.0
 20
0.0
 30
0.0
  9
$EXTMIN
 10
-0.2128225079886761
 20
-0.2090691322566727
 30
-0.0015258207003583
  9
$EXTMAX
 10
255.2310249564599
 20
195.2002935422122
 30
0.0000000349246037
  9
$LIMMIN
 10
0.0
 20
0.0
  9
$LIMMAX
 10
420.0
 20
297.0
  9
$ORTHOMODE
 70
     0
  9
$REGENMODE
 70
     1
  9
$FILLMODE
 70
     1
  9
$QTEXTMODE
 70
     0
  9
$MIRRTEXT
 70
     1
  9
$LTSCALE
 40
1.0
  9
$ATTMODE
 70
     1
  9
$TEXTSIZE
 40
2.5
  9
$TRACEWID
 40
1.0
  9
$TEXTSTYLE
  7
STYLE3
  9
$CLAYER
  8
寸法図
  9
$CELTYPE
  6
BYLAYER
  9
$CECOLOR
 62
   256
  9
$CELTSCALE
 40
1.0
  9
$DISPSILH
 70
     0
  9
$DIMSCALE
 40
1.0
  9
$DIMASZ
 40
2.5
  9
$DIMEXO
 40
0.0
  9
$DIMDLI
 40
3.75
  9
$DIMRND
 40
0.0
  9
$DIMDLE
 40
0.0
  9
$DIMEXE
 40
1.25
  9
$DIMTP
 40
0.0
  9
$DIMTM
 40
0.0
  9
$DIMTXT
 40
2.5
  9
$DIMCEN
 40
2.5
  9
$DIMTSZ
 40
0.0
  9
$DIMTOL
 70
     0
  9
$DIMLIM
 70
     0
  9
$DIMTIH
 70
     0
  9
$DIMTOH
 70
     0
  9
$DIMSE1
 70
     0
  9
$DIMSE2
 70
     0
  9
$DIMTAD
 70
     1
  9
$DIMZIN
 70
     8
  9
$DIMBLK
  1

  9
$DIMASO
 70
     1
  9
$DIMSHO
 70
     1
  9
$DIMPOST
  1

  9
$DIMAPOST
  1

  9
$DIMALT
 70
     0
  9
$DIMALTD
 70
     4
  9
$DIMALTF
 40
0.0394
  9
$DIMLFAC
 40
1.0
  9
$DIMTOFL
 70
     1
  9
$DIMTVP
 40
0.0
  9
$DIMTIX
 70
     0
  9
$DIMSOXD
 70
     0
  9
$DIMSAH
 70
     1
  9
$DIMBLK1
  1
OPEN
  9
$DIMBLK2
  1
OPEN
  9
$DIMSTYLE
  2
STYLE2
  9
$DIMCLRD
 70
     2
  9
$DIMCLRE
 70
     2
  9
$DIMCLRT
 70
     6
  9
$DIMTFAC
 40
1.0
  9
$DIMGAP
 40
0.625
  9
$DIMJUST
 70
     0
  9
$DIMSD1
 70
     0
  9
$DIMSD2
 70
     0
  9
$DIMTOLJ
 70
     1
  9
$DIMTZIN
 70
     0
  9
$DIMALTZ
 70
     0
  9
$DIMALTTZ
 70
     0
  9
$DIMUPT
 70
     0
  9
$DIMDEC
 70
     1
  9
$DIMTDEC
 70
     4
  9
$DIMALTU
 70
     8
  9
$DIMALTTD
 70
     4
  9
$DIMTXSTY
  7
STYLE3
  9
$DIMAUNIT
 70
     0
  9
$DIMADEC
 70
     0
  9
$DIMALTRND
 40
0.0
  9
$DIMAZIN
 70
     0
  9
$DIMDSEP
 70
    46
  9
$DIMATFIT
 70
     3
  9
$DIMFRAC
 70
     0
  9
$DIMLDRBLK
  1

  9
$DIMLUNIT
 70
     2
  9
$DIMLWD
 70
    -2
  9
$DIMLWE
 70
    -2
  9
$DIMTMOVE
 70
     0
  9
$LUNITS
 70
     2
  9
$LUPREC
 70
     4
  9
$SKETCHINC
 40
1.0
  9
$FILLETRAD
 40
0.0
  9
$AUNITS
 70
     0
  9
$AUPREC
 70
     0
  9
$MENU
  1
.
  9
$ELEVATION
 40
0.0
  9
$PELEVATION
 40
0.0
  9
$THICKNESS
 40
0.0
  9
$LIMCHECK
 70
     0
  9
$CHAMFERA
 40
0.2
  9
$CHAMFERB
 40
0.2
  9
$CHAMFERC
 40
20.0
  9
$CHAMFERD
 40
0.0
  9
$SKPOLY
 70
     0
  9
$TDCREATE
 40
2450717.578556713
  9
$TDUCREATE
 40
2450717.203556713
  9
$TDUPDATE
 40
2455370.488685614
  9
$TDUUPDATE
 40
2455370.113685614
  9
$TDINDWG
 40
0.7480375579
  9
$TDUSRTIMER
 40
0.7480375579
  9
$USRTIMER
 70
     1
  9
$ANGBASE
 50
0.0
  9
$ANGDIR
 70
     0
  9
$PDMODE
 70
     0
  9
$PDSIZE
 40
0.0
  9
$PLINEWID
 40
0.0
  9
$SPLFRAME
 70
     0
  9
$SPLINETYPE
 70
     6
  9
$SPLINESEGS
 70
     8
  9
$HANDSEED
  5
2213
  9
$SURFTAB1
 70
     6
  9
$SURFTAB2
 70
     6
  9
$SURFTYPE
 70
     6
  9
$SURFU
 70
     6
  9
$SURFV
 70
     6
  9
$UCSBASE
  2

  9
$UCSNAME
  2

  9
$UCSORG
 10
0.0
 20
0.0
 30
0.0
  9
$UCSXDIR
 10
1.0
 20
0.0
 30
0.0
  9
$UCSYDIR
 10
0.0
 20
1.0
 30
0.0
  9
$UCSORTHOREF
  2

  9
$UCSORTHOVIEW
 70
     0
  9
$UCSORGTOP
 10
0.0
 20
0.0
 30
0.0
  9
$UCSORGBOTTOM
 10
0.0
 20
0.0
 30
0.0
  9
$UCSORGLEFT
 10
0.0
 20
0.0
 30
0.0
  9
$UCSORGRIGHT
 10
0.0
 20
0.0
 30
0.0
  9
$UCSORGFRONT
 10
0.0
 20
0.0
 30
0.0
  9
$UCSORGBACK
 10
0.0
 20
0.0
 30
0.0
  9
$PUCSBASE
  2

  9
$PUCSNAME
  2

  9
$PUCSORG
 10
0.0
 20
0.0
 30
0.0
  9
$PUCSXDIR
 10
1.0
 20
0.0
 30
0.0
  9
$PUCSYDIR
 10
0.0
 20
1.0
 30
0.0
  9
$PUCSORTHOREF
  2

  9
$PUCSORTHOVIEW
 70
     0
  9
$PUCSORGTOP
 10
0.0
 20
0.0
 30
0.0
  9
$PUCSORGBOTTOM
 10
0.0
 20
0.0
 30
0.0
  9
$PUCSORGLEFT
 10
0.0
 20
0.0
 30
0.0
  9
$PUCSORGRIGHT
 10
0.0
 20
0.0
 30
0.0
  9
$PUCSORGFRONT
 10
0.0
 20
0.0
 30
0.0
  9
$PUCSORGBACK
 10
0.0
 20
0.0
 30
0.0
  9
$USERI1
 70
     0
  9
$USERI2
 70
     0
  9
$USERI3
 70
     0
  9
$USERI4
 70
     0
  9
$USERI5
 70
     0
  9
$USERR1
 40
0.0
  9
$USERR2
 40
0.0
  9
$USERR3
 40
0.0
  9
$USERR4
 40
0.0
  9
$USERR5
 40
0.0
  9
$WORLDVIEW
 70
     1
  9
$SHADEDGE
 70
     3
  9
$SHADEDIF
 70
    70
  9
$TILEMODE
 70
     1
  9
$MAXACTVP
 70
    48
  9
$PINSBASE
 10
0.0
 20
0.0
 30
0.0
  9
$PLIMCHECK
 70
     0
  9
$PEXTMIN
 10
1.000000000000000E+20
 20
1.000000000000000E+20
 30
1.000000000000000E+20
  9
$PEXTMAX
 10
-1.000000000000000E+20
 20
-1.000000000000000E+20
 30
-1.000000000000000E+20
  9
$PLIMMIN
 10
0.0
 20
0.0
  9
$PLIMMAX
 10
420.0
 20
297.0
  9
$UNITMODE
 70
     0
  9
$VISRETAIN
 70
     1
  9
$PLINEGEN
 70
     0
  9
$PSLTSCALE
 70
     1
  9
$TREEDEPTH
 70
  3020
  9
$CMLSTYLE
  2
STANDARD
  9
$CMLJUST
 70
     0
  9
$CMLSCALE
 40
20.0
  9
$PROXYGRAPHICS
 70
     1
  9
$MEASUREMENT
 70
     1
  9
$CELWEIGHT
370
    -1
  9
$ENDCAPS
280
     0
  9
$JOINSTYLE
280
     0
  9
$LWDISPLAY
290
     0
  9
$INSUNITS
 70
     0
  9
$HYPERLINKBASE
  1

  9
$STYLESHEET
  1
AutoCad LT 98.ctb
  9
$XEDIT
290
     1
  9
$CEPSNTYPE
380
     0
  9
$PSTYLEMODE
290
     1
  9
$FINGERPRINTGUID
  2
{D14982D2-C9EC-4DBA-9B7E-D56E4D56DF71}
  9
$VERSIONGUID
  2
{8A525994-3402-49A1-A16D-24EF8EAD9FB7}
  9
$EXTNAMES
290
     1
  9
$PSVPSCALE
 40
0.0
  9
$OLESTARTUP
290
     0
  9
$SORTENTS
280
    96
  9
$INDEXCTL
280
     0
  9
$HIDETEXT
280
     0
  9
$XCLIPFRAME
290
     0
  9
$HALOGAP
280
     0
  9
$OBSCOLOR
 70
   257
  9
$OBSLTYPE
280
     0
  9
$INTERSECTIONDISPLAY
280
     0
  9
$INTERSECTIONCOLOR
 70
   257
  9
$DIMASSOC
280
     1
  9
$PROJECTNAME
  1

  0
ENDSEC
  0
SECTION
  2
CLASSES
  0
CLASS
  1
HATCH
  2
AcDbHatch
  3
ObjectDBX Classes
 90
        0
 91
       12
280
     0
281
     1
  0
CLASS
  1
LWPOLYLINE
  2
AcDbPolyline
  3
ObjectDBX Classes
 90
        0
 91
        4
280
     0
281
     1
  0
CLASS
  1
IMAGEDEF
  2
AcDbRasterImageDef
  3
ISM
 90
        0
 91
        1
280
     0
281
     0
  0
CLASS
  1
DICTIONARYVAR
  2
AcDbDictionaryVar
  3
ObjectDBX Classes
 90
        0
 91
        2
280
     0
281
     0
  0
CLASS
  1
ACDBDICTIONARYWDFLT
  2
AcDbDictionaryWithDefault
  3
ObjectDBX Classes
 90
        0
 91
        1
280
     0
281
     0
  0
CLASS
  1
TABLESTYLE
  2
AcDbTableStyle
  3
ObjectDBX Classes
 90
     2047
 91
        1
280
     0
281
     0
  0
CLASS
  1
SORTENTSTABLE
  2
AcDbSortentsTable
  3
ObjectDBX Classes
 90
        0
 91
        2
280
     0
281
     0
  0
ENDSEC
  0
SECTION
  2
TABLES
  0
TABLE
  2
VPORT
  5
8
330
0
100
AcDbSymbolTable
 70
     2
  0
VPORT
  5
2212
330
8
100
AcDbSymbolTableRecord
100
AcDbViewportTableRecord
  2
*Active
 70
     0
 10
0.0
 20
0.0
 11
1.0
 21
1.0
 12
127.5091012242356
 22
97.49561220497778
 13
0.0
 23
0.0
 14
10.0
 24
10.0
 15
10.0
 25
10.0
 16
0.0
 26
0.0
 36
1.0
 17
0.0
 27
0.0
 37
0.0
 40
196.8953654324496
 41
1.530456852791878
 42
50.0
 43
0.0
 44
0.0
 50
0.0
 51
0.0
 71
     0
 72
   100
 73
     1
 74
     1
 75
     0
 76
     0
 77
     0
 78
     0
281
     0
 65
     1
110
0.0
120
0.0
130
0.0
111
1.0
121
0.0
131
0.0
112
0.0
122
1.0
132
0.0
 79
     0
146
0.0
  0
ENDTAB
  0
TABLE
  2
LTYPE
  5
5
330
0
100
AcDbSymbolTable
 70
     3
  0
LTYPE
  5
12
330
5
100
AcDbSymbolTableRecord
100
AcDbLinetypeTableRecord
  2
BYBLOCK
 70
     0
  3

 72
    65
 73
     0
 40
0.0
  0
LTYPE
  5
13
330
5
100
AcDbSymbolTableRecord
100
AcDbLinetypeTableRecord
  2
BYLAYER
 70
     0
  3

 72
    65
 73
     0
 40
0.0
  0
LTYPE
  5
14
330
5
100
AcDbSymbolTableRecord
100
AcDbLinetypeTableRecord
  2
CONTINUOUS
 70
     0
  3
Solid line
 72
    65
 73
     0
 40
0.0
  0
LTYPE
  5
22
330
5
100
AcDbSymbolTableRecord
100
AcDbLinetypeTableRecord
  2
CENTER2
 70
     0
  3
Center (.5x) ___ _ ___ _ ___ _ ___ _ ___ _ ___
 72
    65
 73
     4
 40
28.575
 49
19.05
 74
     0
 49
-3.174999999999999
 74
     0
 49
3.174999999999999
 74
     0
 49
-3.174999999999999
 74
     0
  0
ENDTAB
  0
TABLE
  2
LAYER
  5
2
330
0
100
AcDbSymbolTable
 70
    12
  0
LAYER
  5
E
330
2
100
AcDbSymbolTableRecord
100
AcDbLayerTableRecord
  2
0
 70
     0
 62
     7
  6
CONTINUOUS
370
    -3
390
1B45
  0
LAYER
  5
25
330
2
100
AcDbSymbolTableRecord
100
AcDbLayerTableRecord
  2
外形線
 70
     0
 62
     7
  6
CONTINUOUS
370
    -3
390
1B45
  0
LAYER
  5
27
330
2
100
AcDbSymbolTableRecord
100
AcDbLayerTableRecord
  2
中心線
 70
     0
 62
     4
  6
CENTER2
370
    -3
390
1B45
  0
LAYER
  5
2A
330
2
100
AcDbSymbolTableRecord
100
AcDbLayerTableRecord
  2
ﾊｯﾁﾝｸ
 70
     0
 62
     6
  6
CONTINUOUS
370
    -3
390
1B45
  0
LAYER
  5
2B
330
2
100
AcDbSymbolTableRecord
100
AcDbLayerTableRecord
  2
文字
 70
     0
 62
     6
  6
CONTINUOUS
370
    -3
390
1B45
  0
LAYER
  5
2C
330
2
100
AcDbSymbolTableRecord
100
AcDbLayerTableRecord
  2
目盛
 70
     0
 62
    70
  6
CONTINUOUS
370
    -3
390
1B45
  0
LAYER
  5
2D
330
2
100
AcDbSymbolTableRecord
100
AcDbLayerTableRecord
  2
針
 70
     0
 62
     5
  6
CONTINUOUS
370
    -3
390
1B45
  0
LAYER
  5
53
330
2
100
AcDbSymbolTableRecord
100
AcDbLayerTableRecord
  2
DEFPOINTS
 70
     0
 62
     7
  6
CONTINUOUS
290
     0
370
    -3
390
1B45
  0
LAYER
  5
A5
330
2
100
AcDbSymbolTableRecord
100
AcDbLayerTableRecord
  2
C
 70
     0
 62
     7
  6
CONTINUOUS
370
    -3
390
1B45
  0
LAYER
  5
E00
330
2
100
AcDbSymbolTableRecord
100
AcDbLayerTableRecord
  2
ROGO
 70
     0
 62
     6
  6
CONTINUOUS
370
    -3
390
1B45
  0
LAYER
  5
1A86
330
2
100
AcDbSymbolTableRecord
100
AcDbLayerTableRecord
  2
寸法図
 70
     0
 62
     2
  6
CONTINUOUS
370
    -3
390
1B45
  0
ENDTAB
  0
TABLE
  2
STYLE
  5
3
330
0
100
AcDbSymbolTable
 70
     4
  0
STYLE
  5
F
330
3
100
AcDbSymbolTableRecord
100
AcDbTextStyleTableRecord
  2
STANDARD
 70
     0
 40
0.0
 41
1.0
 50
0.0
 71
     0
 42
2.5
  3
txt
  4

  0
STYLE
  5
3F
330
3
100
AcDbSymbolTableRecord
100
AcDbTextStyleTableRecord
  2
STYLE3
 70
     0
 40
0.0
 41
1.0
 50
0.0
 71
     0
 42
2.5
  3
romans.shx
  4
bigfont.shx
  0
ENDTAB
  0
TABLE
  2
VIEW
  5
6
330
0
100
AcDbSymbolTable
 70
     0
  0
ENDTAB
  0
TABLE
  2
UCS
  5
7
330
0
100
AcDbSymbolTable
 70
     0
  0
ENDTAB
  0
TABLE
  2
APPID
  5
9
330
0
100
AcDbSymbolTable
 70
     2
  0
APPID
  5
10
330
9
100
AcDbSymbolTableRecord
100
AcDbRegAppTableRecord
  2
ACAD
 70
     0
  0
APPID
  5
1BC4
330
9
100
AcDbSymbolTableRecord
100
AcDbRegAppTableRecord
  2
ACAD_PSEXT
 70
     0
  0
ENDTAB
  0
TABLE
  2
DIMSTYLE
  5
A
330
0
100
AcDbSymbolTable
 70
     5
100
AcDbDimStyleTable
 71
     1
340
66
  0
DIMSTYLE
105
1D
330
A
100
AcDbSymbolTableRecord
100
AcDbDimStyleTableRecord
  2
STANDARD
 70
     0
 41
2.5
 42
0.625
 43
3.75
 44
1.25
 73
     0
 74
     0
 77
     1
 78
     8
140
2.5
141
2.5
143
0.0394
147
0.625
171
     4
172
     1
273
     8
274
     4
277
     6
340
F
  0
DIMSTYLE
105
66
102
{ACAD_REACTORS
330
1A40
330
1A4D
330
1A5A
330
1A67
330
1A74
330
1AD2
102
}
330
A
100
AcDbSymbolTableRecord
100
AcDbDimStyleTableRecord
  2
STYLE2
 70
     0
 41
2.5
 42
0.0
 43
3.75
 44
1.25
 73
     0
 74
     0
 77
     1
 78
     8
140
2.5
141
2.5
143
0.0394
147
0.625
171
     4
172
     1
173
     1
176
     2
177
     2
178
     6
271
     1
273
     8
274
     4
340
3F
341
45
343
45
344
45
  0
ENDTAB
  0
TABLE
  2
BLOCK_RECORD
  5
1
330
0
100
AcDbSymbolTable
 70
    11
  0
BLOCK_RECORD
  5
18
102
{ACAD_XDICTIONARY
360
210B
102
}
330
1
100
AcDbSymbolTableRecord
100
AcDbBlockTableRecord
  2
*MODEL_SPACE
340
1B4C
  0
BLOCK_RECORD
  5
15
330
1
100
AcDbSymbolTableRecord
100
AcDbBlockTableRecord
  2
*PAPER_SPACE
340
1B4D
  0
BLOCK_RECORD
  5
45
330
1
100
AcDbSymbolTableRecord
100
AcDbBlockTableRecord
  2
_OPEN
340
0
102
{BLKREFS
331
1AA3
331
1AA4
331
1ABF
331
1AC0
331
21D4
331
21D5
331
21DD
331
21DE
331
21E6
331
21E7
331
21EF
331
21F0
331
21F8
331
21F9
331
2201
331
2202
102
}
  0
BLOCK_RECORD
  5
1A34
330
1
100
AcDbSymbolTableRecord
100
AcDbBlockTableRecord
  2
*D1
340
0
  0
BLOCK_RECORD
  5
1A41
330
1
100
AcDbSymbolTableRecord
100
AcDbBlockTableRecord
  2
*D2
340
0
  0
BLOCK_RECORD
  5
1A4E
330
1
100
AcDbSymbolTableRecord
100
AcDbBlockTableRecord
  2
*D3
340
0
  0
BLOCK_RECORD
  5
1A5B
330
1
100
AcDbSymbolTableRecord
100
AcDbBlockTableRecord
  2
*D4
340
0
  0
BLOCK_RECORD
  5
1A68
330
1
100
AcDbSymbolTableRecord
100
AcDbBlockTableRecord
  2
*D5
340
0
  0
BLOCK_RECORD
  5
1AC6
330
1
100
AcDbSymbolTableRecord
100
AcDbBlockTableRecord
  2
*D7
340
0
  0
BLOCK_RECORD
  5
1DF1
330
1
100
AcDbSymbolTableRecord
100
AcDbBlockTableRecord
  2
A$C47D905DE
340
0
102
{BLKREFS
331
20C5
102
}
  0
ENDTAB
  0
ENDSEC
  0
SECTION
  2
BLOCKS
  0
BLOCK
  5
19
330
18
100
AcDbEntity
  8
0
100
AcDbBlockBegin
  2
*MODEL_SPACE
 70
     0
 10
0.0
 20
0.0
 30
0.0
  3
*MODEL_SPACE
  1

  0
ENDBLK
  5
1A
330
18
100
AcDbEntity
  8
0
100
AcDbBlockEnd
  0
BLOCK
  5
16
330
15
100
AcDbEntity
 67
     1
  8
0
100
AcDbBlockBegin
  2
*PAPER_SPACE
 70
     0
 10
0.0
 20
0.0
 30
0.0
  3
*PAPER_SPACE
  1

  0
ENDBLK
  5
17
330
15
100
AcDbEntity
 67
     1
  8
0
100
AcDbBlockEnd
  0
BLOCK
  5
46
330
45
100
AcDbEntity
  8
0
100
AcDbBlockBegin
  2
_OPEN
 70
     0
 10
0.0
 20
0.0
 30
0.0
  3
_OPEN
  1

  0
LINE
  5
47
330
45
100
AcDbEntity
  8
0
  6
ByBlock
 62
     0
100
AcDbLine
 10
-1.0
 20
0.1666666666666666
 30
0.0
 11
0.0
 21
0.0
 31
0.0
  0
LINE
  5
48
330
45
100
AcDbEntity
  8
0
  6
ByBlock
 62
     0
100
AcDbLine
 10
0.0
 20
0.0
 30
0.0
 11
-1.0
 21
-0.1666666666666666
 31
0.0
  0
LINE
  5
49
330
45
100
AcDbEntity
  8
0
  6
ByBlock
 62
     0
100
AcDbLine
 10
0.0
 20
0.0
 30
0.0
 11
-1.0
 21
0.0
 31
0.0
  0
ENDBLK
  5
4A
330
45
100
AcDbEntity
  8
0
100
AcDbBlockEnd
  0
BLOCK
  5
1A35
330
1A34
100
AcDbEntity
  8
0
100
AcDbBlockBegin
  2
*D1
 70
     1
 10
0.0
 20
0.0
 30
0.0
  3
*D1
  1

  0
LINE
  5
21D1
330
1A34
100
AcDbEntity
  8
外形線
 62
     2
370
    -2
100
AcDbLine
 10
93.80138898614347
 20
161.6065355974395
 30
0.0
 11
49.33659563808603
 21
161.6065355974396
 31
0.0
  0
LINE
  5
21D2
330
1A34
100
AcDbEntity
  8
外形線
 62
     2
370
    -2
100
AcDbLine
 10
63.80138898614359
 20
52.60653559743959
 30
0.0
 11
49.33659563808601
 21
52.60653559743959
 31
0.0
  0
LINE
  5
21D3
330
1A34
100
AcDbEntity
  8
外形線
 62
     2
370
    -2
100
AcDbLine
 10
50.58659563808603
 20
159.1065355974395
 30
0.0
 11
50.58659563808601
 21
55.10653559743959
 31
0.0
  0
INSERT
  5
21D4
330
1A34
100
AcDbEntity
  8
外形線
 62
     2
370
    -2
100
AcDbBlockReference
  2
_OPEN
 10
50.58659563808603
 20
161.6065355974396
 30
0.0
 41
2.5
 42
2.5
 43
2.5
 50
90.0
  0
INSERT
  5
21D5
330
1A34
100
AcDbEntity
  8
外形線
 62
     2
370
    -2
100
AcDbBlockReference
  2
_OPEN
 10
50.58659563808601
 20
52.60653559743959
 30
0.0
 41
2.5
 42
2.5
 43
2.5
 50
270.0
  0
MTEXT
  5
21D6
330
1A34
100
AcDbEntity
  8
外形線
 62
     6
100
AcDbMText
 10
48.711595638086
 20
107.1065355974396
 30
0.0
 40
2.5
 41
0.0
 71
     5
 72
     1
  1
\A1;109
  7
STYLE3
 11
0.0000000000000001
 21
1.0
 31
0.0
 73
     1
 44
1.0
  0
POINT
  5
21D7
330
1A34
100
AcDbEntity
  8
DEFPOINTS
 62
     0
100
AcDbPoint
 10
93.80138898614347
 20
161.6065355974395
 30
0.0
  0
POINT
  5
21D8
330
1A34
100
AcDbEntity
  8
DEFPOINTS
 62
     0
100
AcDbPoint
 10
63.80138898614359
 20
52.60653559743959
 30
0.0
  0
POINT
  5
21D9
330
1A34
100
AcDbEntity
  8
DEFPOINTS
 62
     0
100
AcDbPoint
 10
50.58659563808601
 20
52.60653559743959
 30
0.0
  0
ENDBLK
  5
1A3F
330
1A34
100
AcDbEntity
  8
0
100
AcDbBlockEnd
  0
BLOCK
  5
1A42
330
1A41
100
AcDbEntity
  8
0
100
AcDbBlockBegin
  2
*D2
 70
     1
 10
0.0
 20
0.0
 30
0.0
  3
*D2
  1

  0
LINE
  5
21EC
330
1A41
100
AcDbEntity
  8
外形線
 62
     2
370
    -2
100
AcDbLine
 10
57.19112978451938
 20
52.60653559743959
 30
0.0
 11
58.80804821622494
 21
52.60653559743959
 31
0.0
  0
LINE
  5
21ED
330
1A41
100
AcDbEntity
  8
外形線
 62
     2
370
    -2
100
AcDbLine
 10
59.71027747306329
 20
120.1065355974396
 30
0.0
 11
56.30804821622496
 21
120.1065355974396
 31
0.0
  0
LINE
  5
21EE
330
1A41
100
AcDbEntity
  8
外形線
 62
     2
370
    -2
100
AcDbLine
 10
57.55804821622494
 20
55.10653559743959
 30
0.0
 11
57.55804821622496
 21
117.6065355974396
 31
0.0
  0
INSERT
  5
21EF
330
1A41
100
AcDbEntity
  8
外形線
 62
     2
370
    -2
100
AcDbBlockReference
  2
_OPEN
 10
57.55804821622494
 20
52.60653559743959
 30
0.0
 41
2.5
 42
2.5
 43
2.5
 50
270.0
  0
INSERT
  5
21F0
330
1A41
100
AcDbEntity
  8
外形線
 62
     2
370
    -2
100
AcDbBlockReference
  2
_OPEN
 10
57.55804821622496
 20
120.1065355974396
 30
0.0
 41
2.5
 42
2.5
 43
2.5
 50
90.0
  0
MTEXT
  5
21F1
330
1A41
100
AcDbEntity
  8
外形線
 62
     6
100
AcDbMText
 10
55.68304821622493
 20
86.3565355974396
 30
0.0
 40
2.5
 41
0.0
 71
     5
 72
     1
  1
\A1;67.5
  7
STYLE3
 11
0.0000000000000001
 21
1.0
 31
0.0
 73
     1
 44
1.0
  0
POINT
  5
21F2
330
1A41
100
AcDbEntity
  8
DEFPOINTS
 62
     0
100
AcDbPoint
 10
57.19112978451938
 20
52.60653559743959
 30
0.0
  0
POINT
  5
21F3
330
1A41
100
AcDbEntity
  8
DEFPOINTS
 62
     0
100
AcDbPoint
 10
59.71027747306329
 20
120.1065355974396
 30
0.0
  0
POINT
  5
21F4
330
1A41
100
AcDbEntity
  8
DEFPOINTS
 62
     0
100
AcDbPoint
 10
57.55804821622496
 20
120.1065355974396
 30
0.0
  0
ENDBLK
  5
1A4C
330
1A41
100
AcDbEntity
  8
0
100
AcDbBlockEnd
  0
BLOCK
  5
1A4F
330
1A4E
100
AcDbEntity
  8
0
100
AcDbBlockBegin
  2
*D3
 70
     1
 10
0.0
 20
0.0
 30
0.0
  3
*D3
  1

  0
LINE
  5
21DA
330
1A4E
100
AcDbEntity
  8
外形線
 62
     2
370
    -2
100
AcDbLine
 10
60.86031489348624
 20
52.60653559743959
 30
0.0
 11
49.33659563808602
 21
52.60653559743959
 31
0.0
  0
LINE
  5
21DB
330
1A4E
100
AcDbEntity
  8
外形線
 62
     2
370
    -2
100
AcDbLine
 10
93.80138898614353
 20
42.50653559743958
 30
0.0
 11
49.33659563808601
 21
42.50653559743958
 31
0.0
  0
LINE
  5
21DC
330
1A4E
100
AcDbEntity
  8
外形線
 62
     2
370
    -2
100
AcDbLine
 10
50.58659563808602
 20
50.10653559743959
 30
0.0
 11
50.58659563808601
 21
45.00653559743958
 31
0.0
  0
INSERT
  5
21DD
330
1A4E
100
AcDbEntity
  8
外形線
 62
     2
370
    -2
100
AcDbBlockReference
  2
_OPEN
 10
50.58659563808602
 20
52.60653559743959
 30
0.0
 41
2.5
 42
2.5
 43
2.5
 50
90.0
  0
INSERT
  5
21DE
330
1A4E
100
AcDbEntity
  8
外形線
 62
     2
370
    -2
100
AcDbBlockReference
  2
_OPEN
 10
50.58659563808601
 20
42.50653559743958
 30
0.0
 41
2.5
 42
2.5
 43
2.5
 50
270.0
  0
MTEXT
  5
21DF
330
1A4E
100
AcDbEntity
  8
外形線
 62
     6
100
AcDbMText
 10
48.711595638086
 20
47.55653559743961
 30
0.0
 40
2.5
 41
0.0
 71
     5
 72
     1
  1
\A1;10.1
  7
STYLE3
 11
0.0000000000000001
 21
1.0
 31
0.0
 73
     1
 44
1.0
  0
POINT
  5
21E0
330
1A4E
100
AcDbEntity
  8
DEFPOINTS
 62
     0
100
AcDbPoint
 10
60.86031489348624
 20
52.60653559743959
 30
0.0
  0
POINT
  5
21E1
330
1A4E
100
AcDbEntity
  8
DEFPOINTS
 62
     0
100
AcDbPoint
 10
93.80138898614353
 20
42.50653559743958
 30
0.0
  0
POINT
  5
21E2
330
1A4E
100
AcDbEntity
  8
DEFPOINTS
 62
     0
100
AcDbPoint
 10
50.58659563808601
 20
42.50653559743958
 30
0.0
  0
ENDBLK
  5
1A59
330
1A4E
100
AcDbEntity
  8
0
100
AcDbBlockEnd
  0
BLOCK
  5
1A5C
330
1A5B
100
AcDbEntity
  8
0
100
AcDbBlockBegin
  2
*D4
 70
     1
 10
0.0
 20
0.0
 30
0.0
  3
*D4
  1

  0
LINE
  5
21E3
330
1A5B
100
AcDbEntity
  8
外形線
 62
     2
370
    -2
100
AcDbLine
 10
63.80138898614359
 20
52.60653559743959
 30
0.0
 11
63.80138898614359
 21
32.32238278965747
 31
0.0
  0
LINE
  5
21E4
330
1A5B
100
AcDbEntity
  8
外形線
 62
     2
370
    -2
100
AcDbLine
 10
123.8013889861435
 20
52.60653559743956
 30
0.0
 11
123.8013889861435
 21
32.32238278965747
 31
0.0
  0
LINE
  5
21E5
330
1A5B
100
AcDbEntity
  8
外形線
 62
     2
370
    -2
100
AcDbLine
 10
66.30138898614359
 20
33.57238278965747
 30
0.0
 11
121.3013889861435
 21
33.57238278965747
 31
0.0
  0
INSERT
  5
21E6
330
1A5B
100
AcDbEntity
  8
外形線
 62
     2
370
    -2
100
AcDbBlockReference
  2
_OPEN
 10
63.80138898614359
 20
33.57238278965747
 30
0.0
 41
2.5
 42
2.5
 43
2.5
 50
180.0
  0
INSERT
  5
21E7
330
1A5B
100
AcDbEntity
  8
外形線
 62
     2
370
    -2
100
AcDbBlockReference
  2
_OPEN
 10
123.8013889861435
 20
33.57238278965747
 30
0.0
 41
2.5
 42
2.5
 43
2.5
  0
MTEXT
  5
21E8
330
1A5B
100
AcDbEntity
  8
外形線
 62
     6
100
AcDbMText
 10
93.80138898614356
 20
35.44738278965747
 30
0.0
 40
2.5
 41
0.0
 71
     5
 72
     1
  1
\A1;60
  7
STYLE3
 73
     1
 44
1.0
  0
POINT
  5
21E9
330
1A5B
100
AcDbEntity
  8
DEFPOINTS
 62
     0
100
AcDbPoint
 10
63.80138898614359
 20
52.60653559743959
 30
0.0
  0
POINT
  5
21EA
330
1A5B
100
AcDbEntity
  8
DEFPOINTS
 62
     0
100
AcDbPoint
 10
123.8013889861435
 20
52.60653559743956
 30
0.0
  0
POINT
  5
21EB
330
1A5B
100
AcDbEntity
  8
DEFPOINTS
 62
     0
100
AcDbPoint
 10
123.8013889861435
 20
33.57238278965747
 30
0.0
  0
ENDBLK
  5
1A66
330
1A5B
100
AcDbEntity
  8
0
100
AcDbBlockEnd
  0
BLOCK
  5
1A75
330
1A68
100
AcDbEntity
  8
0
100
AcDbBlockBegin
  2
*D5
 70
     1
 10
0.0
 20
0.0
 30
0.0
  3
*D5
  1

  0
LINE
  5
21FE
330
1A68
100
AcDbEntity
  8
外形線
 62
     2
370
    -2
100
AcDbLine
 10
178.1080723399935
 20
147.2397347962294
 30
0.0
 11
157.9444878508433
 21
147.2397347962294
 31
0.0
  0
LINE
  5
21FF
330
1A68
100
AcDbEntity
  8
外形線
 62
     2
370
    -2
100
AcDbLine
 10
178.1080723399935
 20
94.43973479622945
 30
0.0
 11
157.9444878508433
 21
94.43973479622947
 31
0.0
  0
LINE
  5
2200
330
1A68
100
AcDbEntity
  8
外形線
 62
     2
370
    -2
100
AcDbLine
 10
159.1944878508433
 20
144.7397347962294
 30
0.0
 11
159.1944878508433
 21
96.93973479622947
 31
0.0
  0
INSERT
  5
2201
330
1A68
100
AcDbEntity
  8
外形線
 62
     2
370
    -2
100
AcDbBlockReference
  2
_OPEN
 10
159.1944878508433
 20
147.2397347962294
 30
0.0
 41
2.5
 42
2.5
 43
2.5
 50
90.0
  0
INSERT
  5
2202
330
1A68
100
AcDbEntity
  8
外形線
 62
     2
370
    -2
100
AcDbBlockReference
  2
_OPEN
 10
159.1944878508433
 20
94.43973479622947
 30
0.0
 41
2.5
 42
2.5
 43
2.5
 50
270.0
  0
MTEXT
  5
2203
330
1A68
100
AcDbEntity
  8
外形線
 62
     6
100
AcDbMText
 10
157.3194878508433
 20
120.8397347962294
 30
0.0
 40
2.5
 41
0.0
 71
     5
 72
     1
  1
\A1;φ53
  7
STYLE3
 11
0.0000000000000001
 21
1.0
 31
0.0
 73
     1
 44
1.0
  0
POINT
  5
2204
330
1A68
100
AcDbEntity
  8
DEFPOINTS
 62
     0
100
AcDbPoint
 10
178.1080723399935
 20
147.2397347962294
 30
0.0
  0
POINT
  5
2205
330
1A68
100
AcDbEntity
  8
DEFPOINTS
 62
     0
100
AcDbPoint
 10
178.1080723399935
 20
94.43973479622945
 30
0.0
  0
POINT
  5
2206
330
1A68
100
AcDbEntity
  8
DEFPOINTS
 62
     0
100
AcDbPoint
 10
159.1944878508433
 20
94.43973479622947
 30
0.0
  0
ENDBLK
  5
1A7F
330
1A68
100
AcDbEntity
  8
0
100
AcDbBlockEnd
  0
BLOCK
  5
1AC7
330
1AC6
100
AcDbEntity
  8
0
100
AcDbBlockBegin
  2
*D7
 70
     1
 10
0.0
 20
0.0
 30
0.0
  3
*D7
  1

  0
LINE
  5
21F5
330
1AC6
100
AcDbEntity
  8
文字
 62
     2
370
    -2
100
AcDbLine
 10
181.4080723399935
 20
63.43185314474502
 30
0.0
 11
181.4080723399935
 21
32.32238278965747
 31
0.0
  0
LINE
  5
21F6
330
1AC6
100
AcDbEntity
  8
文字
 62
     2
370
    -2
100
AcDbLine
 10
195.4080723399935
 20
63.43185314474499
 30
0.0
 11
195.4080723399935
 21
32.32238278965747
 31
0.0
  0
LINE
  5
21F7
330
1AC6
100
AcDbEntity
  8
文字
 62
     2
370
    -2
100
AcDbLine
 10
183.9080723399936
 20
33.57238278965747
 30
0.0
 11
192.9080723399935
 21
33.57238278965747
 31
0.0
  0
INSERT
  5
21F8
330
1AC6
100
AcDbEntity
  8
文字
 62
     2
370
    -2
100
AcDbBlockReference
  2
_OPEN
 10
181.4080723399935
 20
33.57238278965747
 30
0.0
 41
2.5
 42
2.5
 43
2.5
 50
180.0
  0
INSERT
  5
21F9
330
1AC6
100
AcDbEntity
  8
文字
 62
     2
370
    -2
100
AcDbBlockReference
  2
_OPEN
 10
195.4080723399935
 20
33.57238278965747
 30
0.0
 41
2.5
 42
2.5
 43
2.5
  0
MTEXT
  5
21FA
330
1AC6
100
AcDbEntity
  8
文字
 62
     6
100
AcDbMText
 10
188.4080723399936
 20
35.44738278965747
 30
0.0
 40
2.5
 41
0.0
 71
     5
 72
     1
  1
\A1;14
  7
STYLE3
 73
     1
 44
1.0
  0
POINT
  5
21FB
330
1AC6
100
AcDbEntity
  8
DEFPOINTS
 62
     0
100
AcDbPoint
 10
181.4080723399935
 20
63.43185314474502
 30
0.0
  0
POINT
  5
21FC
330
1AC6
100
AcDbEntity
  8
DEFPOINTS
 62
     0
100
AcDbPoint
 10
195.4080723399935
 20
63.43185314474499
 30
0.0
  0
POINT
  5
21FD
330
1AC6
100
AcDbEntity
  8
DEFPOINTS
 62
     0
100
AcDbPoint
 10
195.4080723399935
 20
33.57238278965747
 30
0.0
  0
ENDBLK
  5
1AD1
330
1AC6
100
AcDbEntity
  8
0
100
AcDbBlockEnd
  0
BLOCK
  5
1DF2
330
1DF1
100
AcDbEntity
  8
0
100
AcDbBlockBegin
  2
A$C47D905DE
 70
     0
 10
0.0
 20
0.0
 30
0.0
  3
A$C47D905DE
  1

  0
TEXT
  5
1DF3
330
1DF1
100
AcDbEntity
  8
文字
100
AcDbText
 10
-0.0952384519291627
 20
-0.0000000309809707
 30
0.0
 40
1.0
  1
JEWELED
  7
STYLE3
100
AcDbText
  0
ENDBLK
  5
1DF4
330
1DF1
100
AcDbEntity
  8
0
100
AcDbBlockEnd
  0
ENDSEC
  0
SECTION
  2
ENTITIES
  0
LINE
  5
244
330
18
100
AcDbEntity
  8
中心線
100
AcDbLine
 10
59.71027747306329
 20
120.1065355974396
 30
0.0
 11
127.8925004992238
 21
120.1065355974396
 31
0.0
  0
LINE
  5
245
330
18
100
AcDbEntity
  8
中心線
100
AcDbLine
 10
93.80138898614347
 20
164.7483445812551
 30
0.0
 11
93.80138898614353
 21
39.502840231108
 31
0.0
  0
CIRCLE
  5
246
330
18
100
AcDbEntity
  8
外形線
100
AcDbCircle
 10
93.80138898614353
 20
120.1065355974396
 30
0.0
 40
15.5
  0
CIRCLE
  5
247
330
18
100
AcDbEntity
  8
外形線
100
AcDbCircle
 10
93.80138898614353
 20
120.1065355974396
 30
0.0
 40
23.0
  0
CIRCLE
  5
248
330
18
100
AcDbEntity
  8
外形線
100
AcDbCircle
 10
93.80138898614353
 20
120.1065355974396
 30
0.0
 40
26.4
  0
LINE
  5
249
330
18
100
AcDbEntity
  8
目盛
100
AcDbLine
 10
92.35720703696932
 20
143.0611503512898
 30
0.0
 11
92.48278807602792
 21
141.0650968944333
 31
0.0
  0
LINE
  5
24A
330
18
100
AcDbEntity
  8
目盛
100
AcDbLine
 10
90.91872461416455
 20
142.9251737276726
 30
0.0
 11
91.1693910812931
 21
140.9409443250436
 31
0.0
  0
LINE
  5
24B
330
18
100
AcDbEntity
  8
目盛
100
AcDbLine
 10
89.49161875067188
 20
142.6991423641994
 30
0.0
 11
89.86638137984328
 21
140.734567862742
 31
0.0
  0
LINE
  5
24C
330
18
100
AcDbEntity
  8
目盛
100
AcDbLine
 10
88.08152158135186
 20
142.3839483033981
 30
0.0
 11
88.57890135568158
 21
140.4467819811408
 31
0.0
  0
LINE
  5
24D
330
18
100
AcDbEntity
  8
目盛
100
AcDbLine
 10
86.69399811551972
 20
141.9808354722281
 30
0.0
 11
87.62104909864451
 21
139.1276659233426
 31
0.0
  0
LINE
  5
24E
330
18
100
AcDbEntity
  8
目盛
100
AcDbLine
 10
85.33452427439597
 20
141.4913947728693
 30
0.0
 11
86.07077337976528
 21
139.6318418010928
 31
0.0
  0
LINE
  5
24F
330
18
100
AcDbEntity
  8
目盛
100
AcDbLine
 10
84.00846528014671
 20
140.917557804158
 30
0.0
 11
84.86002386327692
 21
139.1079036992259
 31
0.0
  0
LINE
  5
250
330
18
100
AcDbEntity
  8
目盛
100
AcDbLine
 10
82.72105448180395
 20
140.2615892384484
 30
0.0
 11
83.68456183000745
 21
138.5089758783607
 31
0.0
  0
LINE
  5
251
330
18
100
AcDbEntity
  8
目盛
100
AcDbLine
 10
81.4773727016265
 20
139.5260778839858
 30
0.0
 11
82.54902629158454
 21
137.8374220329818
 31
0.0
  0
LINE
  5
252
330
18
100
AcDbEntity
  8
目盛
100
AcDbLine
 10
80.28232818341662
 20
138.7139264680634
 30
0.0
 11
82.04568394029406
 21
136.2868754849385
 31
0.0
  0
LINE
  5
253
330
18
100
AcDbEntity
  8
目盛
100
AcDbLine
 10
79.14063722192366
 20
137.8283401812828
 30
0.0
 11
80.41548520142095
 21
136.2873136957312
 31
0.0
  0
LINE
  5
254
330
18
100
AcDbEntity
  8
目盛
100
AcDbLine
 10
78.05680554978374
 20
136.8728140281321
 30
0.0
 11
79.42589976164112
 21
135.4148767732892
 31
0.0
  0
LINE
  5
255
330
18
100
AcDbEntity
  8
目盛
100
AcDbLine
 10
77.03511055545101
 20
135.8511190337994
 30
0.0
 11
78.49304781029383
 21
134.482024821942
 31
0.0
  0
LINE
  5
256
330
18
100
AcDbEntity
  8
目盛
100
AcDbLine
 10
76.07958440230044
 20
134.7672873616594
 30
0.0
 11
77.62061088785191
 21
133.492439382162
 31
0.0
  0
LINE
  5
257
330
18
100
AcDbEntity
  8
目盛
100
AcDbLine
 10
75.1939981155196
 20
133.6255964001664
 30
0.0
 11
77.62104909864451
 21
131.862240643289
 31
0.0
  0
LINE
  5
258
330
18
100
AcDbEntity
  8
目盛
100
AcDbLine
 10
74.38184669959714
 20
132.4305518819565
 30
0.0
 11
76.07050255060125
 21
131.3588982919985
 31
0.0
  0
LINE
  5
259
330
18
100
AcDbEntity
  8
目盛
100
AcDbLine
 10
73.64633534513467
 20
131.186870101779
 30
0.0
 11
75.39894870522238
 21
130.2233627535756
 31
0.0
  0
LINE
  5
25A
330
18
100
AcDbEntity
  8
目盛
100
AcDbLine
 10
72.99036677942507
 20
129.8994593034362
 30
0.0
 11
74.80002088435703
 21
129.047900720306
 31
0.0
  0
LINE
  5
25B
330
18
100
AcDbEntity
  8
目盛
100
AcDbLine
 10
72.4165298107136
 20
128.5734003091871
 30
0.0
 11
74.27608278249016
 21
127.8371512038178
 31
0.0
  0
LINE
  5
25C
330
18
100
AcDbEntity
  8
目盛
100
AcDbLine
 10
71.92708911135486
 20
127.2139264680634
 30
0.0
 11
74.78025866024035
 21
126.2868754849385
 31
0.0
  0
LINE
  5
25D
330
18
100
AcDbEntity
  8
目盛
100
AcDbLine
 10
71.52397628018497
 20
125.8264030022312
 30
0.0
 11
73.46114260244229
 21
125.3290232279015
 31
0.0
  0
LINE
  5
25E
330
18
100
AcDbEntity
  8
目盛
100
AcDbLine
 10
71.20878221938363
 20
124.4163058329112
 30
0.0
 11
73.17335672084102
 21
124.0415432037397
 31
0.0
  0
LINE
  5
25F
330
18
100
AcDbEntity
  8
目盛
100
AcDbLine
 10
70.98275085591052
 20
122.9891999694185
 30
0.0
 11
72.96698025853942
 21
122.7385335022899
 31
0.0
  0
LINE
  5
260
330
18
100
AcDbEntity
  8
目盛
100
AcDbLine
 10
70.84677423229317
 20
121.5507175466138
 30
0.0
 11
72.84282768914971
 21
121.4251365075551
 31
0.0
  0
LINE
  5
261
330
18
100
AcDbEntity
  8
目盛
100
AcDbLine
 10
70.84677423229317
 20
118.6623536482653
 30
0.0
 11
72.84282768914971
 21
118.787934687324
 31
0.0
  0
LINE
  5
262
330
18
100
AcDbEntity
  8
目盛
100
AcDbLine
 10
70.98275085591052
 20
117.2238712254606
 30
0.0
 11
72.96698025853953
 21
117.4745376925892
 31
0.0
  0
LINE
  5
263
330
18
100
AcDbEntity
  8
目盛
100
AcDbLine
 10
71.20878221938363
 20
115.7967653619679
 30
0.0
 11
73.1733567208409
 21
116.1715279911394
 31
0.0
  0
LINE
  5
264
330
18
100
AcDbEntity
  8
目盛
100
AcDbLine
 10
71.52397628018497
 20
114.3866681926479
 30
0.0
 11
73.46114260244229
 21
114.8840479669776
 31
0.0
  0
LINE
  5
265
330
18
100
AcDbEntity
  8
目盛
100
AcDbLine
 10
71.92708911135508
 20
112.9991447268157
 30
0.0
 11
74.78025866024035
 21
113.9261957099406
 31
0.0
  0
LINE
  5
266
330
18
100
AcDbEntity
  8
目盛
100
AcDbLine
 10
72.41652981071371
 20
111.6396708856919
 30
0.0
 11
74.27608278249016
 21
112.3759199910612
 31
0.0
  0
LINE
  5
267
330
18
100
AcDbEntity
  8
目盛
100
AcDbLine
 10
72.99036677942507
 20
110.3136118914429
 30
0.0
 11
74.80002088435703
 21
111.165170474573
 31
0.0
  0
LINE
  5
268
330
18
100
AcDbEntity
  8
目盛
100
AcDbLine
 10
73.64633534513467
 20
109.0262010931001
 30
0.0
 11
75.39894870522238
 21
109.9897084413035
 31
0.0
  0
LINE
  5
269
330
18
100
AcDbEntity
  8
目盛
100
AcDbLine
 10
74.38184669959714
 20
107.7825193129226
 30
0.0
 11
76.07050255060125
 21
108.8541729028806
 31
0.0
  0
LINE
  5
26A
330
18
100
AcDbEntity
  8
目盛
100
AcDbLine
 10
75.19399811551972
 20
106.5874747947126
 30
0.0
 11
77.62104909864451
 21
108.3508305515901
 31
0.0
  0
LINE
  5
26B
330
18
100
AcDbEntity
  8
目盛
100
AcDbLine
 10
76.07958440230032
 20
105.4457838332197
 30
0.0
 11
77.62061088785191
 21
106.7206318127171
 31
0.0
  0
LINE
  5
26C
330
18
100
AcDbEntity
  8
目盛
100
AcDbLine
 10
77.03511055545113
 20
104.3619521610796
 30
0.0
 11
78.49304781029394
 21
105.731046372937
 31
0.0
  0
LINE
  5
26D
330
18
100
AcDbEntity
  8
目盛
100
AcDbLine
 10
78.05680554978363
 20
103.340257166747
 30
0.0
 11
79.425899761641
 21
104.7981944215898
 31
0.0
  0
LINE
  5
26E
330
18
100
AcDbEntity
  8
目盛
100
AcDbLine
 10
79.14063722192366
 20
102.3847310135963
 30
0.0
 11
80.41548520142095
 21
103.9257574991479
 31
0.0
  0
LINE
  5
26F
330
18
100
AcDbEntity
  8
目盛
100
AcDbLine
 10
80.28232818341662
 20
101.4991447268157
 30
0.0
 11
82.04568394029406
 21
103.9261957099405
 31
0.0
  0
LINE
  5
270
330
18
100
AcDbEntity
  8
目盛
100
AcDbLine
 10
81.4773727016265
 20
100.6869933108931
 30
0.0
 11
82.54902629158454
 21
102.3756491618972
 31
0.0
  0
LINE
  5
271
330
18
100
AcDbEntity
  8
目盛
100
AcDbLine
 10
82.72105448180417
 20
99.95148195643071
 30
0.0
 11
83.68456183000757
 21
101.7040953165184
 31
0.0
  0
LINE
  5
272
330
18
100
AcDbEntity
  8
目盛
100
AcDbLine
 10
84.00846528014694
 20
99.29551339072112
 30
0.0
 11
84.86002386327703
 21
101.1051674956531
 31
0.0
  0
LINE
  5
273
330
18
100
AcDbEntity
  8
目盛
100
AcDbLine
 10
85.33452427439597
 20
98.72167642200976
 30
0.0
 11
86.07077337976528
 21
100.5812293937862
 31
0.0
  0
LINE
  5
274
330
18
100
AcDbEntity
  8
目盛
100
AcDbLine
 10
86.69399811551972
 20
98.23223572265101
 30
0.0
 11
87.62104909864461
 21
101.0854052715365
 31
0.0
  0
LINE
  5
275
330
18
100
AcDbEntity
  8
目盛
100
AcDbLine
 10
88.08152158135198
 20
97.82912289148107
 30
0.0
 11
88.57890135568158
 21
99.76628921373833
 31
0.0
  0
LINE
  5
276
330
18
100
AcDbEntity
  8
目盛
100
AcDbLine
 10
89.49161875067188
 20
97.51392883067973
 30
0.0
 11
89.86638137984341
 21
99.47850333213711
 31
0.0
  0
LINE
  5
277
330
18
100
AcDbEntity
  8
目盛
100
AcDbLine
 10
90.91872461416455
 20
97.28789746720657
 30
0.0
 11
91.1693910812932
 21
99.27212686983551
 31
0.0
  0
LINE
  5
278
330
18
100
AcDbEntity
  8
目盛
100
AcDbLine
 10
92.35720703696932
 20
97.15192084358932
 30
0.0
 11
92.48278807602792
 21
99.14797430044586
 31
0.0
  0
LINE
  5
279
330
18
100
AcDbEntity
  8
目盛
100
AcDbLine
 10
95.24557093531774
 20
97.15192084358932
 30
0.0
 11
95.11998989625903
 21
99.14797430044586
 31
0.0
  0
LINE
  5
27A
330
18
100
AcDbEntity
  8
目盛
100
AcDbLine
 10
96.68405335812252
 20
97.28789746720657
 30
0.0
 11
96.43338689099387
 21
99.27212686983558
 31
0.0
  0
LINE
  5
27B
330
18
100
AcDbEntity
  8
目盛
100
AcDbLine
 10
98.11115922161519
 20
97.51392883067978
 30
0.0
 11
97.73639659244379
 21
99.47850333213716
 31
0.0
  0
LINE
  5
27C
330
18
100
AcDbEntity
  8
目盛
100
AcDbLine
 10
99.52125639093509
 20
97.82912289148107
 30
0.0
 11
99.02387661660549
 21
99.76628921373833
 31
0.0
  0
LINE
  5
27D
330
18
100
AcDbEntity
  8
目盛
100
AcDbLine
 10
100.9087798567673
 20
98.23223572265106
 30
0.0
 11
99.98172887364257
 21
101.0854052715365
 31
0.0
  0
LINE
  5
27E
330
18
100
AcDbEntity
  8
目盛
100
AcDbLine
 10
102.2682536978911
 20
98.72167642200981
 30
0.0
 11
101.5320045925218
 21
100.5812293937863
 31
0.0
  0
LINE
  5
27F
330
18
100
AcDbEntity
  8
目盛
100
AcDbLine
 10
103.5943126921401
 20
99.29551339072117
 30
0.0
 11
102.74275410901
 21
101.1051674956532
 31
0.0
  0
LINE
  5
280
330
18
100
AcDbEntity
  8
目盛
100
AcDbLine
 10
104.8817234904829
 20
99.95148195643077
 30
0.0
 11
103.9182161422795
 21
101.7040953165185
 31
0.0
  0
LINE
  5
281
330
18
100
AcDbEntity
  8
目盛
100
AcDbLine
 10
106.1254052706604
 20
100.6869933108933
 30
0.0
 11
105.0537516807025
 21
102.3756491618973
 31
0.0
  0
LINE
  5
282
330
18
100
AcDbEntity
  8
目盛
100
AcDbLine
 10
107.3204497888704
 20
101.4991447268158
 30
0.0
 11
105.5570940319929
 21
103.9261957099406
 31
0.0
  0
LINE
  5
283
330
18
100
AcDbEntity
  8
目盛
100
AcDbLine
 10
108.4621407503634
 20
102.3847310135965
 30
0.0
 11
107.1872927708661
 21
103.925757499148
 31
0.0
  0
LINE
  5
284
330
18
100
AcDbEntity
  8
目盛
100
AcDbLine
 10
109.5459724225033
 20
103.3402571667471
 30
0.0
 11
108.1768782106459
 21
104.7981944215899
 31
0.0
  0
LINE
  5
285
330
18
100
AcDbEntity
  8
目盛
100
AcDbLine
 10
110.5676674168359
 20
104.3619521610798
 30
0.0
 11
109.1097301619931
 21
105.7310463729371
 31
0.0
  0
LINE
  5
286
330
18
100
AcDbEntity
  8
目盛
100
AcDbLine
 10
111.5231935699866
 20
105.4457838332197
 30
0.0
 11
109.982167084435
 21
106.7206318127171
 31
0.0
  0
LINE
  5
287
330
18
100
AcDbEntity
  8
目盛
100
AcDbLine
 10
112.4087798567672
 20
106.5874747947127
 30
0.0
 11
109.9817288736425
 21
108.3508305515902
 31
0.0
  0
LINE
  5
288
330
18
100
AcDbEntity
  8
目盛
100
AcDbLine
 10
113.2209312726899
 20
107.7825193129227
 30
0.0
 11
111.5322754216858
 21
108.8541729028807
 31
0.0
  0
LINE
  5
289
330
18
100
AcDbEntity
  8
目盛
100
AcDbLine
 10
113.9564426271524
 20
109.0262010931002
 30
0.0
 11
112.2038292670647
 21
109.9897084413036
 31
0.0
  0
LINE
  5
28A
330
18
100
AcDbEntity
  8
目盛
100
AcDbLine
 10
114.612411192862
 20
110.3136118914429
 30
0.0
 11
112.8027570879298
 21
111.1651704745731
 31
0.0
  0
LINE
  5
28B
330
18
100
AcDbEntity
  8
目盛
100
AcDbLine
 10
115.1862481615732
 20
111.639670885692
 30
0.0
 11
113.3266951897967
 21
112.3759199910614
 31
0.0
  0
LINE
  5
28C
330
18
100
AcDbEntity
  8
目盛
100
AcDbLine
 10
115.675688860932
 20
112.9991447268158
 30
0.0
 11
112.8225193120465
 21
113.9261957099406
 31
0.0
  0
LINE
  5
28D
330
18
100
AcDbEntity
  8
目盛
100
AcDbLine
 10
116.078801692102
 20
114.3866681926479
 30
0.0
 11
114.1416353698448
 21
114.8840479669776
 31
0.0
  0
LINE
  5
28E
330
18
100
AcDbEntity
  8
目盛
100
AcDbLine
 10
116.3939957529033
 20
115.7967653619679
 30
0.0
 11
114.4294212514459
 21
116.1715279911394
 31
0.0
  0
LINE
  5
28F
330
18
100
AcDbEntity
  8
目盛
100
AcDbLine
 10
116.6200271163765
 20
117.2238712254606
 30
0.0
 11
114.6357977137475
 21
117.4745376925892
 31
0.0
  0
LINE
  5
290
330
18
100
AcDbEntity
  8
目盛
100
AcDbLine
 10
116.7560037399937
 20
118.6623536482653
 30
0.0
 11
114.7599502831371
 21
118.787934687324
 31
0.0
  0
LINE
  5
291
330
18
100
AcDbEntity
  8
目盛
100
AcDbLine
 10
116.7560037399937
 20
121.5507175466137
 30
0.0
 11
114.7599502831371
 21
121.4251365075551
 31
0.0
  0
LINE
  5
292
330
18
100
AcDbEntity
  8
目盛
100
AcDbLine
 10
116.6200271163765
 20
122.9891999694186
 30
0.0
 11
114.6357977137474
 21
122.73853350229
 31
0.0
  0
LINE
  5
293
330
18
100
AcDbEntity
  8
目盛
100
AcDbLine
 10
116.3939957529033
 20
124.4163058329112
 30
0.0
 11
114.4294212514459
 21
124.0415432037397
 31
0.0
  0
LINE
  5
294
330
18
100
AcDbEntity
  8
目盛
100
AcDbLine
 10
116.0788016921021
 20
125.8264030022312
 30
0.0
 11
114.1416353698448
 21
125.3290232279014
 31
0.0
  0
LINE
  5
295
330
18
100
AcDbEntity
  8
目盛
100
AcDbLine
 10
115.675688860932
 20
127.2139264680633
 30
0.0
 11
112.8225193120465
 21
126.2868754849385
 31
0.0
  0
LINE
  5
296
330
18
100
AcDbEntity
  8
目盛
100
AcDbLine
 10
115.1862481615732
 20
128.5734003091871
 30
0.0
 11
113.3266951897967
 21
127.8371512038178
 31
0.0
  0
LINE
  5
297
330
18
100
AcDbEntity
  8
目盛
100
AcDbLine
 10
114.612411192862
 20
129.8994593034362
 30
0.0
 11
112.8027570879299
 21
129.047900720306
 31
0.0
  0
LINE
  5
298
330
18
100
AcDbEntity
  8
目盛
100
AcDbLine
 10
113.9564426271524
 20
131.186870101779
 30
0.0
 11
112.2038292670647
 21
130.2233627535755
 31
0.0
  0
LINE
  5
299
330
18
100
AcDbEntity
  8
目盛
100
AcDbLine
 10
113.2209312726899
 20
132.4305518819564
 30
0.0
 11
111.5322754216858
 21
131.3588982919984
 31
0.0
  0
LINE
  5
29A
330
18
100
AcDbEntity
  8
目盛
100
AcDbLine
 10
112.4087798567672
 20
133.6255964001664
 30
0.0
 11
109.9817288736424
 21
131.862240643289
 31
0.0
  0
LINE
  5
29B
330
18
100
AcDbEntity
  8
目盛
100
AcDbLine
 10
111.5231935699866
 20
134.7672873616594
 30
0.0
 11
109.982167084435
 21
133.492439382162
 31
0.0
  0
LINE
  5
29C
330
18
100
AcDbEntity
  8
目盛
100
AcDbLine
 10
110.5676674168359
 20
135.8511190337993
 30
0.0
 11
109.1097301619931
 21
134.482024821942
 31
0.0
  0
LINE
  5
29D
330
18
100
AcDbEntity
  8
目盛
100
AcDbLine
 10
109.5459724225033
 20
136.872814028132
 30
0.0
 11
108.1768782106459
 21
135.4148767732891
 31
0.0
  0
LINE
  5
29E
330
18
100
AcDbEntity
  8
目盛
100
AcDbLine
 10
108.4621407503634
 20
137.8283401812826
 30
0.0
 11
107.187292770866
 21
136.2873136957311
 31
0.0
  0
LINE
  5
29F
330
18
100
AcDbEntity
  8
目盛
100
AcDbLine
 10
107.3204497888704
 20
138.7139264680633
 30
0.0
 11
105.557094031993
 21
136.2868754849385
 31
0.0
  0
LINE
  5
2A0
330
18
100
AcDbEntity
  8
目盛
100
AcDbLine
 10
106.1254052706605
 20
139.5260778839858
 30
0.0
 11
105.0537516807025
 21
137.8374220329818
 31
0.0
  0
LINE
  5
2A1
330
18
100
AcDbEntity
  8
目盛
100
AcDbLine
 10
104.8817234904831
 20
140.2615892384483
 30
0.0
 11
103.9182161422796
 21
138.5089758783606
 31
0.0
  0
LINE
  5
2A2
330
18
100
AcDbEntity
  8
目盛
100
AcDbLine
 10
103.5943126921403
 20
140.9175578041579
 30
0.0
 11
102.7427541090101
 21
139.1079036992259
 31
0.0
  0
LINE
  5
2A3
330
18
100
AcDbEntity
  8
目盛
100
AcDbLine
 10
102.2682536978912
 20
141.4913947728693
 30
0.0
 11
101.5320045925218
 21
139.6318418010928
 31
0.0
  0
LINE
  5
2A4
330
18
100
AcDbEntity
  8
目盛
100
AcDbLine
 10
100.9087798567674
 20
141.980835472228
 30
0.0
 11
99.98172887364257
 21
139.1276659233426
 31
0.0
  0
LINE
  5
2A5
330
18
100
AcDbEntity
  8
目盛
100
AcDbLine
 10
99.52125639093532
 20
142.383948303398
 30
0.0
 11
99.02387661660561
 21
140.4467819811407
 31
0.0
  0
LINE
  5
2A6
330
18
100
AcDbEntity
  8
目盛
100
AcDbLine
 10
98.11115922161532
 20
142.6991423641993
 30
0.0
 11
97.73639659244389
 21
140.734567862742
 31
0.0
  0
LINE
  5
2A7
330
18
100
AcDbEntity
  8
目盛
100
AcDbLine
 10
96.68405335812275
 20
142.9251737276726
 30
0.0
 11
96.43338689099408
 21
140.9409443250436
 31
0.0
  0
LINE
  5
2A8
330
18
100
AcDbEntity
  8
目盛
100
AcDbLine
 10
95.24557093531797
 20
143.0611503512898
 30
0.0
 11
95.11998989625926
 21
141.0650968944333
 31
0.0
  0
LINE
  5
2A9
330
18
100
AcDbEntity
  8
目盛
100
AcDbLine
 10
113.8013889861435
 20
120.1065355974396
 30
0.0
 11
116.8013889861435
 21
120.1065355974396
 31
0.0
  0
LINE
  5
2AA
330
18
100
AcDbEntity
  8
目盛
100
AcDbLine
 10
93.80138898614353
 20
100.1065355974396
 30
0.0
 11
93.80138898614353
 21
97.10653559743958
 31
0.0
  0
LINE
  5
2AB
330
18
100
AcDbEntity
  8
目盛
100
AcDbLine
 10
70.80138898614354
 20
120.1065355974396
 30
0.0
 11
73.80138898614354
 21
120.1065355974396
 31
0.0
  0
LINE
  5
2AC
330
18
100
AcDbEntity
  8
目盛
100
AcDbLine
 10
93.80138898614353
 20
143.1065355974395
 30
0.0
 11
93.80138898614353
 21
140.1065355974395
 31
0.0
  0
TEXT
  5
2AD
330
18
100
AcDbEntity
  8
文字
100
AcDbText
 10
92.68130013890782
 20
137.2302607455955
 30
0.0
 40
2.5
  1
0
  7
STYLE3
100
AcDbText
  0
TEXT
  5
2AE
330
18
100
AcDbEntity
  8
文字
100
AcDbText
 10
102.3048856060658
 20
133.5906605462842
 30
0.0
 40
2.5
  1
90
  7
STYLE3
100
AcDbText
  0
TEXT
  5
2AF
330
18
100
AcDbEntity
  8
文字
100
AcDbText
 10
108.3778336579367
 20
124.6150863745632
 30
0.0
 40
2.5
  1
80
  7
STYLE3
100
AcDbText
  0
TEXT
  5
2B0
330
18
100
AcDbEntity
  8
文字
100
AcDbText
 10
108.2164101760754
 20
113.4152437245045
 30
0.0
 40
2.5
  1
70
  7
STYLE3
100
AcDbText
  0
TEXT
  5
2B1
330
18
100
AcDbEntity
  8
文字
100
AcDbText
 10
102.4746379184604
 20
104.1877391666996
 30
0.0
 40
2.5
  1
60
  7
STYLE3
100
AcDbText
  0
TEXT
  5
2B2
330
18
100
AcDbEntity
  8
文字
100
AcDbText
 10
91.42316934870274
 20
100.3400838755903
 30
0.0
 40
2.5
  1
50
  7
STYLE3
100
AcDbText
  0
TEXT
  5
2B3
330
18
100
AcDbEntity
  8
文字
100
AcDbText
 10
80.29916832836676
 20
104.2775935568728
 30
0.0
 40
2.5
  1
40
  7
STYLE3
100
AcDbText
  0
TEXT
  5
2B4
330
18
100
AcDbEntity
  8
文字
100
AcDbText
 10
74.41571532234087
 20
112.8813917116028
 30
0.0
 40
2.5
  1
30
  7
STYLE3
100
AcDbText
  0
TEXT
  5
2B5
330
18
100
AcDbEntity
  8
文字
100
AcDbText
 10
74.5771881571763
 20
124.7276131181506
 30
0.0
 40
2.5
  1
20
  7
STYLE3
100
AcDbText
  0
TEXT
  5
2B6
330
18
100
AcDbEntity
  8
文字
100
AcDbText
 10
80.83691329104278
 20
133.4795184128331
 30
0.0
 40
2.5
  1
10
  7
STYLE3
100
AcDbText
  0
LINE
  5
2B7
330
18
100
AcDbEntity
  8
中心線
 48
0.2
100
AcDbLine
 10
90.60138898614349
 20
117.8957716046474
 30
0.0
 11
90.60138898614349
 21
102.2061775826119
 31
0.0
  0
CIRCLE
  5
2B8
330
18
100
AcDbEntity
  8
外形線
100
AcDbCircle
 10
90.60138898614349
 20
110.0325641859256
 30
0.0
 40
4.75
  0
LINE
  5
2B9
330
18
100
AcDbEntity
  8
中心線
 48
0.2
100
AcDbLine
 10
83.64211379921375
 20
110.0325641859256
 30
0.0
 11
98.17010124719395
 21
110.0325641859256
 31
0.0
  0
LINE
  5
2BA
330
18
100
AcDbEntity
  8
目盛
100
AcDbLine
 10
90.60138898614349
 20
114.7825641859256
 30
0.0
 11
90.60138898614349
 21
114.2825641859256
 31
0.0
  0
LINE
  5
2BB
330
18
100
AcDbEntity
  8
目盛
100
AcDbLine
 10
87.80940903775416
 20
113.8753949092066
 30
0.0
 11
88.10330166390048
 21
113.4708864120192
 31
0.0
  0
LINE
  5
2BC
330
18
100
AcDbEntity
  8
目盛
100
AcDbLine
 10
86.08387053374139
 20
111.5003949092066
 30
0.0
 11
86.55939879188911
 21
111.3458864120192
 31
0.0
  0
LINE
  5
2BD
330
18
100
AcDbEntity
  8
目盛
100
AcDbLine
 10
86.08387053374139
 20
108.5647334626446
 30
0.0
 11
86.55939879188901
 21
108.7192419598321
 31
0.0
  0
LINE
  5
2BE
330
18
100
AcDbEntity
  8
目盛
100
AcDbLine
 10
87.80940903775416
 20
106.1897334626446
 30
0.0
 11
88.10330166390036
 21
106.5942419598321
 31
0.0
  0
LINE
  5
2BF
330
18
100
AcDbEntity
  8
目盛
100
AcDbLine
 10
90.60138898614349
 20
105.2825641859256
 30
0.0
 11
90.60138898614349
 21
105.7825641859256
 31
0.0
  0
LINE
  5
2C0
330
18
100
AcDbEntity
  8
目盛
100
AcDbLine
 10
93.39336893453282
 20
106.1897334626446
 30
0.0
 11
93.09947630838649
 21
106.5942419598322
 31
0.0
  0
LINE
  5
2C1
330
18
100
AcDbEntity
  8
目盛
100
AcDbLine
 10
95.11890743854536
 20
108.5647334626446
 30
0.0
 11
94.64337918039786
 21
108.7192419598321
 31
0.0
  0
LINE
  5
2C2
330
18
100
AcDbEntity
  8
目盛
100
AcDbLine
 10
95.11890743854536
 20
111.5003949092066
 30
0.0
 11
94.64337918039786
 21
111.3458864120191
 31
0.0
  0
LINE
  5
2C3
330
18
100
AcDbEntity
  8
目盛
100
AcDbLine
 10
93.39336893453269
 20
113.8753949092066
 30
0.0
 11
93.09947630838649
 21
113.4708864120192
 31
0.0
  0
TEXT
  5
2C5
330
18
100
AcDbEntity
  8
文字
100
AcDbText
 10
90.11501254701313
 20
113.0603381144005
 30
0.0
 40
1.0
  1
0
  7
STYLE3
100
AcDbText
  0
TEXT
  5
2C6
330
18
100
AcDbEntity
  8
文字
100
AcDbText
 10
92.21933131061149
 20
112.28811221423
 30
0.0
 40
1.0
  1
1
  7
STYLE3
100
AcDbText
  0
TEXT
  5
2C7
330
18
100
AcDbEntity
  8
文字
100
AcDbText
 10
93.64997511135397
 20
110.6426721136796
 30
0.0
 40
1.0
  1
2
  7
STYLE3
100
AcDbText
  0
TEXT
  5
2C8
330
18
100
AcDbEntity
  8
文字
100
AcDbText
 10
93.60055226548155
 20
108.2300352656291
 30
0.0
 40
1.0
  1
3
  7
STYLE3
100
AcDbText
  0
TEXT
  5
2C9
330
18
100
AcDbEntity
  8
文字
100
AcDbText
 10
92.19223805258179
 20
106.780820909028
 30
0.0
 40
1.0
  1
4
  7
STYLE3
100
AcDbText
  0
TEXT
  5
2CA
330
18
100
AcDbEntity
  8
文字
100
AcDbText
 10
90.08343736329146
 20
106.1096714755566
 30
0.0
 40
1.0
  1
5
  7
STYLE3
100
AcDbText
  0
TEXT
  5
2CB
330
18
100
AcDbEntity
  8
文字
100
AcDbText
 10
87.94477518872458
 20
106.6898343645194
 30
0.0
 40
1.0
  1
6
  7
STYLE3
100
AcDbText
  0
TEXT
  5
2CC
330
18
100
AcDbEntity
  8
文字
100
AcDbText
 10
86.79613670430052
 20
108.2880479732345
 30
0.0
 40
1.0
  1
7
  7
STYLE3
100
AcDbText
  0
TEXT
  5
2CD
330
18
100
AcDbEntity
  8
文字
100
AcDbText
 10
86.84978703056533
 20
110.5121629222507
 30
0.0
 40
1.0
  1
8
  7
STYLE3
100
AcDbText
  0
TEXT
  5
2CE
330
18
100
AcDbEntity
  8
文字
100
AcDbText
 10
88.17489877231611
 20
112.2440478111082
 30
0.0
 40
1.0
  1
9
  7
STYLE3
100
AcDbText
  0
LINE
  5
5CF
330
18
100
AcDbEntity
  8
外形線
  6
Continuous
100
AcDbLine
 10
97.50138898614352
 20
160.6065355974394
 30
0.0
 11
97.50138898614352
 21
154.1065355974394
 31
0.0
  0
LINE
  5
5D0
330
18
100
AcDbEntity
  8
外形線
  6
Continuous
100
AcDbLine
 10
90.10138898614355
 20
160.6065355974394
 30
0.0
 11
90.10138898614355
 21
154.1065355974394
 31
0.0
  0
LINE
  5
5D1
330
18
100
AcDbEntity
  8
外形線
  6
Continuous
100
AcDbLine
 10
90.10138898614355
 20
160.6065355974394
 30
0.0
 11
97.50138898614352
 21
160.6065355974394
 31
0.0
  0
LINE
  5
5D2
330
18
100
AcDbEntity
  8
外形線
  6
Continuous
100
AcDbLine
 10
89.80138898614359
 20
154.1065355974394
 30
0.0
 11
97.80138898614348
 21
154.1065355974394
 31
0.0
  0
LINE
  5
5D3
330
18
100
AcDbEntity
  8
外形線
  6
Continuous
100
AcDbLine
 10
89.80138898614347
 20
148.1065355974394
 30
0.0
 11
97.80138898614348
 21
148.1065355974394
 31
0.0
  0
LINE
  5
5D4
330
18
100
AcDbEntity
  8
外形線
  6
Continuous
100
AcDbLine
 10
97.80138898614348
 20
154.1065355974394
 30
0.0
 11
97.80138898614348
 21
148.1065355974394
 31
0.0
  0
LINE
  5
5D5
330
18
100
AcDbEntity
  8
外形線
  6
Continuous
100
AcDbLine
 10
89.80138898614359
 20
154.1065355974394
 30
0.0
 11
89.80138898614359
 21
148.1065355974394
 31
0.0
  0
LINE
  5
5D6
330
18
100
AcDbEntity
  8
外形線
  6
Continuous
100
AcDbLine
 10
97.50138898614352
 20
148.1065355974394
 30
0.0
 11
97.50138898614352
 21
146.2459694092114
 31
0.0
  0
LINE
  5
5D7
330
18
100
AcDbEntity
  8
外形線
  6
Continuous
100
AcDbLine
 10
90.10138898614355
 20
148.1065355974394
 30
0.0
 11
90.10138898614355
 21
146.2459694092114
 31
0.0
  0
ARC
  5
5D9
330
18
100
AcDbEntity
  8
外形線
  6
Continuous
100
AcDbCircle
 10
93.80138898614347
 20
154.2615355974396
 30
0.0
 40
7.344999999999885
100
AcDbArc
 50
59.75198538337817
 51
120.2480146166212
  0
TEXT
  5
661
330
18
100
AcDbEntity
  8
文字
  6
Continuous
 62
     4
100
AcDbText
 10
93.34333005177525
 20
135.8839106536266
 30
0.0
 40
1.0
  1
0
  7
STYLE3
100
AcDbText
  0
TEXT
  5
662
330
18
100
AcDbEntity
  8
文字
  6
Continuous
 62
     4
100
AcDbText
 10
103.6773933178937
 20
132.1993853566413
 30
0.0
 40
1.0
  1
10
  7
STYLE3
100
AcDbText
  0
TEXT
  5
663
330
18
100
AcDbEntity
  8
文字
  6
Continuous
 62
     4
100
AcDbText
 10
109.2022593638987
 20
123.1504813601725
 30
0.0
 40
1.0
  1
20
  7
STYLE3
100
AcDbText
  0
TEXT
  5
664
330
18
100
AcDbEntity
  8
文字
  6
Continuous
 62
     4
100
AcDbText
 10
109.2068459877293
 20
116.5321337083667
 30
0.0
 40
1.0
  1
30
  7
STYLE3
100
AcDbText
  0
TEXT
  5
665
330
18
100
AcDbEntity
  8
文字
  6
Continuous
 62
     4
100
AcDbText
 10
104.0991713120431
 20
107.3074768642693
 30
0.0
 40
1.0
  1
40
  7
STYLE3
100
AcDbText
  0
TEXT
  5
666
330
18
100
AcDbEntity
  8
文字
  6
Continuous
 62
     4
100
AcDbText
 10
92.8303955341558
 20
103.1895335670731
 30
0.0
 40
1.0
  1
50
  7
STYLE3
100
AcDbText
  0
TEXT
  5
667
330
18
100
AcDbEntity
  8
文字
  6
Continuous
 62
     4
100
AcDbText
 10
81.41115622280933
 20
107.3680246005268
 30
0.0
 40
1.0
  1
60
  7
STYLE3
100
AcDbText
  0
TEXT
  5
668
330
18
100
AcDbEntity
  8
文字
  6
Continuous
 62
     4
100
AcDbText
 10
76.59504358429484
 20
116.21792467418
 30
0.0
 40
1.0
  1
70
  7
STYLE3
100
AcDbText
  0
TEXT
  5
669
330
18
100
AcDbEntity
  8
文字
  6
Continuous
 62
     4
100
AcDbText
 10
76.4759451263763
 20
123.3023800785875
 30
0.0
 40
1.0
  1
80
  7
STYLE3
100
AcDbText
  0
TEXT
  5
66A
330
18
100
AcDbEntity
  8
文字
  6
Continuous
 62
     4
100
AcDbText
 10
81.74109271712888
 20
131.939753862161
 30
0.0
 40
1.0
  1
90
  7
STYLE3
100
AcDbText
  0
ARC
  5
692
330
18
100
AcDbEntity
  8
外形線
  6
Continuous
100
AcDbCircle
 10
279.5747390066598
 20
120.8397347962294
 30
0.0
 40
105.6666666666664
100
AcDbArc
 50
166.3144531747381
 51
193.685546825262
  0
LINE
  5
693
330
18
100
AcDbEntity
  8
外形線
  6
Continuous
100
AcDbLine
 10
176.9080723399934
 20
145.8397347962294
 30
0.0
 11
176.9080723399934
 21
95.83973479622944
 31
0.0
  0
LINE
  5
694
330
18
100
AcDbEntity
  8
外形線
  6
Continuous
100
AcDbLine
 10
178.1080723399935
 20
147.2397347962294
 30
0.0
 11
178.1080723399935
 21
94.43973479622945
 31
0.0
  0
LINE
  5
695
330
18
100
AcDbEntity
  8
外形線
  6
Continuous
100
AcDbLine
 10
181.9080723399934
 20
147.2397347962294
 30
0.0
 11
181.9080723399934
 21
94.43973479622945
 31
0.0
  0
LINE
  5
696
330
18
100
AcDbEntity
  8
外形線
  6
Continuous
100
AcDbLine
 10
183.4080723399934
 20
145.8397347962294
 30
0.0
 11
183.4080723399934
 21
95.83973479622944
 31
0.0
  0
LINE
  5
69C
330
18
100
AcDbEntity
  8
外形線
  6
Continuous
100
AcDbLine
 10
178.1080723399935
 20
95.33973479622943
 30
0.0
 11
176.9080723399934
 21
95.83973479622944
 31
0.0
  0
LINE
  5
6AD
330
18
100
AcDbEntity
  8
外形線
  6
CENTER2
100
AcDbLine
 10
183.4080723399934
 20
95.83973479622944
 30
0.0
 11
181.9080723399934
 21
95.83973479622944
 31
0.0
  0
LINE
  5
6AE
330
18
100
AcDbEntity
  8
外形線
  6
Continuous
100
AcDbLine
 10
178.1080723399935
 20
94.43973479622945
 30
0.0
 11
181.9080723399934
 21
94.43973479622945
 31
0.0
  0
LINE
  5
6AF
330
18
100
AcDbEntity
  8
外形線
  6
Continuous
 62
     4
100
AcDbLine
 10
178.1080723399935
 20
98.43973479622945
 30
0.0
 11
181.9080723399934
 21
98.43973479622945
 31
0.0
  0
LINE
  5
6B0
330
18
100
AcDbEntity
  8
外形線
  6
Continuous
 62
     4
100
AcDbLine
 10
178.1080723399935
 20
97.43973479622946
 30
0.0
 11
181.9080723399934
 21
97.43973479622946
 31
0.0
  0
LINE
  5
6B1
330
18
100
AcDbEntity
  8
外形線
  6
Continuous
 62
     4
100
AcDbLine
 10
178.1080723399935
 20
96.43973479622946
 30
0.0
 11
181.9080723399934
 21
96.43973479622946
 31
0.0
  0
LINE
  5
6B2
330
18
100
AcDbEntity
  8
外形線
  6
Continuous
 62
     4
100
AcDbLine
 10
178.1080723399935
 20
95.43973479622946
 30
0.0
 11
181.9080723399934
 21
95.43973479622946
 31
0.0
  0
ARC
  5
6B8
330
18
100
AcDbEntity
  8
外形線
  6
Continuous
100
AcDbCircle
 10
188.4080723399934
 20
154.9947347962296
 30
0.0
 40
7.344999999999885
100
AcDbArc
 50
59.75198538337879
 51
120.2480146166218
  0
LINE
  5
6B9
330
18
100
AcDbEntity
  8
外形線
  6
Continuous
100
AcDbLine
 10
178.1080723399935
 20
146.3397347962294
 30
0.0
 11
176.9080723399934
 21
145.8397347962294
 31
0.0
  0
LINE
  5
6BA
330
18
100
AcDbEntity
  8
外形線
  6
Continuous
 62
     4
100
AcDbLine
 10
178.1080723399935
 20
99.43973479622947
 30
0.0
 11
181.9080723399934
 21
99.43973479622947
 31
0.0
  0
LINE
  5
6BB
330
18
100
AcDbEntity
  8
外形線
  6
Continuous
 62
     4
100
AcDbLine
 10
181.9080723399934
 20
118.8397347962294
 30
0.0
 11
178.1080723399935
 21
118.8397347962294
 31
0.0
  0
LINE
  5
6BC
330
18
100
AcDbEntity
  8
外形線
  6
Continuous
 62
     4
100
AcDbLine
 10
181.9080723399934
 20
119.8397347962294
 30
0.0
 11
178.1080723399935
 21
119.8397347962294
 31
0.0
  0
LINE
  5
6BD
330
18
100
AcDbEntity
  8
外形線
  6
Continuous
 62
     4
100
AcDbLine
 10
181.9080723399934
 20
120.8397347962294
 30
0.0
 11
178.1080723399935
 21
120.8397347962294
 31
0.0
  0
LINE
  5
6BE
330
18
100
AcDbEntity
  8
外形線
  6
Continuous
 62
     4
100
AcDbLine
 10
181.9080723399934
 20
121.8397347962294
 30
0.0
 11
178.1080723399935
 21
121.8397347962294
 31
0.0
  0
LINE
  5
6BF
330
18
100
AcDbEntity
  8
外形線
  6
Continuous
 62
     4
100
AcDbLine
 10
181.9080723399934
 20
123.8397347962294
 30
0.0
 11
178.1080723399935
 21
123.8397347962294
 31
0.0
  0
LINE
  5
6C0
330
18
100
AcDbEntity
  8
外形線
  6
Continuous
 62
     4
100
AcDbLine
 10
181.9080723399934
 20
122.8397347962294
 30
0.0
 11
178.1080723399935
 21
122.8397347962294
 31
0.0
  0
LINE
  5
6C1
330
18
100
AcDbEntity
  8
外形線
  6
Continuous
 62
     4
100
AcDbLine
 10
178.1080723399935
 20
142.2397347962294
 30
0.0
 11
181.9080723399934
 21
142.2397347962294
 31
0.0
  0
LINE
  5
6C2
330
18
100
AcDbEntity
  8
外形線
  6
Continuous
 62
     4
100
AcDbLine
 10
178.1080723399935
 20
143.2397347962294
 30
0.0
 11
181.9080723399934
 21
143.2397347962294
 31
0.0
  0
LINE
  5
6C3
330
18
100
AcDbEntity
  8
外形線
  6
Continuous
 62
     4
100
AcDbLine
 10
178.1080723399935
 20
144.2397347962294
 30
0.0
 11
181.9080723399934
 21
144.2397347962294
 31
0.0
  0
LINE
  5
6C4
330
18
100
AcDbEntity
  8
外形線
  6
Continuous
 62
     4
100
AcDbLine
 10
178.1080723399935
 20
145.2397347962294
 30
0.0
 11
181.9080723399934
 21
145.2397347962294
 31
0.0
  0
LINE
  5
6C5
330
18
100
AcDbEntity
  8
外形線
  6
Continuous
100
AcDbLine
 10
192.1080723399934
 20
161.3397347962294
 30
0.0
 11
184.7080723399933
 21
161.3397347962294
 31
0.0
  0
LINE
  5
6C6
330
18
100
AcDbEntity
  8
外形線
  6
Continuous
100
AcDbLine
 10
192.4080723399934
 20
154.8397347962294
 30
0.0
 11
184.4080723399934
 21
154.8397347962294
 31
0.0
  0
LINE
  5
6C7
330
18
100
AcDbEntity
  8
外形線
  6
Continuous
100
AcDbLine
 10
192.4080723399934
 20
148.8397347962294
 30
0.0
 11
184.4080723399934
 21
148.8397347962294
 31
0.0
  0
LINE
  5
6C9
330
18
100
AcDbEntity
  8
外形線
  6
Continuous
100
AcDbLine
 10
192.4080723399934
 20
154.8397347962294
 30
0.0
 11
192.4080723399934
 21
148.8397347962294
 31
0.0
  0
LINE
  5
6CA
330
18
100
AcDbEntity
  8
外形線
  6
Continuous
100
AcDbLine
 10
192.1080723399934
 20
148.8397347962294
 30
0.0
 11
192.1080723399934
 21
145.3397347962294
 31
0.0
  0
LINE
  5
6CB
330
18
100
AcDbEntity
  8
外形線
  6
Continuous
100
AcDbLine
 10
192.1080723399934
 20
161.3397347962294
 30
0.0
 11
192.1080723399934
 21
154.8397347962294
 31
0.0
  0
LINE
  5
6CC
330
18
100
AcDbEntity
  8
外形線
  6
Continuous
100
AcDbLine
 10
184.4080723399934
 20
154.8397347962294
 30
0.0
 11
184.4080723399934
 21
148.8397347962294
 31
0.0
  0
LINE
  5
6CD
330
18
100
AcDbEntity
  8
外形線
  6
CENTER2
100
AcDbLine
 10
183.4080723399934
 20
145.8397347962294
 30
0.0
 11
181.9080723399934
 21
145.8397347962294
 31
0.0
  0
LINE
  5
6CE
330
18
100
AcDbEntity
  8
外形線
  6
Continuous
100
AcDbLine
 10
184.7080723399933
 20
148.8397347962294
 30
0.0
 11
184.7080723399933
 21
145.3397347962294
 31
0.0
  0
LINE
  5
6CF
330
18
100
AcDbEntity
  8
外形線
  6
Continuous
 62
     4
100
AcDbLine
 10
178.1080723399935
 20
146.2397347962294
 30
0.0
 11
181.9080723399934
 21
146.2397347962294
 31
0.0
  0
LINE
  5
6D0
330
18
100
AcDbEntity
  8
外形線
  6
Continuous
100
AcDbLine
 10
178.1080723399935
 20
147.2397347962294
 30
0.0
 11
181.9080723399934
 21
147.2397347962294
 31
0.0
  0
LINE
  5
6D1
330
18
100
AcDbEntity
  8
外形線
  6
Continuous
100
AcDbLine
 10
184.7080723399933
 20
161.3397347962294
 30
0.0
 11
184.7080723399933
 21
154.8397347962294
 31
0.0
  0
MTEXT
  5
778
330
18
100
AcDbEntity
  8
DEFPOINTS
  6
Continuous
100
AcDbMText
 10
735.8166661286731
 20
235.565234348894
 30
0.0
 40
1.0
 41
0.0
 71
     4
 72
     1
  1
\A1;
 73
     1
 44
1.0
  0
LINE
  5
789
330
18
100
AcDbEntity
  8
中心線
100
AcDbLine
 10
188.4080723399935
 20
163.8676121191151
 30
0.0
 11
188.4080723399936
 21
39.77705406711078
 31
0.0
  0
LINE
  5
78E
330
18
100
AcDbEntity
  8
外形線
100
AcDbLine
 10
183.4080723399934
 20
96.33973479622945
 30
0.0
 11
194.9080723399935
 21
96.33973479622945
 31
0.0
  0
LINE
  5
78F
330
18
100
AcDbEntity
  8
外形線
100
AcDbLine
 10
183.4080723399934
 20
145.3397347962294
 30
0.0
 11
194.9080723399935
 21
145.3397347962295
 31
0.0
  0
LINE
  5
7D6
330
18
100
AcDbEntity
  8
中心線
100
AcDbLine
 10
169.0707582298288
 20
120.8397347962294
 30
0.0
 11
199.0216235270715
 21
120.8397347962294
 31
0.0
  0
POINT
  5
839
330
18
100
AcDbEntity
  8
DEFPOINTS
  6
ByBlock
 62
     0
100
AcDbPoint
 10
93.80138898614347
 20
161.6065355974396
 30
0.0
  0
POINT
  5
83A
330
18
100
AcDbEntity
  8
DEFPOINTS
  6
ByBlock
 62
     0
100
AcDbPoint
 10
93.80138898614347
 20
120.1065355974396
 30
0.0
  0
POINT
  5
841
330
18
100
AcDbEntity
  8
DEFPOINTS
  6
ByBlock
 62
     0
100
AcDbPoint
 10
93.80138898614347
 20
120.1065355974396
 30
0.0
  0
MTEXT
  5
887
330
18
100
AcDbEntity
  8
文字
100
AcDbMText
 10
302.9558756866726
 20
261.6432165871282
 30
0.0
 40
1.0
 41
6.927999999999999
 71
     1
 72
     5
  1

  7
STYLE3
 73
     1
 44
1.0
  0
LWPOLYLINE
  5
96E
330
18
100
AcDbEntity
  8
C
100
AcDbPolyline
 90
        5
 70
     0
 43
0.4
 10
0.0
 20
195.0
 10
255.0
 20
195.0
 10
255.0
 20
0.0
 10
0.0
 20
0.0
 10
0.0
 20
195.0
  0
MTEXT
  5
EB4
330
18
100
AcDbEntity
  8
DEFPOINTS
  6
Continuous
100
AcDbMText
 10
624.6916853418142
 20
184.890767874579
 30
0.0
 40
0.35
 41
0.0
 71
     4
 72
     1
  1
\A1;
 73
     1
 44
1.0
  0
LINE
  5
FF7
330
18
100
AcDbEntity
  8
外形線
100
AcDbLine
 10
196.0080723399935
 20
143.8397347962294
 30
0.0
 11
196.0080723399935
 21
97.83973479622943
 31
0.0
  0
LINE
  5
FF8
330
18
100
AcDbEntity
  8
外形線
100
AcDbLine
 10
194.9080723399935
 20
143.8397347962294
 30
0.0
 11
196.0080723399935
 21
143.8397347962294
 31
0.0
  0
LINE
  5
FF9
330
18
100
AcDbEntity
  8
外形線
100
AcDbLine
 10
194.9080723399936
 20
97.83973479622943
 30
0.0
 11
196.0080723399935
 21
97.83973479622943
 31
0.0
  0
POINT
  5
100E
330
18
100
AcDbEntity
  8
DEFPOINTS
  6
ByBlock
 62
     0
100
AcDbPoint
 10
196.0080723399935
 20
143.8397347962294
 30
0.0
  0
MTEXT
  5
13D2
330
18
100
AcDbEntity
  8
DEFPOINTS
  6
Continuous
100
AcDbMText
 10
1236.255313500774
 20
410.7784228578957
 30
0.0
 40
1.0
 41
0.0
 71
     4
 72
     1
  1
\A1;
 73
     1
 44
1.0
  0
MTEXT
  5
142F
330
18
100
AcDbEntity
  8
文字
100
AcDbMText
 10
803.3945230587734
 20
436.8564050961298
 30
0.0
 40
1.0
 41
6.927999999999999
 71
     1
 72
     5
  1

  7
STYLE3
 73
     1
 44
1.0
  0
MTEXT
  5
14AC
330
18
100
AcDbEntity
  8
DEFPOINTS
  6
Continuous
100
AcDbMText
 10
1125.130332713915
 20
360.1039563835807
 30
0.0
 40
0.35
 41
0.0
 71
     4
 72
     1
  1
\A1;
 73
     1
 44
1.0
  0
TEXT
  5
162B
330
18
100
AcDbEntity
  8
文字
100
AcDbText
 10
93.83916336230919
 20
105.1376191927568
 30
0.0
 40
1.0
  1
S
 50
0.0323386212869243
  7
STYLE3
100
AcDbText
  0
TEXT
  5
162C
330
18
100
AcDbEntity
  8
文字
100
AcDbText
 10
94.72209225612406
 20
105.2069546663671
 30
0.0
 40
1.0
  1
H
 50
1.622160234627183
  7
STYLE3
100
AcDbText
  0
TEXT
  5
162D
330
18
100
AcDbEntity
  8
文字
100
AcDbText
 10
95.67388670018805
 20
105.3206468245423
 30
0.0
 40
1.0
  1
O
 50
1.793268765627711
  7
STYLE3
100
AcDbText
  0
TEXT
  5
162E
330
18
100
AcDbEntity
  8
文字
100
AcDbText
 10
96.69604649153258
 20
105.5032158381747
 30
0.0
 40
1.0
  1
C
 50
5.719546399971693
  7
STYLE3
100
AcDbText
  0
TEXT
  5
162F
330
18
100
AcDbEntity
  8
文字
100
AcDbText
 10
97.72274112584444
 20
105.6765468521937
 30
0.0
 40
1.0
  1
K
 50
11.17772519599946
  7
STYLE3
100
AcDbText
  0
TEXT
  5
1630
330
18
100
AcDbEntity
  8
文字
100
AcDbText
 10
99.29848508684489
 20
106.2234123687845
 30
0.0
 40
1.0
  1
P
 50
23.27287142214433
  7
STYLE3
100
AcDbText
  0
TEXT
  5
1631
330
18
100
AcDbEntity
  8
文字
100
AcDbText
 10
100.1842109012169
 20
106.6857764388628
 30
0.0
 40
1.0
  1
R
 50
26.09432534306002
  7
STYLE3
100
AcDbText
  0
TEXT
  5
1632
330
18
100
AcDbEntity
  8
文字
100
AcDbText
 10
101.1082416452635
 20
107.166455753876
 30
0.0
 40
1.0
  1
O
 50
27.77011606067576
  7
STYLE3
100
AcDbText
  0
TEXT
  5
1633
330
18
100
AcDbEntity
  8
文字
100
AcDbText
 10
102.0597758507888
 20
107.7420122925247
 30
0.0
 40
1.0
  1
O
 50
27.68189639012812
  7
STYLE3
100
AcDbText
  0
TEXT
  5
1634
330
18
100
AcDbEntity
  8
文字
100
AcDbText
 10
103.0449214289263
 20
108.2930706772975
 30
0.0
 40
1.0
  1
F
 50
35.32388788602381
  7
STYLE3
100
AcDbText
  0
POINT
  5
1644
330
18
100
AcDbEntity
  8
DEFPOINTS
  6
ByBlock
 62
     0
100
AcDbPoint
 10
173.9080723399934
 20
120.8397347962294
 30
0.0
  0
POINT
  5
1645
330
18
100
AcDbEntity
  8
DEFPOINTS
  6
ByBlock
 62
     0
100
AcDbPoint
 10
188.4080723399934
 20
162.3397347962294
 30
0.0
  0
LINE
  5
16BE
330
18
100
AcDbEntity
  8
外形線
100
AcDbLine
 10
194.9080723399935
 20
145.3397347962295
 30
0.0
 11
194.9080723399935
 21
96.33973479622945
 31
0.0
  0
POINT
  5
17C7
330
18
100
AcDbEntity
  8
DEFPOINTS
  6
ByBlock
 62
     0
100
AcDbPoint
 10
178.1080723399935
 20
94.43973479622945
 30
0.0
  0
CIRCLE
  5
17CA
330
18
100
AcDbEntity
  8
針
100
AcDbCircle
 10
93.80138898614353
 20
120.1065355974396
 30
0.0
 40
1.9
  0
CIRCLE
  5
17CB
330
18
100
AcDbEntity
  8
針
100
AcDbCircle
 10
93.80138898614353
 20
120.1065355974396
 30
0.0
 40
1.5
  0
POINT
  5
17CC
330
18
100
AcDbEntity
  8
DEFPOINTS
  6
ByBlock
 62
     0
100
AcDbPoint
 10
93.80138898614353
 20
120.1065355974396
 30
0.0
  0
POINT
  5
17CD
330
18
100
AcDbEntity
  8
DEFPOINTS
  6
ByBlock
 62
     0
100
AcDbPoint
 10
93.80138898614353
 20
120.1065355974396
 30
0.0
  0
CIRCLE
  5
17CE
330
18
100
AcDbEntity
  8
針
100
AcDbCircle
 10
93.80138898614353
 20
120.1065355974396
 30
0.0
 40
0.475
  0
ARC
  5
17CF
330
18
100
AcDbEntity
  8
針
100
AcDbCircle
 10
89.06750469361702
 20
120.4974825311408
 30
0.0
 40
3.0
100
AcDbArc
 50
6.527720822960354
 51
36.00000000000001
  0
HATCH
  5
17D0
330
18
100
AcDbEntity
  8
針
100
AcDbHatch
 10
0.0
 20
0.0
 30
0.0
210
0.0
220
0.0
230
1.0
  2
SOLID
 70
     1
 71
     0
 91
        2
 92
        7
 72
     1
 73
     1
 93
        5
 10
80.9429249652028
 20
137.9578101463947
 42
0.0
 10
80.87011343570912
 20
137.9049094736885
 42
0.0
 10
80.79730190621541
 20
137.8520088009821
 42
0.0
 10
84.47730261241066
 20
132.4884342117543
 42
-0.0085634322047721
 10
84.90680477139694
 20
132.8004857961279
 42
0.0
 97
        0
 92
        7
 72
     1
 73
     1
 93
        6
 10
84.90680477139694
 20
132.8004857961279
 42
0.0085634322047721
 10
84.47730261241066
 20
132.4884342117543
 42
0.0
 10
91.49455567674209
 20
122.2608382880178
 42
-0.1293106770632391
 10
92.04805560197639
 20
120.8385342613488
 42
-0.2805221108582334
 10
93.64702669942591
 20
122.0002547646973
 42
-0.1293106770632486
 10
92.46537606999215
 20
122.9661805907689
 42
0.0
 97
        0
 75
     0
 76
     1
 47
0.0423559757596284
 98
        2
 10
84.28995928469049
 20
133.1288859829935
 10
86.98204551054521
 20
129.6398950944857
450
        0
451
        0
460
0.0
461
0.0
452
        0
462
0.0
453
        0
470

  0
LINE
  5
17D1
330
18
100
AcDbEntity
  8
針
100
AcDbLine
 10
80.79730190621541
 20
137.8520088009821
 30
0.0
 11
91.49455567674181
 21
122.2608382880182
 31
0.0
  0
ARC
  5
17D2
330
18
100
AcDbEntity
  8
針
100
AcDbCircle
 10
94.89242705311676
 20
124.7295363476466
 30
0.0
 40
3.0
100
AcDbArc
 50
216.0
 51
245.4722791770396
  0
LINE
  5
17D3
330
18
100
AcDbEntity
  8
針
100
AcDbLine
 10
80.87011343570901
 20
137.9049094736884
 30
0.0
 11
80.79730190621541
 21
137.8520088009821
 31
0.0
  0
LINE
  5
17D4
330
18
100
AcDbEntity
  8
針
100
AcDbLine
 10
80.87011343570912
 20
137.9049094736885
 30
0.0
 11
80.9429249652028
 21
137.9578101463947
 31
0.0
  0
LINE
  5
17D5
330
18
100
AcDbEntity
  8
針
100
AcDbLine
 10
80.9429249652028
 20
137.9578101463947
 30
0.0
 11
92.46537606999192
 21
122.9661805907692
 31
0.0
  0
POINT
  5
17DC
330
18
100
AcDbEntity
  8
DEFPOINTS
  6
ByBlock
 62
     0
100
AcDbPoint
 10
70.80138898614354
 20
120.1065355974396
 30
0.0
  0
POINT
  5
17DD
330
18
100
AcDbEntity
  8
DEFPOINTS
  6
ByBlock
 62
     0
100
AcDbPoint
 10
116.8013889861435
 20
120.1065355974396
 30
0.0
  0
POINT
  5
17E5
330
18
100
AcDbEntity
  8
DEFPOINTS
  6
ByBlock
 62
     0
100
AcDbPoint
 10
178.1080723399935
 20
147.2397347962294
 30
0.0
  0
POINT
  5
17E6
330
18
100
AcDbEntity
  8
DEFPOINTS
  6
ByBlock
 62
     0
100
AcDbPoint
 10
178.1080723399935
 20
94.43973479622945
 30
0.0
  0
HATCH
  5
181C
330
18
100
AcDbEntity
  8
針
100
AcDbHatch
 10
0.0
 20
0.0
 30
0.0
210
0.0
220
0.0
230
1.0
  2
SOLID
 70
     1
 71
     0
 91
        2
 92
        7
 72
     1
 73
     1
 93
        5
 10
90.95406327578769
 20
108.990632880405
 42
0.31735696877887
 10
91.7012618259198
 20
110.0158388661245
 42
0.0
 10
91.33993114863711
 20
110.2825469162167
 42
0.0
 10
91.311796694453
 20
110.2730239288648
 42
-0.4142135623731173
 10
90.8418487290827
 20
109.3221564776161
 42
0.0
 97
        0
 92
        7
 72
     1
 73
     1
 93
        4
 10
90.95406327578769
 20
108.990632880405
 42
0.0
 10
90.8418487290827
 20
109.3221564776161
 42
-0.4142135623730728
 10
89.89098127783398
 20
109.7921044429864
 42
0.0
 10
89.55945768062287
 20
109.6798898962814
 42
0.4142135623730844
 97
        0
 75
     0
 76
     1
 47
0.0161501285364394
 98
        2
 10
91.26293599796957
 20
109.336234383522
 10
90.58414092705238
 20
109.1235248415714
450
        0
451
        0
460
0.0
461
0.0
452
        0
462
0.0
453
        0
470

  0
HATCH
  5
181D
330
18
100
AcDbEntity
  8
針
100
AcDbHatch
 10
0.0
 20
0.0
 30
0.0
210
0.0
220
0.0
230
1.0
  2
SOLID
 70
     1
 71
     0
 91
        4
 92
        7
 72
     1
 73
     1
 93
        4
 10
89.51347153644531
 20
110.1951545381682
 42
0.0
 10
89.85962708862201
 20
110.1434212442729
 42
-0.4142135623730951
 10
90.7122460444906
 20
110.7743260834471
 42
0.0
 10
90.76397933838597
 20
111.1204816356238
 42
0.4142135623730996
 97
        0
 92
        7
 72
     1
 73
     1
 93
        5
 10
89.85962708862201
 20
110.1434212442729
 42
0.0
 10
89.51347153644531
 20
110.1951545381682
 42
0.3173569687788799
 10
90.08376361777385
 20
109.0619643827007
 42
0.0
 10
90.48614162798305
 20
109.2614261064213
 42
0.0
 10
90.49053192779615
 20
109.2908022884041
 42
-0.4142135623730839
 97
        0
 92
        7
 72
     1
 73
     1
 93
        4
 10
90.76397933838597
 20
111.1204816356238
 42
0.0
 10
90.7122460444906
 20
110.7743260834471
 42
-0.4142135623730951
 10
91.34315088366491
 20
109.9217071275784
 42
0.0
 10
91.68930643584156
 20
109.8699738336831
 42
0.4142135623730996
 97
        0
 92
        7
 72
     1
 73
     1
 93
        4
 10
91.34315088366491
 20
109.9217071275784
 42
-0.1036385141593389
 10
91.23625905355613
 20
109.6332648026262
 42
0.0
 10
91.68726069143422
 20
109.8568296143444
 42
0.003023315109616
 10
91.68930643584156
 20
109.8699738336831
 42
0.0
 97
        0
 75
     0
 76
     1
 47
0.0223982890607777
 98
        4
 10
90.09733348514442
 20
110.8843193739943
 10
89.76997849788181
 20
109.7546801728912
 10
91.02876883533559
 20
110.9037678448009
 10
91.41464029206497
 20
109.8488533980878
450
        0
451
        0
460
0.0
461
0.0
452
        0
462
0.0
453
        0
470

  0
CIRCLE
  5
181E
330
18
100
AcDbEntity
  8
針
100
AcDbCircle
 10
90.60138898614349
 20
110.0325641859256
 30
0.0
 40
1.1
  0
CIRCLE
  5
181F
330
18
100
AcDbEntity
  8
針
100
AcDbCircle
 10
90.60138898614349
 20
110.0325641859256
 30
0.0
 40
0.75
  0
HATCH
  5
1820
330
18
100
AcDbEntity
  8
針
100
AcDbHatch
 10
0.0
 20
0.0
 30
0.0
210
0.0
220
0.0
230
1.0
  2
SOLID
 70
     1
 71
     0
 91
        1
 92
        7
 72
     1
 73
     1
 93
        7
 10
90.70138898614358
 20
114.7325641859257
 42
0.0
 10
90.60138898614344
 20
114.7325641859256
 42
0.0
 10
90.5013889861434
 20
114.7325641859256
 42
0.0
 10
90.45648062850512
 20
111.4899335312552
 42
-0.2935495917910092
 10
90.15804745196829
 20
111.039265871667
 42
-0.2104432563350663
 10
91.04472984070133
 20
111.0392661709638
 42
-0.2935491884945053
 10
90.74629734378186
 20
111.4899335312552
 42
0.0
 97
        0
 75
     0
 76
     1
 47
0.0140573597042523
 98
        1
 10
90.65999070204089
 20
112.9271242312259
450
        0
451
        0
460
0.0
461
0.0
452
        0
462
0.0
453
        0
470

  0
LINE
  5
1821
330
18
100
AcDbEntity
  8
針
100
AcDbLine
 10
90.74629734378186
 20
111.4899335312552
 30
0.0
 11
90.70138898614345
 21
114.7325641859256
 31
0.0
  0
LINE
  5
1822
330
18
100
AcDbEntity
  8
針
100
AcDbLine
 10
90.45648062850512
 20
111.4899335312552
 30
0.0
 11
90.5013889861434
 21
114.7325641859256
 31
0.0
  0
CIRCLE
  5
1823
330
18
100
AcDbEntity
  8
針
 62
     4
100
AcDbCircle
 10
90.60138898614349
 20
110.0325641859256
 30
0.0
 40
0.4
  0
ARC
  5
1824
330
18
100
AcDbEntity
  8
針
100
AcDbCircle
 10
91.24624939948899
 20
111.4968575470037
 30
0.0
 40
0.5
100
AcDbArc
 50
180.7934591207347
 51
246.2317787024804
  0
ARC
  5
1825
330
18
100
AcDbEntity
  8
針
100
AcDbCircle
 10
89.95652857279788
 20
111.4968575470037
 30
0.0
 40
0.5
100
AcDbArc
 50
293.7682212975196
 51
359.2065408792653
  0
LINE
  5
1826
330
18
100
AcDbEntity
  8
文字
100
AcDbLine
 10
90.70138898614345
 20
114.7325641859256
 30
0.0
 11
90.5013889861434
 21
114.7325641859256
 31
0.0
  0
LINE
  5
1827
330
18
100
AcDbEntity
  8
ﾊｯﾁﾝｸ
  6
Continuous
100
AcDbLine
 10
89.80138898614359
 20
153.8730293937373
 30
0.0
 11
90.03489518984578
 21
154.1065355974394
 31
0.0
  0
LINE
  5
1828
330
18
100
AcDbEntity
  8
ﾊｯﾁﾝｸ
  6
Continuous
100
AcDbLine
 10
89.80138898614359
 20
152.1052624407709
 30
0.0
 11
91.80266214281209
 21
154.1065355974394
 31
0.0
  0
LINE
  5
1829
330
18
100
AcDbEntity
  8
ﾊｯﾁﾝｸ
  6
Continuous
100
AcDbLine
 10
89.80138898614359
 20
150.3374954878045
 30
0.0
 11
93.57042909577847
 21
154.1065355974394
 31
0.0
  0
LINE
  5
182A
330
18
100
AcDbEntity
  8
ﾊｯﾁﾝｸ
  6
Continuous
100
AcDbLine
 10
89.80138898614359
 20
148.5697285348382
 30
0.0
 11
93.8013889861436
 21
152.5697285348382
 31
0.0
  0
LINE
  5
182B
330
18
100
AcDbEntity
  8
ﾊｯﾁﾝｸ
  6
Continuous
100
AcDbLine
 10
91.10596300171119
 20
148.1065355974394
 30
0.0
 11
93.8013889861436
 21
150.8019615818718
 31
0.0
  0
LINE
  5
182C
330
18
100
AcDbEntity
  8
ﾊｯﾁﾝｸ
  6
Continuous
100
AcDbLine
 10
92.87372995467762
 20
148.1065355974394
 30
0.0
 11
93.8013889861436
 21
149.0341946289054
 31
0.0
  0
LINE
  5
182D
330
18
100
AcDbEntity
  8
ﾊｯﾁﾝｸ
  6
Continuous
100
AcDbLine
 10
89.85293463246255
 20
148.1065355974394
 30
0.0
 11
89.80138898614359
 21
148.1580812437583
 31
0.0
  0
LINE
  5
182E
330
18
100
AcDbEntity
  8
ﾊｯﾁﾝｸ
  6
Continuous
100
AcDbLine
 10
91.62070158542888
 20
148.1065355974394
 30
0.0
 11
89.80138898614354
 21
149.9258481967248
 31
0.0
  0
LINE
  5
182F
330
18
100
AcDbEntity
  8
ﾊｯﾁﾝｸ
  6
Continuous
100
AcDbLine
 10
93.38846853839521
 20
148.1065355974394
 30
0.0
 11
89.80138898614354
 21
151.6936151496911
 31
0.0
  0
LINE
  5
1830
330
18
100
AcDbEntity
  8
ﾊｯﾁﾝｸ
  6
Continuous
100
AcDbLine
 10
93.8013889861436
 20
149.4613821026574
 30
0.0
 11
89.80138898614359
 21
153.4613821026574
 31
0.0
  0
LINE
  5
1831
330
18
100
AcDbEntity
  8
ﾊｯﾁﾝｸ
  6
Continuous
100
AcDbLine
 10
93.80138898614353
 20
151.2291490556239
 30
0.0
 11
90.92400244432798
 21
154.1065355974394
 31
0.0
  0
LINE
  5
1832
330
18
100
AcDbEntity
  8
ﾊｯﾁﾝｸ
  6
Continuous
100
AcDbLine
 10
93.80138898614353
 20
152.9969160085902
 30
0.0
 11
92.69176939729437
 21
154.1065355974394
 31
0.0
  0
POINT
  5
1845
330
18
100
AcDbEntity
  8
DEFPOINTS
  6
ByBlock
 62
     0
100
AcDbPoint
 10
188.4080723399934
 20
162.3397347962294
 30
0.0
  0
POINT
  5
1846
330
18
100
AcDbEntity
  8
DEFPOINTS
  6
ByBlock
 62
     0
100
AcDbPoint
 10
196.0080723399935
 20
143.8397347962294
 30
0.0
  0
LINE
  5
1848
330
18
100
AcDbEntity
  8
ﾊｯﾁﾝｸ
  6
Continuous
100
AcDbLine
 10
184.4080723399933
 20
154.6062285925271
 30
0.0
 11
184.6415785436956
 21
154.8397347962294
 31
0.0
  0
LINE
  5
1849
330
18
100
AcDbEntity
  8
ﾊｯﾁﾝｸ
  6
Continuous
100
AcDbLine
 10
184.4080723399933
 20
152.8384616395608
 30
0.0
 11
186.4093454966619
 21
154.8397347962294
 31
0.0
  0
LINE
  5
184A
330
18
100
AcDbEntity
  8
ﾊｯﾁﾝｸ
  6
Continuous
100
AcDbLine
 10
184.4080723399934
 20
151.0706946865944
 30
0.0
 11
188.1771124496283
 21
154.8397347962294
 31
0.0
  0
LINE
  5
184B
330
18
100
AcDbEntity
  8
ﾊｯﾁﾝｸ
  6
Continuous
100
AcDbLine
 10
184.4080723399933
 20
149.302927733628
 30
0.0
 11
188.4080723399933
 21
153.302927733628
 31
0.0
  0
LINE
  5
184C
330
18
100
AcDbEntity
  8
ﾊｯﾁﾝｸ
  6
Continuous
100
AcDbLine
 10
185.712646355561
 20
148.8397347962294
 30
0.0
 11
188.4080723399933
 21
151.5351607806617
 31
0.0
  0
LINE
  5
184D
330
18
100
AcDbEntity
  8
ﾊｯﾁﾝｸ
  6
Continuous
100
AcDbLine
 10
187.4804133085274
 20
148.8397347962294
 30
0.0
 11
188.4080723399934
 21
149.7673938276953
 31
0.0
  0
LINE
  5
184E
330
18
100
AcDbEntity
  8
ﾊｯﾁﾝｸ
  6
Continuous
100
AcDbLine
 10
184.4596179863123
 20
148.8397347962294
 30
0.0
 11
184.4080723399933
 21
148.8912804425484
 31
0.0
  0
LINE
  5
184F
330
18
100
AcDbEntity
  8
ﾊｯﾁﾝｸ
  6
Continuous
100
AcDbLine
 10
186.2273849392787
 20
148.8397347962293
 30
0.0
 11
184.4080723399934
 21
150.6590473955147
 31
0.0
  0
LINE
  5
1850
330
18
100
AcDbEntity
  8
ﾊｯﾁﾝｸ
  6
Continuous
100
AcDbLine
 10
187.9951518922451
 20
148.8397347962294
 30
0.0
 11
184.4080723399934
 21
152.426814348481
 31
0.0
  0
LINE
  5
1851
330
18
100
AcDbEntity
  8
ﾊｯﾁﾝｸ
  6
Continuous
100
AcDbLine
 10
188.4080723399934
 20
150.1945813014475
 30
0.0
 11
184.4080723399934
 21
154.1945813014475
 31
0.0
  0
LINE
  5
1852
330
18
100
AcDbEntity
  8
ﾊｯﾁﾝｸ
  6
Continuous
100
AcDbLine
 10
188.4080723399934
 20
151.9623482544137
 30
0.0
 11
185.5306857981778
 21
154.8397347962293
 31
0.0
  0
LINE
  5
1853
330
18
100
AcDbEntity
  8
ﾊｯﾁﾝｸ
  6
Continuous
100
AcDbLine
 10
188.4080723399934
 20
153.7301152073802
 30
0.0
 11
187.2984527511442
 21
154.8397347962294
 31
0.0
  0
LINE
  5
18DB
330
18
100
AcDbEntity
  8
外形線
100
AcDbLine
 10
63.80138898614359
 20
52.60653559743959
 30
0.0
 11
90.80138898614356
 21
52.60653559743957
 31
0.0
  0
LINE
  5
18DC
330
18
100
AcDbEntity
  8
外形線
100
AcDbLine
 10
85.80138898614348
 20
69.60653559743956
 30
0.0
 11
101.8013889861436
 21
69.60653559743959
 31
0.0
  0
LINE
  5
18DD
330
18
100
AcDbEntity
  8
外形線
100
AcDbLine
 10
63.80138898614354
 20
64.86075347824193
 30
0.0
 11
63.80138898614359
 21
52.60653559743959
 31
0.0
  0
LINE
  5
18DF
330
18
100
AcDbEntity
  8
外形線
100
AcDbLine
 10
123.8013889861435
 20
64.8607534782419
 30
0.0
 11
123.8013889861435
 21
52.60653559743956
 31
0.0
  0
LINE
  5
18E3
330
18
100
AcDbEntity
  8
外形線
100
AcDbLine
 10
101.8013889861436
 20
69.60653559743959
 30
0.0
 11
122.0716153956101
 21
66.8424138143305
 31
0.0
  0
LINE
  5
18E4
330
18
100
AcDbEntity
  8
外形線
100
AcDbLine
 10
85.80138898614348
 20
69.60653559743956
 30
0.0
 11
65.53116257667693
 21
66.84241381433053
 31
0.0
  0
ARC
  5
18E5
330
18
100
AcDbEntity
  8
外形線
100
AcDbCircle
 10
121.8013889861435
 20
64.8607534782419
 30
0.0
 40
2.0
100
AcDbArc
 50
0.0
 51
82.23483398157462
  0
ARC
  5
18E6
330
18
100
AcDbEntity
  8
外形線
100
AcDbCircle
 10
65.80138898614354
 20
64.86075347824193
 30
0.0
 40
2.0
100
AcDbArc
 50
97.76516601842528
 51
180.0
  0
LINE
  5
1903
330
18
100
AcDbEntity
  8
外形線
100
AcDbLine
 10
181.4080723399935
 20
69.60653559743957
 30
0.0
 11
195.4080723399935
 21
69.60653559743957
 31
0.0
  0
LINE
  5
1904
330
18
100
AcDbEntity
  8
外形線
100
AcDbLine
 10
181.4080723399935
 20
66.17596205125735
 30
0.0
 11
195.4080723399935
 21
66.17596205125735
 31
0.0
  0
LINE
  5
1905
330
18
100
AcDbEntity
  8
外形線
100
AcDbLine
 10
187.6580723399935
 20
52.60653559743954
 30
0.0
 11
189.1580723399935
 21
52.60653559743954
 31
0.0
  0
LINE
  5
1907
330
18
100
AcDbEntity
  8
外形線
100
AcDbLine
 10
189.1580723399935
 20
52.60653559743954
 30
0.0
 11
195.4080723399935
 21
63.43185314474499
 31
0.0
  0
LINE
  5
1908
330
18
100
AcDbEntity
  8
外形線
100
AcDbLine
 10
187.6580723399935
 20
52.60653559743954
 30
0.0
 11
181.4080723399935
 21
63.43185314474502
 31
0.0
  0
LINE
  5
1909
330
18
100
AcDbEntity
  8
外形線
100
AcDbLine
 10
195.4080723399935
 20
63.43185314474499
 30
0.0
 11
195.4080723399935
 21
69.60653559743957
 31
0.0
  0
LINE
  5
190A
330
18
100
AcDbEntity
  8
外形線
100
AcDbLine
 10
181.4080723399935
 20
63.43185314474502
 30
0.0
 11
181.4080723399935
 21
69.60653559743957
 31
0.0
  0
LINE
  5
1989
330
18
100
AcDbEntity
  8
外形線
100
AcDbLine
 10
89.80138898614354
 20
94.01132530895941
 30
0.0
 11
89.80138898614354
 21
91.62091387510104
 31
0.0
  0
LINE
  5
1991
330
18
100
AcDbEntity
  8
外形線
100
AcDbLine
 10
97.80138898614353
 20
94.01132530895944
 30
0.0
 11
97.80138898614353
 21
90.60653559743956
 31
0.0
  0
LINE
  5
199A
330
18
100
AcDbEntity
  8
中心線
100
AcDbLine
 10
188.4080723399935
 20
77.83973479622955
 30
0.0
 11
188.4080723399935
 21
95.21719732369977
 31
0.0
  0
LINE
  5
19D5
330
18
100
AcDbEntity
  8
外形線
 48
0.5
100
AcDbLine
 10
184.4080723399937
 20
96.33973479622945
 30
0.0
 11
184.4080723399937
 21
90.60653559743965
 31
0.0
  0
LINE
  5
19D7
330
18
100
AcDbEntity
  8
外形線
 48
0.5
100
AcDbLine
 10
192.4080723399937
 20
96.33973479622945
 30
0.0
 11
192.4080723399937
 21
90.60653559743968
 31
0.0
  0
LINE
  5
19E1
330
18
100
AcDbEntity
  8
外形線
100
AcDbLine
 10
123.8013889861435
 20
63.43185314474502
 30
0.0
 11
63.80138898614354
 21
63.43185314474502
 31
0.0
  0
LINE
  5
19FA
330
18
100
AcDbEntity
  8
外形線
100
AcDbLine
 10
93.80138898614353
 20
42.50653559743958
 30
0.0
 11
92.20980059288789
 21
55.63713984179859
 31
0.0
  0
LINE
  5
19FB
330
18
100
AcDbEntity
  8
外形線
100
AcDbLine
 10
93.80138898614353
 20
42.50653559743958
 30
0.0
 11
95.39297737939916
 21
55.63713984179857
 31
0.0
  0
ARC
  5
1A11
330
18
100
AcDbEntity
  8
外形線
100
AcDbCircle
 10
94.93384147225837
 20
52.52862988730484
 30
0.0
 40
4.133186766850513
100
AcDbArc
 50
105.9018430867214
 51
178.9199779753293
  0
ARC
  5
1A12
330
18
100
AcDbEntity
  8
外形線
100
AcDbCircle
 10
92.66893650002867
 20
52.52862988730484
 30
0.0
 40
4.133186766850513
100
AcDbArc
 50
1.080022024670622
 51
74.09815691327858
  0
LINE
  5
1A13
330
18
100
AcDbEntity
  8
外形線
100
AcDbLine
 10
96.8013889861435
 20
52.60653559743957
 30
0.0
 11
123.8013889861435
 21
52.60653559743956
 31
0.0
  0
LINE
  5
1A15
330
18
100
AcDbEntity
  8
外形線
100
AcDbLine
 10
188.4080723399936
 20
42.50653559743958
 30
0.0
 11
189.7583378352422
 21
53.64622593324057
 31
0.0
  0
LINE
  5
1A16
330
18
100
AcDbEntity
  8
外形線
100
AcDbLine
 10
188.4080723399936
 20
42.50653559743958
 30
0.0
 11
187.0578068447449
 21
53.64622593324066
 31
0.0
  0
DIMENSION
  5
1A40
330
18
100
AcDbEntity
  8
外形線
100
AcDbDimension
  2
*D1
 10
50.58659563808601
 20
52.60653559743959
 30
0.0
 11
48.711595638086
 21
107.1065355974396
 31
0.0
 70
    32
 71
     5
 42
108.9999999999999
  3
STYLE2
100
AcDbAlignedDimension
 13
93.80138898614347
 23
161.6065355974395
 33
0.0
 14
63.80138898614359
 24
52.60653559743959
 34
0.0
 50
90.0
100
AcDbRotatedDimension
  0
DIMENSION
  5
1A4D
330
18
100
AcDbEntity
  8
外形線
100
AcDbDimension
  2
*D2
 10
57.55804821622496
 20
120.1065355974396
 30
0.0
 11
55.68304821622493
 21
86.3565355974396
 31
0.0
 70
    32
 71
     5
 42
67.49999999999999
  3
STYLE2
100
AcDbAlignedDimension
 13
57.19112978451938
 23
52.60653559743959
 33
0.0
 14
59.71027747306329
 24
120.1065355974396
 34
0.0
 50
90.0
100
AcDbRotatedDimension
  0
DIMENSION
  5
1A5A
330
18
100
AcDbEntity
  8
外形線
100
AcDbDimension
  2
*D3
 10
50.58659563808601
 20
42.50653559743958
 30
0.0
 11
48.711595638086
 21
47.55653559743961
 31
0.0
 70
    32
 71
     5
 42
10.1
  3
STYLE2
100
AcDbAlignedDimension
 13
60.86031489348624
 23
52.60653559743959
 33
0.0
 14
93.80138898614353
 24
42.50653559743958
 34
0.0
 50
90.0
100
AcDbRotatedDimension
  0
DIMENSION
  5
1A67
330
18
100
AcDbEntity
  8
外形線
100
AcDbDimension
  2
*D4
 10
123.8013889861435
 20
33.57238278965747
 30
0.0
 11
93.80138898614356
 21
35.44738278965747
 31
0.0
 70
    32
 71
     5
 42
59.99999999999994
  3
STYLE2
100
AcDbAlignedDimension
 13
63.80138898614359
 23
52.60653559743959
 33
0.0
 14
123.8013889861435
 24
52.60653559743956
 34
0.0
100
AcDbRotatedDimension
  0
DIMENSION
  5
1A74
330
18
100
AcDbEntity
  8
外形線
100
AcDbDimension
  2
*D5
 10
159.1944878508433
 20
94.43973479622947
 30
0.0
 11
157.3194878508433
 21
120.8397347962294
 31
0.0
 70
    32
  1
φ53
 71
     5
 42
52.79999999999994
  3
STYLE2
100
AcDbAlignedDimension
 13
178.1080723399935
 23
147.2397347962294
 33
0.0
 14
178.1080723399935
 24
94.43973479622945
 34
0.0
 50
90.0
100
AcDbRotatedDimension
  0
ARC
  5
1AA0
330
18
100
AcDbEntity
  8
0
  6
ByBlock
 62
     2
100
AcDbCircle
 10
188.4080723399936
 20
51.30749749176288
 30
0.0
 40
10.66454460415654
100
AcDbArc
 50
33.0753673835077
 51
46.53768369175425
  0
ARC
  5
1AA1
330
18
100
AcDbEntity
  8
0
  6
ByBlock
 62
     2
100
AcDbCircle
 10
188.4080723399936
 20
51.30749749176288
 30
0.0
 40
10.66454460415654
100
AcDbArc
 50
133.4623163082476
 51
146.9246326164942
  0
ARC
  5
1AA2
330
18
100
AcDbEntity
  8
0
  6
ByBlock
 62
     2
100
AcDbCircle
 10
188.4080723399936
 20
51.30749749176288
 30
0.0
 40
10.66454460415654
100
AcDbArc
 50
60.00000000000082
 51
120.0000000000011
  0
INSERT
  5
1AA3
330
18
100
AcDbEntity
  8
0
  6
ByBlock
 62
     2
100
AcDbBlockReference
  2
_OPEN
 10
193.7403446420717
 20
60.5432640387548
 30
0.0
 41
2.5
 42
2.5
 43
2.5
 50
143.2688418458775
  0
INSERT
  5
1AA4
330
18
100
AcDbEntity
  8
0
  6
ByBlock
 62
     2
100
AcDbBlockReference
  2
_OPEN
 10
183.0758000379151
 20
60.54326403875461
 30
0.0
 41
2.5
 42
2.5
 43
2.5
 50
36.73115815412437
  0
MTEXT
  5
1AA5
330
18
100
AcDbEntity
  8
0
  6
ByBlock
 62
     6
100
AcDbMText
 10
190.1335441154363
 20
63.60923111647349
 30
0.0
 40
2.5
 41
0.0
 71
     5
 72
     1
  1
\A1;60°
  7
STYLE3
 73
     1
 44
1.0
  0
POINT
  5
1AA6
330
18
100
AcDbEntity
  8
DEFPOINTS
  6
ByBlock
 62
     0
100
AcDbPoint
 10
190.2599510761529
 20
61.81002370028079
 30
0.0
  0
POINT
  5
1AA7
330
18
100
AcDbEntity
  8
DEFPOINTS
  6
ByBlock
 62
     0
100
AcDbPoint
 10
187.6580723399935
 20
52.60653559743954
 30
0.0
  0
POINT
  5
1AA8
330
18
100
AcDbEntity
  8
DEFPOINTS
  6
ByBlock
 62
     0
100
AcDbPoint
 10
189.1580723399935
 20
52.60653559743954
 30
0.0
  0
POINT
  5
1AA9
330
18
100
AcDbEntity
  8
DEFPOINTS
  6
ByBlock
 62
     0
100
AcDbPoint
 10
195.4080723399935
 20
63.43185314474499
 30
0.0
  0
POINT
  5
1AAA
330
18
100
AcDbEntity
  8
DEFPOINTS
  6
ByBlock
 62
     0
100
AcDbPoint
 10
181.4080723399935
 20
63.43185314474502
 30
0.0
  0
LINE
  5
1ABA
330
18
100
AcDbEntity
  8
0
  6
ByBlock
 62
     2
100
AcDbLine
 10
187.6580723399935
 20
52.60653559743954
 30
0.0
 11
187.6580723399935
 21
58.39924657033737
 31
0.0
  0
LINE
  5
1ABB
330
18
100
AcDbEntity
  8
0
  6
ByBlock
 62
     2
100
AcDbLine
 10
189.1580723399935
 20
52.60653559743954
 30
0.0
 11
189.1580723399935
 21
58.39924657033737
 31
0.0
  0
LINE
  5
1ABC
330
18
100
AcDbEntity
  8
0
  6
ByBlock
 62
     2
100
AcDbLine
 10
185.1580723399935
 20
57.14924657033737
 30
0.0
 11
183.4315593365389
 21
57.14924657033737
 31
0.0
  0
LINE
  5
1ABD
330
18
100
AcDbEntity
  8
0
  6
ByBlock
 62
     2
100
AcDbLine
 10
191.6580723399935
 20
57.14924657033737
 30
0.0
 11
193.2548995498734
 21
57.14924657033737
 31
0.0
  0
LINE
  5
1ABE
330
18
100
AcDbEntity
  8
0
  6
ByBlock
 62
     2
100
AcDbLine
 10
187.6580723399935
 20
57.14924657033737
 30
0.0
 11
189.1580723399935
 21
57.14924657033737
 31
0.0
  0
INSERT
  5
1ABF
330
18
100
AcDbEntity
  8
0
  6
ByBlock
 62
     2
100
AcDbBlockReference
  2
_OPEN
 10
187.6580723399935
 20
57.14924657033737
 30
0.0
 41
2.5
 42
2.5
 43
2.5
  0
INSERT
  5
1AC0
330
18
100
AcDbEntity
  8
0
  6
ByBlock
 62
     2
100
AcDbBlockReference
  2
_OPEN
 10
189.1580723399935
 20
57.14924657033737
 30
0.0
 41
2.5
 42
2.5
 43
2.5
 50
180.0
  0
MTEXT
  5
1AC1
330
18
100
AcDbEntity
  8
0
  6
ByBlock
 62
     6
100
AcDbMText
 10
188.9531836516612
 20
59.67822676381371
 30
0.0
 40
2.5
 41
0.0
 71
     5
 72
     1
  1
\A1;1.5
  7
STYLE3
 73
     1
 44
1.0
  0
POINT
  5
1AC2
330
18
100
AcDbEntity
  8
DEFPOINTS
  6
ByBlock
 62
     0
100
AcDbPoint
 10
187.6580723399935
 20
52.60653559743954
 30
0.0
  0
POINT
  5
1AC3
330
18
100
AcDbEntity
  8
DEFPOINTS
  6
ByBlock
 62
     0
100
AcDbPoint
 10
189.1580723399935
 20
52.60653559743954
 30
0.0
  0
POINT
  5
1AC4
330
18
100
AcDbEntity
  8
DEFPOINTS
  6
ByBlock
 62
     0
100
AcDbPoint
 10
189.1580723399935
 20
57.14924657033737
 30
0.0
  0
DIMENSION
  5
1AD2
330
18
100
AcDbEntity
  8
文字
100
AcDbDimension
  2
*D7
 10
195.4080723399935
 20
33.57238278965747
 30
0.0
 11
188.4080723399936
 21
35.44738278965747
 31
0.0
 70
    32
 71
     5
 42
14.0
  3
STYLE2
100
AcDbAlignedDimension
 13
181.4080723399935
 23
63.43185314474502
 33
0.0
 14
195.4080723399935
 24
63.43185314474499
 34
0.0
100
AcDbRotatedDimension
  0
CIRCLE
  5
1C66
330
18
100
AcDbEntity
  8
外形線
100
AcDbCircle
 10
85.30138898614355
 20
85.00653559743955
 30
0.0
 40
8.0
  0
LINE
  5
1C67
330
18
100
AcDbEntity
  8
中心線
 48
0.5
100
AcDbLine
 10
74.28384105566916
 20
85.00653559743955
 30
0.0
 11
96.0917487202316
 21
85.00653559743957
 31
0.0
  0
LINE
  5
1C68
330
18
100
AcDbEntity
  8
外形線
100
AcDbLine
 10
99.30138898614355
 20
79.40653559743957
 30
0.0
 11
99.30138898614355
 21
69.60653559743957
 31
0.0
  0
LINE
  5
1C69
330
18
100
AcDbEntity
  8
外形線
100
AcDbLine
 10
88.30138898614356
 20
77.5903371103439
 30
0.0
 11
88.30138898614343
 21
69.60653559743957
 31
0.0
  0
LINE
  5
1C6A
330
18
100
AcDbEntity
  8
外形線
100
AcDbLine
 10
91.01453172897784
 20
90.60653559743958
 30
0.0
 11
99.80138898614356
 21
90.60653559743958
 31
0.0
  0
LINE
  5
1C6C
330
18
100
AcDbEntity
  8
外形線
100
AcDbLine
 10
91.01453172897784
 20
79.40653559743958
 30
0.0
 11
99.80138898614356
 21
79.40653559743956
 31
0.0
  0
LINE
  5
1C6D
330
18
100
AcDbEntity
  8
中心線
 48
0.5
100
AcDbLine
 10
85.30138898614355
 20
95.13445213028109
 30
0.0
 11
85.30138898614355
 21
74.97110747230855
 31
0.0
  0
LINE
  5
1C6E
330
18
100
AcDbEntity
  8
外形線
100
AcDbLine
 10
99.80138898614356
 20
90.60653559743958
 30
0.0
 11
99.80138898614356
 21
79.40653559743956
 31
0.0
  0
LINE
  5
1C70
330
18
100
AcDbEntity
  8
中心線
100
AcDbLine
 10
200.4774029483345
 20
85.0065355974397
 30
0.0
 11
167.6106430562657
 21
85.00653559743971
 31
0.0
  0
LINE
  5
1C71
330
18
100
AcDbEntity
  8
外形線
100
AcDbLine
 10
171.4080723399934
 20
77.00653559744013
 30
0.0
 11
174.9080723399933
 21
77.00653559744009
 31
0.0
  0
LINE
  5
1C72
330
18
100
AcDbEntity
  8
外形線
 62
     4
100
AcDbLine
 10
174.5565816646097
 20
85.00653559744014
 30
0.0
 11
174.9080723399937
 21
85.20946883349067
 31
0.0
  0
LINE
  5
1C73
330
18
100
AcDbEntity
  8
外形線
 62
     4
100
AcDbLine
 10
172.5565816646097
 20
85.00653559744014
 30
0.0
 11
174.9080723399937
 21
86.36416937186991
 31
0.0
  0
LINE
  5
1C74
330
18
100
AcDbEntity
  8
外形線
 62
     4
100
AcDbLine
 10
171.4080723399937
 20
85.49814396808551
 30
0.0
 11
174.9080723399938
 21
87.51886991024909
 31
0.0
  0
LINE
  5
1C75
330
18
100
AcDbEntity
  8
外形線
 62
     4
100
AcDbLine
 10
171.4080723399938
 20
86.65284450646471
 30
0.0
 11
174.9080723399938
 21
88.67357044862833
 31
0.0
  0
LINE
  5
1C76
330
18
100
AcDbEntity
  8
外形線
 62
     4
100
AcDbLine
 10
171.4080723399938
 20
87.80754504484395
 30
0.0
 11
174.9080723399938
 21
89.82827098700758
 31
0.0
  0
LINE
  5
1C77
330
18
100
AcDbEntity
  8
外形線
 62
     4
100
AcDbLine
 10
171.4080723399937
 20
88.9622455832232
 30
0.0
 11
174.9080723399939
 21
90.98297152538677
 31
0.0
  0
LINE
  5
1C78
330
18
100
AcDbEntity
  8
外形線
 62
     4
100
AcDbLine
 10
171.4080723399937
 20
90.11694612160239
 30
0.0
 11
174.9080723399939
 21
92.13767206376601
 31
0.0
  0
LINE
  5
1C79
330
18
100
AcDbEntity
  8
外形線
 62
     4
100
AcDbLine
 10
174.9080723399938
 20
88.99080725411479
 30
0.0
 11
171.4080723399939
 21
91.01153319627854
 31
0.0
  0
LINE
  5
1C7A
330
18
100
AcDbEntity
  8
外形線
 62
     4
100
AcDbLine
 10
174.9080723399938
 20
87.83610671573567
 30
0.0
 11
171.4080723399938
 21
89.85683265789958
 31
0.0
  0
LINE
  5
1C7B
330
18
100
AcDbEntity
  8
外形線
 62
     4
100
AcDbLine
 10
174.9080723399938
 20
86.68140617735643
 30
0.0
 11
171.4080723399937
 21
88.70213211952018
 31
0.0
  0
LINE
  5
1C7C
330
18
100
AcDbEntity
  8
外形線
 62
     4
100
AcDbLine
 10
174.9080723399937
 20
85.52670563897718
 30
0.0
 11
171.4080723399938
 21
87.54743158114104
 31
0.0
  0
LINE
  5
1C7D
330
18
100
AcDbEntity
  8
外形線
 62
     4
100
AcDbLine
 10
174.9080723399938
 20
90.14550779249416
 30
0.0
 11
171.4080723399939
 21
92.16623373465791
 31
0.0
  0
LINE
  5
1C7E
330
18
100
AcDbEntity
  8
外形線
 62
     4
100
AcDbLine
 10
174.9080723399939
 20
91.30020833087341
 30
0.0
 11
171.9526268199602
 21
93.00653559744024
 31
0.0
  0
LINE
  5
1C7F
330
18
100
AcDbEntity
  8
外形線
 62
     4
100
AcDbLine
 10
174.9080723399939
 20
92.45490886925265
 30
0.0
 11
173.9526268199601
 21
93.00653559744018
 31
0.0
  0
LINE
  5
1C80
330
18
100
AcDbEntity
  8
外形線
100
AcDbLine
 10
171.4080723399939
 20
93.00653559744018
 30
0.0
 11
174.9080723399939
 21
93.00653559744004
 31
0.0
  0
LINE
  5
1C81
330
18
100
AcDbEntity
  8
外形線
100
AcDbLine
 10
170.9080723399934
 20
77.50653559744015
 30
0.0
 11
170.9080723399939
 21
92.50653559744021
 31
0.0
  0
LINE
  5
1C82
330
18
100
AcDbEntity
  8
外形線
100
AcDbLine
 10
171.4080723399934
 20
77.00653559744013
 30
0.0
 11
171.4080723399939
 21
93.00653559744018
 31
0.0
  0
LINE
  5
1C83
330
18
100
AcDbEntity
  8
外形線
100
AcDbLine
 10
170.9080723399934
 20
77.50653559744015
 30
0.0
 11
171.4080723399934
 21
77.00653559744013
 31
0.0
  0
LINE
  5
1C84
330
18
100
AcDbEntity
  8
外形線
 62
     4
100
AcDbLine
 10
173.8090332805114
 20
85.00653559744012
 30
0.0
 11
171.4080723399938
 21
86.39273104276179
 31
0.0
  0
LINE
  5
1C85
330
18
100
AcDbEntity
  8
外形線
 62
     4
100
AcDbLine
 10
171.8090332805114
 20
85.00653559744018
 30
0.0
 11
171.4080723399937
 21
85.23803050438266
 31
0.0
  0
LINE
  5
1C86
330
18
100
AcDbEntity
  8
外形線
 62
     4
100
AcDbLine
 10
171.4080723399939
 20
91.27164665998163
 30
0.0
 11
174.4129881251612
 21
93.00653559744011
 31
0.0
  0
LINE
  5
1C87
330
18
100
AcDbEntity
  8
外形線
 62
     4
100
AcDbLine
 10
171.4080723399939
 20
92.42634719836093
 30
0.0
 11
172.4129881251612
 21
93.00653559744024
 31
0.0
  0
LINE
  5
1C88
330
18
100
AcDbEntity
  8
外形線
100
AcDbLine
 10
170.9080723399939
 20
92.50653559744021
 30
0.0
 11
171.4080723399939
 21
93.00653559744018
 31
0.0
  0
LINE
  5
1C89
330
18
100
AcDbEntity
  8
外形線
100
AcDbLine
 10
182.9080723399934
 20
79.40653559743966
 30
0.0
 11
182.9080723399934
 21
69.60653559743963
 31
0.0
  0
LINE
  5
1C8A
330
18
100
AcDbEntity
  8
外形線
100
AcDbLine
 10
193.9080723399934
 20
79.40653559743958
 30
0.0
 11
193.9080723399934
 21
69.60653559743963
 31
0.0
  0
LINE
  5
1C8C
330
18
100
AcDbEntity
  8
外形線
100
AcDbLine
 10
194.4080723399934
 20
79.40653559743964
 30
0.0
 11
188.4080723399936
 21
79.40653559743964
 31
0.0
  0
LINE
  5
1C8D
330
18
100
AcDbEntity
  8
外形線
100
AcDbLine
 10
181.9080723399937
 20
81.00653559743983
 30
0.0
 11
181.9080723399939
 21
89.00653559743989
 31
0.0
  0
LINE
  5
1C8E
330
18
100
AcDbEntity
  8
外形線
100
AcDbLine
 10
174.9080723399934
 20
77.00653559744004
 30
0.0
 11
174.9080723399939
 21
93.00653559744009
 31
0.0
  0
LINE
  5
1C8F
330
18
100
AcDbEntity
  8
外形線
100
AcDbLine
 10
175.4080723399938
 20
92.50653559744007
 30
0.0
 11
175.4080723399939
 21
80.50653559744002
 31
0.0
  0
LINE
  5
1C90
330
18
100
AcDbEntity
  8
外形線
100
AcDbLine
 10
182.4080723399934
 20
90.60653559743967
 30
0.0
 11
182.4080723399934
 21
79.40653559743964
 31
0.0
  0
LINE
  5
1C91
330
18
100
AcDbEntity
  8
外形線
100
AcDbLine
 10
188.4080723399936
 20
79.40653559743964
 30
0.0
 11
182.4080723399934
 21
79.40653559743964
 31
0.0
  0
ARC
  5
1C92
330
18
100
AcDbEntity
  8
外形線
100
AcDbCircle
 10
176.4080723399935
 20
80.50653559744008
 30
0.0
 40
1.0
100
AcDbArc
 50
89.99999999999836
 51
179.9999999999975
  0
LINE
  5
1C93
330
18
100
AcDbEntity
  8
外形線
100
AcDbLine
 10
175.4080723399933
 20
77.50653559744008
 30
0.0
 11
175.4080723399935
 21
80.50653559744008
 31
0.0
  0
LINE
  5
1C94
330
18
100
AcDbEntity
  8
外形線
100
AcDbLine
 10
174.9080723399933
 20
77.00653559744009
 30
0.0
 11
175.4080723399933
 21
77.50653559744008
 31
0.0
  0
LINE
  5
1C95
330
18
100
AcDbEntity
  8
外形線
100
AcDbLine
 10
176.4080723399935
 20
81.50653559744005
 30
0.0
 11
181.4080723399935
 21
81.50653559743991
 31
0.0
  0
ARC
  5
1C96
330
18
100
AcDbEntity
  8
外形線
100
AcDbCircle
 10
181.4080723399936
 20
82.00653559743994
 30
0.0
 40
0.5
100
AcDbArc
 50
269.9999999999984
 51
359.9999999999984
  0
LINE
  5
1C97
330
18
100
AcDbEntity
  8
外形線
100
AcDbLine
 10
181.9080723399937
 20
81.00653559743983
 30
0.0
 11
182.4080723399935
 21
81.0065355974398
 31
0.0
  0
LINE
  5
1C98
330
18
100
AcDbEntity
  8
外形線
100
AcDbLine
 10
194.4080723399934
 20
90.60653559743956
 30
0.0
 11
182.4080723399934
 21
90.60653559743967
 31
0.0
  0
LINE
  5
1C99
330
18
100
AcDbEntity
  8
外形線
100
AcDbLine
 10
176.4080723399938
 20
88.50653559744007
 30
0.0
 11
181.4080723399938
 21
88.50653559743989
 31
0.0
  0
ARC
  5
1C9A
330
18
100
AcDbEntity
  8
外形線
100
AcDbCircle
 10
176.4080723399938
 20
89.50653559744006
 30
0.0
 40
1.0
100
AcDbArc
 50
179.9999999999984
 51
269.9999999999984
  0
ARC
  5
1C9B
330
18
100
AcDbEntity
  8
外形線
100
AcDbCircle
 10
181.4080723399938
 20
88.00653559743995
 30
0.0
 40
0.5
100
AcDbArc
 50
359.9999999999984
 51
89.99999999999836
  0
LINE
  5
1C9C
330
18
100
AcDbEntity
  8
外形線
100
AcDbLine
 10
181.9080723399939
 20
89.00653559743989
 30
0.0
 11
182.4080723399938
 21
89.00653559743981
 31
0.0
  0
LINE
  5
1C9D
330
18
100
AcDbEntity
  8
外形線
100
AcDbLine
 10
174.9080723399939
 20
93.00653559744004
 30
0.0
 11
175.4080723399939
 21
92.50653559744
 31
0.0
  0
LINE
  5
1C9E
330
18
100
AcDbEntity
  8
外形線
100
AcDbLine
 10
194.4080723399934
 20
90.60653559743968
 30
0.0
 11
194.4080723399934
 21
79.40653559743964
 31
0.0
  0
LINE
  5
1C9F
330
18
100
AcDbEntity
  8
外形線
100
AcDbLine
 10
188.9080723399934
 20
75.60653559743967
 30
0.0
 11
187.9080723399934
 21
75.60653559743967
 31
0.0
  0
LINE
  5
1CA0
330
18
100
AcDbEntity
  8
外形線
100
AcDbLine
 10
188.9080723399934
 20
75.60653559743967
 30
0.0
 11
188.9080723399934
 21
79.40653559743964
 31
0.0
  0
LINE
  5
1CA1
330
18
100
AcDbEntity
  8
外形線
100
AcDbLine
 10
187.9080723399934
 20
75.60653559743967
 30
0.0
 11
187.9080723399935
 21
79.40653559743964
 31
0.0
  0
LINE
  5
2079
102
{ACAD_REACTORS
330
20B7
102
}
330
18
100
AcDbEntity
  8
ROGO
 62
     4
100
AcDbLine
 10
87.13401287130166
 20
129.471502238546
 30
0.0
 11
88.74651118428682
 21
129.471502238546
 31
0.0
  0
LINE
  5
207A
102
{ACAD_REACTORS
330
20B6
330
20B7
102
}
330
18
100
AcDbEntity
  8
ROGO
 62
     4
100
AcDbLine
 10
86.11876233120899
 20
127.4196234536401
 30
0.0
 11
100.0079395982327
 21
127.4196234536401
 31
0.0
  0
LINE
  5
207B
102
{ACAD_REACTORS
330
20B7
102
}
330
18
100
AcDbEntity
  8
ROGO
 62
     4
100
AcDbLine
 10
87.13401287130166
 20
129.471502238546
 30
0.0
 11
86.11876233120899
 21
127.41962345364
 31
0.0
  0
SPLINE
  5
207C
102
{ACAD_REACTORS
330
20B7
102
}
330
18
100
AcDbEntity
  8
ROGO
 62
     4
100
AcDbSpline
210
0.0
220
0.0
230
1.0
 70
     8
 71
     3
 72
    18
 73
    14
 74
     0
 42
0.0000000001
 43
0.0000000001
 40
0.1087402787915014
 40
0.1087402787915014
 40
0.1087402787915014
 40
0.1087402787915014
 40
0.5992371417938475
 40
1.083176791562496
 40
1.448211145705696
 40
1.714037220764907
 40
2.164002567013297
 40
2.740236056362883
 40
3.395137510199602
 40
4.071816045172726
 40
4.784906178399433
 40
5.506895915094292
 40
6.060470601257719
 40
6.060470601257719
 40
6.060470601257719
 40
6.060470601257719
 10
88.74651118428682
 20
129.4715022385461
 30
0.0
 10
88.79817072192286
 20
129.4525698836984
 30
0.0
 10
88.89975866977335
 20
129.4125439923831
 30
0.0
 10
89.02374390532049
 20
129.3211916825917
 30
0.0
 10
89.09136009924527
 20
129.2157329054189
 30
0.0
 10
89.15639930778837
 20
129.1118221631161
 30
0.0
 10
89.16550142629915
 20
128.9627446289597
 30
0.0
 10
89.15059154125215
 20
128.7742744933879
 30
0.0
 10
89.05433467037601
 20
128.5776253558672
 30
0.0
 10
88.89983673129467
 20
128.4056283250654
 30
0.0
 10
88.7080167582016
 20
128.2679641447237
 30
0.0
 10
88.50573598009436
 20
128.1599013082283
 30
0.0
 10
88.36114562304073
 20
128.1588245876197
 30
0.0
 10
88.29839570614609
 20
128.1583573079886
 30
0.0
  0
LINE
  5
207D
102
{ACAD_REACTORS
330
20B7
102
}
330
18
100
AcDbEntity
  8
ROGO
 62
     4
100
AcDbLine
 10
88.29839570645521
 20
128.1583573079886
 30
0.0
 11
87.40678743797394
 21
128.1583573079886
 31
0.0
  0
LINE
  5
207E
102
{ACAD_REACTORS
330
20B7
102
}
330
18
100
AcDbEntity
  8
ROGO
 62
     4
100
AcDbLine
 10
87.77114972664156
 20
128.9637053273327
 30
0.0
 11
87.61315193028412
 21
128.6144836424473
 31
0.0
  0
SPLINE
  5
207F
102
{ACAD_REACTORS
330
20B7
102
}
330
18
100
AcDbEntity
  8
ROGO
 62
     4
100
AcDbSpline
210
0.0
220
0.0
230
1.0
 70
     8
 71
     3
 72
    15
 73
    11
 74
     9
 42
0.0000000001
 43
0.0000000001
 44
0.0000000001
 40
0.0
 40
0.0
 40
0.0
 40
0.0
 40
0.1539705029173922
 40
0.2241725832586406
 40
0.3038566179395811
 40
0.3581410872473318
 40
0.4439925384670906
 40
0.4954152125468884
 40
0.5836396705645957
 40
0.6130478420064963
 40
0.6130478420064963
 40
0.6130478420064963
 40
0.6130478420064963
 10
88.177136725739
 20
128.9637053273327
 30
0.0
 10
88.23496506079811
 20
128.9639702119751
 30
0.0
 10
88.31915993585614
 20
128.9643558694447
 30
0.0
 10
88.36520069222089
 20
128.8602065655154
 30
0.0
 10
88.34456302998729
 20
128.7931506608779
 30
0.0
 10
88.31861980656331
 20
128.7243051466302
 30
0.0
 10
88.27277225502095
 20
128.6775235813608
 30
0.0
 10
88.21123812542571
 20
128.6324650477238
 30
0.0
 10
88.15308543236998
 20
128.6270105104643
 30
0.0
 10
88.11526363339739
 20
128.6169890170101
 30
0.0
 10
88.10580817912812
 20
128.6144836424473
 30
0.0
 11
88.177136725739
 21
128.9637053273327
 31
0.0
 11
88.32692679666768
 21
128.9280703666928
 31
0.0
 11
88.35545829734275
 21
128.8639276698874
 31
0.0
 11
88.34119275208189
 21
128.785530988826
 31
0.0
 11
88.31979422911405
 21
128.7356420439301
 31
0.0
 11
88.26273122776404
 21
128.6714993471248
 31
0.0
 11
88.21993418182813
 21
128.6429913786128
 31
0.0
 11
88.13433967980307
 21
128.6216106345753
 31
0.0
 11
88.10580817912812
 21
128.6144836424473
 31
0.0
  0
LINE
  5
2080
102
{ACAD_REACTORS
330
20B7
102
}
330
18
100
AcDbEntity
  8
ROGO
 62
     4
100
AcDbLine
 10
88.177136725739
 20
128.9637053273327
 30
0.0
 11
87.77114972664156
 21
128.9637053273327
 31
0.0
  0
LINE
  5
2081
102
{ACAD_REACTORS
330
20B7
102
}
330
18
100
AcDbEntity
  8
ROGO
 62
     4
100
AcDbLine
 10
88.10580817912812
 20
128.6144836424473
 30
0.0
 11
87.61315193028412
 21
128.6144836424473
 31
0.0
  0
LINE
  5
2082
102
{ACAD_REACTORS
330
20B7
102
}
330
18
100
AcDbEntity
  8
ROGO
 62
     4
100
AcDbLine
 10
87.40678743797394
 20
128.1583573079886
 30
0.0
 11
87.07256328714555
 21
127.4196234536401
 31
0.0
  0
LINE
  5
2083
102
{ACAD_REACTORS
330
20B2
102
}
330
18
100
AcDbEntity
  8
ROGO
 62
     4
100
AcDbLine
 10
89.69913517749246
 20
129.471502238546
 30
0.0
 11
89.04940327823231
 21
128.1583573079886
 31
0.0
  0
LINE
  5
2084
102
{ACAD_REACTORS
330
20B2
102
}
330
18
100
AcDbEntity
  8
ROGO
 62
     4
100
AcDbLine
 10
91.47521832597631
 20
129.471502238546
 30
0.0
 11
91.32638413024182
 21
129.170699907854
 31
0.0
  0
LINE
  5
2085
102
{ACAD_REACTORS
330
20B2
102
}
330
18
100
AcDbEntity
  8
ROGO
 62
     4
100
AcDbLine
 10
89.04940327823231
 20
128.1583573079886
 30
0.0
 11
90.82548642671616
 21
128.1583573079886
 31
0.0
  0
LINE
  5
2086
102
{ACAD_REACTORS
330
20B2
102
}
330
18
100
AcDbEntity
  8
ROGO
 62
     4
100
AcDbLine
 10
90.39291970802372
 20
129.170699907854
 30
0.0
 11
90.27654986194733
 21
128.9355098646698
 31
0.0
  0
LINE
  5
2087
102
{ACAD_REACTORS
330
20B2
102
}
330
18
100
AcDbEntity
  8
ROGO
 62
     4
100
AcDbLine
 10
90.39291970802372
 20
129.170699907854
 30
0.0
 11
91.32638413024182
 21
129.170699907854
 31
0.0
  0
LINE
  5
2088
102
{ACAD_REACTORS
330
20B2
102
}
330
18
100
AcDbEntity
  8
ROGO
 62
     4
100
AcDbLine
 10
90.27654986194733
 20
128.9355098646698
 30
0.0
 11
91.21001428416519
 21
128.9355098646698
 31
0.0
  0
LINE
  5
2089
102
{ACAD_REACTORS
330
20B2
102
}
330
18
100
AcDbEntity
  8
ROGO
 62
     4
100
AcDbLine
 10
90.04084871370713
 20
128.4591445079886
 30
0.0
 11
90.97431313592499
 21
128.4591445079886
 31
0.0
  0
LINE
  5
208A
102
{ACAD_REACTORS
330
20B2
102
}
330
18
100
AcDbEntity
  8
ROGO
 62
     4
100
AcDbLine
 10
90.15722348632351
 20
128.6943445079886
 30
0.0
 11
91.09068790854138
 21
128.6943445079886
 31
0.0
  0
LINE
  5
208B
102
{ACAD_REACTORS
330
20B2
102
}
330
18
100
AcDbEntity
  8
ROGO
 62
     4
100
AcDbLine
 10
91.21001428416519
 20
128.9355098646698
 30
0.0
 11
91.09068790854138
 21
128.6943445079886
 31
0.0
  0
LINE
  5
208C
102
{ACAD_REACTORS
330
20B2
102
}
330
18
100
AcDbEntity
  8
ROGO
 62
     4
100
AcDbLine
 10
90.97431313592499
 20
128.4591445079886
 30
0.0
 11
90.82548642671616
 21
128.1583573079886
 31
0.0
  0
LINE
  5
208D
102
{ACAD_REACTORS
330
20B2
102
}
330
18
100
AcDbEntity
  8
ROGO
 62
     4
100
AcDbLine
 10
90.15722348632351
 20
128.6943445079886
 30
0.0
 11
90.04084871370713
 21
128.4591445079886
 31
0.0
  0
LINE
  5
208E
102
{ACAD_REACTORS
330
20BB
102
}
330
18
100
AcDbEntity
  8
ROGO
 62
     4
100
AcDbLine
 10
91.98971259117405
 20
129.471502238546
 30
0.0
 11
91.04277826107495
 21
128.1583573079886
 31
0.0
  0
LINE
  5
208F
102
{ACAD_REACTORS
330
20BB
102
}
330
18
100
AcDbEntity
  8
ROGO
 62
     4
100
AcDbLine
 10
92.46384044780569
 20
129.1204932615943
 30
0.0
 11
92.14047371149247
 21
128.6720699897754
 31
0.0
  0
LINE
  5
2090
102
{ACAD_REACTORS
330
20BB
102
}
330
18
100
AcDbEntity
  8
ROGO
 62
     4
100
AcDbLine
 10
91.95031595034738
 20
128.4083719780794
 30
0.0
 11
92.78019293913173
 21
128.4083719780794
 31
0.0
  0
LINE
  5
2091
102
{ACAD_REACTORS
330
20BB
102
}
330
18
100
AcDbEntity
  8
ROGO
 62
     4
100
AcDbLine
 10
92.14047371149247
 20
128.6720699897754
 30
0.0
 11
92.66304783353115
 21
128.6720699897754
 31
0.0
  0
LINE
  5
2092
102
{ACAD_REACTORS
330
20BB
102
}
330
18
100
AcDbEntity
  8
ROGO
 62
     4
100
AcDbLine
 10
91.95031595034738
 20
128.4083719780794
 30
0.0
 11
91.77002551276649
 21
128.1583573079886
 31
0.0
  0
LINE
  5
2093
102
{ACAD_REACTORS
330
20BB
102
}
330
18
100
AcDbEntity
  8
ROGO
 62
     4
100
AcDbLine
 10
91.04277826107495
 20
128.1583573079886
 30
0.0
 11
91.77002551276649
 21
128.1583573079886
 31
0.0
  0
LINE
  5
2094
102
{ACAD_REACTORS
330
20BB
102
}
330
18
100
AcDbEntity
  8
ROGO
 62
     4
100
AcDbLine
 10
91.98971259117405
 20
129.471502238546
 30
0.0
 11
93.0401160739454
 21
129.4715022385461
 31
0.0
  0
LINE
  5
2095
102
{ACAD_REACTORS
330
20BB
102
}
330
18
100
AcDbEntity
  8
ROGO
 62
     4
100
AcDbLine
 10
93.62346708432875
 20
128.1583573079886
 30
0.0
 11
92.89125936220063
 21
128.1583573079886
 31
0.0
  0
LINE
  5
2096
102
{ACAD_REACTORS
330
20B3
102
}
330
18
100
AcDbEntity
  8
ROGO
 62
     4
100
AcDbLine
 10
93.98308649933454
 20
128.1583573079886
 30
0.0
 11
95.11411551433917
 21
128.1583573079886
 31
0.0
  0
LINE
  5
2097
102
{ACAD_REACTORS
330
20B3
102
}
330
18
100
AcDbEntity
  8
ROGO
 62
     4
100
AcDbLine
 10
95.76889198734846
 20
129.471502238546
 30
0.0
 11
95.5252726868078
 21
128.9829271863292
 31
0.0
  0
LINE
  5
2098
102
{ACAD_REACTORS
330
20B3
102
}
330
18
100
AcDbEntity
  8
ROGO
 62
     4
100
AcDbLine
 10
94.70350576345657
 20
128.9829271863292
 30
0.0
 11
95.5252726868078
 21
128.9829271863292
 31
0.0
  0
LINE
  5
2099
102
{ACAD_REACTORS
330
20B3
102
}
330
18
100
AcDbEntity
  8
ROGO
 62
     4
100
AcDbLine
 10
94.51805121414583
 20
128.6469271863292
 30
0.0
 11
95.35773223501797
 21
128.6469271863292
 31
0.0
  0
SPLINE
  5
209A
102
{ACAD_REACTORS
330
20B3
102
}
330
18
100
AcDbEntity
  8
ROGO
 62
     4
100
AcDbSpline
210
0.0
220
0.0
230
1.0
 70
     8
 71
     3
 72
    26
 73
    22
 74
    20
 42
0.0000000001
 43
0.0000000001
 44
0.0000000001
 40
0.0
 40
0.0
 40
0.0
 40
0.0
 40
0.2382195346591335
 40
0.397689067265951
 40
0.5126795869787094
 40
0.5985392873135155
 40
0.7099038249249157
 40
0.7911890807494517
 40
0.9379713068542924
 40
1.057449928673026
 40
1.138714535893255
 40
1.218398644003435
 40
1.360938021870289
 40
1.461730374800178
 40
1.516014844107929
 40
1.593124329220422
 40
1.648806818593552
 40
1.729472362005439
 40
1.775122082164228
 40
1.874460993765031
 40
1.919820003751092
 40
1.919820003751092
 40
1.919820003751092
 40
1.919820003751092
 10
94.45385564524206
 20
129.471502238546
 30
0.0
 10
94.37300025448342
 20
129.4666782672809
 30
0.0
 10
94.23801844041753
 20
129.4586250207843
 30
0.0
 10
94.08980922970581
 20
129.3685895169259
 30
0.0
 10
93.98122248529558
 20
129.3162468315835
 30
0.0
 10
93.90377855087132
 20
129.2450914101638
 30
0.0
 10
93.8470118330038
 20
129.1715930576425
 30
0.0
 10
93.77544672830621
 20
129.0840203095172
 30
0.0
 10
93.71708743040048
 20
128.9820453880526
 30
0.0
 10
93.68736858786718
 20
128.8696512469893
 30
0.0
 10
93.66104391921348
 20
128.7800724644303
 30
0.0
 10
93.64152110424056
 20
128.6802486015379
 30
0.0
 10
93.6464882610535
 20
128.5724037134156
 30
0.0
 10
93.65360145693795
 20
128.4722429024118
 30
0.0
 10
93.6853601468619
 20
128.4007430794851
 30
0.0
 10
93.72152766925189
 20
128.3498401325558
 30
0.0
 10
93.76581430510686
 20
128.2937761798571
 30
0.0
 10
93.81427356942426
 20
128.2566452055268
 30
0.0
 10
93.85435333653488
 20
128.1893799503862
 30
0.0
 10
93.9245116167973
 20
128.18079641871
 30
0.0
 10
93.96910701087312
 20
128.1637126288331
 30
0.0
 10
93.98308649933454
 20
128.1583573079886
 30
0.0
 11
94.45385564524206
 21
129.471502238546
 31
0.0
 11
94.21847107228831
 21
129.4348600564523
 31
0.0
 11
94.07581356891336
 21
129.3635903675189
 31
0.0
 11
93.97595352162744
 21
129.3065746628415
 31
0.0
 11
93.91175795272369
 21
129.2495587258176
 31
0.0
 11
93.84042940611294
 21
129.1640350526283
 31
0.0
 11
93.79049938246993
 21
129.0998923558229
 31
0.0
 11
93.71917042570585
 21
128.9716067298657
 31
0.0
 11
93.68350635747702
 21
128.8575750881645
 31
0.0
 11
93.66210783450918
 21
128.779178407103
 31
0.0
 11
93.64784187909497
 21
128.7007817260416
 31
0.0
 11
93.64784187909497
 21
128.5582423481748
 31
0.0
 11
93.66210783450918
 21
128.4584646907295
 31
0.0
 11
93.68350635747702
 21
128.4085757458337
 31
0.0
 11
93.72630340341283
 21
128.3444330490282
 31
0.0
 11
93.76196788179498
 21
128.3016710962604
 31
0.0
 11
93.81903047299152
 21
128.2446553915829
 31
0.0
 11
93.84756197366659
 21
128.209020430943
 31
0.0
 11
93.94028945339874
 21
128.1733857026495
 31
0.0
 11
93.98308649933454
 21
128.1583573079886
 31
0.0
  0
SPLINE
  5
209B
102
{ACAD_REACTORS
330
20B3
102
}
330
18
100
AcDbEntity
  8
ROGO
 62
     4
100
AcDbSpline
210
0.0
220
0.0
230
1.0
 70
     8
 71
     3
 72
    16
 73
    12
 74
    10
 42
0.0000000001
 43
0.0000000001
 44
0.0000000001
 40
0.0
 40
0.0
 40
0.0
 40
0.0
 40
0.1255907025629711
 40
0.1869327038470372
 40
0.2171823804790188
 40
0.2490606136884243
 40
0.2947101524738327
 40
0.3362763310931754
 40
0.3796288870083667
 40
0.4523125795610969
 40
0.5242542460843636
 40
0.5242542460843636
 40
0.5242542460843636
 40
0.5242542460843636
 10
94.70350576345669
 20
128.9829271863292
 30
0.0
 10
94.66097505583524
 20
128.9764430930252
 30
0.0
 10
94.59767116462391
 20
128.9667919877397
 30
0.0
 10
94.54042541323278
 20
128.921476880764
 30
0.0
 10
94.50814278410872
 20
128.8945174084475
 30
0.0
 10
94.49716008985721
 20
128.8588154142653
 30
0.0
 10
94.46766402199648
 20
128.8314017632297
 30
0.0
 10
94.44335087211923
 20
128.7937265825136
 30
0.0
 10
94.43754544305747
 20
128.7419791115544
 30
0.0
 10
94.44180676090507
 20
128.6693594224171
 30
0.0
 10
94.49272347547415
 20
128.6543789784178
 30
0.0
 10
94.51805121414594
 20
128.6469271863292
 30
0.0
 11
94.70350576345669
 21
128.9829271863292
 31
0.0
 11
94.58224719320293
 21
128.9502257534818
 31
0.0
 11
94.53231716956002
 21
128.9145910251882
 31
0.0
 11
94.51091864659218
 21
128.8932100488042
 31
0.0
 11
94.49665269117799
 21
128.8647020802923
 31
0.0
 11
94.46812119050292
 21
128.8290673519989
 31
0.0
 11
94.44672266753498
 21
128.793432391359
 31
0.0
 11
94.43958968982787
 21
128.7506706709375
 31
0.0
 11
94.45385564524206
 21
128.6794007496577
 31
0.0
 11
94.51805121414594
 21
128.6469271863292
 31
0.0
  0
LINE
  5
209C
102
{ACAD_REACTORS
330
20B3
102
}
330
18
100
AcDbEntity
  8
ROGO
 62
     4
100
AcDbLine
 10
95.35773223501797
 20
128.6469271863292
 30
0.0
 11
95.11411551433917
 21
128.1583573079886
 31
0.0
  0
LINE
  5
209D
102
{ACAD_REACTORS
330
20B3
102
}
330
18
100
AcDbEntity
  8
ROGO
 62
     4
100
AcDbLine
 10
94.45385564524253
 20
129.4715022385461
 30
0.0
 11
95.76889198734846
 21
129.4715022385461
 31
0.0
  0
LINE
  5
209E
102
{ACAD_REACTORS
330
20B4
102
}
330
18
100
AcDbEntity
  8
ROGO
 62
     4
100
AcDbLine
 10
98.21415627026244
 20
128.1583573079886
 30
0.0
 11
99.34518528526707
 21
128.1583573079886
 31
0.0
  0
LINE
  5
209F
102
{ACAD_REACTORS
330
20B4
102
}
330
18
100
AcDbEntity
  8
ROGO
 62
     4
100
AcDbLine
 10
98.6849254161703
 20
129.471502238546
 30
0.0
 11
99.99996175827625
 21
129.471502238546
 31
0.0
  0
SPLINE
  5
20A0
102
{ACAD_REACTORS
330
20B4
102
}
330
18
100
AcDbEntity
  8
ROGO
 62
     4
100
AcDbSpline
210
0.0
220
0.0
230
1.0
 70
     8
 71
     3
 72
    16
 73
    12
 74
    10
 42
0.0000000001
 43
0.0000000001
 44
0.0000000001
 40
0.0
 40
0.0
 40
0.0
 40
0.0
 40
0.1255907025628614
 40
0.186932703847053
 40
0.217182380478914
 40
0.2490606136883704
 40
0.2947101524737521
 40
0.3362763310930949
 40
0.3796288870082302
 40
0.4523125795610161
 40
0.5242542460841813
 40
0.5242542460841813
 40
0.5242542460841813
 40
0.5242542460841813
 10
98.93457553438446
 20
128.9829271863292
 30
0.0
 10
98.8920448267631
 20
128.9764430930252
 30
0.0
 10
98.82874093555178
 20
128.9667919877397
 30
0.0
 10
98.77149518416059
 20
128.921476880764
 30
0.0
 10
98.7392125550366
 20
128.8945174084474
 30
0.0
 10
98.72822986078492
 20
128.8588154142653
 30
0.0
 10
98.69873379292439
 20
128.8314017632295
 30
0.0
 10
98.67442064304711
 20
128.7937265825135
 30
0.0
 10
98.66861521398536
 20
128.7419791115544
 30
0.0
 10
98.67287653183295
 20
128.6693594224171
 30
0.0
 10
98.72379324640199
 20
128.6543789784177
 30
0.0
 10
98.74912098507373
 20
128.6469271863291
 30
0.0
 11
98.93457553438446
 21
128.9829271863292
 31
0.0
 11
98.81331696413083
 21
128.9502257534818
 31
0.0
 11
98.76338694048781
 21
128.9145910251882
 31
0.0
 11
98.74198841752008
 21
128.8932100488042
 31
0.0
 11
98.72772246210576
 21
128.8647020802923
 31
0.0
 11
98.69919096143082
 21
128.8290673519988
 31
0.0
 11
98.67779243846285
 21
128.793432391359
 31
0.0
 11
98.67065946075577
 21
128.7506706709375
 31
0.0
 11
98.68492541616996
 21
128.6794007496577
 31
0.0
 11
98.74912098507373
 21
128.6469271863291
 31
0.0
  0
SPLINE
  5
20A1
102
{ACAD_REACTORS
330
20B4
102
}
330
18
100
AcDbEntity
  8
ROGO
 62
     4
100
AcDbSpline
210
0.0
220
0.0
230
1.0
 70
     8
 71
     3
 72
    26
 73
    22
 74
    20
 42
0.0000000001
 43
0.0000000001
 44
0.0000000001
 40
0.0
 40
0.0
 40
0.0
 40
0.0
 40
0.2382195346591335
 40
0.3976890672660527
 40
0.5126795869787123
 40
0.5985392873135185
 40
0.7099038249250352
 40
0.7911890807494564
 40
0.9379713068544022
 40
1.05744992867319
 40
1.138714535893279
 40
1.21839864400348
 40
1.360938021870334
 40
1.461730374800239
 40
1.516014844107997
 40
1.593124329220506
 40
1.648806818593679
 40
1.729472362005526
 40
1.775122082164315
 40
1.874460993765118
 40
1.91982000375118
 40
1.91982000375118
 40
1.91982000375118
 40
1.91982000375118
 10
98.68492541616996
 20
129.471502238546
 30
0.0
 10
98.60407002541133
 20
129.4666782672809
 30
0.0
 10
98.4690882113454
 20
129.4586250207842
 30
0.0
 10
98.32087900063363
 20
129.3685895169259
 30
0.0
 10
98.21229225622342
 20
129.3162468315835
 30
0.0
 10
98.1348483217992
 20
129.2450914101638
 30
0.0
 10
98.07808160393157
 20
129.1715930576425
 30
0.0
 10
98.00651649923411
 20
129.0840203095171
 30
0.0
 10
97.94815720132824
 20
128.9820453880525
 30
0.0
 10
97.91843835879493
 20
128.8696512469892
 30
0.0
 10
97.89211369014143
 20
128.7800724644303
 30
0.0
 10
97.87259087516829
 20
128.680248601538
 30
0.0
 10
97.87755803198118
 20
128.5724037134156
 30
0.0
 10
97.88467122786594
 20
128.4722429024119
 30
0.0
 10
97.9164299177896
 20
128.4007430794851
 30
0.0
 10
97.95259744017986
 20
128.3498401325559
 30
0.0
 10
97.9968840760347
 20
128.2937761798571
 30
0.0
 10
98.04534334035217
 20
128.2566452055268
 30
0.0
 10
98.08542310746277
 20
128.1893799503862
 30
0.0
 10
98.15558138772519
 20
128.18079641871
 30
0.0
 10
98.200176781801
 20
128.1637126288331
 30
0.0
 10
98.21415627026244
 20
128.1583573079886
 30
0.0
 11
98.68492541616996
 21
129.471502238546
 31
0.0
 11
98.44954084321621
 21
129.4348600564523
 31
0.0
 11
98.30688333984113
 21
129.3635903675189
 31
0.0
 11
98.20702329255533
 21
129.3065746628415
 31
0.0
 11
98.14282772365158
 21
129.2495587258176
 31
0.0
 11
98.07149917704073
 21
129.1640350526282
 31
0.0
 11
98.02156915339782
 21
129.0998923558229
 31
0.0
 11
97.95024019663362
 21
128.9716067298656
 31
0.0
 11
97.91457612840481
 21
128.8575750881643
 31
0.0
 11
97.89317760543708
 21
128.779178407103
 31
0.0
 11
97.87891165002276
 21
128.7007817260416
 31
0.0
 11
97.87891165002276
 21
128.5582423481748
 31
0.0
 11
97.89317760543708
 21
128.4584646907295
 31
0.0
 11
97.91457612840481
 21
128.4085757458337
 31
0.0
 11
97.95737317434072
 21
128.3444330490282
 31
0.0
 11
97.99303765272288
 21
128.3016710962603
 31
0.0
 11
98.05010024391942
 21
128.2446553915829
 31
0.0
 11
98.07863174459448
 21
128.209020430943
 31
0.0
 11
98.17135922432663
 21
128.1733857026495
 31
0.0
 11
98.21415627026244
 21
128.1583573079886
 31
0.0
  0
LINE
  5
20A2
102
{ACAD_REACTORS
330
20B4
102
}
330
18
100
AcDbEntity
  8
ROGO
 62
     4
100
AcDbLine
 10
99.58880200594586
 20
128.6469271863292
 30
0.0
 11
99.34518528526695
 21
128.1583573079886
 31
0.0
  0
LINE
  5
20A3
102
{ACAD_REACTORS
330
20B4
102
}
330
18
100
AcDbEntity
  8
ROGO
 62
     4
100
AcDbLine
 10
98.74912098507373
 20
128.6469271863292
 30
0.0
 11
99.58880200594586
 21
128.6469271863292
 31
0.0
  0
LINE
  5
20A4
102
{ACAD_REACTORS
330
20B4
102
}
330
18
100
AcDbEntity
  8
ROGO
 62
     4
100
AcDbLine
 10
98.93457553438446
 20
128.9829271863292
 30
0.0
 11
99.75634245773569
 21
128.9829271863292
 31
0.0
  0
LINE
  5
20A5
102
{ACAD_REACTORS
330
20B4
102
}
330
18
100
AcDbEntity
  8
ROGO
 62
     4
100
AcDbLine
 10
99.99996175827625
 20
129.471502238546
 30
0.0
 11
99.75634245773569
 21
128.9829271863292
 31
0.0
  0
LINE
  5
20A6
102
{ACAD_REACTORS
330
20B6
102
}
330
18
100
AcDbEntity
  8
ROGO
 62
     4
100
AcDbLine
 10
100.2749888873983
 20
129.471502238546
 30
0.0
 11
101.0310726299025
 21
129.471502238546
 31
0.0
  0
LINE
  5
20A7
102
{ACAD_REACTORS
330
20B6
102
}
330
18
100
AcDbEntity
  8
ROGO
 62
     4
100
AcDbLine
 10
100.2749888873983
 20
129.471502238546
 30
0.0
 11
99.25185585572847
 21
127.4196234536401
 31
0.0
  0
LINE
  5
20A8
102
{ACAD_REACTORS
330
20B6
102
}
330
18
100
AcDbEntity
  8
ROGO
 62
     4
100
AcDbLine
 10
101.0310726299025
 20
129.471502238546
 30
0.0
 11
100.9193673229816
 21
129.2474788297244
 31
0.0
  0
LINE
  5
20A9
102
{ACAD_REACTORS
330
20B6
102
}
330
18
100
AcDbEntity
  8
ROGO
 62
     4
100
AcDbLine
 10
100.9193673229816
 20
129.2474788297244
 30
0.0
 11
101.2733804060604
 21
129.471502238546
 31
0.0
  0
LINE
  5
20AA
102
{ACAD_REACTORS
330
20B6
102
}
330
18
100
AcDbEntity
  8
ROGO
 62
     4
100
AcDbLine
 10
100.2749888873983
 20
127.9551870157596
 30
0.0
 11
100.542038176564
 21
127.4196234536401
 31
0.0
  0
LINE
  5
20AB
102
{ACAD_REACTORS
330
20B6
102
}
330
18
100
AcDbEntity
  8
ROGO
 62
     4
100
AcDbLine
 10
100.7865388607292
 20
128.445562846093
 30
0.0
 11
101.298105376564
 21
127.4196234536401
 31
0.0
  0
LINE
  5
20AC
102
{ACAD_REACTORS
330
20B6
102
}
330
18
100
AcDbEntity
  8
ROGO
 62
     4
100
AcDbLine
 10
100.2749888873983
 20
127.9551870157596
 30
0.0
 11
100.0079395982327
 21
127.4196234536401
 31
0.0
  0
LINE
  5
20AD
102
{ACAD_REACTORS
330
20B6
102
}
330
18
100
AcDbEntity
  8
ROGO
 62
     4
100
AcDbLine
 10
100.7865388607292
 20
128.445562846093
 30
0.0
 11
102.0294476060605
 21
129.471502238546
 31
0.0
  0
LINE
  5
20AE
102
{ACAD_REACTORS
330
20B6
102
}
330
18
100
AcDbEntity
  8
ROGO
 62
     4
100
AcDbLine
 10
101.2733804060604
 20
129.471502238546
 30
0.0
 11
102.0294476060605
 21
129.471502238546
 31
0.0
  0
LINE
  5
20AF
102
{ACAD_REACTORS
330
20B6
102
}
330
18
100
AcDbEntity
  8
ROGO
 62
     4
100
AcDbLine
 10
100.542038176564
 20
127.4196234536401
 30
0.0
 11
101.298105376564
 21
127.4196234536401
 31
0.0
  0
LINE
  5
20B0
102
{ACAD_REACTORS
330
20B2
102
}
330
18
100
AcDbEntity
  8
ROGO
 62
     4
100
AcDbLine
 10
89.69913517749246
 20
129.471502238546
 30
0.0
 11
91.47521832597631
 21
129.4715022385461
 31
0.0
  0
LINE
  5
20B1
330
18
100
AcDbEntity
  8
ROGO
 62
     4
100
AcDbLine
 10
87.15135087565085
 20
127.6252936599313
 30
0.0
 11
99.35440966311473
 21
127.6252936599313
 31
0.0
  0
HATCH
  5
20B2
330
18
100
AcDbEntity
  8
ROGO
 62
     4
100
AcDbHatch
 10
0.0
 20
0.0
 30
0.0
210
0.0
220
0.0
230
1.0
  2
SOLID
 70
     1
 71
     1
 91
        1
 92
        1
 93
       12
 72
     1
 10
89.69913517749246
 20
129.471502238546
 11
91.47521832597631
 21
129.4715022385461
 72
     1
 10
91.47521832597631
 20
129.471502238546
 11
91.32638413024182
 21
129.170699907854
 72
     1
 10
91.32638413024182
 20
129.170699907854
 11
90.39291970802372
 21
129.170699907854
 72
     1
 10
90.39291970802372
 20
129.170699907854
 11
90.27654986194733
 21
128.9355098646698
 72
     1
 10
90.27654986194733
 20
128.9355098646698
 11
91.21001428416519
 21
128.9355098646698
 72
     1
 10
91.21001428416519
 20
128.9355098646698
 11
91.09068790854138
 21
128.6943445079886
 72
     1
 10
91.09068790854138
 20
128.6943445079886
 11
90.15722348632351
 21
128.6943445079886
 72
     1
 10
90.15722348632351
 20
128.6943445079886
 11
90.04084871370713
 21
128.4591445079886
 72
     1
 10
90.04084871370713
 20
128.4591445079886
 11
90.97431313592499
 21
128.4591445079886
 72
     1
 10
90.97431313592499
 20
128.4591445079886
 11
90.82548642671616
 21
128.1583573079886
 72
     1
 10
90.82548642671616
 20
128.1583573079886
 11
89.04940327823231
 21
128.1583573079886
 72
     1
 10
89.04940327823231
 20
128.1583573079886
 11
89.69913517749246
 21
129.471502238546
 97
       12
330
20B0
330
2084
330
2087
330
2086
330
2088
330
208B
330
208A
330
208D
330
2089
330
208C
330
2085
330
2083
 75
     0
 76
     1
 98
        1
 10
17.04900619878344
 20
38.67340619043478
450
        0
451
        0
460
0.0
461
0.0
452
        0
462
0.0
453
        0
470

  0
HATCH
  5
20B3
330
18
100
AcDbEntity
  8
ROGO
 62
     4
100
AcDbHatch
 10
0.0
 20
0.0
 30
0.0
210
0.0
220
0.0
230
1.0
  2
SOLID
 70
     1
 71
     1
 91
        1
 92
        5
 93
        8
 72
     1
 10
95.5252726868078
 20
128.9829271863292
 11
95.76889198734852
 21
129.4715022385461
 72
     1
 10
95.76889198734852
 20
129.4715022385461
 11
94.45385564524229
 21
129.4715022385461
 72
     4
 94
        3
 73
     0
 74
     0
 95
       26
 96
       22
 40
0.0
 40
0.0
 40
0.0
 40
0.0
 40
0.2382195346591335
 40
0.397689067265951
 40
0.5126795869787094
 40
0.5985392873135155
 40
0.7099038249249157
 40
0.7911890807494517
 40
0.9379713068542924
 40
1.057449928673026
 40
1.138714535893255
 40
1.218398644003435
 40
1.360938021870289
 40
1.461730374800178
 40
1.516014844107929
 40
1.593124329220422
 40
1.648806818593552
 40
1.729472362005439
 40
1.775122082164228
 40
1.874460993765031
 40
1.919820003751092
 40
1.919820003751092
 40
1.919820003751092
 40
1.919820003751092
 10
94.45385564524206
 20
129.471502238546
 10
94.37300025448342
 20
129.4666782672809
 10
94.23801844041753
 20
129.4586250207843
 10
94.08980922970581
 20
129.3685895169259
 10
93.98122248529558
 20
129.3162468315835
 10
93.90377855087132
 20
129.2450914101638
 10
93.8470118330038
 20
129.1715930576425
 10
93.77544672830621
 20
129.0840203095172
 10
93.71708743040048
 20
128.9820453880526
 10
93.68736858786718
 20
128.8696512469893
 10
93.66104391921348
 20
128.7800724644303
 10
93.64152110424056
 20
128.6802486015379
 10
93.6464882610535
 20
128.5724037134156
 10
93.65360145693795
 20
128.4722429024118
 10
93.6853601468619
 20
128.4007430794851
 10
93.72152766925189
 20
128.3498401325558
 10
93.76581430510686
 20
128.2937761798571
 10
93.81427356942426
 20
128.2566452055268
 10
93.85435333653488
 20
128.1893799503862
 10
93.9245116167973
 20
128.18079641871
 10
93.96910701087312
 20
128.1637126288331
 10
93.98308649933454
 20
128.1583573079886
 72
     1
 10
93.98308649933456
 20
128.1583573079886
 11
95.11411551433919
 21
128.1583573079886
 72
     1
 10
95.11411551433919
 20
128.1583573079886
 11
95.35773223501799
 21
128.6469271863292
 72
     1
 10
95.35773223501799
 20
128.6469271863292
 11
94.51805121414594
 21
128.6469271863292
 72
     4
 94
        3
 73
     0
 74
     0
 95
       16
 96
       12
 40
0.0
 40
0.0
 40
0.0
 40
0.0
 40
0.0719416665232667
 40
0.1446253590759968
 40
0.1879779149911881
 40
0.2295440936105308
 40
0.2751936323959393
 40
0.3070718656053448
 40
0.3373215422373263
 40
0.3986635435213924
 40
0.5242542460843636
 40
0.5242542460843636
 40
0.5242542460843636
 40
0.5242542460843636
 10
94.51805121414594
 20
128.6469271863292
 10
94.49272347547415
 20
128.6543789784178
 10
94.44180676090507
 20
128.6693594224171
 10
94.43754544305747
 20
128.7419791115544
 10
94.44335087211923
 20
128.7937265825136
 10
94.46766402199648
 20
128.8314017632297
 10
94.49716008985721
 20
128.8588154142653
 10
94.50814278410872
 20
128.8945174084475
 10
94.54042541323278
 20
128.921476880764
 10
94.59767116462391
 20
128.9667919877397
 10
94.66097505583524
 20
128.9764430930252
 10
94.70350576345669
 20
128.9829271863292
 72
     1
 10
94.70350576345669
 20
128.9829271863292
 11
95.5252726868078
 21
128.9829271863292
 97
        8
330
209D
330
209A
330
2096
330
209C
330
2099
330
209B
330
2098
330
2097
 75
     0
 76
     1
 47
0.0514683685270805
 98
        1
 10
94.91377254244907
 20
129.1791807821991
450
        0
451
        0
460
0.0
461
0.0
452
        0
462
0.0
453
        0
470

  0
HATCH
  5
20B4
330
18
100
AcDbEntity
  8
ROGO
 62
     4
100
AcDbHatch
 10
0.0
 20
0.0
 30
0.0
210
0.0
220
0.0
230
1.0
  2
SOLID
 70
     1
 71
     1
 91
        1
 92
        5
 93
        8
 72
     4
 94
        3
 73
     0
 74
     0
 95
       26
 96
       22
 40
0.0
 40
0.0
 40
0.0
 40
0.0
 40
0.2382195346591335
 40
0.3976890672660527
 40
0.5126795869787123
 40
0.5985392873135185
 40
0.7099038249250352
 40
0.7911890807494564
 40
0.9379713068544022
 40
1.05744992867319
 40
1.138714535893279
 40
1.21839864400348
 40
1.360938021870334
 40
1.461730374800239
 40
1.516014844107997
 40
1.593124329220506
 40
1.648806818593679
 40
1.729472362005526
 40
1.775122082164315
 40
1.874460993765118
 40
1.91982000375118
 40
1.91982000375118
 40
1.91982000375118
 40
1.91982000375118
 10
98.68492541616996
 20
129.471502238546
 10
98.60407002541133
 20
129.4666782672809
 10
98.4690882113454
 20
129.4586250207842
 10
98.32087900063363
 20
129.3685895169259
 10
98.21229225622342
 20
129.3162468315835
 10
98.1348483217992
 20
129.2450914101638
 10
98.07808160393157
 20
129.1715930576425
 10
98.00651649923411
 20
129.0840203095171
 10
97.94815720132824
 20
128.9820453880525
 10
97.91843835879493
 20
128.8696512469892
 10
97.89211369014143
 20
128.7800724644303
 10
97.87259087516829
 20
128.680248601538
 10
97.87755803198118
 20
128.5724037134156
 10
97.88467122786594
 20
128.4722429024119
 10
97.9164299177896
 20
128.4007430794851
 10
97.95259744017986
 20
128.3498401325559
 10
97.9968840760347
 20
128.2937761798571
 10
98.04534334035217
 20
128.2566452055268
 10
98.08542310746277
 20
128.1893799503862
 10
98.15558138772519
 20
128.18079641871
 10
98.200176781801
 20
128.1637126288331
 10
98.21415627026244
 20
128.1583573079886
 72
     1
 10
98.2141562702624
 20
128.1583573079886
 11
99.34518528526695
 21
128.1583573079886
 72
     1
 10
99.34518528526695
 20
128.1583573079886
 11
99.58880200594586
 21
128.6469271863292
 72
     1
 10
99.58880200594586
 20
128.6469271863292
 11
98.74912098507369
 21
128.6469271863292
 72
     4
 94
        3
 73
     0
 74
     0
 95
       16
 96
       12
 40
0.0
 40
0.0
 40
0.0
 40
0.0
 40
0.0719416665231652
 40
0.1446253590759511
 40
0.1879779149910863
 40
0.2295440936104291
 40
0.2751936323958108
 40
0.3070718656052672
 40
0.3373215422371282
 40
0.3986635435213198
 40
0.5242542460841813
 40
0.5242542460841813
 40
0.5242542460841813
 40
0.5242542460841813
 10
98.74912098507373
 20
128.6469271863291
 10
98.72379324640199
 20
128.6543789784177
 10
98.67287653183295
 20
128.6693594224171
 10
98.66861521398536
 20
128.7419791115544
 10
98.67442064304711
 20
128.7937265825135
 10
98.69873379292439
 20
128.8314017632295
 10
98.72822986078492
 20
128.8588154142653
 10
98.7392125550366
 20
128.8945174084474
 10
98.77149518416059
 20
128.921476880764
 10
98.82874093555178
 20
128.9667919877397
 10
98.8920448267631
 20
128.9764430930252
 10
98.93457553438446
 20
128.9829271863292
 72
     1
 10
98.93457553438445
 20
128.9829271863292
 11
99.75634245773569
 21
128.9829271863292
 72
     1
 10
99.75634245773569
 20
128.9829271863292
 11
99.99996175827627
 21
129.4715022385461
 72
     1
 10
99.99996175827627
 20
129.4715022385461
 11
98.68492541616992
 21
129.471502238546
 97
        8
330
209F
330
20A1
330
209E
330
20A2
330
20A3
330
20A0
330
20A4
330
20A5
 75
     0
 76
     1
 47
0.0514683685270805
 98
        1
 10
98.91184284585477
 20
129.231060935367
450
        0
451
        0
460
0.0
461
0.0
452
        0
462
0.0
453
        0
470

  0
HATCH
  5
20B5
330
18
100
AcDbEntity
  8
ROGO
 62
     4
100
AcDbHatch
 10
0.0
 20
0.0
 30
0.0
210
0.0
220
0.0
230
1.0
  2
SOLID
 70
     1
 71
     0
 91
        1
 92
        7
 72
     0
 73
     1
 93
        4
 10
87.16561432256753
 20
127.6252936599313
 10
87.07256328714555
 20
127.4196234536401
 10
99.25185585572847
 20
127.4196234536401
 10
99.3544096631146
 20
127.6252936599313
 97
        0
 75
     0
 76
     1
 47
0.0514683685270805
 98
        1
 10
94.86184958345569
 20
127.5708971957265
450
        0
451
        0
460
0.0
461
0.0
452
        0
462
0.0
453
        0
470

  0
HATCH
  5
20B6
330
18
100
AcDbEntity
  8
ROGO
 62
     4
100
AcDbHatch
 10
0.0
 20
0.0
 30
0.0
210
0.0
220
0.0
230
1.0
  2
SOLID
 70
     1
 71
     1
 91
        1
 92
        7
 72
     0
 73
     1
 93
       11
 10
99.25185585572849
 20
127.4196234536401
 10
100.0079395982327
 20
127.4196234536401
 10
100.2749888873983
 20
127.9551870157596
 10
100.542038176564
 20
127.4196234536401
 10
101.298105376564
 20
127.4196234536401
 10
100.7865388607292
 20
128.4455628460931
 10
102.0294476060604
 20
129.471502238546
 10
101.2733804060604
 20
129.471502238546
 10
100.9193673229816
 20
129.2474788297244
 10
101.0310726299025
 20
129.471502238546
 10
100.2749888873983
 20
129.471502238546
 97
       11
330
20AE
330
20A9
330
20A8
330
20A6
330
20A7
330
207A
330
20AC
330
20AA
330
20AF
330
20AB
330
20AD
 75
     0
 76
     1
 47
0.0514683685270805
 98
        1
 10
100.2099176409945
 20
128.5912062551045
450
        0
451
        0
460
0.0
461
0.0
452
        0
462
0.0
453
        0
470

  0
HATCH
  5
20B7
330
18
100
AcDbEntity
  8
ROGO
 62
     4
100
AcDbHatch
 10
0.0
 20
0.0
 30
0.0
210
0.0
220
0.0
230
1.0
  2
SOLID
 70
     1
 71
     1
 91
        2
 92
        5
 93
        6
 72
     1
 10
86.118762331209
 20
127.4196234536401
 11
87.07256328714555
 21
127.4196234536401
 72
     1
 10
87.07256328714555
 20
127.4196234536401
 11
87.40678743797394
 21
128.1583573079886
 72
     1
 10
87.40678743797394
 20
128.1583573079886
 11
88.29839570614606
 21
128.1583573079886
 72
     4
 94
        3
 73
     0
 74
     0
 95
       18
 96
       14
 40
0.108740278791501
 40
0.108740278791501
 40
0.108740278791501
 40
0.108740278791501
 40
0.6623149649549278
 40
1.384304701649787
 40
2.097394834876493
 40
2.774073369849618
 40
3.428974823686337
 40
4.005208313035923
 40
4.455173659284313
 40
4.720999734343524
 40
5.086034088486724
 40
5.569973738255373
 40
6.060470601257719
 40
6.060470601257719
 40
6.060470601257719
 40
6.060470601257719
 10
88.29839570614609
 20
128.1583573079886
 10
88.36114562304073
 20
128.1588245876197
 10
88.50573598009436
 20
128.1599013082283
 10
88.7080167582016
 20
128.2679641447237
 10
88.89983673129467
 20
128.4056283250654
 10
89.05433467037601
 20
128.5776253558672
 10
89.15059154125215
 20
128.7742744933879
 10
89.16550142629915
 20
128.9627446289597
 10
89.15639930778837
 20
129.1118221631161
 10
89.09136009924527
 20
129.2157329054189
 10
89.02374390532049
 20
129.3211916825917
 10
88.89975866977335
 20
129.4125439923831
 10
88.79817072192286
 20
129.4525698836984
 10
88.74651118428682
 20
129.4715022385461
 72
     1
 10
88.74651118428692
 20
129.471502238546
 11
87.13401287130164
 21
129.471502238546
 72
     1
 10
87.13401287130164
 20
129.471502238546
 11
86.118762331209
 21
127.4196234536401
 97
        6
330
207C
330
2079
330
207B
330
207A
330
2082
330
207D
 92
       20
 93
        4
 72
     1
 10
87.61315193028412
 20
128.6144836424473
 11
87.77114972664156
 21
128.9637053273327
 72
     1
 10
87.77114972664156
 20
128.9637053273327
 11
88.17713672573896
 21
128.9637053273327
 72
     4
 94
        3
 73
     0
 74
     0
 95
       15
 96
       11
 40
0.0
 40
0.0
 40
0.0
 40
0.0
 40
0.1539705029173922
 40
0.2241725832586406
 40
0.3038566179395811
 40
0.3581410872473318
 40
0.4439925384670906
 40
0.4954152125468884
 40
0.5836396705645957
 40
0.6130478420064963
 40
0.6130478420064963
 40
0.6130478420064963
 40
0.6130478420064963
 10
88.177136725739
 20
128.9637053273327
 10
88.23496506079811
 20
128.9639702119751
 10
88.31915993585614
 20
128.9643558694447
 10
88.36520069222089
 20
128.8602065655154
 10
88.34456302998729
 20
128.7931506608779
 10
88.31861980656331
 20
128.7243051466302
 10
88.27277225502095
 20
128.6775235813608
 10
88.21123812542571
 20
128.6324650477238
 10
88.15308543236998
 20
128.6270105104643
 10
88.11526363339739
 20
128.6169890170101
 10
88.10580817912812
 20
128.6144836424473
 72
     1
 10
88.10580817912812
 20
128.6144836424473
 11
87.61315193028412
 21
128.6144836424473
 97
        4
330
207E
330
2080
330
207F
330
2081
 75
     0
 76
     1
 47
0.0514683685270805
 98
        2
 10
87.14263142460863
 20
128.8333134816571
 10
87.14263142460863
 20
128.8333134816571
450
        0
451
        0
460
0.0
461
0.0
452
        0
462
0.0
453
        0
470

  0
LINE
  5
20B8
102
{ACAD_REACTORS
330
20BB
102
}
330
18
100
AcDbEntity
  8
ROGO
 62
     4
100
AcDbLine
 10
93.0401160739454
 20
129.471502238546
 30
0.0
 11
93.62346708432875
 21
128.1583573079886
 31
0.0
  0
LINE
  5
20B9
102
{ACAD_REACTORS
330
20BB
102
}
330
18
100
AcDbEntity
  8
ROGO
 62
     4
100
AcDbLine
 10
92.46384044780569
 20
129.1204932615943
 30
0.0
 11
92.66304783353115
 21
128.6720699897754
 31
0.0
  0
LINE
  5
20BA
102
{ACAD_REACTORS
330
20BB
102
}
330
18
100
AcDbEntity
  8
ROGO
 62
     4
100
AcDbLine
 10
92.78019293913173
 20
128.4083719780794
 30
0.0
 11
92.89125936220063
 21
128.1583573079886
 31
0.0
  0
HATCH
  5
20BB
330
18
100
AcDbEntity
  8
ROGO
 62
     4
100
AcDbHatch
 10
0.0
 20
0.0
 30
0.0
210
0.0
220
0.0
230
1.0
  2
SOLID
 70
     1
 71
     1
 91
        2
 92
        7
 72
     0
 73
     1
 93
        8
 10
93.04011607394533
 20
129.4715022385461
 10
91.98971259117405
 20
129.471502238546
 10
91.04277826107496
 20
128.1583573079886
 10
91.77002551276647
 20
128.1583573079886
 10
91.95031595034736
 20
128.4083719780794
 10
92.78019293913173
 20
128.4083719780794
 10
92.89125936220063
 20
128.1583573079886
 10
93.62346708432873
 20
128.1583573079886
 97
        8
330
2094
330
208E
330
2093
330
2092
330
2090
330
20BA
330
2095
330
20B8
 92
       22
 72
     0
 73
     1
 93
        3
 10
92.66304783353113
 20
128.6720699897754
 10
92.1404737114925
 20
128.6720699897754
 10
92.46384044780569
 20
129.1204932615943
 97
        3
330
2091
330
208F
330
20B9
 75
     0
 76
     1
 47
0.0128389261915577
 98
        2
 10
92.95786118144969
 20
129.156460321737
 10
92.95786118144969
 20
129.156460321737
450
        0
451
        0
460
0.0
461
0.0
452
        0
462
0.0
453
        0
470

  0
SPLINE
  5
20BC
102
{ACAD_REACTORS
330
20C3
102
}
330
18
100
AcDbEntity
  8
ROGO
 62
     4
100
AcDbSpline
210
0.0
220
0.0
230
1.0
 70
     8
 71
     3
 72
    38
 73
    34
 74
    32
 42
0.0000000001
 43
0.0000000001
 44
0.0000000001
 40
0.0
 40
0.0
 40
0.0
 40
0.0
 40
0.1807680148264315
 40
0.2375392910068956
 40
0.3104865209606666
 40
0.3712759982447967
 40
0.4225667543873086
 40
0.4906925837206108
 40
0.5255021974951917
 40
0.5647069597052341
 40
0.6224874016818802
 40
0.6879401044675095
 40
0.7303986317550742
 40
0.7765228362185411
 40
0.8277951442290131
 40
0.9056034697002088
 40
0.9795294930264065
 40
1.013897332332966
 40
1.053089255535997
 40
1.099518741889617
 40
1.132570569820712
 40
1.160277520290289
 40
1.199836786293819
 40
1.243305643169098
 40
1.286774258016923
 40
1.324809356515634
 40
1.411916492917604
 40
1.446284332224164
 40
1.515020051661159
 40
1.575779369908333
 40
1.692098529536163
 40
1.835624328519076
 40
2.042896467983821
 40
2.042896467983821
 40
2.042896467983821
 40
2.042896467983821
 10
96.49811730739116
 20
129.4769794577184
 30
0.0
 10
96.4378619097655
 20
129.4727228386175
 30
0.0
 10
96.35868294414441
 20
129.4671294028303
 30
0.0
 10
96.25814417163475
 20
129.4395847766254
 30
0.0
 10
96.2033394171938
 20
129.4067702571675
 30
0.0
 10
96.14630411587658
 20
129.382650012467
 30
0.0
 10
96.0976762094916
 20
129.3469327132178
 30
0.0
 10
96.04849010879576
 20
129.3285279330242
 30
0.0
 10
96.01404849541985
 20
129.2953408246518
 30
0.0
 10
95.97418513728698
 20
129.2750687064767
 30
0.0
 10
95.94244123745168
 20
129.2296938124623
 30
0.0
 10
95.90696056091983
 20
129.187269930804
 30
0.0
 10
95.86579851251284
 20
129.1563023892264
 30
0.0
 10
95.83201626695339
 20
129.1237774102641
 30
0.0
 10
95.80102575402904
 20
129.0735815950801
 30
0.0
 10
95.78268418145794
 20
129.0068862203945
 30
0.0
 10
95.7309823670486
 20
128.9647771661095
 30
0.0
 10
95.72319769256552
 20
128.9141495184332
 30
0.0
 10
95.69459984236988
 20
128.8842800582426
 30
0.0
 10
95.68216449691394
 20
128.8457228762575
 30
0.0
 10
95.67742851879009
 20
128.8103976869368
 30
0.0
 10
95.67174421574751
 20
128.7774064055086
 30
0.0
 10
95.65687515551523
 20
128.7427010347707
 30
0.0
 10
95.66172846807655
 20
128.6998307558358
 30
0.0
 10
95.66034590503443
 20
128.6583180418092
 30
0.0
 10
95.66115954500764
 20
128.6022745851978
 30
0.0
 10
95.65822300566173
 20
128.5477093882783
 30
0.0
 10
95.68164075617657
 20
128.4883295121098
 30
0.0
 10
95.69549860377959
 20
128.4354005674434
 30
0.0
 10
95.73345057372304
 20
128.3621140251919
 30
0.0
 10
95.79891692654104
 20
128.2775572014829
 30
0.0
 10
95.92340667255854
 20
128.1749212381902
 30
0.0
 10
96.04310720311787
 20
128.1645092974729
 30
0.0
 10
96.11383334584804
 20
128.1583573079886
 30
0.0
 11
96.49811730739116
 21
129.4769794577184
 31
0.0
 11
96.31866067044388
 21
129.455244908267
 31
0.0
 11
96.26427988431572
 21
129.4389443592197
 31
0.0
 11
96.19902319730767
 21
129.40634277707
 31
0.0
 11
96.14464241117952
 21
129.379174953297
 31
0.0
 11
96.10113795317426
 21
129.3520068874965
 31
0.0
 11
96.04131921660627
 21
129.3194055473744
 31
0.0
 11
96.01412860992054
 21
129.2976712399505
 31
0.0
 11
95.98150005279507
 21
129.275936690499
 31
0.0
 11
95.94343354522965
 21
129.2324680756512
 31
0.0
 11
95.89992908722427
 21
129.1835659444543
 31
0.0
 11
95.86730053009882
 21
129.1563978786538
 31
0.0
 11
95.83467240021633
 21
129.1237965385316
 31
0.0
 11
95.8074817935307
 21
129.0803279236838
 31
0.0
 11
95.77485366364834
 21
129.0096912430355
 31
0.0
 11
95.73134877839988
 21
128.9499218371129
 31
0.0
 11
95.72047287752019
 21
128.9173202549633
 31
0.0
 11
95.6987206485175
 21
128.8847189148411
 31
0.0
 11
95.68240636995477
 21
128.8412500579658
 31
0.0
 11
95.67696799227173
 21
128.8086487178436
 31
0.0
 11
95.67153004183177
 21
128.7814806520432
 31
0.0
 11
95.66065414095209
 21
128.7434457955719
 31
0.0
 11
95.66065414095209
 21
128.6999769386966
 31
0.0
 11
95.66065414095209
 21
128.6565083238488
 31
0.0
 11
95.66065414095209
 21
128.6184732253501
 31
0.0
 11
95.66609209139205
 21
128.5315359956544
 31
0.0
 11
95.67696799227173
 21
128.4989344135048
 31
0.0
 11
95.6987206485175
 21
128.433731491233
 31
0.0
 11
95.72591082796003
 21
128.3793956016595
 31
0.0
 11
95.79660589265092
 21
128.2870248556147
 31
0.0
 11
95.91080541534727
 21
128.2000873838916
 31
0.0
 11
96.11383334584804
 21
128.1583573079886
 31
0.0
  0
SPLINE
  5
20BD
102
{ACAD_REACTORS
330
20C3
102
}
330
18
100
AcDbEntity
  8
ROGO
 62
     4
100
AcDbSpline
210
0.0
220
0.0
230
1.0
 70
     8
 71
     3
 72
    25
 73
    21
 74
     0
 42
0.0000000001
 43
0.0000000001
 40
0.0
 40
0.0
 40
0.0
 40
0.0
 40
0.4087168505087288
 40
0.6887487002771746
 40
0.9415836120477687
 40
1.17452070575514
 40
1.41154617586699
 40
1.599156012919487
 40
1.80099909059943
 40
2.178735911501585
 40
2.521686161369157
 40
2.762704659361267
 40
3.06256558063785
 40
3.222432137207705
 40
3.399493810628493
 40
3.567459719866414
 40
3.743172740007509
 40
3.995988754699505
 40
4.17170091132118
 40
4.337226830236035
 40
4.337226830236035
 40
4.337226830236035
 40
4.337226830236035
 10
97.24857113057652
 20
129.4769794577184
 30
0.0
 10
97.29779118100209
 20
129.4753980682623
 30
0.0
 10
97.38073428872059
 20
129.4727331917562
 30
0.0
 10
97.46978394734169
 20
129.4031305023807
 30
0.0
 10
97.53792216810115
 20
129.3454245400658
 30
0.0
 10
97.58628752296175
 20
129.2756607337316
 30
0.0
 10
97.62868111160418
 20
129.2115166300544
 30
0.0
 10
97.65661527237325
 20
129.1437952153883
 30
0.0
 10
97.69461125004813
 20
129.0625357198515
 30
0.0
 10
97.71033970769526
 20
128.9538225874204
 30
0.0
 10
97.69971326435864
 20
128.8414575343749
 30
0.0
 10
97.67198320886116
 20
128.7418562506714
 30
0.0
 10
97.64289661016114
 20
128.6654444855273
 30
0.0
 10
97.60861459124379
 20
128.5989233035367
 30
0.0
 10
97.56774604393962
 20
128.5558508330376
 30
0.0
 10
97.53939308840068
 20
128.5010846066901
 30
0.0
 10
97.48493068768352
 20
128.4562887738167
 30
0.0
 10
97.44078052787683
 20
128.4010170033627
 30
0.0
 10
97.39067929123706
 20
128.3535766550241
 30
0.0
 10
97.36243199193319
 20
128.3243065318024
 30
0.0
 10
97.34753933453948
 20
128.3119997878567
 30
0.0
  0
LINE
  5
20BE
102
{ACAD_REACTORS
330
20C3
102
}
330
18
100
AcDbEntity
  8
ROGO
 62
     4
100
AcDbLine
 10
96.49811730739116
 20
129.4769794577184
 30
0.0
 11
97.24857113057652
 21
129.4769794577184
 31
0.0
  0
LINE
  5
20BF
102
{ACAD_REACTORS
330
20C3
102
}
330
18
100
AcDbEntity
  8
ROGO
 62
     4
100
AcDbLine
 10
96.11383334584804
 20
128.1583573079886
 30
0.0
 11
96.86428716903339
 21
128.1583573079886
 31
0.0
  0
SPLINE
  5
20C0
102
{ACAD_REACTORS
330
20C3
102
}
330
18
100
AcDbEntity
  8
ROGO
 62
     4
100
AcDbSpline
210
0.0
220
0.0
230
1.0
 70
     8
 71
     3
 72
    11
 73
     7
 74
     0
 42
0.0000000001
 43
0.0000000001
 40
0.1647869275458134
 40
0.1647869275458134
 40
0.1647869275458134
 40
0.1647869275458134
 40
0.2895635144633836
 40
0.5387013147903714
 40
0.7953622617455423
 40
0.8850764140209602
 40
0.8850764140209602
 40
0.8850764140209602
 40
0.8850764140209602
 10
97.11430462765139
 20
128.1876337548972
 30
0.0
 10
97.10032608485057
 20
128.1837428221807
 30
0.0
 10
97.05698507341635
 20
128.1768152323968
 30
0.0
 10
96.9842863062783
 20
128.1673028380234
 30
0.0
 10
96.91518976418189
 20
128.1573763074388
 30
0.0
 10
96.87475906935327
 20
128.1581554923456
 30
0.0
 10
96.86428716903339
 20
128.1583573079886
 30
0.0
  0
SPLINE
  5
20C1
102
{ACAD_REACTORS
330
20C3
102
}
330
18
100
AcDbEntity
  8
ROGO
 62
     4
100
AcDbSpline
210
0.0
220
0.0
230
1.0
 70
     8
 71
     3
 72
     9
 73
     5
 74
     3
 42
0.0000000001
 43
0.0000000001
 44
0.0000000001
 40
0.0
 40
0.0
 40
0.0
 40
0.0
 40
0.1135793343552172
 40
0.2662938392177403
 40
0.2662938392177403
 40
0.2662938392177403
 40
0.2662938392177403
 10
97.11430462765139
 20
128.1876337548972
 30
0.0
 10
97.15078959596938
 20
128.1987960946204
 30
0.0
 10
97.23633088164683
 20
128.2249668968743
 30
0.0
 10
97.30700757888362
 20
128.2802792146488
 30
0.0
 10
97.34753933453948
 20
128.3119997878567
 30
0.0
 11
97.11430462765139
 21
128.1876337548972
 31
0.0
 11
97.22105539187607
 21
128.2264221491669
 31
0.0
 11
97.34753933453948
 21
128.3119997878567
 31
0.0
  0
ELLIPSE
  5
20C2
102
{ACAD_REACTORS
330
20C3
102
}
330
18
100
AcDbEntity
  8
ROGO
 62
     4
100
AcDbEllipse
 10
96.67057570202196
 20
128.7992834654994
 30
0.0
 11
0.1782847090673272
 21
0.1567790921840611
 31
0.0
210
0.0
220
0.0
230
1.0
 40
0.6788083417438792
 41
0.0
 42
6.283185307179586
  0
HATCH
  5
20C3
330
18
100
AcDbEntity
  8
ROGO
 62
     4
100
AcDbHatch
 10
0.0
 20
0.0
 30
0.0
210
0.0
220
0.0
230
1.0
  2
SOLID
 70
     1
 71
     1
 91
        2
 92
        5
 93
        6
 72
     4
 94
        3
 73
     0
 74
     0
 95
       38
 96
       34
 40
0.0
 40
0.0
 40
0.0
 40
0.0
 40
0.1807680148264315
 40
0.2375392910068956
 40
0.3104865209606666
 40
0.3712759982447967
 40
0.4225667543873086
 40
0.4906925837206108
 40
0.5255021974951917
 40
0.5647069597052341
 40
0.6224874016818802
 40
0.6879401044675095
 40
0.7303986317550742
 40
0.7765228362185411
 40
0.8277951442290131
 40
0.9056034697002088
 40
0.9795294930264065
 40
1.013897332332966
 40
1.053089255535997
 40
1.099518741889617
 40
1.132570569820712
 40
1.160277520290289
 40
1.199836786293819
 40
1.243305643169098
 40
1.286774258016923
 40
1.324809356515634
 40
1.411916492917604
 40
1.446284332224164
 40
1.515020051661159
 40
1.575779369908333
 40
1.692098529536163
 40
1.835624328519076
 40
2.042896467983821
 40
2.042896467983821
 40
2.042896467983821
 40
2.042896467983821
 10
96.49811730739116
 20
129.4769794577184
 10
96.4378619097655
 20
129.4727228386175
 10
96.35868294414441
 20
129.4671294028303
 10
96.25814417163475
 20
129.4395847766254
 10
96.2033394171938
 20
129.4067702571675
 10
96.14630411587658
 20
129.382650012467
 10
96.0976762094916
 20
129.3469327132178
 10
96.04849010879576
 20
129.3285279330242
 10
96.01404849541985
 20
129.2953408246518
 10
95.97418513728698
 20
129.2750687064767
 10
95.94244123745168
 20
129.2296938124623
 10
95.90696056091983
 20
129.187269930804
 10
95.86579851251284
 20
129.1563023892264
 10
95.83201626695339
 20
129.1237774102641
 10
95.80102575402904
 20
129.0735815950801
 10
95.78268418145794
 20
129.0068862203945
 10
95.7309823670486
 20
128.9647771661095
 10
95.72319769256552
 20
128.9141495184332
 10
95.69459984236988
 20
128.8842800582426
 10
95.68216449691394
 20
128.8457228762575
 10
95.67742851879009
 20
128.8103976869368
 10
95.67174421574751
 20
128.7774064055086
 10
95.65687515551523
 20
128.7427010347707
 10
95.66172846807655
 20
128.6998307558358
 10
95.66034590503443
 20
128.6583180418092
 10
95.66115954500764
 20
128.6022745851978
 10
95.65822300566173
 20
128.5477093882783
 10
95.68164075617657
 20
128.4883295121098
 10
95.69549860377959
 20
128.4354005674434
 10
95.73345057372304
 20
128.3621140251919
 10
95.79891692654104
 20
128.2775572014829
 10
95.92340667255854
 20
128.1749212381902
 10
96.04310720311787
 20
128.1645092974729
 10
96.11383334584804
 20
128.1583573079886
 72
     1
 10
96.11383334584804
 20
128.1583573079886
 11
96.86428716903352
 21
128.1583573079886
 72
     4
 94
        3
 73
     0
 74
     0
 95
       11
 96
        7
 40
0.1647869275458135
 40
0.1647869275458135
 40
0.1647869275458135
 40
0.1647869275458135
 40
0.2545010798212315
 40
0.5111620267764023
 40
0.7602998271033902
 40
0.8850764140209603
 40
0.8850764140209603
 40
0.8850764140209603
 40
0.8850764140209603
 10
96.86428716903339
 20
128.1583573079886
 10
96.87475906935327
 20
128.1581554923456
 10
96.91518976418189
 20
128.1573763074388
 10
96.9842863062783
 20
128.1673028380234
 10
97.05698507341635
 20
128.1768152323968
 10
97.10032608485057
 20
128.1837428221807
 10
97.11430462765139
 20
128.1876337548972
 72
     4
 94
        3
 73
     0
 74
     0
 95
        9
 96
        5
 40
0.0
 40
0.0
 40
0.0
 40
0.0
 40
0.1135793343552172
 40
0.2662938392177403
 40
0.2662938392177403
 40
0.2662938392177403
 40
0.2662938392177403
 10
97.11430462765139
 20
128.1876337548972
 10
97.15078959596938
 20
128.1987960946204
 10
97.23633088164683
 20
128.2249668968743
 10
97.30700757888362
 20
128.2802792146488
 10
97.34753933453948
 20
128.3119997878567
 72
     4
 94
        3
 73
     0
 74
     0
 95
       25
 96
       21
 40
0.0
 40
0.0
 40
0.0
 40
0.0
 40
0.165525918914855
 40
0.3412380755365305
 40
0.5940540902285263
 40
0.7697671103696209
 40
0.9377330196075423
 40
1.11479469302833
 40
1.274661249598185
 40
1.574522170874768
 40
1.815540668866877
 40
2.15849091873445
 40
2.536227739636605
 40
2.738070817316548
 40
2.925680654369045
 40
3.162706124480894
 40
3.395643218188267
 40
3.648478129958861
 40
3.928509979727306
 40
4.337226830236035
 40
4.337226830236035
 40
4.337226830236035
 40
4.337226830236035
 10
97.34753933453948
 20
128.3119997878567
 10
97.36243199193319
 20
128.3243065318024
 10
97.39067929123706
 20
128.3535766550241
 10
97.44078052787683
 20
128.4010170033627
 10
97.48493068768352
 20
128.4562887738167
 10
97.53939308840068
 20
128.5010846066901
 10
97.56774604393962
 20
128.5558508330376
 10
97.60861459124379
 20
128.5989233035367
 10
97.64289661016114
 20
128.6654444855273
 10
97.67198320886116
 20
128.7418562506714
 10
97.69971326435864
 20
128.8414575343749
 10
97.71033970769526
 20
128.9538225874204
 10
97.69461125004813
 20
129.0625357198515
 10
97.65661527237325
 20
129.1437952153883
 10
97.62868111160418
 20
129.2115166300544
 10
97.58628752296175
 20
129.2756607337316
 10
97.53792216810115
 20
129.3454245400658
 10
97.46978394734169
 20
129.4031305023807
 10
97.38073428872059
 20
129.4727331917562
 10
97.29779118100209
 20
129.4753980682623
 10
97.24857113057652
 20
129.4769794577184
 72
     1
 10
97.24857113057659
 20
129.4769794577184
 11
96.49811730739118
 21
129.4769794577184
 97
        6
330
20BD
330
20BE
330
20BC
330
20BF
330
20C0
330
20C1
 92
       20
 93
        1
 72
     3
 10
96.67057570202196
 20
128.7992834654994
 11
0.1782847090673272
 21
0.1567790921840611
 40
0.6788083417438794
 50
0.0
 51
360.0
 73
     1
 97
        1
330
20C2
 75
     0
 76
     1
 47
0.088756267210375
 98
        2
 10
96.72300697779059
 20
129.1127707358234
 10
96.72300697779059
 20
129.1127707358234
450
        0
451
        0
460
0.0
461
0.0
452
        0
462
0.0
453
        0
470

  0
TEXT
  5
20C4
330
18
100
AcDbEntity
  8
文字
100
AcDbText
 10
99.8699243063973
 20
119.5745856919924
 30
0.0
 40
1.0
  1
0.01mm
  7
STYLE3
100
AcDbText
  0
INSERT
  5
20C5
330
18
100
AcDbEntity
  8
外形線
100
AcDbBlockReference
  2
A$C47D905DE
 10
99.96288683273441
 20
118.0016172525603
 30
0.0
  0
TEXT
  5
2177
330
18
100
AcDbEntity
  8
文字
100
AcDbText
 10
83.93784458211756
 20
184.9201229928985
 30
0.0
 40
4.0
  1
Model No.T-3 Dial Depth Gauge
  7
STYLE3
100
AcDbText
  0
LINE
  5
2178
330
18
100
AcDbEntity
  8
外形線
100
AcDbLine
 10
83.31924558211756
 20
183.0252079928985
 30
0.0
 11
178.3192455821176
 21
183.0252079928985
 31
0.0
  0
LINE
  5
2179
330
18
100
AcDbEntity
  8
外形線
100
AcDbLine
 10
83.31924558211756
 20
182.0252079928985
 30
0.0
 11
178.3192455821176
 21
182.0252079928985
 31
0.0
  0
TEXT
  5
217A
330
18
100
AcDbEntity
  8
0
  6
Continuous
100
AcDbText
 10
196.4376785821175
 20
4.166289708421309
 30
0.0
 40
2.1
  1
2010.06.22
  7
STYLE3
100
AcDbText
  0
TEXT
  5
217B
330
18
100
AcDbEntity
  8
0
  6
Continuous
100
AcDbText
 10
115.2194635821175
 20
16.11192370842131
 30
0.0
 40
3.5
  1
仕様及び外観は予告なく変更される場合がございますのでご了承下さい。
  7
STYLE3
100
AcDbText
  0
TEXT
  5
217C
330
18
100
AcDbEntity
  8
0
  6
Continuous
100
AcDbText
 10
114.9279695821175
 20
12.18277570842131
 30
0.0
 40
2.1
  1
Design and specifications are subject to change without notice for future improvement.
  7
STYLE3
100
AcDbText
  0
LINE
  5
217D
330
18
100
AcDbEntity
  8
外形線
100
AcDbLine
 10
113.4705025821175
 20
10.28478570842131
 30
0.0
 11
254.2619205821175
 21
10.28478570842131
 31
0.0
  0
LINE
  5
217E
330
18
100
AcDbEntity
  8
外形線
100
AcDbLine
 10
113.4705025821175
 20
21.06499070842131
 30
0.0
 11
254.2619205821175
 21
21.06499070842131
 31
0.0
  0
TEXT
  5
217F
330
18
100
AcDbEntity
  8
0
  6
Continuous
100
AcDbText
 10
114.6364785821175
 20
2.418147708421308
 30
0.0
 40
2.1
  1
3RD Angle Projection
  7
STYLE3
100
AcDbText
  0
LINE
  5
2180
330
18
100
AcDbEntity
  8
外形線
100
AcDbLine
 10
113.4705025821175
 20
0.6700077084213091
 30
0.0
 11
113.4705025821175
 21
21.06499070842131
 31
0.0
  0
TEXT
  5
2181
330
18
100
AcDbEntity
  8
0
  6
Continuous
100
AcDbText
 10
117.2599215821175
 20
5.914430708421309
 30
0.0
 40
3.0
  1
三　　角　　法
  7
STYLE3
100
AcDbText
  0
LINE
  5
2182
330
18
100
AcDbEntity
  8
外形線
100
AcDbLine
 10
166.2308475821175
 20
10.28478570842131
 30
0.0
 11
166.2308475821175
 21
0.6700077084213091
 31
0.0
  0
LINE
  5
2183
330
18
100
AcDbEntity
  8
外形線
100
AcDbLine
 10
185.7609195821176
 20
10.28478570842131
 30
0.0
 11
185.7609195821176
 21
0.6700077084213091
 31
0.0
  0
LINE
  5
2184
330
18
100
AcDbEntity
  8
外形線
100
AcDbLine
 10
148.7412305821175
 20
10.28478570842131
 30
0.0
 11
148.7412305821175
 21
0.6700077084213091
 31
0.0
  0
TEXT
  5
2185
330
18
100
AcDbEntity
  8
0
  6
Continuous
100
AcDbText
 10
158.2407475821175
 20
4.166291708421309
 30
0.0
 40
2.399999999999999
  1
mm
  7
STYLE3
100
AcDbText
  0
TEXT
  5
2186
330
18
100
AcDbEntity
  8
0
  6
Continuous
100
AcDbText
 10
150.3704205821176
 20
2.418148708421308
 30
0.0
 40
2.1
  1
Unit
  7
STYLE3
100
AcDbText
  0
TEXT
  5
2187
330
18
100
AcDbEntity
  8
0
  6
Continuous
100
AcDbText
 10
150.1986995821176
 20
5.920385708421308
 30
0.0
 40
3.0
  1
単位
  7
STYLE3
100
AcDbText
  0
TEXT
  5
2188
330
18
100
AcDbEntity
  8
0
  6
Continuous
100
AcDbText
 10
167.9798105821175
 20
2.709505708421309
 30
0.0
 40
2.1
  1
Scale
  7
STYLE3
100
AcDbText
  0
TEXT
  5
2189
330
18
100
AcDbEntity
  8
0
  6
Continuous
100
AcDbText
 10
167.5165955821176
 20
5.629027708421308
 30
0.0
 40
3.0
  1
尺 度
  7
STYLE3
100
AcDbText
  0
TEXT
  5
218A
330
18
100
AcDbEntity
  8
0
  6
Continuous
100
AcDbText
 10
187.6928705821175
 20
2.418149708421308
 30
0.0
 40
2.1
  1
Date
  7
STYLE3
100
AcDbText
  0
TEXT
  5
218B
330
18
100
AcDbEntity
  8
0
  6
Continuous
100
AcDbText
 10
187.3095095821175
 20
5.751232708421309
 30
0.0
 40
3.0
  1
日 付
  7
STYLE3
100
AcDbText
  0
TEXT
  5
218C
330
18
100
AcDbEntity
  8
0
  6
Continuous
100
AcDbText
 10
177.5990995821175
 20
4.457648708421309
 30
0.0
 40
2.399999999999999
  1
1/1
  7
STYLE3
100
AcDbText
  0
TEXT
  5
218D
330
18
100
AcDbEntity
  8
0
  6
Continuous
100
AcDbText
 10
216.8422325821175
 20
6.205787708421309
 30
0.0
 40
3.0
  1
株式会社　尾崎製作所
  7
STYLE3
100
AcDbText
  0
LINE
  5
218E
330
18
100
AcDbEntity
  8
外形線
100
AcDbLine
 10
215.4932695821176
 20
10.28478570842131
 30
0.0
 11
215.4932695821176
 21
0.6700077084213091
 31
0.0
  0
TEXT
  5
218F
330
18
100
AcDbEntity
  8
0
  6
Continuous
100
AcDbText
 10
217.7167115821176
 20
2.418148708421308
 30
0.0
 40
2.1
  1
OZAKI MFG. CO., LTD.
  7
STYLE3
100
AcDbText
  0
ENDSEC
  0
SECTION
  2
OBJECTS
  0
DICTIONARY
  5
C
330
0
100
AcDbDictionary
281
     1
  3
ACAD_COLOR
350
1B47
  3
ACAD_GROUP
350
D
  3
ACAD_IMAGE_DICT
350
E58
  3
ACAD_LAYOUT
350
1B4A
  3
ACAD_MATERIAL
350
1B46
  3
ACAD_MLINESTYLE
350
1B
  3
ACAD_PLOTSETTINGS
350
1B4B
  3
ACAD_PLOTSTYLENAME
350
1B44
  3
ACAD_TABLESTYLE
350
1B48
  3
ACDBVARIABLEDICTIONARY
350
101E
  0
DICTIONARY
  5
210B
330
18
100
AcDbDictionary
280
     1
281
     1
  3
ACAD_SORTENTS
360
210C
  0
DICTIONARY
  5
1B47
102
{ACAD_REACTORS
330
C
102
}
330
C
100
AcDbDictionary
281
     1
  0
DICTIONARY
  5
D
102
{ACAD_REACTORS
330
C
102
}
330
C
100
AcDbDictionary
281
     1
  0
DICTIONARY
  5
E58
102
{ACAD_REACTORS
330
C
102
}
330
C
100
AcDbDictionary
281
     1
  3
ROGO01
350
E59
  0
DICTIONARY
  5
1B4A
102
{ACAD_REACTORS
330
C
102
}
330
C
100
AcDbDictionary
281
     1
  3
Model
350
1B4C
  3
レイアウト1
350
1B4D
  0
DICTIONARY
  5
1B46
102
{ACAD_REACTORS
330
C
102
}
330
C
100
AcDbDictionary
281
     1
  0
DICTIONARY
  5
1B
102
{ACAD_REACTORS
330
C
102
}
330
C
100
AcDbDictionary
281
     1
  3
STANDARD
350
1C
  0
DICTIONARY
  5
1B4B
102
{ACAD_REACTORS
330
C
102
}
330
C
100
AcDbDictionary
281
     1
  0
ACDBDICTIONARYWDFLT
  5
1B44
102
{ACAD_REACTORS
330
C
102
}
330
C
100
AcDbDictionary
281
     1
  3
Normal
350
1B45
100
AcDbDictionaryWithDefault
340
1B45
  0
DICTIONARY
  5
1B48
102
{ACAD_REACTORS
330
C
102
}
330
C
100
AcDbDictionary
281
     1
  3
Standard
350
1B49
  0
DICTIONARY
  5
101E
102
{ACAD_REACTORS
330
C
102
}
330
C
100
AcDbDictionary
281
     1
  3
CTABLESTYLE
350
1DC6
  3
SORTENTS
350
101F
  0
SORTENTSTABLE
  5
210C
102
{ACAD_REACTORS
330
210B
102
}
330
210B
100
AcDbSortentsTable
330
18
331
286
  5
286
331
2C5
  5
2C5
331
694
  5
694
331
9B1
  5
9B3
331
69C
  5
69C
331
28E
  5
28E
331
2CD
  5
2CD
331
97A
  5
97C
331
2080
  5
2082
331
296
  5
296
331
982
  5
984
331
2088
  5
208A
331
2090
  5
2092
331
2098
  5
209A
331
247
  5
247
331
24F
  5
24F
331
1C89
  5
1C8C
331
1A4D
  5
1A67
331
18DF
  5
18E4
331
257
  5
257
331
1B13
  5
1B15
331
1820
  5
1822
331
1C91
  5
1C93
331
1C99
  5
1C9B
331
1B1B
  5
1B1D
331
1828
  5
182A
331
1907
  5
1909
331
1AA4
  5
1AA6
331
98A
  5
98C
331
25F
  5
25F
331
29E
  5
29E
331
7D3
  5
7D3
331
992
  5
994
331
2A6
  5
2A6
331
267
  5
267
331
5D5
  5
5D5
331
6BC
  5
6BC
331
99A
  5
99C
331
2AE
  5
2AE
331
26F
  5
26F
331
6C4
  5
6C4
331
1CA1
  5
207A
331
20A0
  5
20A2
331
FF9
  5
102C
331
6CC
  5
6CC
331
277
  5
277
331
2B6
  5
2B6
331
665
  5
665
331
9A2
  5
9A4
331
1630
  5
1632
331
20A8
  5
20AA
331
20B0
  5
20B2
331
2079
  5
207B
331
20B8
  5
20BA
331
1830
  5
1832
331
1A16
  5
1A4D
331
1B23
  5
1B25
331
1C6A
  5
1C6D
331
1C72
  5
1C74
331
1ABC
  5
1ABE
331
1848
  5
184A
331
17D1
  5
17D3
331
1B2B
  5
1B2D
331
1B33
  5
1B35
331
1AC4
  5
1B12
331
1850
  5
1852
331
1C7A
  5
1C7C
331
1B3B
  5
1B3D
331
1C82
  5
1C84
331
9AA
  5
9AD
331
27F
  5
27F
331
2BE
  5
2BE
331
695
  5
695
331
287
  5
287
331
2C6
  5
2C6
331
9B2
  5
9B4
331
2CE
  5
2CE
331
28F
  5
28F
331
97B
  5
97D
331
16D0
  5
17CA
331
2081
  5
2083
331
20C0
  5
20C2
331
983
  5
985
331
297
  5
297
331
6AD
  5
6AD
331
2089
  5
208B
331
2091
  5
2093
331
2099
  5
209B
331
248
  5
248
331
250
  5
250
331
1C8A
  5
1C8D
331
19D7
  5
19FA
331
1821
  5
1823
331
1B14
  5
1B16
331
1C92
  5
1C94
331
1C9A
  5
1C9C
331
1829
  5
182B
331
1B1C
  5
1B1E
331
1AA5
  5
1AA7
331
258
  5
258
331
29F
  5
29F
331
260
  5
260
331
98B
  5
98D
331
6BD
  5
6BD
331
268
  5
268
331
2A7
  5
2A7
331
5D6
  5
5D6
331
993
  5
995
331
99B
  5
99D
331
6C5
  5
6C5
331
270
  5
270
331
2AF
  5
2AF
331
20A1
  5
20A3
331
1631
  5
1633
331
9A3
  5
9A5
331
2B7
  5
2B7
331
666
  5
666
331
6CD
  5
6CD
331
20A9
  5
20AB
331
20B1
  5
20B3
331
207A
  5
207C
331
20B9
  5
20BB
331
1908
  5
190A
331
1831
  5
1845
331
17CA
  5
17CC
331
1B24
  5
1B26
331
1B2C
  5
1B2E
331
1849
  5
184B
331
17D2
  5
17D4
331
1ABD
  5
1ABF
331
1C73
  5
1C75
331
1851
  5
1853
331
1B34
  5
1B36
331
1C7B
  5
1C7D
331
1C83
  5
1C85
331
1B3C
  5
1B3E
331
278
  5
278
331
2BF
  5
2BF
331
280
  5
280
331
288
  5
288
331
2C7
  5
2C7
331
696
  5
696
331
9B3
  5
9B5
331
290
  5
290
331
97C
  5
97E
331
2082
  5
2084
331
20C1
  5
20C3
331
984
  5
986
331
6AE
  5
6AE
331
13D2
  5
14AC
331
208A
  5
208C
331
2092
  5
2094
331
209A
  5
209C
331
249
  5
249
331
251
  5
251
331
1B15
  5
1B17
331
1822
  5
1824
331
1C93
  5
1C95
331
1C9B
  5
1C9D
331
182A
  5
182C
331
1B1D
  5
1B1F
331
1AA6
  5
1AA8
331
259
  5
259
331
298
  5
298
331
5CF
  5
5CF
331
261
  5
261
331
2A0
  5
2A0
331
98C
  5
98E
331
994
  5
996
331
2A8
  5
2A8
331
269
  5
269
331
5D7
  5
5D7
331
6BE
  5
6BE
331
6C6
  5
6C6
331
2B0
  5
2B0
331
271
  5
271
331
99C
  5
99E
331
2109
  5
96E
331
20A2
  5
20A4
331
1632
  5
1634
331
6CE
  5
6CE
331
667
  5
667
331
9A4
  5
9A6
331
20AA
  5
20AC
331
20B2
  5
20B4
331
207B
  5
207D
331
20BA
  5
20BC
331
1832
  5
1846
331
1909
  5
1989
331
17CB
  5
17CD
331
1A67
  5
1A87
331
1B25
  5
1B27
331
1C6C
  5
1C6E
331
1C74
  5
1C76
331
1989
  5
199A
331
184A
  5
184C
331
17D3
  5
17D5
331
1ABE
  5
1AC0
331
1B2D
  5
1B2F
331
1B35
  5
1B37
331
1852
  5
18DB
331
1991
  5
19D5
331
1A40
  5
1A5A
331
1C7C
  5
1C7E
331
1B3D
  5
1B3F
331
1C84
  5
1C86
331
279
  5
279
331
2B8
  5
2B8
331
9AC
  5
9AE
331
281
  5
281
331
2C0
  5
2C0
331
96D
  5
96D
331
2C8
  5
2C8
331
289
  5
289
331
975
  5
977
331
9B4
  5
9B6
331
97D
  5
97F
331
291
  5
291
331
78E
  5
78E
331
2083
  5
2085
331
20C2
  5
20C4
331
985
  5
987
331
6AF
  5
6AF
331
208B
  5
208D
331
2093
  5
2095
331
209B
  5
209D
331
24A
  5
24A
331
252
  5
252
331
1A87
  5
1A89
331
1C8C
  5
1C8E
331
19E1
  5
19FB
331
1823
  5
1825
331
1B16
  5
1B18
331
1C94
  5
1C96
331
1C9C
  5
1C9E
331
182B
  5
182D
331
1B1E
  5
1B20
331
1AA7
  5
1AA9
331
299
  5
299
331
25A
  5
25A
331
7D6
  5
7D6
331
262
  5
262
331
2A1
  5
2A1
331
5D0
  5
5D0
331
98D
  5
98F
331
995
  5
997
331
26A
  5
26A
331
2A9
  5
2A9
331
6BF
  5
6BF
331
EB4
  5
FF8
331
162B
  5
162D
331
99D
  5
99F
331
272
  5
272
331
2B1
  5
2B1
331
6C7
  5
6C7
331
210A
  5
975
331
20A3
  5
20A5
331
1633
  5
1644
331
9A5
  5
9A7
331
6CF
  5
6CF
331
20AB
  5
20AD
331
20B3
  5
20B5
331
207C
  5
207E
331
20BB
  5
20BD
331
190A
  5
1991
331
1A11
  5
1A13
331
17CC
  5
17CE
331
1B26
  5
1B28
331
1C6D
  5
1C70
331
1B2E
  5
1B30
331
184B
  5
184D
331
17D4
  5
17DC
331
1ABF
  5
1AC1
331
1C75
  5
1C77
331
17DC
  5
17E5
331
1853
  5
18DC
331
1B36
  5
1B38
331
1C7D
  5
1C7F
331
1C85
  5
1C87
331
1B3E
  5
1C66
331
27A
  5
27A
331
2B9
  5
2B9
331
668
  5
668
331
282
  5
282
331
2C1
  5
2C1
331
96E
  5
976
331
9AD
  5
9AF
331
28A
  5
28A
331
2C9
  5
2C9
331
976
  5
978
331
9B5
  5
EB4
331
102C
  5
102E
331
292
  5
292
331
78F
  5
78F
331
97E
  5
980
331
2084
  5
2086
331
20C3
  5
20C5
331
986
  5
988
331
208C
  5
208E
331
2094
  5
2096
331
209C
  5
209E
331
24B
  5
24B
331
199A
  5
19D7
331
253
  5
253
331
18DB
  5
18DD
331
18E3
  5
18E5
331
181C
  5
181E
331
1A88
  5
1A90
331
1C8D
  5
1C8F
331
1A90
  5
1AA1
331
1903
  5
1905
331
1824
  5
1826
331
1B17
  5
1B19
331
1C95
  5
1C97
331
1C9D
  5
1C9F
331
1B1F
  5
1B21
331
1AA0
  5
1AA2
331
182C
  5
182E
331
19FA
  5
1A11
331
1C66
  5
1C68
331
6B0
  5
6B0
331
25B
  5
25B
331
29A
  5
29A
331
98E
  5
990
331
5D1
  5
5D1
331
263
  5
263
331
2A2
  5
2A2
331
6B8
  5
6B8
331
14AC
  5
162C
331
996
  5
998
331
2AA
  5
2AA
331
26B
  5
26B
331
5D9
  5
5D9
331
6C0
  5
6C0
331
162C
  5
162E
331
273
  5
273
331
2B2
  5
2B2
331
661
  5
661
331
99E
  5
9A0
331
9A6
  5
9A8
331
887
  5
887
331
1634
  5
1645
331
20A4
  5
20A6
331
20AC
  5
20AE
331
20B4
  5
20B6
331
207D
  5
207F
331
20BC
  5
20BE
331
1A12
  5
1A15
331
1AA8
  5
1AAA
331
1C6E
  5
1C71
331
17CD
  5
17CF
331
1B27
  5
1B29
331
1C76
  5
1C78
331
1AC0
  5
1AC2
331
184C
  5
184E
331
17D5
  5
17DD
331
1B2F
  5
1B31
331
17DD
  5
17E6
331
1B37
  5
1B39
331
1C7E
  5
1C80
331
1B3F
  5
1C67
331
1C86
  5
1C88
331
6D0
  5
6D0
331
27B
  5
27B
331
2BA
  5
2BA
331
669
  5
669
331
1644
  5
16BE
331
9AE
  5
9B0
331
778
  5
778
331
283
  5
283
331
2C2
  5
2C2
331
2CA
  5
2CA
331
28B
  5
28B
331
977
  5
979
331
9B6
  5
FF7
331
102D
  5
13D2
331
97F
  5
981
331
293
  5
293
331
987
  5
989
331
2085
  5
2087
331
20C4
  5
2109
331
208D
  5
208F
331
2095
  5
2097
331
209D
  5
209F
331
244
  5
244
331
24C
  5
24C
331
254
  5
254
331
17E5
  5
181C
331
18DC
  5
18DF
331
181D
  5
181F
331
18E4
  5
18E6
331
1A89
  5
1AA0
331
1C8E
  5
1C90
331
1C96
  5
1C98
331
1904
  5
1907
331
1825
  5
1827
331
1A5A
  5
1A74
331
1B18
  5
1B1A
331
1AA1
  5
1AA3
331
19FB
  5
1A12
331
182D
  5
182F
331
1C9E
  5
1CA0
331
1C67
  5
1C69
331
29B
  5
29B
331
25C
  5
25C
331
6B1
  5
6B1
331
6B9
  5
6B9
331
264
  5
264
331
2A3
  5
2A3
331
5D2
  5
5D2
331
98F
  5
991
331
997
  5
999
331
6C1
  5
6C1
331
26C
  5
26C
331
2AB
  5
2AB
331
162D
  5
162F
331
99F
  5
9A1
331
662
  5
662
331
274
  5
274
331
2B3
  5
2B3
331
6C9
  5
6C9
331
9A7
  5
9A9
331
20A5
  5
20A7
331
20AD
  5
20AF
331
20B5
  5
20B7
331
207E
  5
2080
331
20BD
  5
20BF
331
1AA9
  5
1ABA
331
1A13
  5
1A16
331
1B20
  5
1B22
331
17CE
  5
17D0
331
1845
  5
1848
331
1B28
  5
1B2A
331
1B30
  5
1B32
331
184D
  5
184F
331
1AC1
  5
1AC3
331
1C77
  5
1C79
331
1C7F
  5
1C81
331
1B38
  5
1B3A
331
1C87
  5
1C89
331
2BB
  5
2BB
331
27C
  5
27C
331
66A
  5
66A
331
6D1
  5
6D1
331
100E
  5
102D
331
284
  5
284
331
2C3
  5
2C3
331
692
  5
692
331
9AF
  5
9B1
331
1645
  5
16D0
331
789
  5
789
331
28C
  5
28C
331
2CB
  5
2CB
331
978
  5
97A
331
102E
  5
142F
331
294
  5
294
331
980
  5
982
331
2086
  5
2088
331
20C5
  5
210A
331
208E
  5
2090
331
2096
  5
2098
331
209E
  5
20A0
331
245
  5
245
331
24D
  5
24D
331
255
  5
255
331
17E6
  5
181D
331
18DD
  5
18E3
331
18E5
  5
1903
331
181E
  5
1820
331
1C8F
  5
1C91
331
1B19
  5
1B1B
331
1905
  5
1908
331
1826
  5
1828
331
1C97
  5
1C99
331
1C9F
  5
1CA1
331
182E
  5
1830
331
1AA2
  5
1AA4
331
988
  5
98A
331
6B2
  5
6B2
331
25D
  5
25D
331
29C
  5
29C
331
7D1
  5
7D1
331
839
  5
839
331
5D3
  5
5D3
331
265
  5
265
331
2A4
  5
2A4
331
6BA
  5
6BA
331
990
  5
992
331
841
  5
841
331
2AC
  5
2AC
331
26D
  5
26D
331
6C2
  5
6C2
331
998
  5
99A
331
FF7
  5
FF9
331
6CA
  5
6CA
331
275
  5
275
331
2B4
  5
2B4
331
663
  5
663
331
9A0
  5
9A2
331
162E
  5
1630
331
20A6
  5
20A8
331
20AE
  5
20B0
331
20B6
  5
20B8
331
207F
  5
2081
331
20BE
  5
20C0
331
1B21
  5
1B23
331
17C7
  5
17CB
331
1AAA
  5
1ABB
331
1C68
  5
1C6A
331
1C70
  5
1C72
331
1ABA
  5
1ABC
331
17CF
  5
17D1
331
1846
  5
1849
331
1B29
  5
1B2B
331
1C78
  5
1C7A
331
1AC2
  5
1AC4
331
184E
  5
1850
331
1B31
  5
1B33
331
1B39
  5
1B3B
331
1C80
  5
1C82
331
9A8
  5
9AA
331
27D
  5
27D
331
2BC
  5
2BC
331
693
  5
693
331
285
  5
285
331
9B0
  5
9B2
331
2CC
  5
2CC
331
28D
  5
28D
331
979
  5
97B
331
16BE
  5
17C7
331
295
  5
295
331
981
  5
983
331
2087
  5
2089
331
208F
  5
2091
331
2097
  5
2099
331
209F
  5
20A1
331
246
  5
246
331
24E
  5
24E
331
1AD2
  5
1B13
331
1C88
  5
1C8A
331
256
  5
256
331
1B12
  5
1B14
331
181F
  5
1821
331
18E6
  5
1904
331
19D5
  5
19E1
331
1C90
  5
1C92
331
1C98
  5
1C9A
331
1827
  5
1829
331
1B1A
  5
1B1C
331
1AA3
  5
1AA5
331
182F
  5
1831
331
29D
  5
29D
331
25E
  5
25E
331
7D2
  5
7D2
331
989
  5
98B
331
142F
  5
162B
331
6BB
  5
6BB
331
266
  5
266
331
2A5
  5
2A5
331
5D4
  5
5D4
331
83A
  5
83A
331
991
  5
993
331
999
  5
99B
331
6C3
  5
6C3
331
26E
  5
26E
331
2AD
  5
2AD
331
1CA0
  5
2079
331
162F
  5
1631
331
9A1
  5
9A3
331
664
  5
664
331
276
  5
276
331
2B5
  5
2B5
331
6CB
  5
6CB
331
FF8
  5
100E
331
20A7
  5
20A9
331
20AF
  5
20B1
331
20B7
  5
20B9
331
20BF
  5
20C1
331
1B22
  5
1B24
331
1A15
  5
1A40
331
1C69
  5
1C6C
331
1B2A
  5
1B2C
331
17D0
  5
17D2
331
1ABB
  5
1ABD
331
1C71
  5
1C73
331
1B32
  5
1B34
331
184F
  5
1851
331
1A74
  5
1A88
331
1AC3
  5
1AD2
331
1C79
  5
1C7B
331
1C81
  5
1C83
331
1B3A
  5
1B3C
331
2BD
  5
2BD
331
27E
  5
27E
331
9A9
  5
9AC
  0
IMAGEDEF
  5
E59
102
{ACAD_REACTORS
330
E58
102
}
330
E58
100
AcDbRasterImageDef
 90
        0
  1
D:\ﾃｽﾄ\rogo01.TIF
 10
3388.0
 20
4668.0
 11
0.0635
 21
0.0635
280
     1
281
     5
  0
LAYOUT
  5
1B4C
102
{ACAD_REACTORS
330
1B4A
102
}
330
1B4A
100
AcDbPlotSettings
  1

  2
A4 EPSON LP-6100.pc3
  4
A4
  6

 40
5.873749732971191
 41
5.873747825622558
 42
5.873748779296875
 43
5.873748779296875
 44
209.9733276367187
 45
297.0106506347656
 46
0.0
 47
25.0
 48
0.0
 49
0.0
140
0.0
141
0.0
142
1.0
143
1.0
 70
 28336
 72
     1
 73
     1
 74
     1
  7
AutoCad LT 98.ctb
 75
    16
147
1.0
 76
     1
 77
     2
 78
   300
148
0.2128225079886761
149
0.2090691322566727
100
AcDbLayout
  1
Model
 70
     1
 71
     0
 10
0.0
 20
0.0
 11
12.0
 21
9.0
 12
0.0
 22
0.0
 32
0.0
 14
0.0
 24
0.0
 34
0.0
 15
0.0
 25
0.0
 35
0.0
146
0.0
 13
0.0
 23
0.0
 33
0.0
 16
1.0
 26
0.0
 36
0.0
 17
0.0
 27
1.0
 37
0.0
 76
     0
330
18
1001
ACAD_PSEXT
1000
A4 EPSON LP-6100.pc3
1000
EPSON LP-6100
1000
\\SATO-MATE2
1000

1070
     0
  0
LAYOUT
  5
1B4D
102
{ACAD_REACTORS
330
1B4A
102
}
330
1B4A
100
AcDbPlotSettings
  1

  2
C:\Documents and Settings\佐藤\Application Data\Autodesk\AutoCAD LT 2005\R10\jpn\plotters\PEACOCK EPSON LP-6100.pc3
  4

  6

 40
0.0
 41
0.0
 42
0.0
 43
0.0
 44
0.0
 45
0.0
 46
0.0
 47
0.0
 48
0.0
 49
0.0
140
0.0
141
0.0
142
1.0
143
1.0
 70
   688
 72
     0
 73
     0
 74
     5
  7
AutoCAD LT 98.ctb
 75
    16
147
1.0
 76
     0
 77
     2
 78
   300
148
0.0
149
0.0
100
AcDbLayout
  1
レイアウト1
 70
     1
 71
     1
 10
0.0
 20
0.0
 11
420.0
 21
297.0
 12
0.0
 22
0.0
 32
0.0
 14
1.000000000000000E+20
 24
1.000000000000000E+20
 34
1.000000000000000E+20
 15
-1.000000000000000E+20
 25
-1.000000000000000E+20
 35
-1.000000000000000E+20
146
0.0
 13
0.0
 23
0.0
 33
0.0
 16
1.0
 26
0.0
 36
0.0
 17
0.0
 27
1.0
 37
0.0
 76
     0
330
15
  0
MLINESTYLE
  5
1C
102
{ACAD_REACTORS
330
1B
102
}
330
1B
100
AcDbMlineStyle
  2
STANDARD
 70
     0
  3

 62
   256
 51
90.0
 52
90.0
 71
     2
 49
0.5
 62
   256
  6
BYLAYER
 49
-0.5
 62
   256
  6
BYLAYER
  0
ACDBPLACEHOLDER
  5
1B45
102
{ACAD_REACTORS
330
1B44
102
}
330
1B44
  0
ACAD_PROXY_OBJECT
  5
1B49
102
{ACAD_REACTORS
330
1B48
102
}
330
1B48
100
AcDbProxyObject
 90
      499
 91
      505
 95
  2555929
 70
     0
 93
     1849
310
4214DD185B99185C992420000000000000F83F0000000000003E0FC00000000000004901028000000C1008070000C3001FDFF8000000C1003FBFF000000182007F7FE00000030400FEFFC00000060801FDFF8000000C1003FBFF000000182000000000000000C2020B0000001820100E000186003FBFF000000182007F7FE0
310
0000030400FEFFC00000060801FDFF8000000C1003FBFF000000182007F7FE0000003040000000000000012404160000003040201C00030C007F7FE00000030400FEFFC00000060801FDFF8000000C1003FBFF000000182007F7FE00000030400FEFFC000000608031
340
F
340
F
340
F
 94
        0
  0
DICTIONARYVAR
  5
1DC6
102
{ACAD_REACTORS
330
101E
102
}
330
101E
100
DictionaryVariables
280
     0
  1
STANDARD
  0
DICTIONARYVAR
  5
101F
102
{ACAD_REACTORS
330
101E
102
}
330
101E
100
DictionaryVariables
280
     0
  1
96
  0
ENDSEC
  0
EOF
