  0
SECTION
  2
HEADER
  9
$ACADVER
  1
AC1018
  9
$ACADMAINTVER
 70
     0
  9
$DWGCODEPAGE
  3
ANSI_932
  9
$INSBASE
 10
0.0
 20
0.0
 30
0.0
  9
$EXTMIN
 10
236.4655447250277
 20
171.6339910587469
 30
-0.0000000000000076
  9
$EXTMAX
 10
491.8990726422339
 20
367.055780868036
 30
0.0000000000000076
  9
$LIMMIN
 10
0.0
 20
0.0
  9
$LIMMAX
 10
420.0
 20
297.0
  9
$ORTHOMODE
 70
     0
  9
$REGENMODE
 70
     1
  9
$FILLMODE
 70
     1
  9
$QTEXTMODE
 70
     0
  9
$MIRRTEXT
 70
     1
  9
$LTSCALE
 40
1.0
  9
$ATTMODE
 70
     1
  9
$TEXTSIZE
 40
1.0
  9
$TRACEWID
 40
1.0
  9
$TEXTSTYLE
  7
STYLE3
  9
$CLAYER
  8
寸法線
  9
$CELTYPE
  6
BYLAYER
  9
$CECOLOR
 62
   256
  9
$CELTSCALE
 40
1.0
  9
$DISPSILH
 70
     0
  9
$DIMSCALE
 40
1.0
  9
$DIMASZ
 40
2.5
  9
$DIMEXO
 40
0.0
  9
$DIMDLI
 40
3.75
  9
$DIMRND
 40
0.0
  9
$DIMDLE
 40
0.0
  9
$DIMEXE
 40
1.25
  9
$DIMTP
 40
0.0
  9
$DIMTM
 40
0.0
  9
$DIMTXT
 40
2.5
  9
$DIMCEN
 40
2.5
  9
$DIMTSZ
 40
0.0
  9
$DIMTOL
 70
     0
  9
$DIMLIM
 70
     0
  9
$DIMTIH
 70
     0
  9
$DIMTOH
 70
     0
  9
$DIMSE1
 70
     0
  9
$DIMSE2
 70
     0
  9
$DIMTAD
 70
     1
  9
$DIMZIN
 70
     8
  9
$DIMBLK
  1

  9
$DIMASO
 70
     1
  9
$DIMSHO
 70
     1
  9
$DIMPOST
  1

  9
$DIMAPOST
  1

  9
$DIMALT
 70
     0
  9
$DIMALTD
 70
     4
  9
$DIMALTF
 40
0.0394
  9
$DIMLFAC
 40
1.0
  9
$DIMTOFL
 70
     1
  9
$DIMTVP
 40
0.0
  9
$DIMTIX
 70
     0
  9
$DIMSOXD
 70
     0
  9
$DIMSAH
 70
     1
  9
$DIMBLK1
  1
OPEN
  9
$DIMBLK2
  1
OPEN
  9
$DIMSTYLE
  2
STYLE2
  9
$DIMCLRD
 70
     2
  9
$DIMCLRE
 70
     2
  9
$DIMCLRT
 70
     6
  9
$DIMTFAC
 40
1.0
  9
$DIMGAP
 40
0.625
  9
$DIMJUST
 70
     0
  9
$DIMSD1
 70
     0
  9
$DIMSD2
 70
     0
  9
$DIMTOLJ
 70
     1
  9
$DIMTZIN
 70
     0
  9
$DIMALTZ
 70
     0
  9
$DIMALTTZ
 70
     0
  9
$DIMUPT
 70
     0
  9
$DIMDEC
 70
     1
  9
$DIMTDEC
 70
     4
  9
$DIMALTU
 70
     8
  9
$DIMALTTD
 70
     4
  9
$DIMTXSTY
  7
STYLE3
  9
$DIMAUNIT
 70
     0
  9
$DIMADEC
 70
     0
  9
$DIMALTRND
 40
0.0
  9
$DIMAZIN
 70
     0
  9
$DIMDSEP
 70
    46
  9
$DIMATFIT
 70
     3
  9
$DIMFRAC
 70
     0
  9
$DIMLDRBLK
  1

  9
$DIMLUNIT
 70
     2
  9
$DIMLWD
 70
    -2
  9
$DIMLWE
 70
    -2
  9
$DIMTMOVE
 70
     0
  9
$LUNITS
 70
     2
  9
$LUPREC
 70
     4
  9
$SKETCHINC
 40
1.0
  9
$FILLETRAD
 40
2.0
  9
$AUNITS
 70
     0
  9
$AUPREC
 70
     0
  9
$MENU
  1
.
  9
$ELEVATION
 40
0.0
  9
$PELEVATION
 40
0.0
  9
$THICKNESS
 40
0.0
  9
$LIMCHECK
 70
     0
  9
$CHAMFERA
 40
0.6
  9
$CHAMFERB
 40
0.6
  9
$CHAMFERC
 40
20.0
  9
$CHAMFERD
 40
0.0
  9
$SKPOLY
 70
     0
  9
$TDCREATE
 40
2450717.578556713
  9
$TDUCREATE
 40
2450717.203556713
  9
$TDUPDATE
 40
2455370.494779005
  9
$TDUUPDATE
 40
2455370.119779005
  9
$TDINDWG
 40
0.6170938657
  9
$TDUSRTIMER
 40
0.6170938657
  9
$USRTIMER
 70
     1
  9
$ANGBASE
 50
0.0
  9
$ANGDIR
 70
     0
  9
$PDMODE
 70
     0
  9
$PDSIZE
 40
0.0
  9
$PLINEWID
 40
0.0
  9
$SPLFRAME
 70
     0
  9
$SPLINETYPE
 70
     6
  9
$SPLINESEGS
 70
     8
  9
$HANDSEED
  5
1D06
  9
$SURFTAB1
 70
     6
  9
$SURFTAB2
 70
     6
  9
$SURFTYPE
 70
     6
  9
$SURFU
 70
     6
  9
$SURFV
 70
     6
  9
$UCSBASE
  2

  9
$UCSNAME
  2

  9
$UCSORG
 10
0.0
 20
0.0
 30
0.0
  9
$UCSXDIR
 10
1.0
 20
0.0
 30
0.0
  9
$UCSYDIR
 10
0.0
 20
1.0
 30
0.0
  9
$UCSORTHOREF
  2

  9
$UCSORTHOVIEW
 70
     0
  9
$UCSORGTOP
 10
0.0
 20
0.0
 30
0.0
  9
$UCSORGBOTTOM
 10
0.0
 20
0.0
 30
0.0
  9
$UCSORGLEFT
 10
0.0
 20
0.0
 30
0.0
  9
$UCSORGRIGHT
 10
0.0
 20
0.0
 30
0.0
  9
$UCSORGFRONT
 10
0.0
 20
0.0
 30
0.0
  9
$UCSORGBACK
 10
0.0
 20
0.0
 30
0.0
  9
$PUCSBASE
  2

  9
$PUCSNAME
  2

  9
$PUCSORG
 10
0.0
 20
0.0
 30
0.0
  9
$PUCSXDIR
 10
1.0
 20
0.0
 30
0.0
  9
$PUCSYDIR
 10
0.0
 20
1.0
 30
0.0
  9
$PUCSORTHOREF
  2

  9
$PUCSORTHOVIEW
 70
     0
  9
$PUCSORGTOP
 10
0.0
 20
0.0
 30
0.0
  9
$PUCSORGBOTTOM
 10
0.0
 20
0.0
 30
0.0
  9
$PUCSORGLEFT
 10
0.0
 20
0.0
 30
0.0
  9
$PUCSORGRIGHT
 10
0.0
 20
0.0
 30
0.0
  9
$PUCSORGFRONT
 10
0.0
 20
0.0
 30
0.0
  9
$PUCSORGBACK
 10
0.0
 20
0.0
 30
0.0
  9
$USERI1
 70
     0
  9
$USERI2
 70
     0
  9
$USERI3
 70
     0
  9
$USERI4
 70
     0
  9
$USERI5
 70
     0
  9
$USERR1
 40
0.0
  9
$USERR2
 40
0.0
  9
$USERR3
 40
0.0
  9
$USERR4
 40
0.0
  9
$USERR5
 40
0.0
  9
$WORLDVIEW
 70
     1
  9
$SHADEDGE
 70
     3
  9
$SHADEDIF
 70
    70
  9
$TILEMODE
 70
     1
  9
$MAXACTVP
 70
    48
  9
$PINSBASE
 10
0.0
 20
0.0
 30
0.0
  9
$PLIMCHECK
 70
     0
  9
$PEXTMIN
 10
1.000000000000000E+20
 20
1.000000000000000E+20
 30
1.000000000000000E+20
  9
$PEXTMAX
 10
-1.000000000000000E+20
 20
-1.000000000000000E+20
 30
-1.000000000000000E+20
  9
$PLIMMIN
 10
0.0
 20
0.0
  9
$PLIMMAX
 10
420.0
 20
297.0
  9
$UNITMODE
 70
     0
  9
$VISRETAIN
 70
     1
  9
$PLINEGEN
 70
     0
  9
$PSLTSCALE
 70
     1
  9
$TREEDEPTH
 70
  3020
  9
$CMLSTYLE
  2
STANDARD
  9
$CMLJUST
 70
     0
  9
$CMLSCALE
 40
20.0
  9
$PROXYGRAPHICS
 70
     1
  9
$MEASUREMENT
 70
     1
  9
$CELWEIGHT
370
    -1
  9
$ENDCAPS
280
     0
  9
$JOINSTYLE
280
     0
  9
$LWDISPLAY
290
     0
  9
$INSUNITS
 70
     0
  9
$HYPERLINKBASE
  1

  9
$STYLESHEET
  1
AutoCAD LT 98.ctb
  9
$XEDIT
290
     1
  9
$CEPSNTYPE
380
     0
  9
$PSTYLEMODE
290
     1
  9
$FINGERPRINTGUID
  2
{2EE96984-5BEF-497F-B141-10473C43E1E5}
  9
$VERSIONGUID
  2
{06E2AA5B-EB23-44E5-84BC-EE7E37FC1E33}
  9
$EXTNAMES
290
     1
  9
$PSVPSCALE
 40
0.0
  9
$OLESTARTUP
290
     0
  9
$SORTENTS
280
    96
  9
$INDEXCTL
280
     0
  9
$HIDETEXT
280
     0
  9
$XCLIPFRAME
290
     0
  9
$HALOGAP
280
     0
  9
$OBSCOLOR
 70
   257
  9
$OBSLTYPE
280
     0
  9
$INTERSECTIONDISPLAY
280
     0
  9
$INTERSECTIONCOLOR
 70
   257
  9
$DIMASSOC
280
     1
  9
$PROJECTNAME
  1

  0
ENDSEC
  0
SECTION
  2
CLASSES
  0
CLASS
  1
HATCH
  2
AcDbHatch
  3
ObjectDBX Classes
 90
        0
 91
       15
280
     0
281
     1
  0
CLASS
  1
LWPOLYLINE
  2
AcDbPolyline
  3
ObjectDBX Classes
 90
        0
 91
        8
280
     0
281
     1
  0
CLASS
  1
IMAGEDEF
  2
AcDbRasterImageDef
  3
ISM
 90
        0
 91
        1
280
     0
281
     0
  0
CLASS
  1
DICTIONARYVAR
  2
AcDbDictionaryVar
  3
ObjectDBX Classes
 90
        0
 91
        2
280
     0
281
     0
  0
CLASS
  1
ACDBDICTIONARYWDFLT
  2
AcDbDictionaryWithDefault
  3
ObjectDBX Classes
 90
        0
 91
        1
280
     0
281
     0
  0
CLASS
  1
TABLESTYLE
  2
AcDbTableStyle
  3
ObjectDBX Classes
 90
     2047
 91
        1
280
     0
281
     0
  0
ENDSEC
  0
SECTION
  2
TABLES
  0
TABLE
  2
VPORT
  5
8
330
0
100
AcDbSymbolTable
 70
     2
  0
VPORT
  5
1D05
330
8
100
AcDbSymbolTableRecord
100
AcDbViewportTableRecord
  2
*Active
 70
     0
 10
0.0
 20
0.0
 11
1.0
 21
1.0
 12
364.1823086836309
 22
269.3448859633914
 13
0.0
 23
0.0
 14
10.0
 24
10.0
 15
10.0
 25
10.0
 16
0.0
 26
0.0
 36
1.0
 17
0.0
 27
0.0
 37
0.0
 40
196.9078870701962
 41
1.530456852791878
 42
50.0
 43
0.0
 44
0.0
 50
0.0
 51
0.0
 71
     0
 72
   100
 73
     1
 74
     1
 75
     0
 76
     0
 77
     0
 78
     0
281
     0
 65
     1
110
0.0
120
0.0
130
0.0
111
1.0
121
0.0
131
0.0
112
0.0
122
1.0
132
0.0
 79
     0
146
0.0
  0
ENDTAB
  0
TABLE
  2
LTYPE
  5
5
330
0
100
AcDbSymbolTable
 70
     5
  0
LTYPE
  5
12
330
5
100
AcDbSymbolTableRecord
100
AcDbLinetypeTableRecord
  2
BYBLOCK
 70
     0
  3

 72
    65
 73
     0
 40
0.0
  0
LTYPE
  5
13
330
5
100
AcDbSymbolTableRecord
100
AcDbLinetypeTableRecord
  2
BYLAYER
 70
     0
  3

 72
    65
 73
     0
 40
0.0
  0
LTYPE
  5
14
330
5
100
AcDbSymbolTableRecord
100
AcDbLinetypeTableRecord
  2
CONTINUOUS
 70
     0
  3
Solid line
 72
    65
 73
     0
 40
0.0
  0
LTYPE
  5
22
330
5
100
AcDbSymbolTableRecord
100
AcDbLinetypeTableRecord
  2
CENTER2
 70
     0
  3
Center (.5x) ___ _ ___ _ ___ _ ___ _ ___ _ ___
 72
    65
 73
     4
 40
28.575
 49
19.05
 74
     0
 49
-3.174999999999999
 74
     0
 49
3.174999999999999
 74
     0
 49
-3.174999999999999
 74
     0
  0
ENDTAB
  0
TABLE
  2
LAYER
  5
2
330
0
100
AcDbSymbolTable
 70
    16
  0
LAYER
  5
E
330
2
100
AcDbSymbolTableRecord
100
AcDbLayerTableRecord
  2
0
 70
     0
 62
     7
  6
CONTINUOUS
370
    -3
390
1C2F
  0
LAYER
  5
25
330
2
100
AcDbSymbolTableRecord
100
AcDbLayerTableRecord
  2
外形線
 70
     0
 62
     7
  6
CONTINUOUS
370
    -3
390
1C2F
  0
LAYER
  5
26
330
2
100
AcDbSymbolTableRecord
100
AcDbLayerTableRecord
  2
寸法線
 70
     0
 62
     2
  6
CONTINUOUS
370
    -3
390
1C2F
  0
LAYER
  5
27
330
2
100
AcDbSymbolTableRecord
100
AcDbLayerTableRecord
  2
中心線
 70
     0
 62
     4
  6
CENTER2
370
    -3
390
1C2F
  0
LAYER
  5
2A
330
2
100
AcDbSymbolTableRecord
100
AcDbLayerTableRecord
  2
ﾊｯﾁﾝｸ
 70
     0
 62
     6
  6
CONTINUOUS
370
    -3
390
1C2F
  0
LAYER
  5
2B
330
2
100
AcDbSymbolTableRecord
100
AcDbLayerTableRecord
  2
文字
 70
     0
 62
     6
  6
CONTINUOUS
370
    -3
390
1C2F
  0
LAYER
  5
2C
330
2
100
AcDbSymbolTableRecord
100
AcDbLayerTableRecord
  2
目盛
 70
     0
 62
    70
  6
CONTINUOUS
370
    -3
390
1C2F
  0
LAYER
  5
2D
330
2
100
AcDbSymbolTableRecord
100
AcDbLayerTableRecord
  2
針
 70
     0
 62
     5
  6
CONTINUOUS
370
    -3
390
1C2F
  0
LAYER
  5
53
330
2
100
AcDbSymbolTableRecord
100
AcDbLayerTableRecord
  2
DEFPOINTS
 70
     0
 62
     7
  6
CONTINUOUS
290
     0
370
    -3
390
1C2F
  0
LAYER
  5
A5
330
2
100
AcDbSymbolTableRecord
100
AcDbLayerTableRecord
  2
C
 70
     0
 62
     7
  6
CONTINUOUS
370
    -3
390
1C2F
  0
LAYER
  5
E00
330
2
100
AcDbSymbolTableRecord
100
AcDbLayerTableRecord
  2
ROGO
 70
     0
 62
     6
  6
CONTINUOUS
370
    -3
390
1C2F
  0
ENDTAB
  0
TABLE
  2
STYLE
  5
3
330
0
100
AcDbSymbolTable
 70
     3
  0
STYLE
  5
F
330
3
100
AcDbSymbolTableRecord
100
AcDbTextStyleTableRecord
  2
STANDARD
 70
     0
 40
0.0
 41
1.0
 50
0.0
 71
     0
 42
2.5
  3
txt
  4

  0
STYLE
  5
3F
330
3
100
AcDbSymbolTableRecord
100
AcDbTextStyleTableRecord
  2
STYLE3
 70
     0
 40
0.0
 41
1.0
 50
0.0
 71
     0
 42
1.0
  3
romans.shx
  4
bigfont.shx
  0
ENDTAB
  0
TABLE
  2
VIEW
  5
6
330
0
100
AcDbSymbolTable
 70
     0
  0
ENDTAB
  0
TABLE
  2
UCS
  5
7
330
0
100
AcDbSymbolTable
 70
     0
  0
ENDTAB
  0
TABLE
  2
APPID
  5
9
330
0
100
AcDbSymbolTable
 70
     2
  0
APPID
  5
10
330
9
100
AcDbSymbolTableRecord
100
AcDbRegAppTableRecord
  2
ACAD
 70
     0
  0
APPID
  5
1C3E
330
9
100
AcDbSymbolTableRecord
100
AcDbRegAppTableRecord
  2
ACAD_PSEXT
 70
     0
  0
ENDTAB
  0
TABLE
  2
DIMSTYLE
  5
A
330
0
100
AcDbSymbolTable
 70
     3
100
AcDbDimStyleTable
 71
     1
340
66
  0
DIMSTYLE
105
1D
330
A
100
AcDbSymbolTableRecord
100
AcDbDimStyleTableRecord
  2
STANDARD
 70
     0
 41
2.5
 42
0.625
 43
3.75
 44
1.25
 73
     0
 74
     0
 77
     1
 78
     8
140
2.5
141
2.5
143
0.0394
147
0.625
171
     4
172
     1
273
     8
274
     4
277
     6
340
F
  0
DIMSTYLE
105
66
102
{ACAD_REACTORS
330
1A53
330
1A89
330
1AB0
330
1ABA
330
1AC9
330
1AD6
102
}
330
A
100
AcDbSymbolTableRecord
100
AcDbDimStyleTableRecord
  2
STYLE2
 70
     0
 41
2.5
 42
0.0
 43
3.75
 44
1.25
 73
     0
 74
     0
 77
     1
 78
     8
140
2.5
141
2.5
143
0.0394
147
0.625
171
     4
172
     1
173
     1
176
     2
177
     2
178
     6
271
     1
273
     8
274
     4
340
3F
341
45
343
45
344
45
  0
ENDTAB
  0
TABLE
  2
BLOCK_RECORD
  5
1
330
0
100
AcDbSymbolTable
 70
    11
  0
BLOCK_RECORD
  5
18
330
1
100
AcDbSymbolTableRecord
100
AcDbBlockTableRecord
  2
*MODEL_SPACE
340
1C36
  0
BLOCK_RECORD
  5
15
330
1
100
AcDbSymbolTableRecord
100
AcDbBlockTableRecord
  2
*PAPER_SPACE
340
1C37
  0
BLOCK_RECORD
  5
45
330
1
100
AcDbSymbolTableRecord
100
AcDbBlockTableRecord
  2
_OPEN
340
0
102
{BLKREFS
331
836
331
837
331
10CC
331
10CD
331
10D5
331
10D6
331
186B
331
186C
331
1874
331
1875
331
1A9E
331
1A9F
331
1B17
331
1B18
331
1CC8
331
1CC9
331
1CD3
331
1CD4
331
1CDC
331
1CDD
331
1CE5
331
1CE6
331
1CEE
331
1CF4
331
1CF5
102
}
  0
BLOCK_RECORD
  5
1A47
330
1
100
AcDbSymbolTableRecord
100
AcDbBlockTableRecord
  2
*D1
340
0
  0
BLOCK_RECORD
  5
1A7D
330
1
100
AcDbSymbolTableRecord
100
AcDbBlockTableRecord
  2
*D2
340
0
  0
BLOCK_RECORD
  5
1AA4
330
1
100
AcDbSymbolTableRecord
100
AcDbBlockTableRecord
  2
*D3
340
0
  0
BLOCK_RECORD
  5
1AB1
330
1
100
AcDbSymbolTableRecord
100
AcDbBlockTableRecord
  2
*D4
340
0
  0
BLOCK_RECORD
  5
1ABB
330
1
100
AcDbSymbolTableRecord
100
AcDbBlockTableRecord
  2
*D5
340
0
  0
BLOCK_RECORD
  5
1ACA
330
1
100
AcDbSymbolTableRecord
100
AcDbBlockTableRecord
  2
*D6
340
0
  0
ENDTAB
  0
ENDSEC
  0
SECTION
  2
BLOCKS
  0
BLOCK
  5
19
330
18
100
AcDbEntity
  8
0
100
AcDbBlockBegin
  2
*MODEL_SPACE
 70
     0
 10
0.0
 20
0.0
 30
0.0
  3
*MODEL_SPACE
  1

  0
ENDBLK
  5
1A
330
18
100
AcDbEntity
  8
0
100
AcDbBlockEnd
  0
BLOCK
  5
16
330
15
100
AcDbEntity
 67
     1
  8
0
100
AcDbBlockBegin
  2
*PAPER_SPACE
 70
     0
 10
0.0
 20
0.0
 30
0.0
  3
*PAPER_SPACE
  1

  0
ENDBLK
  5
17
330
15
100
AcDbEntity
 67
     1
  8
0
100
AcDbBlockEnd
  0
BLOCK
  5
46
330
45
100
AcDbEntity
  8
0
100
AcDbBlockBegin
  2
_OPEN
 70
     0
 10
0.0
 20
0.0
 30
0.0
  3
_OPEN
  1

  0
LINE
  5
47
330
45
100
AcDbEntity
  8
0
  6
ByBlock
 62
     0
100
AcDbLine
 10
-1.0
 20
0.1666666666666666
 30
0.0
 11
0.0
 21
0.0
 31
0.0
  0
LINE
  5
48
330
45
100
AcDbEntity
  8
0
  6
ByBlock
 62
     0
100
AcDbLine
 10
0.0
 20
0.0
 30
0.0
 11
-1.0
 21
-0.1666666666666666
 31
0.0
  0
LINE
  5
49
330
45
100
AcDbEntity
  8
0
  6
ByBlock
 62
     0
100
AcDbLine
 10
0.0
 20
0.0
 30
0.0
 11
-1.0
 21
0.0
 31
0.0
  0
ENDBLK
  5
4A
330
45
100
AcDbEntity
  8
0
100
AcDbBlockEnd
  0
BLOCK
  5
1A48
330
1A47
100
AcDbEntity
  8
0
100
AcDbBlockBegin
  2
*D1
 70
     1
 10
0.0
 20
0.0
 30
0.0
  3
*D1
  1

  0
LINE
  5
1CE2
330
1A47
100
AcDbEntity
  8
寸法線
 62
     2
370
    -2
100
AcDbLine
 10
315.6859250405533
 20
226.6000063804895
 30
0.0
 11
297.6429977451791
 21
226.6000063804895
 31
0.0
  0
LINE
  5
1CE3
330
1A47
100
AcDbEntity
  8
寸法線
 62
     2
370
    -2
100
AcDbLine
 10
304.4401051507409
 20
285.6000063804895
 30
0.0
 11
297.6429977451791
 21
285.6000063804895
 31
0.0
  0
LINE
  5
1CE4
330
1A47
100
AcDbEntity
  8
寸法線
 62
     2
370
    -2
100
AcDbLine
 10
298.8929977451791
 20
229.1000063804895
 30
0.0
 11
298.8929977451791
 21
283.1000063804895
 31
0.0
  0
INSERT
  5
1CE5
330
1A47
100
AcDbEntity
  8
寸法線
 62
     2
370
    -2
100
AcDbBlockReference
  2
_OPEN
 10
298.8929977451791
 20
226.6000063804895
 30
0.0
 41
2.5
 42
2.5
 43
2.5
 50
270.0
  0
INSERT
  5
1CE6
330
1A47
100
AcDbEntity
  8
寸法線
 62
     2
370
    -2
100
AcDbBlockReference
  2
_OPEN
 10
298.8929977451791
 20
285.6000063804895
 30
0.0
 41
2.5
 42
2.5
 43
2.5
 50
90.0
  0
MTEXT
  5
1CE7
330
1A47
100
AcDbEntity
  8
寸法線
 62
     6
100
AcDbMText
 10
297.017997745179
 20
256.1000063804895
 30
0.0
 40
2.5
 41
0.0
 71
     5
 72
     1
  1
\A1;59
  7
STYLE3
 11
0.0000000000000001
 21
1.0
 31
0.0
 73
     1
 44
1.0
  0
POINT
  5
1CE8
330
1A47
100
AcDbEntity
  8
DEFPOINTS
 62
     0
100
AcDbPoint
 10
315.6859250405533
 20
226.6000063804895
 30
0.0
  0
POINT
  5
1CE9
330
1A47
100
AcDbEntity
  8
DEFPOINTS
 62
     0
100
AcDbPoint
 10
304.4401051507409
 20
285.6000063804895
 30
0.0
  0
POINT
  5
1CEA
330
1A47
100
AcDbEntity
  8
DEFPOINTS
 62
     0
100
AcDbPoint
 10
298.8929977451791
 20
285.6000063804895
 30
0.0
  0
ENDBLK
  5
1A52
330
1A47
100
AcDbEntity
  8
0
100
AcDbBlockEnd
  0
BLOCK
  5
1A7E
330
1A7D
100
AcDbEntity
  8
0
100
AcDbBlockBegin
  2
*D2
 70
     1
 10
0.0
 20
0.0
 30
0.0
  3
*D2
  1

  0
LINE
  5
1CC5
330
1A7D
100
AcDbEntity
  8
寸法線
 62
     2
370
    -2
100
AcDbLine
 10
297.6429977451791
 20
226.6000063804895
 30
0.0
 11
290.2995311293361
 21
226.6000063804895
 31
0.0
  0
LINE
  5
1CC6
330
1A7D
100
AcDbEntity
  8
寸法線
 62
     2
370
    -2
100
AcDbLine
 10
292.9165166945295
 20
327.1000063804895
 30
0.0
 11
290.2995311293361
 21
327.1000063804895
 31
0.0
  0
LINE
  5
1CC7
330
1A7D
100
AcDbEntity
  8
寸法線
 62
     2
370
    -2
100
AcDbLine
 10
291.5495311293361
 20
229.1000063804895
 30
0.0
 11
291.5495311293361
 21
324.6000063804895
 31
0.0
  0
INSERT
  5
1CC8
330
1A7D
100
AcDbEntity
  8
寸法線
 62
     2
370
    -2
100
AcDbBlockReference
  2
_OPEN
 10
291.5495311293361
 20
226.6000063804895
 30
0.0
 41
2.5
 42
2.5
 43
2.5
 50
270.0
  0
INSERT
  5
1CC9
330
1A7D
100
AcDbEntity
  8
寸法線
 62
     2
370
    -2
100
AcDbBlockReference
  2
_OPEN
 10
291.5495311293361
 20
327.1000063804895
 30
0.0
 41
2.5
 42
2.5
 43
2.5
 50
90.0
  0
MTEXT
  5
1CCA
330
1A7D
100
AcDbEntity
  8
寸法線
 62
     6
100
AcDbMText
 10
289.674531129336
 20
276.8500063804895
 30
0.0
 40
2.5
 41
0.0
 71
     5
 72
     1
  1
\A1;100.5
  7
STYLE3
 11
0.0000000000000001
 21
1.0
 31
0.0
 73
     1
 44
1.0
  0
POINT
  5
1CCB
330
1A7D
100
AcDbEntity
  8
DEFPOINTS
 62
     0
100
AcDbPoint
 10
297.6429977451791
 20
226.6000063804895
 30
0.0
  0
POINT
  5
1CCC
330
1A7D
100
AcDbEntity
  8
DEFPOINTS
 62
     0
100
AcDbPoint
 10
292.9165166945295
 20
327.1000063804895
 30
0.0
  0
POINT
  5
1CCD
330
1A7D
100
AcDbEntity
  8
DEFPOINTS
 62
     0
100
AcDbPoint
 10
291.5495311293361
 20
327.1000063804895
 30
0.0
  0
ENDBLK
  5
1A88
330
1A7D
100
AcDbEntity
  8
0
100
AcDbBlockEnd
  0
BLOCK
  5
1AA5
330
1AA4
100
AcDbEntity
  8
0
100
AcDbBlockBegin
  2
*D3
 70
     1
 10
0.0
 20
0.0
 30
0.0
  3
*D3
  1

  0
LINE
  5
1CF1
330
1AA4
100
AcDbEntity
  8
寸法線
 62
     2
370
    -2
100
AcDbLine
 10
418.3220664737739
 20
226.6000063804895
 30
0.0
 11
418.3220664737739
 21
213.0705720836194
 31
0.0
  0
LINE
  5
1CF2
330
1AA4
100
AcDbEntity
  8
寸法線
 62
     2
370
    -2
100
AcDbLine
 10
428.3220664737739
 20
226.6000063804895
 30
0.0
 11
428.3220664737739
 21
213.0705720836194
 31
0.0
  0
LINE
  5
1CF3
330
1AA4
100
AcDbEntity
  8
寸法線
 62
     2
370
    -2
100
AcDbLine
 10
420.822066473774
 20
214.3205720836194
 30
0.0
 11
425.822066473774
 21
214.3205720836194
 31
0.0
  0
INSERT
  5
1CF4
330
1AA4
100
AcDbEntity
  8
寸法線
 62
     2
370
    -2
100
AcDbBlockReference
  2
_OPEN
 10
418.3220664737739
 20
214.3205720836194
 30
0.0
 41
2.5
 42
2.5
 43
2.5
 50
180.0
  0
INSERT
  5
1CF5
330
1AA4
100
AcDbEntity
  8
寸法線
 62
     2
370
    -2
100
AcDbBlockReference
  2
_OPEN
 10
428.3220664737739
 20
214.3205720836194
 30
0.0
 41
2.5
 42
2.5
 43
2.5
  0
MTEXT
  5
1CF6
330
1AA4
100
AcDbEntity
  8
寸法線
 62
     6
100
AcDbMText
 10
423.3220664737739
 20
216.1955720836194
 30
0.0
 40
2.5
 41
0.0
 71
     5
 72
     1
  1
\A1;10
  7
STYLE3
 73
     1
 44
1.0
  0
POINT
  5
1CF7
330
1AA4
100
AcDbEntity
  8
DEFPOINTS
 62
     0
100
AcDbPoint
 10
418.3220664737739
 20
226.6000063804895
 30
0.0
  0
POINT
  5
1CF8
330
1AA4
100
AcDbEntity
  8
DEFPOINTS
 62
     0
100
AcDbPoint
 10
428.3220664737739
 20
226.6000063804895
 30
0.0
  0
POINT
  5
1CF9
330
1AA4
100
AcDbEntity
  8
DEFPOINTS
 62
     0
100
AcDbPoint
 10
428.3220664737739
 20
214.3205720836194
 30
0.0
  0
ENDBLK
  5
1AAF
330
1AA4
100
AcDbEntity
  8
0
100
AcDbBlockEnd
  0
BLOCK
  5
1AB2
330
1AB1
100
AcDbEntity
  8
0
100
AcDbBlockBegin
  2
*D4
 70
     1
 10
0.0
 20
0.0
 30
0.0
  3
*D4
  1

  0
LINE
  5
1CEB
330
1AB1
100
AcDbEntity
  8
寸法線
 62
     2
370
    -2
100
AcDbLine
 10
346.7022965628005
 20
236.2139927668523
 30
0.0
 11
341.0869476545733
 21
230.8037506788619
 31
0.0
  0
MTEXT
  5
1CEC
330
1AB1
100
AcDbEntity
  8
寸法線
 62
     6
100
AcDbMText
 10
343.4938564697638
 20
235.7264180927575
 30
0.0
 40
2.5
 41
0.0
 71
     5
 72
     1
  1
\A1;R5
  7
STYLE3
 11
0.7201363485360037
 21
0.693832573116333
 31
0.0
 73
     1
 44
1.0
  0
LINE
  5
1CED
330
1AB1
100
AcDbEntity
  8
寸法線
 62
     2
370
    -2
100
AcDbLine
 10
335.6859250405532
 20
225.6000063804894
 30
0.0
 11
339.2866067832333
 21
229.0691692460711
 31
0.0
  0
INSERT
  5
1CEE
330
1AB1
100
AcDbEntity
  8
寸法線
 62
     2
370
    -2
100
AcDbBlockReference
  2
_OPEN
 10
339.2866067832333
 20
229.0691692460711
 30
0.0
 41
2.5
 42
2.5
 43
2.5
 50
223.9342612278582
  0
POINT
  5
1CEF
330
1AB1
100
AcDbEntity
  8
DEFPOINTS
 62
     0
100
AcDbPoint
 10
339.2866067832333
 20
229.0691692460711
 30
0.0
  0
POINT
  5
1CF0
330
1AB1
100
AcDbEntity
  8
DEFPOINTS
 62
     0
100
AcDbPoint
 10
335.6859250405532
 20
225.6000063804894
 30
0.0
  0
ENDBLK
  5
1AB9
330
1AB1
100
AcDbEntity
  8
0
100
AcDbBlockEnd
  0
BLOCK
  5
1ABC
330
1ABB
100
AcDbEntity
  8
0
100
AcDbBlockBegin
  2
*D5
 70
     1
 10
0.0
 20
0.0
 30
0.0
  3
*D5
  1

  0
LINE
  5
1CCE
330
1ABB
100
AcDbEntity
  8
寸法線
 62
     2
370
    -2
100
AcDbLine
 10
335.6859250405534
 20
230.6000063804895
 30
0.0
 11
324.6161177524691
 21
230.6000063804895
 31
0.0
  0
LINE
  5
1CCF
330
1ABB
100
AcDbEntity
  8
寸法線
 62
     2
370
    -2
100
AcDbLine
 10
328.5267998295851
 20
226.6000063804895
 30
0.0
 11
324.6161177524691
 21
226.6000063804895
 31
0.0
  0
LINE
  5
1CD0
330
1ABB
100
AcDbEntity
  8
寸法線
 62
     2
370
    -2
100
AcDbLine
 10
325.8661177524691
 20
233.1000063804895
 30
0.0
 11
325.8661177524691
 21
235.6000063804895
 31
0.0
  0
LINE
  5
1CD1
330
1ABB
100
AcDbEntity
  8
寸法線
 62
     2
370
    -2
100
AcDbLine
 10
325.8661177524691
 20
224.1000063804895
 30
0.0
 11
325.8661177524691
 21
221.6000063804895
 31
0.0
  0
LINE
  5
1CD2
330
1ABB
100
AcDbEntity
  8
寸法線
 62
     2
370
    -2
100
AcDbLine
 10
325.8661177524691
 20
230.6000063804895
 30
0.0
 11
325.8661177524691
 21
226.6000063804895
 31
0.0
  0
INSERT
  5
1CD3
330
1ABB
100
AcDbEntity
  8
寸法線
 62
     2
370
    -2
100
AcDbBlockReference
  2
_OPEN
 10
325.8661177524691
 20
230.6000063804895
 30
0.0
 41
2.5
 42
2.5
 43
2.5
 50
270.0
  0
INSERT
  5
1CD4
330
1ABB
100
AcDbEntity
  8
寸法線
 62
     2
370
    -2
100
AcDbBlockReference
  2
_OPEN
 10
325.8661177524691
 20
226.6000063804895
 30
0.0
 41
2.5
 42
2.5
 43
2.5
 50
90.0
  0
MTEXT
  5
1CD5
330
1ABB
100
AcDbEntity
  8
寸法線
 62
     6
100
AcDbMText
 10
323.9911177524691
 20
228.6000063804895
 30
0.0
 40
2.5
 41
0.0
 71
     5
 72
     1
  1
\A1;4
  7
STYLE3
 11
0.0000000000000001
 21
1.0
 31
0.0
 73
     1
 44
1.0
  0
POINT
  5
1CD6
330
1ABB
100
AcDbEntity
  8
DEFPOINTS
 62
     0
100
AcDbPoint
 10
335.6859250405534
 20
230.6000063804895
 30
0.0
  0
POINT
  5
1CD7
330
1ABB
100
AcDbEntity
  8
DEFPOINTS
 62
     0
100
AcDbPoint
 10
328.5267998295851
 20
226.6000063804895
 30
0.0
  0
POINT
  5
1CD8
330
1ABB
100
AcDbEntity
  8
DEFPOINTS
 62
     0
100
AcDbPoint
 10
325.8661177524691
 20
226.6000063804895
 30
0.0
  0
ENDBLK
  5
1AC8
330
1ABB
100
AcDbEntity
  8
0
100
AcDbBlockEnd
  0
BLOCK
  5
1ACB
330
1ACA
100
AcDbEntity
  8
0
100
AcDbBlockBegin
  2
*D6
 70
     1
 10
0.0
 20
0.0
 30
0.0
  3
*D6
  1

  0
LINE
  5
1CD9
330
1ACA
100
AcDbEntity
  8
寸法線
 62
     2
370
    -2
100
AcDbLine
 10
315.6859250405533
 20
226.6000063804895
 30
0.0
 11
315.6859250405533
 21
212.2584409784076
 31
0.0
  0
LINE
  5
1CDA
330
1ACA
100
AcDbEntity
  8
寸法線
 62
     2
370
    -2
100
AcDbLine
 10
355.6859250405533
 20
226.6000063804895
 30
0.0
 11
355.6859250405533
 21
212.2584409784076
 31
0.0
  0
LINE
  5
1CDB
330
1ACA
100
AcDbEntity
  8
寸法線
 62
     2
370
    -2
100
AcDbLine
 10
318.1859250405533
 20
213.5084409784076
 30
0.0
 11
353.1859250405533
 21
213.5084409784076
 31
0.0
  0
INSERT
  5
1CDC
330
1ACA
100
AcDbEntity
  8
寸法線
 62
     2
370
    -2
100
AcDbBlockReference
  2
_OPEN
 10
315.6859250405533
 20
213.5084409784076
 30
0.0
 41
2.5
 42
2.5
 43
2.5
 50
180.0
  0
INSERT
  5
1CDD
330
1ACA
100
AcDbEntity
  8
寸法線
 62
     2
370
    -2
100
AcDbBlockReference
  2
_OPEN
 10
355.6859250405533
 20
213.5084409784076
 30
0.0
 41
2.5
 42
2.5
 43
2.5
  0
MTEXT
  5
1CDE
330
1ACA
100
AcDbEntity
  8
寸法線
 62
     6
100
AcDbMText
 10
335.6859250405534
 20
215.3834409784076
 30
0.0
 40
2.5
 41
0.0
 71
     5
 72
     1
  1
\A1;40
  7
STYLE3
 73
     1
 44
1.0
  0
POINT
  5
1CDF
330
1ACA
100
AcDbEntity
  8
DEFPOINTS
 62
     0
100
AcDbPoint
 10
315.6859250405533
 20
226.6000063804895
 30
0.0
  0
POINT
  5
1CE0
330
1ACA
100
AcDbEntity
  8
DEFPOINTS
 62
     0
100
AcDbPoint
 10
355.6859250405533
 20
226.6000063804895
 30
0.0
  0
POINT
  5
1CE1
330
1ACA
100
AcDbEntity
  8
DEFPOINTS
 62
     0
100
AcDbPoint
 10
355.6859250405533
 20
213.5084409784076
 30
0.0
  0
ENDBLK
  5
1AD5
330
1ACA
100
AcDbEntity
  8
0
100
AcDbBlockEnd
  0
ENDSEC
  0
SECTION
  2
ENTITIES
  0
LINE
  5
244
330
18
100
AcDbEntity
  8
中心線
 48
0.5
100
AcDbLine
 10
297.6429977451791
 20
285.6000063804895
 30
0.0
 11
365.2865563861855
 21
285.6000063804895
 31
0.0
  0
LINE
  5
245
330
18
100
AcDbEntity
  8
中心線
 48
0.5
100
AcDbLine
 10
335.6859250405532
 20
330.7082239455778
 30
0.0
 11
335.6859250405534
 21
222.7357513954641
 31
0.0
  0
CIRCLE
  5
246
330
18
100
AcDbEntity
  8
外形線
100
AcDbCircle
 10
335.6859250405533
 20
285.6000063804895
 30
0.0
 40
15.5
  0
CIRCLE
  5
248
330
18
100
AcDbEntity
  8
外形線
100
AcDbCircle
 10
335.6859250405533
 20
285.6000063804895
 30
0.0
 40
26.4
  0
LINE
  5
2B9
330
18
100
AcDbEntity
  8
中心線
 48
0.2
100
AcDbLine
 10
326.3492326415404
 20
275.5260349689755
 30
0.0
 11
338.8207639217427
 21
275.5260349689755
 31
0.0
  0
LINE
  5
5CF
330
18
100
AcDbEntity
  8
外形線
  6
Continuous
100
AcDbLine
 10
339.3859250405533
 20
326.1000063804893
 30
0.0
 11
339.3859250405533
 21
319.6000063804893
 31
0.0
  0
LINE
  5
5D0
330
18
100
AcDbEntity
  8
外形線
  6
Continuous
100
AcDbLine
 10
331.9859250405533
 20
326.1000063804893
 30
0.0
 11
331.9859250405533
 21
319.6000063804893
 31
0.0
  0
LINE
  5
5D1
330
18
100
AcDbEntity
  8
外形線
  6
Continuous
100
AcDbLine
 10
331.9859250405533
 20
326.1000063804893
 30
0.0
 11
339.3859250405533
 21
326.1000063804893
 31
0.0
  0
LINE
  5
5D2
330
18
100
AcDbEntity
  8
外形線
  6
Continuous
100
AcDbLine
 10
331.6859250405534
 20
319.6000063804893
 30
0.0
 11
339.6859250405532
 21
319.6000063804893
 31
0.0
  0
LINE
  5
5D3
330
18
100
AcDbEntity
  8
外形線
  6
Continuous
100
AcDbLine
 10
331.6859250405532
 20
313.6000063804893
 30
0.0
 11
339.6859250405532
 21
313.6000063804893
 31
0.0
  0
LINE
  5
5D4
330
18
100
AcDbEntity
  8
外形線
  6
Continuous
100
AcDbLine
 10
339.6859250405532
 20
319.6000063804893
 30
0.0
 11
339.6859250405532
 21
313.6000063804893
 31
0.0
  0
LINE
  5
5D5
330
18
100
AcDbEntity
  8
外形線
  6
Continuous
100
AcDbLine
 10
331.6859250405534
 20
319.6000063804893
 30
0.0
 11
331.6859250405534
 21
313.6000063804893
 31
0.0
  0
LINE
  5
5D6
330
18
100
AcDbEntity
  8
外形線
  6
Continuous
100
AcDbLine
 10
339.3859250405533
 20
313.6000063804893
 30
0.0
 11
339.3859250405533
 21
311.7394401922613
 31
0.0
  0
LINE
  5
5D7
330
18
100
AcDbEntity
  8
外形線
  6
Continuous
100
AcDbLine
 10
331.9859250405533
 20
313.6000063804893
 30
0.0
 11
331.9859250405533
 21
311.7394401922613
 31
0.0
  0
ARC
  5
5D9
330
18
100
AcDbEntity
  8
外形線
  6
Continuous
100
AcDbCircle
 10
335.6859250405532
 20
319.7550063804895
 30
0.0
 40
7.344999999999885
100
AcDbArc
 50
59.75198538337817
 51
120.2480146166212
  0
ARC
  5
692
330
18
100
AcDbEntity
  8
外形線
  6
Continuous
100
AcDbCircle
 10
514.4887331404401
 20
285.6000063804895
 30
0.0
 40
105.6666666666664
100
AcDbArc
 50
166.3144531747381
 51
193.685546825262
  0
LINE
  5
693
330
18
100
AcDbEntity
  8
外形線
  6
Continuous
100
AcDbLine
 10
411.8220664737737
 20
310.6000063804895
 30
0.0
 11
411.8220664737737
 21
260.6000063804895
 31
0.0
  0
LINE
  5
694
330
18
100
AcDbEntity
  8
外形線
  6
Continuous
100
AcDbLine
 10
413.0220664737738
 20
312.0000063804894
 30
0.0
 11
413.0220664737738
 21
259.2000063804895
 31
0.0
  0
LINE
  5
695
330
18
100
AcDbEntity
  8
外形線
  6
Continuous
100
AcDbLine
 10
416.8220664737737
 20
312.0000063804894
 30
0.0
 11
416.8220664737737
 21
259.2000063804895
 31
0.0
  0
LINE
  5
696
330
18
100
AcDbEntity
  8
外形線
  6
Continuous
100
AcDbLine
 10
418.3220664737737
 20
310.6000063804895
 30
0.0
 11
418.3220664737737
 21
260.6000063804895
 31
0.0
  0
LINE
  5
697
330
18
100
AcDbEntity
  8
外形線
  6
Continuous
100
AcDbLine
 10
429.8220664737737
 20
310.1000063804895
 30
0.0
 11
429.8220664737737
 21
261.1000063804894
 31
0.0
  0
LINE
  5
69C
330
18
100
AcDbEntity
  8
外形線
  6
Continuous
100
AcDbLine
 10
413.0220664737738
 20
260.1000063804895
 30
0.0
 11
411.8220664737737
 21
260.6000063804895
 31
0.0
  0
LINE
  5
6AD
330
18
100
AcDbEntity
  8
外形線
  6
CENTER2
100
AcDbLine
 10
418.3220664737737
 20
260.6000063804895
 30
0.0
 11
416.8220664737737
 21
260.6000063804895
 31
0.0
  0
LINE
  5
6AE
330
18
100
AcDbEntity
  8
外形線
  6
Continuous
100
AcDbLine
 10
413.0220664737738
 20
259.2000063804895
 30
0.0
 11
416.8220664737737
 21
259.2000063804895
 31
0.0
  0
LINE
  5
6AF
330
18
100
AcDbEntity
  8
外形線
  6
Continuous
100
AcDbLine
 10
413.0220664737738
 20
263.2000063804895
 30
0.0
 11
416.8220664737737
 21
263.2000063804895
 31
0.0
  0
LINE
  5
6B0
330
18
100
AcDbEntity
  8
外形線
  6
Continuous
100
AcDbLine
 10
413.0220664737738
 20
262.2000063804895
 30
0.0
 11
416.8220664737737
 21
262.2000063804895
 31
0.0
  0
LINE
  5
6B1
330
18
100
AcDbEntity
  8
外形線
  6
Continuous
100
AcDbLine
 10
413.0220664737738
 20
261.2000063804895
 30
0.0
 11
416.8220664737737
 21
261.2000063804895
 31
0.0
  0
LINE
  5
6B2
330
18
100
AcDbEntity
  8
外形線
  6
Continuous
100
AcDbLine
 10
413.0220664737738
 20
260.2000063804895
 30
0.0
 11
416.8220664737737
 21
260.2000063804895
 31
0.0
  0
ARC
  5
6B8
330
18
100
AcDbEntity
  8
外形線
  6
Continuous
100
AcDbCircle
 10
423.3220664737737
 20
319.7550063804896
 30
0.0
 40
7.344999999999885
100
AcDbArc
 50
59.75198538337879
 51
120.2480146166218
  0
LINE
  5
6B9
330
18
100
AcDbEntity
  8
外形線
  6
Continuous
100
AcDbLine
 10
413.0220664737738
 20
311.1000063804894
 30
0.0
 11
411.8220664737737
 21
310.6000063804895
 31
0.0
  0
LINE
  5
6BA
330
18
100
AcDbEntity
  8
外形線
  6
Continuous
100
AcDbLine
 10
413.0220664737738
 20
264.2000063804895
 30
0.0
 11
416.8220664737737
 21
264.2000063804895
 31
0.0
  0
LINE
  5
6BB
330
18
100
AcDbEntity
  8
外形線
  6
Continuous
100
AcDbLine
 10
416.8220664737737
 20
283.6000063804894
 30
0.0
 11
413.0220664737738
 21
283.6000063804894
 31
0.0
  0
LINE
  5
6BC
330
18
100
AcDbEntity
  8
外形線
  6
Continuous
100
AcDbLine
 10
416.8220664737737
 20
284.6000063804894
 30
0.0
 11
413.0220664737738
 21
284.6000063804894
 31
0.0
  0
LINE
  5
6BD
330
18
100
AcDbEntity
  8
外形線
  6
Continuous
100
AcDbLine
 10
416.8220664737737
 20
285.6000063804895
 30
0.0
 11
413.0220664737738
 21
285.6000063804895
 31
0.0
  0
LINE
  5
6BE
330
18
100
AcDbEntity
  8
外形線
  6
Continuous
100
AcDbLine
 10
416.8220664737737
 20
286.6000063804894
 30
0.0
 11
413.0220664737738
 21
286.6000063804894
 31
0.0
  0
LINE
  5
6BF
330
18
100
AcDbEntity
  8
外形線
  6
Continuous
100
AcDbLine
 10
416.8220664737737
 20
288.6000063804894
 30
0.0
 11
413.0220664737738
 21
288.6000063804894
 31
0.0
  0
LINE
  5
6C0
330
18
100
AcDbEntity
  8
外形線
  6
Continuous
100
AcDbLine
 10
416.8220664737737
 20
287.6000063804895
 30
0.0
 11
413.0220664737738
 21
287.6000063804895
 31
0.0
  0
LINE
  5
6C1
330
18
100
AcDbEntity
  8
外形線
  6
Continuous
100
AcDbLine
 10
413.0220664737738
 20
307.0000063804894
 30
0.0
 11
416.8220664737737
 21
307.0000063804894
 31
0.0
  0
LINE
  5
6C2
330
18
100
AcDbEntity
  8
外形線
  6
Continuous
100
AcDbLine
 10
413.0220664737738
 20
308.0000063804894
 30
0.0
 11
416.8220664737737
 21
308.0000063804894
 31
0.0
  0
LINE
  5
6C3
330
18
100
AcDbEntity
  8
外形線
  6
Continuous
100
AcDbLine
 10
413.0220664737738
 20
309.0000063804894
 30
0.0
 11
416.8220664737737
 21
309.0000063804894
 31
0.0
  0
LINE
  5
6C4
330
18
100
AcDbEntity
  8
外形線
  6
Continuous
100
AcDbLine
 10
413.0220664737738
 20
310.0000063804894
 30
0.0
 11
416.8220664737737
 21
310.0000063804894
 31
0.0
  0
LINE
  5
6C5
330
18
100
AcDbEntity
  8
外形線
  6
Continuous
100
AcDbLine
 10
427.0220664737737
 20
326.1000063804894
 30
0.0
 11
419.6220664737736
 21
326.1000063804894
 31
0.0
  0
LINE
  5
6C6
330
18
100
AcDbEntity
  8
外形線
  6
Continuous
100
AcDbLine
 10
427.3220664737737
 20
319.6000063804894
 30
0.0
 11
419.3220664737737
 21
319.6000063804894
 31
0.0
  0
LINE
  5
6C7
330
18
100
AcDbEntity
  8
外形線
  6
Continuous
100
AcDbLine
 10
427.3220664737737
 20
313.6000063804894
 30
0.0
 11
419.3220664737737
 21
313.6000063804894
 31
0.0
  0
LINE
  5
6C9
330
18
100
AcDbEntity
  8
外形線
  6
Continuous
100
AcDbLine
 10
427.3220664737737
 20
319.6000063804894
 30
0.0
 11
427.3220664737737
 21
313.6000063804894
 31
0.0
  0
LINE
  5
6CA
330
18
100
AcDbEntity
  8
外形線
  6
Continuous
100
AcDbLine
 10
427.0220664737737
 20
313.6000063804894
 30
0.0
 11
427.0220664737737
 21
310.1000063804895
 31
0.0
  0
LINE
  5
6CB
330
18
100
AcDbEntity
  8
外形線
  6
Continuous
100
AcDbLine
 10
427.0220664737737
 20
326.1000063804894
 30
0.0
 11
427.0220664737737
 21
319.6000063804894
 31
0.0
  0
LINE
  5
6CC
330
18
100
AcDbEntity
  8
外形線
  6
Continuous
100
AcDbLine
 10
419.3220664737737
 20
319.6000063804894
 30
0.0
 11
419.3220664737737
 21
313.6000063804894
 31
0.0
  0
LINE
  5
6CD
330
18
100
AcDbEntity
  8
外形線
  6
CENTER2
100
AcDbLine
 10
418.3220664737737
 20
310.6000063804895
 30
0.0
 11
416.8220664737737
 21
310.6000063804895
 31
0.0
  0
LINE
  5
6CE
330
18
100
AcDbEntity
  8
外形線
  6
Continuous
100
AcDbLine
 10
419.6220664737736
 20
313.6000063804894
 30
0.0
 11
419.6220664737736
 21
310.1000063804895
 31
0.0
  0
LINE
  5
6CF
330
18
100
AcDbEntity
  8
外形線
  6
Continuous
100
AcDbLine
 10
413.0220664737738
 20
311.0000063804894
 30
0.0
 11
416.8220664737737
 21
311.0000063804894
 31
0.0
  0
LINE
  5
6D0
330
18
100
AcDbEntity
  8
外形線
  6
Continuous
100
AcDbLine
 10
413.0220664737738
 20
312.0000063804894
 30
0.0
 11
416.8220664737737
 21
312.0000063804894
 31
0.0
  0
LINE
  5
6D1
330
18
100
AcDbEntity
  8
外形線
  6
Continuous
100
AcDbLine
 10
419.6220664737736
 20
326.1000063804894
 30
0.0
 11
419.6220664737736
 21
319.6000063804894
 31
0.0
  0
MTEXT
  5
778
330
18
100
AcDbEntity
  8
DEFPOINTS
  6
Continuous
100
AcDbMText
 10
735.8166661286731
 20
235.565234348894
 30
0.0
 40
1.0
 41
0.0
 71
     4
 72
     1
  1
\A1;
 73
     1
 44
1.0
  0
LINE
  5
789
330
18
100
AcDbEntity
  8
中心線
 48
0.5
100
AcDbLine
 10
423.3220664737737
 20
338.6188119092426
 30
0.0
 11
423.3220664737739
 21
222.6814240444412
 31
0.0
  0
LINE
  5
78E
330
18
100
AcDbEntity
  8
外形線
100
AcDbLine
 10
418.3220664737737
 20
261.1000063804894
 30
0.0
 11
429.8220664737737
 21
261.1000063804894
 31
0.0
  0
LINE
  5
78F
330
18
100
AcDbEntity
  8
外形線
100
AcDbLine
 10
418.3220664737737
 20
310.1000063804895
 30
0.0
 11
429.8220664737737
 21
310.1000063804895
 31
0.0
  0
LINE
  5
7D6
330
18
100
AcDbEntity
  8
中心線
 48
0.5
100
AcDbLine
 10
405.3453667278198
 20
285.6000063804895
 30
0.0
 11
435.3573507065726
 21
285.6000063804895
 31
0.0
  0
LINE
  5
833
330
18
100
AcDbEntity
  8
0
  6
ByBlock
 62
     2
100
AcDbLine
 10
335.6859250405532
 20
327.1000063804895
 30
0.0
 11
290.5479611357769
 21
327.1000063804895
 31
0.0
  0
LINE
  5
835
330
18
100
AcDbEntity
  8
0
  6
ByBlock
 62
     2
100
AcDbLine
 10
298.8929977451791
 20
324.6000063804895
 30
0.0
 11
298.8929977451791
 21
288.1000063804894
 31
0.0
  0
INSERT
  5
836
330
18
100
AcDbEntity
  8
0
  6
ByBlock
 62
     2
100
AcDbBlockReference
  2
_OPEN
 10
298.8929977451791
 20
327.1000063804895
 30
0.0
 41
2.5
 42
2.5
 43
2.5
 50
90.0
  0
INSERT
  5
837
330
18
100
AcDbEntity
  8
0
  6
ByBlock
 62
     2
100
AcDbBlockReference
  2
_OPEN
 10
298.8929977451791
 20
285.6000063804895
 30
0.0
 41
2.5
 42
2.5
 43
2.5
 50
270.0
  0
MTEXT
  5
838
330
18
100
AcDbEntity
  8
0
  6
ByBlock
 62
     6
100
AcDbMText
 10
297.017997745179
 20
306.3500063804895
 30
0.0
 40
2.5
 41
0.0
 71
     5
 72
     1
  1
\A1;41.5
  7
STYLE3
 11
0.0000000000000001
 21
1.0
 31
0.0
 73
     1
 44
1.0
  0
POINT
  5
839
330
18
100
AcDbEntity
  8
DEFPOINTS
  6
ByBlock
 62
     0
100
AcDbPoint
 10
335.6859250405532
 20
327.1000063804895
 30
0.0
  0
POINT
  5
83A
330
18
100
AcDbEntity
  8
DEFPOINTS
  6
ByBlock
 62
     0
100
AcDbPoint
 10
335.6859250405533
 20
285.6000063804895
 30
0.0
  0
POINT
  5
841
330
18
100
AcDbEntity
  8
DEFPOINTS
  6
ByBlock
 62
     0
100
AcDbPoint
 10
335.6859250405533
 20
285.6000063804895
 30
0.0
  0
POINT
  5
84A
330
18
100
AcDbEntity
  8
DEFPOINTS
  6
ByBlock
 62
     0
100
AcDbPoint
 10
297.6429977451791
 20
327.1000063804895
 30
0.0
  0
MTEXT
  5
887
330
18
100
AcDbEntity
  8
文字
100
AcDbMText
 10
302.9558756866726
 20
261.6432165871282
 30
0.0
 40
1.0
 41
6.927999999999999
 71
     1
 72
     5
  1

  7
STYLE3
 73
     1
 44
1.0
  0
LWPOLYLINE
  5
96E
330
18
100
AcDbEntity
  8
C
100
AcDbPolyline
 90
        5
 70
     0
 43
0.4
 10
236.6915604445414
 20
366.8501752555372
 10
491.6915604445414
 20
366.8501752555372
 10
491.6915604445414
 20
171.8501752555372
 10
236.6915604445414
 20
171.8501752555372
 10
236.6915604445414
 20
366.8501752555372
  0
MTEXT
  5
EB4
330
18
100
AcDbEntity
  8
DEFPOINTS
  6
Continuous
100
AcDbMText
 10
624.6916853418142
 20
184.890767874579
 30
0.0
 40
0.35
 41
0.0
 71
     4
 72
     1
  1
\A1;
 73
     1
 44
1.0
  0
TEXT
  5
F31
330
18
100
AcDbEntity
  8
文字
100
AcDbText
 10
331.0264993814724
 20
339.1583196057967
 30
0.0
 40
2.5
  1
φ
  7
STYLE3
100
AcDbText
  0
LINE
  5
F8E
330
18
100
AcDbEntity
  8
外形線
100
AcDbLine
 10
429.8220664737737
 20
308.7000063804894
 30
0.0
 11
430.9220664737737
 21
308.7000063804891
 31
0.0
  0
LINE
  5
F8F
330
18
100
AcDbEntity
  8
外形線
100
AcDbLine
 10
429.8220664737737
 20
262.5000063804894
 30
0.0
 11
430.9220664737739
 21
262.5000063804894
 31
0.0
  0
LINE
  5
10CA
330
18
100
AcDbEntity
  8
0
  6
ByBlock
 62
     2
100
AcDbLine
 10
429.8220664737737
 20
310.1000063804895
 30
0.0
 11
429.8220664737737
 21
338.6188119092426
 31
0.0
  0
LINE
  5
10CB
330
18
100
AcDbEntity
  8
0
  6
ByBlock
 62
     2
100
AcDbLine
 10
425.8220664737737
 20
337.3688119092426
 30
0.0
 11
427.3220664737737
 21
337.3688119092426
 31
0.0
  0
INSERT
  5
10CC
330
18
100
AcDbEntity
  8
0
  6
ByBlock
 62
     2
100
AcDbBlockReference
  2
_OPEN
 10
423.3220664737737
 20
337.3688119092426
 30
0.0
 41
2.5
 42
2.5
 43
2.5
 50
180.0
  0
INSERT
  5
10CD
330
18
100
AcDbEntity
  8
0
  6
ByBlock
 62
     2
100
AcDbBlockReference
  2
_OPEN
 10
429.8220664737737
 20
337.3688119092426
 30
0.0
 41
2.5
 42
2.5
 43
2.5
  0
MTEXT
  5
10CE
330
18
100
AcDbEntity
  8
0
  6
ByBlock
 62
     6
100
AcDbMText
 10
426.5720664737736
 20
339.2438119092426
 30
0.0
 40
2.5
 41
0.0
 71
     5
 72
     1
  1
\A1;6.5
  7
STYLE3
 73
     1
 44
1.0
  0
POINT
  5
10CF
330
18
100
AcDbEntity
  8
DEFPOINTS
  6
ByBlock
 62
     0
100
AcDbPoint
 10
423.3220664737737
 20
310.1000063804895
 30
0.0
  0
POINT
  5
10D0
330
18
100
AcDbEntity
  8
DEFPOINTS
  6
ByBlock
 62
     0
100
AcDbPoint
 10
429.8220664737737
 20
310.1000063804895
 30
0.0
  0
POINT
  5
10D1
330
18
100
AcDbEntity
  8
DEFPOINTS
  6
ByBlock
 62
     0
100
AcDbPoint
 10
429.8220664737737
 20
337.3688119092426
 30
0.0
  0
LINE
  5
10D2
330
18
100
AcDbEntity
  8
0
  6
ByBlock
 62
     2
100
AcDbLine
 10
408.8220664737737
 20
285.6000063804895
 30
0.0
 11
408.8220664737737
 21
338.6188119092426
 31
0.0
  0
LINE
  5
10D4
330
18
100
AcDbEntity
  8
0
  6
ByBlock
 62
     2
100
AcDbLine
 10
411.3220664737736
 20
337.3688119092426
 30
0.0
 11
420.8220664737736
 21
337.3688119092426
 31
0.0
  0
INSERT
  5
10D5
330
18
100
AcDbEntity
  8
0
  6
ByBlock
 62
     2
100
AcDbBlockReference
  2
_OPEN
 10
408.8220664737737
 20
337.3688119092426
 30
0.0
 41
2.5
 42
2.5
 43
2.5
 50
180.0
  0
INSERT
  5
10D6
330
18
100
AcDbEntity
  8
0
  6
ByBlock
 62
     2
100
AcDbBlockReference
  2
_OPEN
 10
423.3220664737737
 20
337.3688119092426
 30
0.0
 41
2.5
 42
2.5
 43
2.5
  0
MTEXT
  5
10D7
330
18
100
AcDbEntity
  8
0
  6
ByBlock
 62
     6
100
AcDbMText
 10
416.0720664737737
 20
339.2438119092426
 30
0.0
 40
2.5
 41
0.0
 71
     5
 72
     1
  1
\A1;14.5
  7
STYLE3
 73
     1
 44
1.0
  0
POINT
  5
10D8
330
18
100
AcDbEntity
  8
DEFPOINTS
  6
ByBlock
 62
     0
100
AcDbPoint
 10
408.8220664737737
 20
285.6000063804895
 30
0.0
  0
POINT
  5
10D9
330
18
100
AcDbEntity
  8
DEFPOINTS
  6
ByBlock
 62
     0
100
AcDbPoint
 10
423.3220664737737
 20
327.1000063804895
 30
0.0
  0
POINT
  5
10DA
330
18
100
AcDbEntity
  8
DEFPOINTS
  6
ByBlock
 62
     0
100
AcDbPoint
 10
423.3220664737737
 20
337.3688119092426
 30
0.0
  0
CIRCLE
  5
111B
330
18
100
AcDbEntity
  8
針
100
AcDbCircle
 10
335.6859250405532
 20
285.6000063804893
 30
0.0
 40
1.9
  0
LINE
  5
1121
330
18
100
AcDbEntity
  8
針
100
AcDbLine
 10
322.8274610196125
 20
303.4512809294446
 30
0.0
 11
334.3499121244017
 21
288.4596513738191
 31
0.0
  0
ARC
  5
1122
330
18
100
AcDbEntity
  8
針
100
AcDbCircle
 10
336.7769631075265
 20
290.2230071306965
 30
0.0
 40
3.0
100
AcDbArc
 50
216.0
 51
245.4722791770396
  0
LINE
  5
1124
330
18
100
AcDbEntity
  8
針
100
AcDbLine
 10
322.7546494901189
 20
303.3983802567384
 30
0.0
 11
322.8274610196125
 21
303.4512809294446
 31
0.0
  0
ARC
  5
1126
330
18
100
AcDbEntity
  8
針
100
AcDbCircle
 10
330.9520407480268
 20
285.9909533141906
 30
0.0
 40
3.0
100
AcDbArc
 50
6.527720822960331
 51
35.99999999999998
  0
LINE
  5
1127
330
18
100
AcDbEntity
  8
針
100
AcDbLine
 10
322.6818379606251
 20
303.3454795840321
 30
0.0
 11
333.3790917311516
 21
287.754309071068
 31
0.0
  0
CIRCLE
  5
1129
330
18
100
AcDbEntity
  8
針
100
AcDbCircle
 10
335.6859250405532
 20
285.6000063804893
 30
0.0
 40
0.475
  0
CIRCLE
  5
112B
330
18
100
AcDbEntity
  8
針
100
AcDbCircle
 10
335.6859250405532
 20
285.6000063804893
 30
0.0
 40
1.5
  0
HATCH
  5
1137
330
18
100
AcDbEntity
  8
針
100
AcDbHatch
 10
0.0
 20
0.0
 30
0.0
210
0.0
220
0.0
230
1.0
  2
SOLID
 70
     1
 71
     0
 91
        2
 92
        7
 72
     1
 73
     1
 93
        5
 10
322.8274610196125
 20
303.4512809294446
 42
0.0
 10
322.7546494901189
 20
303.3983802567384
 42
0.0
 10
322.6818379606251
 20
303.3454795840321
 42
0.0
 10
326.3618386668203
 20
297.9819049948042
 42
-0.0085634322047721
 10
326.7913408258067
 20
298.2939565791777
 42
0.0
 97
        0
 92
        7
 72
     1
 73
     1
 93
        6
 10
326.7913408258067
 20
298.2939565791777
 42
0.0085634322047721
 10
326.3618386668203
 20
297.9819049948042
 42
0.0
 10
333.3790917311518
 20
287.7543090710677
 42
-0.1293106770632391
 10
333.9325916563861
 20
286.3320050443988
 42
-0.2805221108582334
 10
335.5315627538356
 20
287.4937255477473
 42
-0.1293106770632486
 10
334.3499121244018
 20
288.4596513738188
 42
0.0
 97
        0
 75
     0
 76
     1
 47
0.0423559757596284
 98
        2
 10
326.1744953391002
 20
298.6223567660434
 10
328.866581564955
 20
295.1333658775356
450
        0
451
        0
460
0.0
461
0.0
452
        0
462
0.0
453
        0
470

  0
HATCH
  5
1288
330
18
100
AcDbEntity
  8
ROGO
 62
     4
100
AcDbHatch
 10
0.0
 20
0.0
 30
0.0
210
0.0
220
0.0
230
1.0
  2
SOLID
 70
     1
 71
     1
 91
        1
 92
        7
 72
     0
 73
     1
 93
       11
 10
340.6547895666355
 20
294.7396676588113
 10
341.3726330616246
 20
294.7396676588114
 10
341.6261758695072
 20
295.2481441642673
 10
341.87971867739
 20
294.7396676588113
 10
342.5975464665407
 20
294.7396676588113
 10
342.1118533151047
 20
295.7137183858989
 10
343.2918997934828
 20
296.6877691129865
 10
342.5740720043322
 20
296.6877691129865
 10
342.2379637473454
 20
296.4750760768749
 10
342.3440193644962
 20
296.6877691129866
 10
341.6261758695072
 20
296.6877691129865
 97
       11
330
12D0
330
12D3
330
12D4
330
128A
330
12C0
330
1293
330
12BF
330
1289
330
12CF
330
12D2
330
12D1
 75
     0
 76
     1
 47
0.0514683685270805
 98
        1
 10
341.564395714326
 20
295.851995626725
450
        0
451
        0
460
0.0
461
0.0
452
        0
462
0.0
453
        0
470

  0
LINE
  5
1289
102
{ACAD_REACTORS
330
1288
102
}
330
18
100
AcDbEntity
  8
ROGO
 62
     4
100
AcDbLine
 10
341.6261758695072
 20
295.2481441642673
 30
0.0
 11
341.87971867739
 21
294.7396676588113
 31
0.0
  0
LINE
  5
128A
102
{ACAD_REACTORS
330
1288
102
}
330
18
100
AcDbEntity
  8
ROGO
 62
     4
100
AcDbLine
 10
341.6261758695072
 20
296.6877691129865
 30
0.0
 11
342.3440193644962
 21
296.6877691129865
 31
0.0
  0
HATCH
  5
128D
330
18
100
AcDbEntity
  8
ROGO
 62
     4
100
AcDbHatch
 10
0.0
 20
0.0
 30
0.0
210
0.0
220
0.0
230
1.0
  2
SOLID
 70
     1
 71
     1
 91
        2
 92
        5
 93
        6
 72
     1
 10
328.1859250405533
 20
294.7396676588113
 11
329.0914858577526
 21
294.7396676588113
 72
     1
 10
329.0914858577526
 20
294.7396676588113
 11
329.4088060420827
 21
295.44103876635
 72
     1
 10
329.4088060420827
 20
295.44103876635
 11
330.2553196746413
 21
295.44103876635
 72
     4
 94
        3
 73
     0
 74
     0
 95
       18
 96
       14
 40
0.108740278791501
 40
0.108740278791501
 40
0.108740278791501
 40
0.108740278791501
 40
0.6623149649549278
 40
1.384304701649787
 40
2.097394834876493
 40
2.774073369849618
 40
3.428974823686337
 40
4.005208313035923
 40
4.455173659284313
 40
4.720999734343524
 40
5.086034088486724
 40
5.569973738255373
 40
6.060470601257719
 40
6.060470601257719
 40
6.060470601257719
 40
6.060470601257719
 10
330.2553196746414
 20
295.44103876635
 10
330.3148959055821
 20
295.4414824125029
 10
330.4521733543806
 20
295.4425046760979
 10
330.6442234310622
 20
295.5451020470867
 10
330.8263417760985
 20
295.6758036225815
 10
330.9730257137685
 20
295.8391016050372
 10
331.0644142263393
 20
296.025804871129
 10
331.078570018073
 20
296.2047428024906
 10
331.0699282550032
 20
296.3462804816223
 10
331.0081785173125
 20
296.4449357577885
 10
330.9439821297482
 20
296.5450607742744
 10
330.8262676626742
 20
296.6317927824496
 10
330.7298177015995
 20
296.6697942948437
 10
330.6807709347383
 20
296.6877691129866
 72
     1
 10
330.6807709347386
 20
296.6877691129864
 11
329.1498275225399
 21
296.6877691129866
 72
     1
 10
329.1498275225399
 20
296.6877691129866
 11
328.1859250405533
 21
294.7396676588113
 97
        6
330
12B5
330
1294
330
1297
330
1293
330
1295
330
1292
 92
       20
 93
        4
 72
     1
 10
329.6047332920338
 20
295.8740957198033
 11
329.7547400756238
 21
296.205654911876
 72
     1
 10
329.7547400756238
 20
296.205654911876
 11
330.140193577622
 21
296.2056549118761
 72
     4
 94
        3
 73
     0
 74
     0
 95
       15
 96
       11
 40
0.0
 40
0.0
 40
0.0
 40
0.0
 40
0.1461831775054869
 40
0.2128346657926855
 40
0.2884885421222081
 40
0.3400274801801145
 40
0.4215368452530754
 40
0.4703587283434508
 40
0.5541210812769089
 40
0.5820418834082098
 40
0.5820418834082098
 40
0.5820418834082098
 40
0.5820418834082098
 10
330.140193577622
 20
296.2056549118761
 10
330.1950971442703
 20
296.205906399518
 10
330.275033717396
 20
296.2062725516918
 10
330.3187458826005
 20
296.1073907795672
 10
330.2991520059526
 20
296.0437263436872
 10
330.2745209060796
 20
295.9783628108088
 10
330.2309921740282
 20
295.9339473043959
 10
330.1725702398341
 20
295.8911676842998
 10
330.1173587201581
 20
295.885989019729
 10
330.0814498243108
 20
295.8764743806993
 10
330.0724725960519
 20
295.8740957198033
 72
     1
 10
330.072472596052
 20
295.8740957198033
 11
329.6047332920338
 21
295.8740957198033
 97
        4
330
1296
330
1291
330
12B4
330
1290
 75
     0
 76
     1
 47
0.0514683685270805
 98
        2
 10
329.1580101775553
 20
296.0818578601
 10
329.1580101775553
 20
296.0818578601
450
        0
451
        0
460
0.0
461
0.0
452
        0
462
0.0
453
        0
470

  0
HATCH
  5
128E
330
18
100
AcDbEntity
  8
ROGO
 62
     4
100
AcDbHatch
 10
0.0
 20
0.0
 30
0.0
210
0.0
220
0.0
230
1.0
  2
SOLID
 70
     1
 71
     0
 91
        1
 92
        7
 72
     0
 73
     1
 93
        4
 10
329.1798306755614
 20
294.9349357374639
 10
329.0914858577527
 20
294.7396676588113
 10
340.6547895666355
 20
294.7396676588113
 10
340.7521565372236
 20
294.9349357374639
 97
        0
 75
     0
 76
     1
 47
0.0514683685270805
 98
        1
 10
336.4868154807567
 20
294.8832904688453
450
        0
451
        0
460
0.0
461
0.0
452
        0
462
0.0
453
        0
470

  0
LINE
  5
128F
330
18
100
AcDbEntity
  8
ROGO
 62
     4
100
AcDbLine
 10
329.1662886272277
 20
294.9349357374639
 30
0.0
 11
340.7521565372236
 21
294.9349357374639
 31
0.0
  0
LINE
  5
1290
102
{ACAD_REACTORS
330
128D
102
}
330
18
100
AcDbEntity
  8
ROGO
 62
     4
100
AcDbLine
 10
330.072472596052
 20
295.8740957198033
 30
0.0
 11
329.6047332920338
 21
295.8740957198033
 31
0.0
  0
LINE
  5
1291
102
{ACAD_REACTORS
330
128D
102
}
330
18
100
AcDbEntity
  8
ROGO
 62
     4
100
AcDbLine
 10
330.1401935776222
 20
296.2056549118761
 30
0.0
 11
329.7547400756238
 21
296.2056549118761
 31
0.0
  0
LINE
  5
1292
102
{ACAD_REACTORS
330
128D
102
}
330
18
100
AcDbEntity
  8
ROGO
 62
     4
100
AcDbLine
 10
330.2553196749349
 20
295.44103876635
 30
0.0
 11
329.4088060420827
 21
295.44103876635
 31
0.0
  0
LINE
  5
1293
102
{ACAD_REACTORS
330
128D
330
1288
102
}
330
18
100
AcDbEntity
  8
ROGO
 62
     4
100
AcDbLine
 10
328.1859250405533
 20
294.7396676588113
 30
0.0
 11
341.3726330616245
 21
294.7396676588113
 31
0.0
  0
LINE
  5
1294
102
{ACAD_REACTORS
330
128D
102
}
330
18
100
AcDbEntity
  8
ROGO
 62
     4
100
AcDbLine
 10
329.1498275225399
 20
296.6877691129865
 30
0.0
 11
330.6807709347383
 21
296.6877691129865
 31
0.0
  0
LINE
  5
1295
102
{ACAD_REACTORS
330
128D
102
}
330
18
100
AcDbEntity
  8
ROGO
 62
     4
100
AcDbLine
 10
329.4088060420827
 20
295.44103876635
 30
0.0
 11
329.0914858577527
 21
294.7396676588113
 31
0.0
  0
LINE
  5
1296
102
{ACAD_REACTORS
330
128D
102
}
330
18
100
AcDbEntity
  8
ROGO
 62
     4
100
AcDbLine
 10
329.7547400756238
 20
296.2056549118761
 30
0.0
 11
329.6047332920338
 21
295.8740957198033
 31
0.0
  0
LINE
  5
1297
102
{ACAD_REACTORS
330
128D
102
}
330
18
100
AcDbEntity
  8
ROGO
 62
     4
100
AcDbLine
 10
329.1498275225399
 20
296.6877691129865
 30
0.0
 11
328.1859250405533
 21
294.7396676588113
 31
0.0
  0
HATCH
  5
1298
330
18
100
AcDbEntity
  8
ROGO
 62
     4
100
AcDbHatch
 10
0.0
 20
0.0
 30
0.0
210
0.0
220
0.0
230
1.0
  2
SOLID
 70
     1
 71
     1
 91
        1
 92
        5
 93
        8
 72
     1
 10
337.1166848092378
 20
296.2239045919929
 11
337.3479826408348
 21
296.6877691129866
 72
     1
 10
337.3479826408348
 20
296.6877691129866
 11
336.0994565440715
 21
296.6877691129866
 72
     4
 94
        3
 73
     0
 74
     0
 95
       26
 96
       22
 40
0.0
 40
0.0
 40
0.0
 40
0.0
 40
0.2261711682465229
 40
0.3775752524709292
 40
0.4867499270747143
 40
0.568267124049349
 40
0.6739992068898783
 40
0.7511733198246171
 40
0.8905317800930589
 40
1.003967563249478
 40
1.081122071918962
 40
1.156776017963922
 40
1.292106219407743
 40
1.387800824155796
 40
1.439339762213627
 40
1.512549301287547
 40
1.565415552119591
 40
1.642001295672489
 40
1.685342202005951
 40
1.779656875742602
 40
1.822721775074863
 40
1.822721775074863
 40
1.822721775074863
 40
1.822721775074863
 10
336.0994565440712
 20
296.6877691129865
 10
336.0226905550305
 20
296.6831891224405
 10
335.8945356804817
 20
296.6755431828624
 10
335.7538224078295
 20
296.5900613808747
 10
335.650727626478
 20
296.540366017688
 10
335.5772005534467
 20
296.4728094052021
 10
335.5233049108582
 20
296.4030283594212
 10
335.4553593355372
 20
296.3198847550212
 10
335.3999516604097
 20
296.2230673921945
 10
335.3717358999168
 20
296.1163577798838
 10
335.3467426470687
 20
296.0313095997231
 10
335.3282072323462
 20
295.9365345019481
 10
335.3329231665823
 20
295.8341440562151
 10
335.3396766002397
 20
295.7390490520642
 10
335.3698290393011
 20
295.6711654567752
 10
335.4041673264749
 20
295.6228370147325
 10
335.4462140888589
 20
295.5696085937446
 10
335.4922224417788
 20
295.5343555828846
 10
335.5302751051064
 20
295.4704923847664
 10
335.5968850085798
 20
295.4623429801021
 10
335.6392249132018
 20
295.4461232325483
 10
335.6524973647719
 20
295.44103876635
 72
     1
 10
335.6524973647719
 20
295.44103876635
 11
336.7263226243598
 21
295.44103876635
 72
     1
 10
336.7263226243598
 20
295.44103876635
 11
336.9576180065759
 21
295.9048983751452
 72
     1
 10
336.9576180065759
 20
295.9048983751452
 11
336.1604053106616
 21
295.9048983751452
 72
     4
 94
        3
 73
     0
 74
     0
 95
       16
 96
       12
 40
0.0
 40
0.0
 40
0.0
 40
0.0
 40
0.0683030918787651
 40
0.1373106805328241
 40
0.1784706056911381
 40
0.2179345026857031
 40
0.2612752368189221
 40
0.2915411730568249
 40
0.3202609197926786
 40
0.3785004428982989
 40
0.4977391777073984
 40
0.4977391777073984
 40
0.4977391777073984
 40
0.4977391777073984
 10
336.1604053106616
 20
295.9048983751452
 10
336.1363585663313
 20
295.9119732799159
 10
336.0880170529713
 20
295.9261960619602
 10
336.0839712586696
 20
295.9951428842826
 10
336.0894830680808
 20
296.0442731370866
 10
336.1125665382057
 20
296.0800428301499
 10
336.1405707912419
 20
296.1060699882062
 10
336.1509980166703
 20
296.1399662920691
 10
336.1816478957976
 20
296.1655622422832
 10
336.235998343958
 20
296.2085854590759
 10
336.2961005310028
 20
296.2177484429613
 10
336.3364801742712
 20
296.2239045919929
 72
     1
 10
336.3364801742713
 20
296.2239045919929
 11
337.1166848092378
 21
296.2239045919929
 97
        8
330
12C9
330
1299
330
129A
330
12CA
330
12CC
330
12CB
330
12CD
330
12CE
 75
     0
 76
     1
 47
0.0514683685270805
 98
        1
 10
336.5361123459829
 20
296.4102323216394
450
        0
451
        0
460
0.0
461
0.0
452
        0
462
0.0
453
        0
470

  0
SPLINE
  5
1299
102
{ACAD_REACTORS
330
1298
102
}
330
18
100
AcDbEntity
  8
ROGO
 62
     4
100
AcDbSpline
210
0.0
220
0.0
230
1.0
 70
     8
 71
     3
 72
    26
 73
    22
 74
    20
 42
0.0000000001
 43
0.0000000001
 44
0.0000000001
 40
0.0
 40
0.0
 40
0.0
 40
0.0
 40
0.2261711682465229
 40
0.3775752524709292
 40
0.4867499270747143
 40
0.568267124049349
 40
0.6739992068898783
 40
0.7511733198246171
 40
0.8905317800930589
 40
1.003967563249478
 40
1.081122071918962
 40
1.156776017963922
 40
1.292106219407743
 40
1.387800824155796
 40
1.439339762213627
 40
1.512549301287547
 40
1.565415552119591
 40
1.642001295672489
 40
1.685342202005951
 40
1.779656875742602
 40
1.822721775074863
 40
1.822721775074863
 40
1.822721775074863
 40
1.822721775074863
 10
336.0994565440712
 20
296.6877691129865
 30
0.0
 10
336.0226905550305
 20
296.6831891224405
 30
0.0
 10
335.8945356804817
 20
296.6755431828624
 30
0.0
 10
335.7538224078295
 20
296.5900613808747
 30
0.0
 10
335.650727626478
 20
296.540366017688
 30
0.0
 10
335.5772005534467
 20
296.4728094052021
 30
0.0
 10
335.5233049108582
 20
296.4030283594212
 30
0.0
 10
335.4553593355372
 20
296.3198847550212
 30
0.0
 10
335.3999516604097
 20
296.2230673921945
 30
0.0
 10
335.3717358999168
 20
296.1163577798838
 30
0.0
 10
335.3467426470687
 20
296.0313095997231
 30
0.0
 10
335.3282072323462
 20
295.9365345019481
 30
0.0
 10
335.3329231665823
 20
295.8341440562151
 30
0.0
 10
335.3396766002397
 20
295.7390490520642
 30
0.0
 10
335.3698290393011
 20
295.6711654567752
 30
0.0
 10
335.4041673264749
 20
295.6228370147325
 30
0.0
 10
335.4462140888589
 20
295.5696085937446
 30
0.0
 10
335.4922224417788
 20
295.5343555828846
 30
0.0
 10
335.5302751051064
 20
295.4704923847664
 30
0.0
 10
335.5968850085798
 20
295.4623429801021
 30
0.0
 10
335.6392249132018
 20
295.4461232325483
 30
0.0
 10
335.6524973647719
 20
295.44103876635
 30
0.0
 11
336.0994565440712
 21
296.6877691129865
 31
0.0
 11
335.8759769544215
 21
296.6529801728473
 31
0.0
 11
335.7405346018721
 21
296.5853150721254
 31
0.0
 11
335.6457251497921
 21
296.531183035667
 31
0.0
 11
335.5847763832017
 21
296.4770507786134
 31
0.0
 11
335.5170554016317
 21
296.3958526136281
 31
0.0
 11
335.4696506755916
 21
296.334954045038
 31
0.0
 11
335.4019293046123
 21
296.2131566872625
 31
0.0
 11
335.3680690085318
 21
296.1048923937505
 31
0.0
 11
335.3477527530018
 21
296.0304607608968
 31
0.0
 11
335.3342083230422
 21
295.9560291280433
 31
0.0
 11
335.3342083230422
 21
295.8206989265995
 31
0.0
 11
335.3477527530018
 21
295.7259676973508
 31
0.0
 11
335.3680690085318
 21
295.678601972429
 31
0.0
 11
335.4087015195921
 21
295.6177034038386
 31
0.0
 11
335.4425622050817
 21
295.5771042110486
 31
0.0
 11
335.4967387566922
 21
295.5229721745901
 31
0.0
 11
335.5238272272022
 21
295.4891395139315
 31
0.0
 11
335.6118648537116
 21
295.4553070738681
 31
0.0
 11
335.6524973647719
 21
295.44103876635
 31
0.0
  0
LINE
  5
129A
102
{ACAD_REACTORS
330
1298
102
}
330
18
100
AcDbEntity
  8
ROGO
 62
     4
100
AcDbLine
 10
335.6524973647718
 20
295.44103876635
 30
0.0
 11
336.7263226243598
 21
295.44103876635
 31
0.0
  0
HATCH
  5
129B
330
18
100
AcDbEntity
  8
ROGO
 62
     4
100
AcDbHatch
 10
0.0
 20
0.0
 30
0.0
210
0.0
220
0.0
230
1.0
  2
SOLID
 70
     1
 71
     1
 91
        2
 92
        7
 72
     0
 73
     1
 93
        8
 10
334.7572193052402
 20
296.6877691129866
 10
333.7599418016613
 20
296.6877691129864
 10
332.86090031878
 20
295.44103876635
 10
333.551365778527
 20
295.44103876635
 10
333.7225377143202
 20
295.6784085105825
 10
334.5104422340851
 20
295.6784085105825
 10
334.6158912800435
 20
295.44103876635
 10
335.3110663258255
 20
295.44103876635
 97
        8
330
12A2
330
12A8
330
12A3
330
12A4
330
12A6
330
129C
330
12A1
330
129E
 92
       22
 72
     0
 73
     1
 93
        3
 10
334.3992219455142
 20
295.92876953767
 10
333.9030779166628
 20
295.92876953767
 10
334.2100898190607
 20
296.3545130242457
 97
        3
330
12A5
330
12A7
330
129D
 75
     0
 76
     1
 47
0.0128389261915577
 98
        2
 10
334.6791245966918
 20
296.3886609878981
 10
334.6791245966918
 20
296.3886609878981
450
        0
451
        0
460
0.0
461
0.0
452
        0
462
0.0
453
        0
470

  0
LINE
  5
129C
102
{ACAD_REACTORS
330
129B
102
}
330
18
100
AcDbEntity
  8
ROGO
 62
     4
100
AcDbLine
 10
334.5104422340851
 20
295.6784085105825
 30
0.0
 11
334.6158912800435
 21
295.44103876635
 31
0.0
  0
LINE
  5
129D
102
{ACAD_REACTORS
330
129B
102
}
330
18
100
AcDbEntity
  8
ROGO
 62
     4
100
AcDbLine
 10
334.2100898190607
 20
296.3545130242456
 30
0.0
 11
334.3992219455142
 21
295.92876953767
 31
0.0
  0
LINE
  5
129E
102
{ACAD_REACTORS
330
129B
102
}
330
18
100
AcDbEntity
  8
ROGO
 62
     4
100
AcDbLine
 10
334.7572193052402
 20
296.6877691129865
 30
0.0
 11
335.3110663258255
 21
295.44103876635
 31
0.0
  0
HATCH
  5
129F
330
18
100
AcDbEntity
  8
ROGO
 62
     4
100
AcDbHatch
 10
0.0
 20
0.0
 30
0.0
210
0.0
220
0.0
230
1.0
  2
SOLID
 70
     1
 71
     1
 91
        1
 92
        1
 93
       12
 72
     1
 10
331.5852143161396
 20
296.6877691129865
 11
333.271468976868
 21
296.6877691129866
 72
     1
 10
333.271468976868
 20
296.6877691129865
 11
333.1301623288953
 21
296.4021803822334
 72
     1
 10
333.1301623288953
 20
296.4021803822334
 11
332.243909489926
 21
296.4021803822334
 72
     1
 10
332.243909489926
 20
296.4021803822334
 11
332.1334252507832
 21
296.1788854836726
 72
     1
 10
332.1334252507832
 20
296.1788854836726
 11
333.0196780897524
 21
296.1788854836726
 72
     1
 10
333.0196780897524
 20
296.1788854836726
 11
332.9063868526752
 21
295.9499174834655
 72
     1
 10
332.9063868526752
 20
295.9499174834655
 11
332.0201340137061
 21
295.9499174834655
 72
     1
 10
332.0201340137061
 20
295.9499174834655
 11
331.9096450971916
 21
295.7266131316722
 72
     1
 10
331.9096450971917
 20
295.7266131316722
 11
332.7958979361608
 21
295.7266131316722
 72
     1
 10
332.7958979361608
 20
295.7266131316722
 11
332.6545983960697
 21
295.44103876635
 72
     1
 10
332.6545983960697
 20
295.44103876635
 11
330.9683437353413
 21
295.44103876635
 72
     1
 10
330.9683437353413
 20
295.44103876635
 11
331.5852143161396
 21
296.6877691129865
 97
       12
330
12A0
330
12B2
330
12AF
330
12B0
330
12AE
330
12AB
330
12AC
330
12A9
330
12AD
330
12AA
330
12B1
330
12B3
 75
     0
 76
     1
 98
        1
 10
262.609491700088
 20
210.4819443591785
450
        0
451
        0
460
0.0
461
0.0
452
        0
462
0.0
453
        0
470

  0
LINE
  5
12A0
102
{ACAD_REACTORS
330
129F
102
}
330
18
100
AcDbEntity
  8
ROGO
 62
     4
100
AcDbLine
 10
331.5852143161396
 20
296.6877691129865
 30
0.0
 11
333.271468976868
 21
296.6877691129866
 31
0.0
  0
LINE
  5
12A1
102
{ACAD_REACTORS
330
129B
102
}
330
18
100
AcDbEntity
  8
ROGO
 62
     4
100
AcDbLine
 10
335.3110663258255
 20
295.4410387663501
 30
0.0
 11
334.6158912800435
 21
295.44103876635
 31
0.0
  0
LINE
  5
12A2
102
{ACAD_REACTORS
330
129B
102
}
330
18
100
AcDbEntity
  8
ROGO
 62
     4
100
AcDbLine
 10
333.7599418016613
 20
296.6877691129865
 30
0.0
 11
334.7572193052402
 21
296.6877691129866
 31
0.0
  0
LINE
  5
12A3
102
{ACAD_REACTORS
330
129B
102
}
330
18
100
AcDbEntity
  8
ROGO
 62
     4
100
AcDbLine
 10
332.86090031878
 20
295.44103876635
 30
0.0
 11
333.551365778527
 21
295.44103876635
 31
0.0
  0
LINE
  5
12A4
102
{ACAD_REACTORS
330
129B
102
}
330
18
100
AcDbEntity
  8
ROGO
 62
     4
100
AcDbLine
 10
333.7225377143202
 20
295.6784085105825
 30
0.0
 11
333.5513657785271
 21
295.4410387663501
 31
0.0
  0
LINE
  5
12A5
102
{ACAD_REACTORS
330
129B
102
}
330
18
100
AcDbEntity
  8
ROGO
 62
     4
100
AcDbLine
 10
333.9030779166628
 20
295.92876953767
 30
0.0
 11
334.3992219455142
 21
295.92876953767
 31
0.0
  0
LINE
  5
12A6
102
{ACAD_REACTORS
330
129B
102
}
330
18
100
AcDbEntity
  8
ROGO
 62
     4
100
AcDbLine
 10
333.7225377143202
 20
295.6784085105825
 30
0.0
 11
334.5104422340851
 21
295.6784085105825
 31
0.0
  0
LINE
  5
12A7
102
{ACAD_REACTORS
330
129B
102
}
330
18
100
AcDbEntity
  8
ROGO
 62
     4
100
AcDbLine
 10
334.2100898190606
 20
296.3545130242456
 30
0.0
 11
333.9030779166628
 21
295.92876953767
 31
0.0
  0
LINE
  5
12A8
102
{ACAD_REACTORS
330
129B
102
}
330
18
100
AcDbEntity
  8
ROGO
 62
     4
100
AcDbLine
 10
333.7599418016613
 20
296.6877691129865
 30
0.0
 11
332.86090031878
 21
295.44103876635
 31
0.0
  0
LINE
  5
12A9
102
{ACAD_REACTORS
330
129F
102
}
330
18
100
AcDbEntity
  8
ROGO
 62
     4
100
AcDbLine
 10
332.0201340137061
 20
295.9499174834655
 30
0.0
 11
331.9096450971916
 21
295.7266131316722
 31
0.0
  0
LINE
  5
12AA
102
{ACAD_REACTORS
330
129F
102
}
330
18
100
AcDbEntity
  8
ROGO
 62
     4
100
AcDbLine
 10
332.7958979361608
 20
295.7266131316722
 30
0.0
 11
332.6545983960697
 21
295.44103876635
 31
0.0
  0
LINE
  5
12AB
102
{ACAD_REACTORS
330
129F
102
}
330
18
100
AcDbEntity
  8
ROGO
 62
     4
100
AcDbLine
 10
333.0196780897524
 20
296.1788854836726
 30
0.0
 11
332.9063868526752
 21
295.9499174834655
 31
0.0
  0
LINE
  5
12AC
102
{ACAD_REACTORS
330
129F
102
}
330
18
100
AcDbEntity
  8
ROGO
 62
     4
100
AcDbLine
 10
332.0201340137061
 20
295.9499174834655
 30
0.0
 11
332.9063868526752
 21
295.9499174834655
 31
0.0
  0
LINE
  5
12AD
102
{ACAD_REACTORS
330
129F
102
}
330
18
100
AcDbEntity
  8
ROGO
 62
     4
100
AcDbLine
 10
331.9096450971917
 20
295.7266131316722
 30
0.0
 11
332.7958979361608
 21
295.7266131316722
 31
0.0
  0
LINE
  5
12AE
102
{ACAD_REACTORS
330
129F
102
}
330
18
100
AcDbEntity
  8
ROGO
 62
     4
100
AcDbLine
 10
332.1334252507832
 20
296.1788854836726
 30
0.0
 11
333.0196780897524
 21
296.1788854836726
 31
0.0
  0
LINE
  5
12AF
102
{ACAD_REACTORS
330
129F
102
}
330
18
100
AcDbEntity
  8
ROGO
 62
     4
100
AcDbLine
 10
332.243909489926
 20
296.4021803822334
 30
0.0
 11
333.1301623288953
 21
296.4021803822334
 31
0.0
  0
LINE
  5
12B0
102
{ACAD_REACTORS
330
129F
102
}
330
18
100
AcDbEntity
  8
ROGO
 62
     4
100
AcDbLine
 10
332.243909489926
 20
296.4021803822334
 30
0.0
 11
332.1334252507832
 21
296.1788854836726
 31
0.0
  0
LINE
  5
12B1
102
{ACAD_REACTORS
330
129F
102
}
330
18
100
AcDbEntity
  8
ROGO
 62
     4
100
AcDbLine
 10
330.9683437353413
 20
295.44103876635
 30
0.0
 11
332.6545983960697
 21
295.44103876635
 31
0.0
  0
LINE
  5
12B2
102
{ACAD_REACTORS
330
129F
102
}
330
18
100
AcDbEntity
  8
ROGO
 62
     4
100
AcDbLine
 10
333.271468976868
 20
296.6877691129865
 30
0.0
 11
333.1301623288953
 21
296.4021803822334
 31
0.0
  0
LINE
  5
12B3
102
{ACAD_REACTORS
330
129F
102
}
330
18
100
AcDbEntity
  8
ROGO
 62
     4
100
AcDbLine
 10
331.5852143161396
 20
296.6877691129865
 30
0.0
 11
330.9683437353413
 21
295.44103876635
 31
0.0
  0
SPLINE
  5
12B4
102
{ACAD_REACTORS
330
128D
102
}
330
18
100
AcDbEntity
  8
ROGO
 62
     4
100
AcDbSpline
210
0.0
220
0.0
230
1.0
 70
     8
 71
     3
 72
    15
 73
    11
 74
     9
 42
0.0000000001
 43
0.0000000001
 44
0.0000000001
 40
0.0
 40
0.0
 40
0.0
 40
0.0
 40
0.1461831775054869
 40
0.2128346657926855
 40
0.2884885421222081
 40
0.3400274801801145
 40
0.4215368452530754
 40
0.4703587283434508
 40
0.5541210812769089
 40
0.5820418834082098
 40
0.5820418834082098
 40
0.5820418834082098
 40
0.5820418834082098
 10
330.140193577622
 20
296.2056549118761
 30
0.0
 10
330.1950971442703
 20
296.205906399518
 30
0.0
 10
330.275033717396
 20
296.2062725516918
 30
0.0
 10
330.3187458826005
 20
296.1073907795672
 30
0.0
 10
330.2991520059526
 20
296.0437263436872
 30
0.0
 10
330.2745209060796
 20
295.9783628108088
 30
0.0
 10
330.2309921740282
 20
295.9339473043959
 30
0.0
 10
330.1725702398341
 20
295.8911676842998
 30
0.0
 10
330.1173587201581
 20
295.885989019729
 30
0.0
 10
330.0814498243108
 20
295.8764743806993
 30
0.0
 10
330.0724725960519
 20
295.8740957198033
 30
0.0
 11
330.140193577622
 21
296.2056549118761
 31
0.0
 11
330.2824077557421
 21
296.1718222512176
 31
0.0
 11
330.309496226252
 21
296.1109236826274
 31
0.0
 11
330.2959521857016
 21
296.0364920497738
 31
0.0
 11
330.2756359301715
 21
295.989126324852
 31
0.0
 11
330.2214589891517
 21
295.9282277562618
 31
0.0
 11
330.1808264780914
 21
295.901161627735
 31
0.0
 11
330.0995610665618
 21
295.880862251935
 31
0.0
 11
330.0724725960519
 21
295.8740957198033
 31
0.0
  0
SPLINE
  5
12B5
102
{ACAD_REACTORS
330
128D
102
}
330
18
100
AcDbEntity
  8
ROGO
 62
     4
100
AcDbSpline
210
0.0
220
0.0
230
1.0
 70
     8
 71
     3
 72
    18
 73
    14
 74
     0
 42
0.0000000001
 43
0.0000000001
 40
0.1087402787915014
 40
0.1087402787915014
 40
0.1087402787915014
 40
0.1087402787915014
 40
0.5992371417938475
 40
1.083176791562496
 40
1.448211145705696
 40
1.714037220764907
 40
2.164002567013297
 40
2.740236056362883
 40
3.395137510199602
 40
4.071816045172726
 40
4.784906178399433
 40
5.506895915094292
 40
6.060470601257719
 40
6.060470601257719
 40
6.060470601257719
 40
6.060470601257719
 10
330.6807709347383
 20
296.6877691129866
 30
0.0
 10
330.7298177015995
 20
296.6697942948437
 30
0.0
 10
330.8262676626742
 20
296.6317927824496
 30
0.0
 10
330.9439821297482
 20
296.5450607742744
 30
0.0
 10
331.0081785173125
 20
296.4449357577885
 30
0.0
 10
331.0699282550032
 20
296.3462804816223
 30
0.0
 10
331.078570018073
 20
296.2047428024906
 30
0.0
 10
331.0644142263393
 20
296.025804871129
 30
0.0
 10
330.9730257137685
 20
295.8391016050372
 30
0.0
 10
330.8263417760985
 20
295.6758036225815
 30
0.0
 10
330.6442234310622
 20
295.5451020470867
 30
0.0
 10
330.4521733543806
 20
295.4425046760979
 30
0.0
 10
330.3148959055821
 20
295.4414824125029
 30
0.0
 10
330.2553196746414
 20
295.44103876635
 30
0.0
  0
HATCH
  5
12B6
330
18
100
AcDbEntity
  8
ROGO
 62
     4
100
AcDbHatch
 10
0.0
 20
0.0
 30
0.0
210
0.0
220
0.0
230
1.0
  2
SOLID
 70
     1
 71
     1
 91
        2
 92
        5
 93
        6
 72
     4
 94
        3
 73
     0
 74
     0
 95
       38
 96
       34
 40
0.0
 40
0.0
 40
0.0
 40
0.0
 40
0.1716253587406623
 40
0.2255253290976248
 40
0.2947831262912113
 40
0.352498070257192
 40
0.401194707389018
 40
0.4658749546664991
 40
0.4989240118098149
 40
0.5361459251283493
 40
0.5910040209698863
 40
0.6531463397142244
 40
0.6934574532944029
 40
0.7372488460652118
 40
0.7859279681112547
 40
0.8598010024797554
 40
0.9299880888722469
 40
0.962617715058074
 40
0.99982743872465
 40
1.043908673224191
 40
1.075288847593852
 40
1.101594470956001
 40
1.139152958423429
 40
1.180423302418936
 40
1.221693416627877
 40
1.257804824007385
 40
1.340506365805091
 40
1.373135991990864
 40
1.438395283121515
 40
1.496081593396144
 40
1.606517709645446
 40
1.74278444224538
 40
1.93957343352095
 40
1.93957343352095
 40
1.93957343352095
 40
1.93957343352095
 10
338.040326124693
 20
296.6929693122931
 10
337.9831182483798
 20
296.6889279790908
 10
337.9079438963657
 20
296.6836174410263
 10
337.8124900467682
 20
296.6574659320976
 10
337.7604571379006
 20
296.6263110639132
 10
337.7063064959365
 20
296.6034107424509
 10
337.6601380303142
 20
296.569499907601
 10
337.613439602027
 20
296.5520259811087
 10
337.5807399330235
 20
296.5205173683409
 10
337.542892733414
 20
296.501270547726
 10
337.5127543364067
 20
296.4581905677281
 10
337.4790681566698
 20
296.4179123475141
 10
337.4399879503006
 20
296.3885110430985
 10
337.4079143004419
 20
296.3576310713965
 10
337.3784911864949
 20
296.3099739966842
 10
337.3610772707898
 20
296.2466518563277
 10
337.3119903653765
 20
296.2066725405464
 10
337.304599414316
 20
296.1586054740195
 10
337.2774479500279
 20
296.1302467136184
 10
337.2656415437506
 20
296.0936396280313
 10
337.2611450959403
 20
296.0601010714698
 10
337.2557482863895
 20
296.0287783813584
 10
337.2416312546846
 20
295.9958282949794
 10
337.24623910254
 20
295.9551262548061
 10
337.2449264650232
 20
295.9157131183397
 10
337.2456989537427
 20
295.8625041568138
 10
337.2429109349706
 20
295.8106986894305
 10
337.2651442921103
 20
295.7543220535573
 10
337.2783012550192
 20
295.7040700821293
 10
337.3143337382146
 20
295.6344901339463
 10
337.3764890166172
 20
295.554209918351
 10
337.4946824776688
 20
295.4567649470338
 10
337.6083289461462
 20
295.446879608289
 10
337.6754779914575
 20
295.44103876635
 72
     1
 10
337.6754779914577
 20
295.4410387663501
 11
338.387976310069
 21
295.44103876635
 72
     4
 94
        3
 73
     0
 74
     0
 95
       11
 96
        7
 40
0.1647869275458135
 40
0.1647869275458135
 40
0.1647869275458135
 40
0.1647869275458135
 40
0.2545010798212315
 40
0.5111620267764023
 40
0.7602998271033902
 40
0.8850764140209603
 40
0.8850764140209603
 40
0.8850764140209603
 40
0.8850764140209603
 10
338.3879763100683
 20
295.44103876635
 10
338.3979185758548
 20
295.4408471578835
 10
338.436304418122
 20
295.4401073816057
 10
338.5019062826799
 20
295.4495318606778
 10
338.5709281834959
 20
295.4585631491962
 10
338.6120771480554
 20
295.4651403641035
 10
338.6253487017933
 20
295.4688345061449
 72
     4
 94
        3
 73
     0
 74
     0
 95
        9
 96
        5
 40
0.0
 40
0.0
 40
0.0
 40
0.0
 40
0.1078348623950619
 40
0.2528255661270943
 40
0.2528255661270943
 40
0.2528255661270943
 40
0.2528255661270943
 10
338.6253487017933
 20
295.4688345061449
 10
338.6599883795163
 20
295.4794322911635
 10
338.7412032662076
 20
295.5042794596722
 10
338.808305366817
 20
295.5567942609767
 10
338.8467871585848
 20
295.5869105111412
 72
     4
 94
        3
 73
     0
 74
     0
 95
       25
 96
       21
 40
0.0
 40
0.0
 40
0.0
 40
0.0
 40
0.165525918914855
 40
0.3412380755365305
 40
0.5940540902285263
 40
0.7697671103696209
 40
0.9377330196075423
 40
1.11479469302833
 40
1.274661249598185
 40
1.574522170874768
 40
1.815540668866877
 40
2.15849091873445
 40
2.536227739636605
 40
2.738070817316548
 40
2.925680654369045
 40
3.162706124480894
 40
3.395643218188267
 40
3.648478129958861
 40
3.928509979727306
 40
4.337226830236035
 40
4.337226830236035
 40
4.337226830236035
 40
4.337226830236035
 10
338.8467871585848
 20
295.5869105111412
 10
338.8609265939835
 20
295.5985948201526
 10
338.8877452370999
 20
295.626384556092
 10
338.9353125167423
 20
295.6714255264772
 10
338.9772297055909
 20
295.7239018312123
 10
339.0289375758684
 20
295.7664320370918
 10
339.0558565314724
 20
295.818428366491
 10
339.0946580810663
 20
295.8593223720392
 10
339.1272062273779
 20
295.9224791297982
 10
339.1548217208668
 20
295.9950262373021
 10
339.18114928068
 20
296.089590013217
 10
339.1912382732019
 20
296.1962720086871
 10
339.1763053095981
 20
296.2994867857659
 10
339.140231044439
 20
296.3766364412842
 10
339.1137097023325
 20
296.4409327278682
 10
339.0734602430128
 20
296.5018326321752
 10
339.0275410499158
 20
296.5680680129238
 10
338.9628490379302
 20
296.6228553960419
 10
338.8783032203459
 20
296.6889378086017
 10
338.7995551042541
 20
296.6914679043533
 10
338.7528244433037
 20
296.6929693122931
 72
     1
 10
338.7528244433038
 20
296.6929693122931
 11
338.0403261246931
 21
296.6929693122931
 97
        6
330
12BC
330
12BB
330
12BD
330
12BA
330
12B9
330
12B8
 92
       20
 93
        1
 72
     3
 10
338.2040621367012
 20
296.049548971071
 11
0.1692676504802256
 21
0.148849717495386
 40
0.6788083417438791
 50
0.0
 51
360.0
 73
     1
 97
        1
330
12B7
 75
     0
 76
     1
 47
0.088756267210375
 98
        2
 10
338.2538416096996
 20
296.3471810786186
 10
338.2538416096996
 20
296.3471810786186
450
        0
451
        0
460
0.0
461
0.0
452
        0
462
0.0
453
        0
470

  0
ELLIPSE
  5
12B7
102
{ACAD_REACTORS
330
12B6
102
}
330
18
100
AcDbEntity
  8
ROGO
 62
     4
100
AcDbEllipse
 10
338.2040621367012
 20
296.049548971071
 30
0.0
 11
0.1692676504802256
 21
0.148849717495386
 31
0.0
210
0.0
220
0.0
230
1.0
 40
0.6788083417438791
 41
0.0
 42
6.283185307179586
  0
SPLINE
  5
12B8
102
{ACAD_REACTORS
330
12B6
102
}
330
18
100
AcDbEntity
  8
ROGO
 62
     4
100
AcDbSpline
210
0.0
220
0.0
230
1.0
 70
     8
 71
     3
 72
     9
 73
     5
 74
     3
 42
0.0000000001
 43
0.0000000001
 44
0.0000000001
 40
0.0
 40
0.0
 40
0.0
 40
0.0
 40
0.1078348623950619
 40
0.2528255661270943
 40
0.2528255661270943
 40
0.2528255661270943
 40
0.2528255661270943
 10
338.6253487017933
 20
295.4688345061449
 30
0.0
 10
338.6599883795163
 20
295.4794322911635
 30
0.0
 10
338.7412032662076
 20
295.5042794596722
 30
0.0
 10
338.808305366817
 20
295.5567942609767
 30
0.0
 10
338.8467871585848
 20
295.5869105111412
 30
0.0
 11
338.6253487017933
 21
295.4688345061449
 31
0.0
 11
338.7267003608436
 21
295.5056611100543
 31
0.0
 11
338.8467871585848
 21
295.5869105111412
 31
0.0
  0
SPLINE
  5
12B9
102
{ACAD_REACTORS
330
12B6
102
}
330
18
100
AcDbEntity
  8
ROGO
 62
     4
100
AcDbSpline
210
0.0
220
0.0
230
1.0
 70
     8
 71
     3
 72
    11
 73
     7
 74
     0
 42
0.0000000001
 43
0.0000000001
 40
0.1647869275458134
 40
0.1647869275458134
 40
0.1647869275458134
 40
0.1647869275458134
 40
0.2895635144633836
 40
0.5387013147903714
 40
0.7953622617455423
 40
0.8850764140209602
 40
0.8850764140209602
 40
0.8850764140209602
 40
0.8850764140209602
 10
338.6253487017933
 20
295.4688345061449
 30
0.0
 10
338.6120771480554
 20
295.4651403641035
 30
0.0
 10
338.5709281834959
 20
295.4585631491962
 30
0.0
 10
338.5019062826799
 20
295.4495318606778
 30
0.0
 10
338.436304418122
 20
295.4401073816057
 30
0.0
 10
338.3979185758548
 20
295.4408471578835
 30
0.0
 10
338.3879763100683
 20
295.44103876635
 30
0.0
  0
LINE
  5
12BA
102
{ACAD_REACTORS
330
12B6
102
}
330
18
100
AcDbEntity
  8
ROGO
 62
     4
100
AcDbLine
 10
337.6754779914575
 20
295.44103876635
 30
0.0
 11
338.3879763100683
 21
295.44103876635
 31
0.0
  0
LINE
  5
12BB
102
{ACAD_REACTORS
330
12B6
102
}
330
18
100
AcDbEntity
  8
ROGO
 62
     4
100
AcDbLine
 10
338.040326124693
 20
296.6929693122931
 30
0.0
 11
338.7528244433037
 21
296.6929693122931
 31
0.0
  0
SPLINE
  5
12BC
102
{ACAD_REACTORS
330
12B6
102
}
330
18
100
AcDbEntity
  8
ROGO
 62
     4
100
AcDbSpline
210
0.0
220
0.0
230
1.0
 70
     8
 71
     3
 72
    25
 73
    21
 74
     0
 42
0.0000000001
 43
0.0000000001
 40
0.0
 40
0.0
 40
0.0
 40
0.0
 40
0.4087168505087288
 40
0.6887487002771746
 40
0.9415836120477687
 40
1.17452070575514
 40
1.41154617586699
 40
1.599156012919487
 40
1.80099909059943
 40
2.178735911501585
 40
2.521686161369157
 40
2.762704659361267
 40
3.06256558063785
 40
3.222432137207705
 40
3.399493810628493
 40
3.567459719866414
 40
3.743172740007509
 40
3.995988754699505
 40
4.17170091132118
 40
4.337226830236035
 40
4.337226830236035
 40
4.337226830236035
 40
4.337226830236035
 10
338.7528244433037
 20
296.6929693122931
 30
0.0
 10
338.7995551042541
 20
296.6914679043533
 30
0.0
 10
338.8783032203459
 20
296.6889378086017
 30
0.0
 10
338.9628490379302
 20
296.6228553960419
 30
0.0
 10
339.0275410499158
 20
296.5680680129238
 30
0.0
 10
339.0734602430128
 20
296.5018326321752
 30
0.0
 10
339.1137097023325
 20
296.4409327278682
 30
0.0
 10
339.140231044439
 20
296.3766364412842
 30
0.0
 10
339.1763053095981
 20
296.2994867857659
 30
0.0
 10
339.1912382732019
 20
296.1962720086871
 30
0.0
 10
339.18114928068
 20
296.089590013217
 30
0.0
 10
339.1548217208668
 20
295.9950262373021
 30
0.0
 10
339.1272062273779
 20
295.9224791297982
 30
0.0
 10
339.0946580810663
 20
295.8593223720392
 30
0.0
 10
339.0558565314724
 20
295.818428366491
 30
0.0
 10
339.0289375758684
 20
295.7664320370918
 30
0.0
 10
338.9772297055909
 20
295.7239018312123
 30
0.0
 10
338.9353125167423
 20
295.6714255264772
 30
0.0
 10
338.8877452370999
 20
295.626384556092
 30
0.0
 10
338.8609265939835
 20
295.5985948201526
 30
0.0
 10
338.8467871585848
 20
295.5869105111412
 30
0.0
  0
SPLINE
  5
12BD
102
{ACAD_REACTORS
330
12B6
102
}
330
18
100
AcDbEntity
  8
ROGO
 62
     4
100
AcDbSpline
210
0.0
220
0.0
230
1.0
 70
     8
 71
     3
 72
    38
 73
    34
 74
    32
 42
0.0000000001
 43
0.0000000001
 44
0.0000000001
 40
0.0
 40
0.0
 40
0.0
 40
0.0
 40
0.1716253587406623
 40
0.2255253290976248
 40
0.2947831262912113
 40
0.352498070257192
 40
0.401194707389018
 40
0.4658749546664991
 40
0.4989240118098149
 40
0.5361459251283493
 40
0.5910040209698863
 40
0.6531463397142244
 40
0.6934574532944029
 40
0.7372488460652118
 40
0.7859279681112547
 40
0.8598010024797554
 40
0.9299880888722469
 40
0.962617715058074
 40
0.99982743872465
 40
1.043908673224191
 40
1.075288847593852
 40
1.101594470956001
 40
1.139152958423429
 40
1.180423302418936
 40
1.221693416627877
 40
1.257804824007385
 40
1.340506365805091
 40
1.373135991990864
 40
1.438395283121515
 40
1.496081593396144
 40
1.606517709645446
 40
1.74278444224538
 40
1.93957343352095
 40
1.93957343352095
 40
1.93957343352095
 40
1.93957343352095
 10
338.040326124693
 20
296.6929693122931
 30
0.0
 10
337.9831182483798
 20
296.6889279790908
 30
0.0
 10
337.9079438963657
 20
296.6836174410263
 30
0.0
 10
337.8124900467682
 20
296.6574659320976
 30
0.0
 10
337.7604571379006
 20
296.6263110639132
 30
0.0
 10
337.7063064959365
 20
296.6034107424509
 30
0.0
 10
337.6601380303142
 20
296.569499907601
 30
0.0
 10
337.613439602027
 20
296.5520259811087
 30
0.0
 10
337.5807399330235
 20
296.5205173683409
 30
0.0
 10
337.542892733414
 20
296.501270547726
 30
0.0
 10
337.5127543364067
 20
296.4581905677281
 30
0.0
 10
337.4790681566698
 20
296.4179123475141
 30
0.0
 10
337.4399879503006
 20
296.3885110430985
 30
0.0
 10
337.4079143004419
 20
296.3576310713965
 30
0.0
 10
337.3784911864949
 20
296.3099739966842
 30
0.0
 10
337.3610772707898
 20
296.2466518563277
 30
0.0
 10
337.3119903653765
 20
296.2066725405464
 30
0.0
 10
337.304599414316
 20
296.1586054740195
 30
0.0
 10
337.2774479500279
 20
296.1302467136184
 30
0.0
 10
337.2656415437506
 20
296.0936396280313
 30
0.0
 10
337.2611450959403
 20
296.0601010714698
 30
0.0
 10
337.2557482863895
 20
296.0287783813584
 30
0.0
 10
337.2416312546846
 20
295.9958282949794
 30
0.0
 10
337.24623910254
 20
295.9551262548061
 30
0.0
 10
337.2449264650232
 20
295.9157131183397
 30
0.0
 10
337.2456989537427
 20
295.8625041568138
 30
0.0
 10
337.2429109349706
 20
295.8106986894305
 30
0.0
 10
337.2651442921103
 20
295.7543220535573
 30
0.0
 10
337.2783012550192
 20
295.7040700821293
 30
0.0
 10
337.3143337382146
 20
295.6344901339463
 30
0.0
 10
337.3764890166172
 20
295.554209918351
 30
0.0
 10
337.4946824776688
 20
295.4567649470338
 30
0.0
 10
337.6083289461462
 20
295.446879608289
 30
0.0
 10
337.6754779914575
 20
295.44103876635
 30
0.0
 11
338.040326124693
 21
296.6929693122931
 31
0.0
 11
337.8699458186192
 21
296.672334025402
 31
0.0
 11
337.8183154351313
 21
296.6568579049136
 31
0.0
 11
337.7563592183264
 21
296.6259052043636
 31
0.0
 11
337.7047288348385
 21
296.6001114404297
 31
0.0
 11
337.6634246903019
 21
296.5743174467091
 31
0.0
 11
337.6066313901556
 21
296.5433649759457
 31
0.0
 11
337.5808159955943
 21
296.5227299188412
 31
0.0
 11
337.5498376843747
 21
296.5020946319501
 31
0.0
 11
337.5136964564966
 21
296.4608245177412
 31
0.0
 11
337.47239231196
 21
296.4143956967027
 31
0.0
 11
337.4414140007403
 21
296.3886017029823
 31
0.0
 11
337.4104360951552
 21
296.3576492322188
 31
0.0
 11
337.3846207005939
 21
296.3163791180098
 31
0.0
 11
337.3536427950089
 21
296.2493150100804
 31
0.0
 11
337.3123382448377
 21
296.1925685455964
 31
0.0
 11
337.3020124115208
 21
296.1616158450464
 31
0.0
 11
337.2813603392526
 21
296.1306633742828
 31
0.0
 11
337.2658711836427
 21
296.0893930302875
 31
0.0
 11
337.2607078613498
 21
296.0584405595239
 31
0.0
 11
337.2555449446913
 21
296.0326465658035
 31
0.0
 11
337.2452191113744
 21
295.9965353882105
 31
0.0
 11
337.2452191113744
 21
295.955265044215
 31
0.0
 11
337.2452191113744
 21
295.913994930006
 31
0.0
 11
337.2452191113744
 21
295.8778835226265
 31
0.0
 11
337.2503820280329
 21
295.7953432942085
 31
0.0
 11
337.2607078613498
 21
295.7643905936586
 31
0.0
 11
337.2813603392526
 21
295.7024854223451
 31
0.0
 11
337.3071753281793
 21
295.6508976646907
 31
0.0
 11
337.374294867277
 21
295.5631987294432
 31
0.0
 11
337.4827185509114
 21
295.4806582712387
 31
0.0
 11
337.6754779914575
 21
295.44103876635
 31
0.0
  0
HATCH
  5
12BE
330
18
100
AcDbEntity
  8
ROGO
 62
     4
100
AcDbHatch
 10
0.0
 20
0.0
 30
0.0
210
0.0
220
0.0
230
1.0
  2
SOLID
 70
     1
 71
     1
 91
        1
 92
        5
 93
        8
 72
     4
 94
        3
 73
     0
 74
     0
 95
       26
 96
       22
 40
0.0
 40
0.0
 40
0.0
 40
0.0
 40
0.2261711682465229
 40
0.3775752524709292
 40
0.4867499270747143
 40
0.568267124049349
 40
0.6739992068899219
 40
0.7511733198246508
 40
0.8905317800930927
 40
1.003967563249621
 40
1.081122071918995
 40
1.156776017963945
 40
1.292106219407766
 40
1.38780082415581
 40
1.439339762213746
 40
1.512549301287572
 40
1.565415552119695
 40
1.642001295672594
 40
1.68534220200602
 40
1.779656875742671
 40
1.822721775074878
 40
1.822721775074878
 40
1.822721775074878
 40
1.822721775074878
 10
340.1165326180064
 20
296.6877691129865
 10
340.0397666289658
 20
296.6831891224405
 10
339.911611754417
 20
296.6755431828624
 10
339.7708984817647
 20
296.5900613808747
 10
339.6678037004133
 20
296.540366017688
 10
339.5942766273821
 20
296.4728094052022
 10
339.5403809847935
 20
296.4030283594212
 10
339.4724354094723
 20
296.3198847550212
 10
339.417027734345
 20
296.2230673921945
 10
339.388811973852
 20
296.1163577798836
 10
339.3638187210038
 20
296.0313095997231
 10
339.3452833062814
 20
295.936534501948
 10
339.3499992405176
 20
295.8341440562151
 10
339.356752674175
 20
295.7390490520643
 10
339.3869051132363
 20
295.6711654567751
 10
339.4212434004102
 20
295.6228370147324
 10
339.4632901627942
 20
295.5696085937447
 10
339.5092985157142
 20
295.5343555828846
 10
339.5473511790417
 20
295.4704923847664
 10
339.6139610825152
 20
295.4623429801023
 10
339.656300987137
 20
295.4461232325483
 10
339.6695734387071
 20
295.44103876635
 72
     1
 10
339.669573438707
 20
295.4410387663501
 11
340.7433986982951
 21
295.44103876635
 72
     1
 10
340.7433986982951
 20
295.44103876635
 11
340.9746940805111
 21
295.9048983751452
 72
     1
 10
340.9746940805111
 20
295.9048983751452
 11
340.1774813845968
 21
295.9048983751452
 72
     4
 94
        3
 73
     0
 74
     0
 95
       16
 96
       12
 40
0.0
 40
0.0
 40
0.0
 40
0.0
 40
0.0683030918787657
 40
0.1373106805328135
 40
0.1784706056910715
 40
0.2179345026856072
 40
0.261275236818835
 40
0.2915411730567379
 40
0.3202609197925513
 40
0.3785004428982377
 40
0.4977391777072823
 40
0.4977391777072823
 40
0.4977391777072823
 40
0.4977391777072823
 10
340.1774813845968
 20
295.9048983751451
 10
340.1534346402665
 20
295.9119732799158
 10
340.1050931269065
 20
295.9261960619602
 10
340.1010473326049
 20
295.9951428842826
 10
340.1065591420161
 20
296.0442731370866
 10
340.129642612141
 20
296.0800428301499
 10
340.1576468651771
 20
296.1060699882061
 10
340.1680740906054
 20
296.139966292069
 10
340.1987239697331
 20
296.1655622422831
 10
340.2530744178931
 20
296.208585459076
 10
340.313176604938
 20
296.2177484429613
 10
340.3535562482064
 20
296.2239045919929
 72
     1
 10
340.3535562482065
 20
296.2239045919929
 11
341.1337608831732
 21
296.2239045919929
 72
     1
 10
341.1337608831732
 20
296.2239045919929
 11
341.3650587147699
 21
296.6877691129865
 72
     1
 10
341.3650587147699
 20
296.6877691129865
 11
340.1165326180064
 21
296.6877691129865
 97
        8
330
12C7
330
12C5
330
12C8
330
12C4
330
12C3
330
12C6
330
12C2
330
12C1
 75
     0
 76
     1
 47
0.0514683685270805
 98
        1
 10
340.3319733048534
 20
296.459488546019
450
        0
451
        0
460
0.0
461
0.0
452
        0
462
0.0
453
        0
470

  0
LINE
  5
12BF
102
{ACAD_REACTORS
330
1288
102
}
330
18
100
AcDbEntity
  8
ROGO
 62
     4
100
AcDbLine
 10
341.6261758695072
 20
295.2481441642673
 30
0.0
 11
341.3726330616245
 21
294.7396676588113
 31
0.0
  0
LINE
  5
12C0
102
{ACAD_REACTORS
330
1288
102
}
330
18
100
AcDbEntity
  8
ROGO
 62
     4
100
AcDbLine
 10
341.6261758695072
 20
296.6877691129865
 30
0.0
 11
340.6547895666355
 21
294.7396676588113
 31
0.0
  0
LINE
  5
12C1
102
{ACAD_REACTORS
330
12BE
102
}
330
18
100
AcDbEntity
  8
ROGO
 62
     4
100
AcDbLine
 10
341.3650587147699
 20
296.6877691129865
 30
0.0
 11
341.1337608831731
 21
296.2239045919929
 31
0.0
  0
LINE
  5
12C2
102
{ACAD_REACTORS
330
12BE
102
}
330
18
100
AcDbEntity
  8
ROGO
 62
     4
100
AcDbLine
 10
340.3535562482064
 20
296.2239045919929
 30
0.0
 11
341.1337608831731
 21
296.2239045919929
 31
0.0
  0
LINE
  5
12C3
102
{ACAD_REACTORS
330
12BE
102
}
330
18
100
AcDbEntity
  8
ROGO
 62
     4
100
AcDbLine
 10
340.1774813845968
 20
295.9048983751452
 30
0.0
 11
340.9746940805111
 21
295.9048983751452
 31
0.0
  0
LINE
  5
12C4
102
{ACAD_REACTORS
330
12BE
102
}
330
18
100
AcDbEntity
  8
ROGO
 62
     4
100
AcDbLine
 10
340.9746940805111
 20
295.9048983751452
 30
0.0
 11
340.7433986982951
 21
295.44103876635
 31
0.0
  0
SPLINE
  5
12C5
102
{ACAD_REACTORS
330
12BE
102
}
330
18
100
AcDbEntity
  8
ROGO
 62
     4
100
AcDbSpline
210
0.0
220
0.0
230
1.0
 70
     8
 71
     3
 72
    26
 73
    22
 74
    20
 42
0.0000000001
 43
0.0000000001
 44
0.0000000001
 40
0.0
 40
0.0
 40
0.0
 40
0.0
 40
0.2261711682465229
 40
0.3775752524709292
 40
0.4867499270747143
 40
0.568267124049349
 40
0.6739992068899219
 40
0.7511733198246508
 40
0.8905317800930927
 40
1.003967563249621
 40
1.081122071918995
 40
1.156776017963945
 40
1.292106219407766
 40
1.38780082415581
 40
1.439339762213746
 40
1.512549301287572
 40
1.565415552119695
 40
1.642001295672594
 40
1.68534220200602
 40
1.779656875742671
 40
1.822721775074878
 40
1.822721775074878
 40
1.822721775074878
 40
1.822721775074878
 10
340.1165326180064
 20
296.6877691129865
 30
0.0
 10
340.0397666289658
 20
296.6831891224405
 30
0.0
 10
339.911611754417
 20
296.6755431828624
 30
0.0
 10
339.7708984817647
 20
296.5900613808747
 30
0.0
 10
339.6678037004133
 20
296.540366017688
 30
0.0
 10
339.5942766273821
 20
296.4728094052022
 30
0.0
 10
339.5403809847935
 20
296.4030283594212
 30
0.0
 10
339.4724354094723
 20
296.3198847550212
 30
0.0
 10
339.417027734345
 20
296.2230673921945
 30
0.0
 10
339.388811973852
 20
296.1163577798836
 30
0.0
 10
339.3638187210038
 20
296.0313095997231
 30
0.0
 10
339.3452833062814
 20
295.936534501948
 30
0.0
 10
339.3499992405176
 20
295.8341440562151
 30
0.0
 10
339.356752674175
 20
295.7390490520643
 30
0.0
 10
339.3869051132363
 20
295.6711654567751
 30
0.0
 10
339.4212434004102
 20
295.6228370147324
 30
0.0
 10
339.4632901627942
 20
295.5696085937447
 30
0.0
 10
339.5092985157142
 20
295.5343555828846
 30
0.0
 10
339.5473511790417
 20
295.4704923847664
 30
0.0
 10
339.6139610825152
 20
295.4623429801023
 30
0.0
 10
339.656300987137
 20
295.4461232325483
 30
0.0
 10
339.6695734387071
 20
295.44103876635
 30
0.0
 11
340.1165326180064
 21
296.6877691129865
 31
0.0
 11
339.8930530283568
 21
296.6529801728473
 31
0.0
 11
339.7576106758073
 21
296.5853150721254
 31
0.0
 11
339.6628012237274
 21
296.531183035667
 31
0.0
 11
339.601852457137
 21
296.4770507786134
 31
0.0
 11
339.5341314755669
 21
296.3958526136281
 31
0.0
 11
339.4867267495268
 21
296.334954045038
 31
0.0
 11
339.4190053785475
 21
296.2131566872625
 31
0.0
 11
339.385145082467
 21
296.1048923937504
 31
0.0
 11
339.3648288269369
 21
296.0304607608968
 31
0.0
 11
339.3512843969774
 21
295.9560291280433
 31
0.0
 11
339.3512843969774
 21
295.8206989265995
 31
0.0
 11
339.3648288269369
 21
295.7259676973508
 31
0.0
 11
339.385145082467
 21
295.6786019724289
 31
0.0
 11
339.4257775935273
 21
295.6177034038386
 31
0.0
 11
339.459638279017
 21
295.5771042110486
 31
0.0
 11
339.5138148306275
 21
295.5229721745901
 31
0.0
 11
339.5409033011375
 21
295.4891395139315
 31
0.0
 11
339.6289409276469
 21
295.4553070738681
 31
0.0
 11
339.6695734387071
 21
295.44103876635
 31
0.0
  0
SPLINE
  5
12C6
102
{ACAD_REACTORS
330
12BE
102
}
330
18
100
AcDbEntity
  8
ROGO
 62
     4
100
AcDbSpline
210
0.0
220
0.0
230
1.0
 70
     8
 71
     3
 72
    16
 73
    12
 74
    10
 42
0.0000000001
 43
0.0000000001
 44
0.0000000001
 40
0.0
 40
0.0
 40
0.0
 40
0.0
 40
0.1192387348090446
 40
0.177478257914731
 40
0.2061980046505444
 40
0.2364639408884473
 40
0.2798046750216751
 40
0.3192685720162108
 40
0.3604284971744688
 40
0.4294360858285167
 40
0.4977391777072823
 40
0.4977391777072823
 40
0.4977391777072823
 40
0.4977391777072823
 10
340.3535562482064
 20
296.2239045919929
 30
0.0
 10
340.313176604938
 20
296.2177484429613
 30
0.0
 10
340.2530744178931
 20
296.208585459076
 30
0.0
 10
340.1987239697331
 20
296.1655622422831
 30
0.0
 10
340.1680740906054
 20
296.139966292069
 30
0.0
 10
340.1576468651771
 20
296.1060699882061
 30
0.0
 10
340.129642612141
 20
296.0800428301499
 30
0.0
 10
340.1065591420161
 20
296.0442731370866
 30
0.0
 10
340.1010473326049
 20
295.9951428842826
 30
0.0
 10
340.1050931269065
 20
295.9261960619602
 30
0.0
 10
340.1534346402665
 20
295.9119732799158
 30
0.0
 10
340.1774813845968
 20
295.9048983751451
 30
0.0
 11
340.3535562482064
 21
296.2239045919929
 31
0.0
 11
340.2384305405963
 21
296.1928570908674
 31
0.0
 11
340.1910258145563
 21
296.1590246508039
 31
0.0
 11
340.1707095590262
 21
296.1387250544088
 31
0.0
 11
340.1571651290666
 21
296.1116589258821
 31
0.0
 11
340.1300766585568
 21
296.0778264858187
 31
0.0
 11
340.1097604030267
 21
296.0439938251602
 31
0.0
 11
340.1029881880469
 21
296.0033948529651
 31
0.0
 11
340.1165326180064
 21
295.9357295316482
 31
0.0
 11
340.1774813845968
 21
295.9048983751451
 31
0.0
  0
LINE
  5
12C7
102
{ACAD_REACTORS
330
12BE
102
}
330
18
100
AcDbEntity
  8
ROGO
 62
     4
100
AcDbLine
 10
340.1165326180067
 20
296.6877691129865
 30
0.0
 11
341.3650587147699
 21
296.6877691129865
 31
0.0
  0
LINE
  5
12C8
102
{ACAD_REACTORS
330
12BE
102
}
330
18
100
AcDbEntity
  8
ROGO
 62
     4
100
AcDbLine
 10
339.669573438707
 20
295.44103876635
 30
0.0
 11
340.7433986982951
 21
295.44103876635
 31
0.0
  0
LINE
  5
12C9
102
{ACAD_REACTORS
330
1298
102
}
330
18
100
AcDbEntity
  8
ROGO
 62
     4
100
AcDbLine
 10
336.0994565440716
 20
296.6877691129866
 30
0.0
 11
337.3479826408347
 21
296.6877691129866
 31
0.0
  0
LINE
  5
12CA
102
{ACAD_REACTORS
330
1298
102
}
330
18
100
AcDbEntity
  8
ROGO
 62
     4
100
AcDbLine
 10
336.9576180065759
 20
295.9048983751452
 30
0.0
 11
336.7263226243598
 21
295.44103876635
 31
0.0
  0
SPLINE
  5
12CB
102
{ACAD_REACTORS
330
1298
102
}
330
18
100
AcDbEntity
  8
ROGO
 62
     4
100
AcDbSpline
210
0.0
220
0.0
230
1.0
 70
     8
 71
     3
 72
    16
 73
    12
 74
    10
 42
0.0000000001
 43
0.0000000001
 44
0.0000000001
 40
0.0
 40
0.0
 40
0.0
 40
0.0
 40
0.1192387348090995
 40
0.1774782579147198
 40
0.2061980046505734
 40
0.2364639408884763
 40
0.2798046750216953
 40
0.3192685720162602
 40
0.3604284971745742
 40
0.4294360858286333
 40
0.4977391777073984
 40
0.4977391777073984
 40
0.4977391777073984
 40
0.4977391777073984
 10
336.3364801742712
 20
296.2239045919929
 30
0.0
 10
336.2961005310028
 20
296.2177484429613
 30
0.0
 10
336.235998343958
 20
296.2085854590759
 30
0.0
 10
336.1816478957976
 20
296.1655622422832
 30
0.0
 10
336.1509980166703
 20
296.1399662920691
 30
0.0
 10
336.1405707912419
 20
296.1060699882062
 30
0.0
 10
336.1125665382057
 20
296.0800428301499
 30
0.0
 10
336.0894830680808
 20
296.0442731370866
 30
0.0
 10
336.0839712586696
 20
295.9951428842826
 30
0.0
 10
336.0880170529713
 20
295.9261960619602
 30
0.0
 10
336.1363585663313
 20
295.9119732799159
 30
0.0
 10
336.1604053106616
 20
295.9048983751452
 30
0.0
 11
336.3364801742712
 21
296.2239045919929
 31
0.0
 11
336.2213544666611
 21
296.1928570908674
 31
0.0
 11
336.1739497406211
 21
296.159024650804
 31
0.0
 11
336.153633485091
 21
296.1387250544088
 31
0.0
 11
336.1400890551315
 21
296.1116589258821
 31
0.0
 11
336.1130005846216
 21
296.0778264858187
 31
0.0
 11
336.0926843290914
 21
296.0439938251603
 31
0.0
 11
336.0859121141116
 21
296.0033948529651
 31
0.0
 11
336.0994565440712
 21
295.9357295316482
 31
0.0
 11
336.1604053106616
 21
295.9048983751452
 31
0.0
  0
LINE
  5
12CC
102
{ACAD_REACTORS
330
1298
102
}
330
18
100
AcDbEntity
  8
ROGO
 62
     4
100
AcDbLine
 10
336.1604053106616
 20
295.9048983751452
 30
0.0
 11
336.9576180065759
 21
295.9048983751452
 31
0.0
  0
LINE
  5
12CD
102
{ACAD_REACTORS
330
1298
102
}
330
18
100
AcDbEntity
  8
ROGO
 62
     4
100
AcDbLine
 10
336.3364801742712
 20
296.2239045919929
 30
0.0
 11
337.1166848092378
 21
296.2239045919929
 31
0.0
  0
LINE
  5
12CE
102
{ACAD_REACTORS
330
1298
102
}
330
18
100
AcDbEntity
  8
ROGO
 62
     4
100
AcDbLine
 10
337.3479826408347
 20
296.6877691129865
 30
0.0
 11
337.1166848092378
 21
296.2239045919929
 31
0.0
  0
LINE
  5
12CF
102
{ACAD_REACTORS
330
1288
102
}
330
18
100
AcDbEntity
  8
ROGO
 62
     4
100
AcDbLine
 10
341.87971867739
 20
294.7396676588113
 30
0.0
 11
342.5975464665406
 21
294.7396676588113
 31
0.0
  0
LINE
  5
12D0
102
{ACAD_REACTORS
330
1288
102
}
330
18
100
AcDbEntity
  8
ROGO
 62
     4
100
AcDbLine
 10
342.5740720043321
 20
296.6877691129865
 30
0.0
 11
343.2918997934828
 21
296.6877691129865
 31
0.0
  0
LINE
  5
12D1
102
{ACAD_REACTORS
330
1288
102
}
330
18
100
AcDbEntity
  8
ROGO
 62
     4
100
AcDbLine
 10
342.1118533151048
 20
295.713718385899
 30
0.0
 11
343.2918997934828
 21
296.6877691129865
 31
0.0
  0
LINE
  5
12D2
102
{ACAD_REACTORS
330
1288
102
}
330
18
100
AcDbEntity
  8
ROGO
 62
     4
100
AcDbLine
 10
342.1118533151048
 20
295.713718385899
 30
0.0
 11
342.5975464665406
 21
294.7396676588113
 31
0.0
  0
LINE
  5
12D3
102
{ACAD_REACTORS
330
1288
102
}
330
18
100
AcDbEntity
  8
ROGO
 62
     4
100
AcDbLine
 10
342.2379637473454
 20
296.4750760768749
 30
0.0
 11
342.5740720043321
 21
296.6877691129865
 31
0.0
  0
LINE
  5
12D4
102
{ACAD_REACTORS
330
1288
102
}
330
18
100
AcDbEntity
  8
ROGO
 62
     4
100
AcDbLine
 10
342.3440193644962
 20
296.6877691129865
 30
0.0
 11
342.2379637473454
 21
296.4750760768749
 31
0.0
  0
CIRCLE
  5
1568
330
18
100
AcDbEntity
  8
外形線
100
AcDbCircle
 10
335.6859250405533
 20
285.6000063804895
 30
0.0
 40
23.0
  0
TEXT
  5
1580
330
18
100
AcDbEntity
  8
文字
100
AcDbText
 10
326.6226721965048
 20
267.2186451774866
 30
0.0
 40
2.5
  1
90
 50
0.030000000000189
  7
STYLE3
100
AcDbText
  0
TEXT
  5
158C
330
18
100
AcDbEntity
  8
文字
100
AcDbText
 10
322.0668995616901
 20
270.0869371933819
 30
0.0
 40
2.5
  1
80
 50
0.030000000000189
  7
STYLE3
100
AcDbText
  0
TEXT
  5
1592
330
18
100
AcDbEntity
  8
文字
100
AcDbText
 10
318.7336415368588
 20
273.2611188711189
 30
0.0
 40
2.5
  1
70
 50
0.030000000000189
  7
STYLE3
100
AcDbText
  0
TEXT
  5
1598
330
18
100
AcDbEntity
  8
文字
100
AcDbText
 10
339.7778969945313
 20
266.9942557652088
 30
0.0
 40
2.5
  1
90
 50
0.030000000000189
  7
STYLE3
100
AcDbText
  0
TEXT
  5
1599
330
18
100
AcDbEntity
  8
文字
100
AcDbText
 10
332.0108410138743
 20
265.4936289267773
 30
0.0
 40
2.5
  1
100
 50
0.030000000000189
  7
STYLE3
100
AcDbText
  0
TEXT
  5
15B5
330
18
100
AcDbEntity
  8
文字
100
AcDbText
 10
315.746329122687
 20
290.1325636665756
 30
0.0
 40
2.5
  1
40
 50
0.030000000000189
  7
STYLE3
100
AcDbText
  0
TEXT
  5
15BA
330
18
100
AcDbEntity
  8
文字
100
AcDbText
 10
316.1378787440708
 20
278.2872350449429
 30
0.0
 40
2.5
  1
60
 50
0.030000000000189
  7
STYLE3
100
AcDbText
  0
TEXT
  5
15BB
330
18
100
AcDbEntity
  8
文字
100
AcDbText
 10
314.9812529031682
 20
284.3939400156324
 30
0.0
 40
2.5
  1
50
 50
0.030000000000189
  7
STYLE3
100
AcDbText
  0
TEXT
  5
15EF
330
18
100
AcDbEntity
  8
文字
100
AcDbText
 10
318.931456451859
 20
295.3421279699315
 30
0.0
 40
2.5
  1
30
 50
0.030000000000189
  7
STYLE3
100
AcDbText
  0
TEXT
  5
1625
330
18
100
AcDbEntity
  8
文字
100
AcDbText
 10
327.7466958754849
 20
302.2959106324014
 30
0.0
 40
2.5
  1
10
 50
0.030000000000189
  7
STYLE3
100
AcDbText
  0
TEXT
  5
162C
330
18
100
AcDbEntity
  8
文字
100
AcDbText
 10
323.053592192861
 20
299.6488139419952
 30
0.0
 40
2.5
  1
20
 50
0.030000000000189
  7
STYLE3
100
AcDbText
  0
TEXT
  5
163C
330
18
100
AcDbEntity
  8
文字
100
AcDbText
 10
334.5783676088855
 20
303.3972160971929
 30
0.0
 40
2.5
  1
0
 50
0.030000000000189
  7
STYLE3
100
AcDbText
  0
TEXT
  5
1641
330
18
100
AcDbEntity
  8
文字
100
AcDbText
 10
338.6156739781381
 20
302.2164242064271
 30
0.0
 40
2.5
  1
10
 50
0.030000000000189
  7
STYLE3
100
AcDbText
  0
LINE
  5
1643
330
18
100
AcDbEntity
  8
目盛
100
AcDbLine
 10
336.3963355714111
 20
308.5890323902544
 30
0.0
 11
336.3577263034299
 21
307.3396288027671
 31
0.0
  0
LINE
  5
1644
330
18
100
AcDbEntity
  8
目盛
100
AcDbLine
 10
335.673882269265
 20
308.6000032276993
 30
0.0
 11
335.6750603664563
 21
306.3500035361244
 31
0.0
  0
LINE
  5
164F
330
18
100
AcDbEntity
  8
目盛
100
AcDbLine
 10
337.1180877841321
 20
308.5553741596366
 30
0.0
 11
337.0402528524159
 21
307.3077998238133
 31
0.0
  0
LINE
  5
1650
330
18
100
AcDbEntity
  8
目盛
100
AcDbLine
 10
337.8384266251325
 20
308.4990617524561
 30
0.0
 11
337.721442843362
 21
307.2545478735447
 31
0.0
  0
LINE
  5
1653
330
18
100
AcDbEntity
  8
目盛
100
AcDbLine
 10
338.5566412069432
 20
308.4201507422597
 30
0.0
 11
338.4006240239873
 21
307.1799255052068
 31
0.0
  0
TEXT
  5
1668
330
18
100
AcDbEntity
  8
文字
100
AcDbText
 10
347.9390411742055
 20
273.6742888170852
 30
0.0
 40
2.5
  1
70
 50
0.030000000000189
  7
STYLE3
100
AcDbText
  0
TEXT
  5
1669
330
18
100
AcDbEntity
  8
文字
100
AcDbText
 10
344.1055461591089
 20
269.5832502654709
 30
0.0
 40
2.5
  1
80
 50
0.030000000000189
  7
STYLE3
100
AcDbText
  0
TEXT
  5
1674
330
18
100
AcDbEntity
  8
文字
100
AcDbText
 10
347.8090809551978
 20
295.3247378252902
 30
0.0
 40
2.5
  1
30
 50
0.030000000000189
  7
STYLE3
100
AcDbText
  0
TEXT
  5
167A
330
18
100
AcDbEntity
  8
文字
100
AcDbText
 10
351.5627318292108
 20
284.4521071524335
 30
0.0
 40
2.5
  1
50
 50
0.030000000000189
  7
STYLE3
100
AcDbText
  0
TEXT
  5
167B
330
18
100
AcDbEntity
  8
文字
100
AcDbText
 10
350.5509333653293
 20
278.9166870831889
 30
0.0
 40
2.5
  1
60
 50
0.030000000000189
  7
STYLE3
100
AcDbText
  0
TEXT
  5
167C
330
18
100
AcDbEntity
  8
文字
100
AcDbText
 10
350.5365052485411
 20
289.9416064485402
 30
0.0
 40
2.5
  1
40
 50
0.030000000000189
  7
STYLE3
100
AcDbText
  0
TEXT
  5
169E
330
18
100
AcDbEntity
  8
文字
100
AcDbText
 10
343.7345369191143
 20
299.4047694190233
 30
0.0
 40
2.5
  1
20
 50
0.030000000000189
  7
STYLE3
100
AcDbText
  0
LINE
  5
16B6
330
18
100
AcDbEntity
  8
目盛
100
AcDbLine
 10
332.0760383330431
 20
308.3149511957195
 30
0.0
 11
332.4291794239952
 21
306.0928370290121
 31
0.0
  0
LINE
  5
16B7
330
18
100
AcDbEntity
  8
目盛
100
AcDbLine
 10
333.5094448058882
 20
308.4967951026687
 30
0.0
 11
333.6277317751635
 21
307.2524044112459
 31
0.0
  0
LINE
  5
16B8
330
18
100
AcDbEntity
  8
目盛
100
AcDbLine
 10
332.7913132532841
 20
308.4171320233263
 30
0.0
 11
332.9486291112879
 21
307.1770708470851
 31
0.0
  0
LINE
  5
16B9
330
18
100
AcDbEntity
  8
目盛
100
AcDbLine
 10
334.9514408518802
 20
308.5882758450793
 30
0.0
 11
334.9913584708299
 21
307.3389133741776
 31
0.0
  0
LINE
  5
16BA
330
18
100
AcDbEntity
  8
目盛
100
AcDbLine
 10
334.2297242817145
 20
308.5538618159052
 30
0.0
 11
334.3088656273037
 21
307.3063696726759
 31
0.0
  0
LINE
  5
16BB
330
18
100
AcDbEntity
  8
目盛
100
AcDbLine
 10
328.5670817880872
 20
307.4705818358089
 30
0.0
 11
329.2634903671329
 21
305.3310690195276
 31
0.0
  0
LINE
  5
16BC
330
18
100
AcDbEntity
  8
目盛
100
AcDbLine
 10
329.9543939943455
 20
307.8744211172757
 30
0.0
 11
330.2658902468568
 21
306.663855098972
 31
0.0
  0
LINE
  5
16BD
330
18
100
AcDbEntity
  8
目盛
100
AcDbLine
 10
329.2575658840253
 20
307.6833982973732
 30
0.0
 11
329.6069332294889
 21
306.4832139540643
 31
0.0
  0
LINE
  5
16BE
330
18
100
AcDbEntity
  8
目盛
100
AcDbLine
 10
331.3643259351557
 20
308.1903534599885
 30
0.0
 11
331.5991954517534
 21
306.9626172056678
 31
0.0
  0
LINE
  5
16BF
330
18
100
AcDbEntity
  8
目盛
100
AcDbLine
 10
330.6568784338324
 20
308.0434617790558
 30
0.0
 11
330.9301961841978
 21
306.8237087682641
 31
0.0
  0
LINE
  5
16C0
330
18
100
AcDbEntity
  8
目盛
100
AcDbLine
 10
325.2334147900933
 20
306.08768632391
 30
0.0
 11
326.2559429667688
 21
304.0834567642274
 31
0.0
  0
LINE
  5
16C1
330
18
100
AcDbEntity
  8
目盛
100
AcDbLine
 10
326.5404724990215
 20
306.7035771165188
 30
0.0
 11
327.0375079632352
 21
305.5566439243432
 31
0.0
  0
LINE
  5
16C2
330
18
100
AcDbEntity
  8
目盛
100
AcDbLine
 10
325.8821060517011
 20
306.4058981718506
 30
0.0
 11
326.4149223010954
 21
305.2751431831896
 31
0.0
  0
LINE
  5
16C3
330
18
100
AcDbEntity
  8
目盛
100
AcDbLine
 10
327.8836231309711
 20
307.2361817567369
 30
0.0
 11
328.3076612782311
 21
306.0603026602016
 31
0.0
  0
LINE
  5
16C4
330
18
100
AcDbEntity
  8
目盛
100
AcDbLine
 10
327.2078644038566
 20
306.9804293847357
 30
0.0
 11
327.6686285688945
 21
305.8184498736352
 31
0.0
  0
LINE
  5
16C5
330
18
100
AcDbEntity
  8
目盛
100
AcDbLine
 10
322.1571232843583
 20
304.2003161370925
 30
0.0
 11
323.4805930213775
 21
302.3807206174247
 31
0.0
  0
LINE
  5
16C6
330
18
100
AcDbEntity
  8
目盛
100
AcDbLine
 10
323.3517423972867
 20
305.013093165505
 30
0.0
 11
324.0220784105078
 21
303.9580341011019
 31
0.0
  0
LINE
  5
16C7
330
18
100
AcDbEntity
  8
目盛
100
AcDbLine
 10
322.7480487798923
 20
304.6160879396285
 30
0.0
 11
323.4511942288414
 21
303.582605246197
 31
0.0
  0
LINE
  5
16C8
330
18
100
AcDbEntity
  8
目盛
100
AcDbLine
 10
324.5950388941559
 20
305.7492556093728
 30
0.0
 11
325.1978044455906
 21
304.6541877164986
 31
0.0
  0
LINE
  5
16C9
330
18
100
AcDbEntity
  8
目盛
100
AcDbLine
 10
323.9676083638262
 20
305.3909400184952
 30
0.0
 11
324.604473400605
 21
304.3153457990383
 31
0.0
  0
LINE
  5
16CA
330
18
100
AcDbEntity
  8
目盛
100
AcDbLine
 10
319.4139557773797
 20
301.8549445931784
 30
0.0
 11
321.0057788574728
 21
300.2647875941111
 31
0.0
  0
LINE
  5
16CB
330
18
100
AcDbEntity
  8
目盛
100
AcDbLine
 10
320.4667208070345
 20
302.8445945895029
 30
0.0
 11
321.2938514718997
 21
301.9073887085782
 31
0.0
  0
LINE
  5
16CC
330
18
100
AcDbEntity
  8
目盛
100
AcDbLine
 10
319.9325649599705
 20
302.358038668664
 30
0.0
 11
320.7887258339154
 21
301.4472760443068
 31
0.0
  0
LINE
  5
16CD
330
18
100
AcDbEntity
  8
目盛
100
AcDbLine
 10
321.5795490828058
 20
303.7661880744692
 30
0.0
 11
322.3461999500747
 21
302.7788955911007
 31
0.0
  0
LINE
  5
16CE
330
18
100
AcDbEntity
  8
目盛
100
AcDbLine
 10
321.0158961712402
 20
303.314132183744
 30
0.0
 11
321.8131803489204
 21
302.3514079553062
 31
0.0
  0
LINE
  5
16CF
330
18
100
AcDbEntity
  8
目盛
100
AcDbLine
 10
317.0714581572303
 20
299.1093225234212
 30
0.0
 11
318.8924386132076
 21
297.7877589876996
 31
0.0
  0
LINE
  5
16D0
330
18
100
AcDbEntity
  8
目盛
100
AcDbLine
 10
317.9564465346544
 20
300.2514770202879
 30
0.0
 11
318.9200051491056
 21
299.455201442038
 31
0.0
  0
LINE
  5
16D1
330
18
100
AcDbEntity
  8
目盛
100
AcDbLine
 10
317.5049811476372
 20
299.6873510260443
 30
0.0
 11
318.4930759244263
 21
298.9217344692207
 31
0.0
  0
LINE
  5
16D2
330
18
100
AcDbEntity
  8
目盛
100
AcDbLine
 10
318.9114050639131
 20
301.3358088561596
 30
0.0
 11
319.8230637582959
 21
300.4806021998731
 31
0.0
  0
LINE
  5
16D3
330
18
100
AcDbEntity
  8
目盛
100
AcDbLine
 10
318.4254087764512
 20
300.8011437819037
 30
0.0
 11
319.3634803125438
 21
299.9749950100877
 31
0.0
  0
LINE
  5
16D4
330
18
100
AcDbEntity
  8
目盛
100
AcDbLine
 10
315.1873104896219
 20
296.0310562553752
 30
0.0
 11
317.1926097391697
 21
295.0106274632667
 31
0.0
  0
LINE
  5
16D5
330
18
100
AcDbEntity
  8
目盛
100
AcDbLine
 10
315.8827308638554
 20
297.2975916184779
 30
0.0
 11
316.9589914169369
 21
296.6618532903263
 31
0.0
  0
LINE
  5
16D6
330
18
100
AcDbEntity
  8
目盛
100
AcDbLine
 10
315.525072513041
 20
296.6697862050347
 30
0.0
 11
316.6207710199712
 21
296.0681677363094
 31
0.0
  0
LINE
  5
16D7
330
18
100
AcDbEntity
  8
目盛
100
AcDbLine
 10
316.6563053982855
 20
298.5179619567646
 30
0.0
 11
317.6905238571045
 21
297.8158991537062
 31
0.0
  0
LINE
  5
16D8
330
18
100
AcDbEntity
  8
目盛
100
AcDbLine
 10
316.2599325764537
 20
297.913852927558
 30
0.0
 11
317.3156930364593
 21
297.2446221369565
 31
0.0
  0
LINE
  5
16D9
330
18
100
AcDbEntity
  8
目盛
100
AcDbLine
 10
313.8079067432589
 20
292.6959429207395
 30
0.0
 11
315.9481476636465
 21
292.001775215715
 31
0.0
  0
LINE
  5
16DA
330
18
100
AcDbEntity
  8
目盛
100
AcDbLine
 10
314.29663555672
 20
294.0556728460488
 30
0.0
 11
315.4590969417111
 21
293.5961257555293
 31
0.0
  0
LINE
  5
16DB
330
18
100
AcDbEntity
  8
目盛
100
AcDbLine
 10
314.0415909777055
 20
293.3796466662516
 30
0.0
 11
315.2179134811213
 21
292.956840128982
 31
0.0
  0
LINE
  5
16DC
330
18
100
AcDbEntity
  8
目盛
100
AcDbLine
 10
314.869778123937
 20
295.382032118845
 30
0.0
 11
316.0010904563619
 21
294.8504002852388
 31
0.0
  0
LINE
  5
16DD
330
18
100
AcDbEntity
  8
目盛
100
AcDbLine
 10
314.5727887820949
 20
294.7233543039097
 30
0.0
 11
315.72024183962
 21
294.2275201776369
 31
0.0
  0
LINE
  5
16DE
330
18
100
AcDbEntity
  8
目盛
100
AcDbLine
 10
312.9672124163551
 20
289.1861040784198
 30
0.0
 11
315.1896951730703
 21
288.8352901731875
 31
0.0
  0
LINE
  5
16DF
330
18
100
AcDbEntity
  8
目盛
100
AcDbLine
 10
313.2372155436586
 20
290.6055475024896
 30
0.0
 11
314.4572541032726
 21
290.3335072241201
 31
0.0
  0
LINE
  5
16E0
330
18
100
AcDbEntity
  8
目盛
100
AcDbLine
 10
313.0910647804238
 20
289.8979465644873
 30
0.0
 11
314.3190463163005
 21
289.6643628588353
 31
0.0
  0
LINE
  5
16E1
330
18
100
AcDbEntity
  8
目盛
100
AcDbLine
 10
313.5958134715066
 20
292.005236342565
 30
0.0
 11
314.7963630133027
 21
291.6571260185392
 31
0.0
  0
LINE
  5
16E2
330
18
100
AcDbEntity
  8
目盛
100
AcDbLine
 10
313.4055204729014
 20
291.3082085757311
 30
0.0
 11
314.6164120254913
 21
290.9979801955549
 31
0.0
  0
LINE
  5
16E3
330
18
100
AcDbEntity
  8
目盛
100
AcDbLine
 10
312.6859281933434
 20
285.5879636092012
 30
0.0
 11
314.9359278849185
 21
285.5891417063924
 31
0.0
  0
LINE
  5
16E4
330
18
100
AcDbEntity
  8
目盛
100
AcDbLine
 10
312.7305572614062
 20
287.0321691240683
 30
0.0
 11
313.9781315972294
 21
286.9543341923521
 31
0.0
  0
LINE
  5
16E5
330
18
100
AcDbEntity
  8
目盛
100
AcDbLine
 10
312.6968990307883
 20
286.3104169113473
 30
0.0
 11
313.9463026182757
 21
286.271807643366
 31
0.0
  0
LINE
  5
16E6
330
18
100
AcDbEntity
  8
目盛
100
AcDbLine
 10
312.8657806787832
 20
288.4707225468794
 30
0.0
 11
314.1060059158359
 21
288.3147053639234
 31
0.0
  0
LINE
  5
16E7
330
18
100
AcDbEntity
  8
目盛
100
AcDbLine
 10
312.7868696685867
 20
287.7525079650687
 30
0.0
 11
314.0313835474981
 21
287.6355241832981
 31
0.0
  0
LINE
  5
16E8
330
18
100
AcDbEntity
  8
目盛
100
AcDbLine
 10
312.9709802253232
 20
281.9901196729793
 30
0.0
 11
315.1930943920306
 21
282.3432607639314
 31
0.0
  0
LINE
  5
16E9
330
18
100
AcDbEntity
  8
目盛
100
AcDbLine
 10
312.7891363183739
 20
283.4235261458243
 30
0.0
 11
314.0335270097968
 21
283.5418131150996
 31
0.0
  0
LINE
  5
16EA
330
18
100
AcDbEntity
  8
目盛
100
AcDbLine
 10
312.8687993977164
 20
282.7053945932202
 30
0.0
 11
314.1088605739576
 21
282.862710451224
 31
0.0
  0
LINE
  5
16EB
330
18
100
AcDbEntity
  8
目盛
100
AcDbLine
 10
312.6976555759634
 20
284.8655221918164
 30
0.0
 11
313.9470180468651
 21
284.905439810766
 31
0.0
  0
LINE
  5
16EC
330
18
100
AcDbEntity
  8
目盛
100
AcDbLine
 10
312.7320696051376
 20
284.1438056216507
 30
0.0
 11
313.9795617483668
 21
284.2229469672398
 31
0.0
  0
LINE
  5
16ED
330
18
100
AcDbEntity
  8
目盛
100
AcDbLine
 10
313.8153495852338
 20
278.4811631280234
 30
0.0
 11
315.9548624015152
 21
279.177571707069
 31
0.0
  0
LINE
  5
16EE
330
18
100
AcDbEntity
  8
目盛
100
AcDbLine
 10
313.411510303767
 20
279.8684753342816
 30
0.0
 11
314.6220763220707
 21
280.179971586793
 31
0.0
  0
LINE
  5
16EF
330
18
100
AcDbEntity
  8
目盛
100
AcDbLine
 10
313.6025331236695
 20
279.1716472239614
 30
0.0
 11
314.8027174669785
 21
279.5210145694251
 31
0.0
  0
LINE
  5
16F0
330
18
100
AcDbEntity
  8
目盛
100
AcDbLine
 10
313.0955779610542
 20
281.2784072750917
 30
0.0
 11
314.3233142153749
 21
281.5132767916896
 31
0.0
  0
LINE
  5
16F1
330
18
100
AcDbEntity
  8
目盛
100
AcDbLine
 10
313.2424696419869
 20
280.5709597737686
 30
0.0
 11
314.4622226527787
 21
280.8442775241339
 31
0.0
  0
LINE
  5
16F2
330
18
100
AcDbEntity
  8
目盛
100
AcDbLine
 10
315.1982450971328
 20
275.1474961300294
 30
0.0
 11
317.2024746568153
 21
276.170024306705
 31
0.0
  0
LINE
  5
16F3
330
18
100
AcDbEntity
  8
目盛
100
AcDbLine
 10
314.5823543045239
 20
276.4545538389576
 30
0.0
 11
315.7292874966996
 21
276.9515893031713
 31
0.0
  0
LINE
  5
16F4
330
18
100
AcDbEntity
  8
目盛
100
AcDbLine
 10
314.8800332491922
 20
275.7961873916372
 30
0.0
 11
316.0107882378532
 21
276.3290036410315
 31
0.0
  0
LINE
  5
16F5
330
18
100
AcDbEntity
  8
目盛
100
AcDbLine
 10
314.0497496643059
 20
277.7977044709073
 30
0.0
 11
315.2256287608411
 21
278.2217426181672
 31
0.0
  0
LINE
  5
16F6
330
18
100
AcDbEntity
  8
目盛
100
AcDbLine
 10
314.3055020363071
 20
277.1219457437926
 30
0.0
 11
315.4674815474075
 21
277.5827099088307
 31
0.0
  0
LINE
  5
16F7
330
18
100
AcDbEntity
  8
目盛
100
AcDbLine
 10
317.0856152839503
 20
272.0712046242945
 30
0.0
 11
318.9052108036181
 21
273.3946743613137
 31
0.0
  0
LINE
  5
16F8
330
18
100
AcDbEntity
  8
目盛
100
AcDbLine
 10
316.2728382555378
 20
273.2658237372229
 30
0.0
 11
317.3278973199409
 21
273.9361597504439
 31
0.0
  0
LINE
  5
16F9
330
18
100
AcDbEntity
  8
目盛
100
AcDbLine
 10
316.6698434814142
 20
272.6621301198285
 30
0.0
 11
317.7033261748458
 21
273.3652755687776
 31
0.0
  0
LINE
  5
16FA
330
18
100
AcDbEntity
  8
目盛
100
AcDbLine
 10
315.53667581167
 20
274.509120234092
 30
0.0
 11
316.6317437045442
 21
275.1118857855268
 31
0.0
  0
LINE
  5
16FB
330
18
100
AcDbEntity
  8
目盛
100
AcDbLine
 10
315.8949914025476
 20
273.8816897037623
 30
0.0
 11
316.9705856220045
 21
274.5185547405412
 31
0.0
  0
LINE
  5
16FC
330
18
100
AcDbEntity
  8
目盛
100
AcDbLine
 10
319.4309868278642
 20
269.3280371173159
 30
0.0
 11
321.0211438269316
 21
270.919860197409
 31
0.0
  0
LINE
  5
16FD
330
18
100
AcDbEntity
  8
目盛
100
AcDbLine
 10
318.4413368315398
 20
270.3808021469707
 30
0.0
 11
319.3785427124645
 21
271.2079328118359
 31
0.0
  0
LINE
  5
16FE
330
18
100
AcDbEntity
  8
目盛
100
AcDbLine
 10
318.9278927523786
 20
269.8466462999067
 30
0.0
 11
319.8386553767359
 21
270.7028071738516
 31
0.0
  0
LINE
  5
16FF
330
18
100
AcDbEntity
  8
目盛
100
AcDbLine
 10
317.5197433465735
 20
271.493630422742
 30
0.0
 11
318.507035829942
 21
272.260281290011
 31
0.0
  0
LINE
  5
1700
330
18
100
AcDbEntity
  8
目盛
100
AcDbLine
 10
317.9717992372987
 20
270.9299775111765
 30
0.0
 11
318.9345234657365
 21
271.7272616888566
 31
0.0
  0
LINE
  5
1701
330
18
100
AcDbEntity
  8
目盛
100
AcDbLine
 10
322.1766088976214
 20
266.9855394971665
 30
0.0
 11
323.4981724333431
 21
268.8065199531438
 31
0.0
  0
LINE
  5
1702
330
18
100
AcDbEntity
  8
目盛
100
AcDbLine
 10
321.0344544007548
 20
267.8705278745907
 30
0.0
 11
321.8307299790047
 21
268.8340864890417
 31
0.0
  0
LINE
  5
1703
330
18
100
AcDbEntity
  8
目盛
100
AcDbLine
 10
321.5985803949984
 20
267.4190624875734
 30
0.0
 11
322.364196951822
 21
268.4071572643625
 31
0.0
  0
LINE
  5
1704
330
18
100
AcDbEntity
  8
目盛
100
AcDbLine
 10
319.9501225648831
 20
268.8254864038493
 30
0.0
 11
320.8053292211696
 21
269.737145098232
 31
0.0
  0
LINE
  5
1705
330
18
100
AcDbEntity
  8
目盛
100
AcDbLine
 10
320.484787639139
 20
268.3394901163874
 30
0.0
 11
321.310936410955
 21
269.2775616524801
 31
0.0
  0
LINE
  5
1706
330
18
100
AcDbEntity
  8
目盛
100
AcDbLine
 10
325.2548751656676
 20
265.1013918295581
 30
0.0
 11
326.275303957776
 21
267.1066910791058
 31
0.0
  0
LINE
  5
1707
330
18
100
AcDbEntity
  8
目盛
100
AcDbLine
 10
323.988339802565
 20
265.7968122037916
 30
0.0
 11
324.6240781307165
 21
266.873072756873
 31
0.0
  0
LINE
  5
1708
330
18
100
AcDbEntity
  8
目盛
100
AcDbLine
 10
324.6161452160081
 20
265.4391538529771
 30
0.0
 11
325.2177636847334
 21
266.5348523599074
 31
0.0
  0
LINE
  5
1709
330
18
100
AcDbEntity
  8
目盛
100
AcDbLine
 10
322.7679694642782
 20
266.5703867382215
 30
0.0
 11
323.4700322673366
 21
267.6046051970406
 31
0.0
  0
LINE
  5
170A
330
18
100
AcDbEntity
  8
目盛
100
AcDbLine
 10
323.3720784934848
 20
266.1740139163898
 30
0.0
 11
324.0413092840863
 21
267.2297743763954
 31
0.0
  0
LINE
  5
170B
330
18
100
AcDbEntity
  8
目盛
100
AcDbLine
 10
328.5899885003032
 20
263.721988083195
 30
0.0
 11
329.2841562053277
 21
265.8622290035826
 31
0.0
  0
LINE
  5
170C
330
18
100
AcDbEntity
  8
目盛
100
AcDbLine
 10
327.2302585749939
 20
264.2107168966562
 30
0.0
 11
327.6898056655134
 21
265.3731782816473
 31
0.0
  0
LINE
  5
170D
330
18
100
AcDbEntity
  8
目盛
100
AcDbLine
 10
327.9062847547911
 20
263.9556723176417
 30
0.0
 11
328.3290912920608
 21
265.1319948210574
 31
0.0
  0
LINE
  5
170E
330
18
100
AcDbEntity
  8
目盛
100
AcDbLine
 10
325.9038993021976
 20
264.7838594638732
 30
0.0
 11
326.4355311358039
 21
265.9151717962981
 31
0.0
  0
LINE
  5
170F
330
18
100
AcDbEntity
  8
目盛
100
AcDbLine
 10
326.562577117133
 20
264.4868701220311
 30
0.0
 11
327.0584112434058
 21
265.6343231795561
 31
0.0
  0
LINE
  5
1710
330
18
100
AcDbEntity
  8
目盛
100
AcDbLine
 10
332.0998273426229
 20
262.8812937562913
 30
0.0
 11
332.4506412478552
 21
265.1037765130064
 31
0.0
  0
LINE
  5
1711
330
18
100
AcDbEntity
  8
目盛
100
AcDbLine
 10
330.680383918553
 20
263.1512968835949
 30
0.0
 11
330.9524241969226
 21
264.3713354432088
 31
0.0
  0
LINE
  5
1712
330
18
100
AcDbEntity
  8
目盛
100
AcDbLine
 10
331.3879848565554
 20
263.0051461203599
 30
0.0
 11
331.6215685622073
 21
264.2331276562367
 31
0.0
  0
LINE
  5
1713
330
18
100
AcDbEntity
  8
目盛
100
AcDbLine
 10
329.2806950784776
 20
263.5098948114428
 30
0.0
 11
329.6288054025034
 21
264.7104443532389
 31
0.0
  0
LINE
  5
1714
330
18
100
AcDbEntity
  8
目盛
100
AcDbLine
 10
329.9777228453117
 20
263.3196018128375
 30
0.0
 11
330.2879512254877
 21
264.5304933654275
 31
0.0
  0
LINE
  5
1715
330
18
100
AcDbEntity
  8
目盛
100
AcDbLine
 10
335.6979678118416
 20
262.6000095332796
 30
0.0
 11
335.6967897146504
 21
264.8500092248546
 31
0.0
  0
LINE
  5
1716
330
18
100
AcDbEntity
  8
目盛
100
AcDbLine
 10
334.2537622969745
 20
262.6446386013423
 30
0.0
 11
334.3315972286907
 21
263.8922129371656
 31
0.0
  0
LINE
  5
1717
330
18
100
AcDbEntity
  8
目盛
100
AcDbLine
 10
334.9755145096955
 20
262.6109803707245
 30
0.0
 11
335.0141237776768
 21
263.8603839582119
 31
0.0
  0
LINE
  5
1718
330
18
100
AcDbEntity
  8
目盛
100
AcDbLine
 10
332.8152088741634
 20
262.7798620187193
 30
0.0
 11
332.9712260571193
 21
264.0200872557721
 31
0.0
  0
LINE
  5
1719
330
18
100
AcDbEntity
  8
目盛
100
AcDbLine
 10
333.5334234559741
 20
262.7009510085229
 30
0.0
 11
333.6504072377447
 21
263.9454648874343
 31
0.0
  0
LINE
  5
171A
330
18
100
AcDbEntity
  8
目盛
100
AcDbLine
 10
339.2958117480635
 20
262.8850615652595
 30
0.0
 11
338.9426706571114
 21
265.1071757319669
 31
0.0
  0
LINE
  5
171B
330
18
100
AcDbEntity
  8
目盛
100
AcDbLine
 10
337.8624052752183
 20
262.7032176583102
 30
0.0
 11
337.7441183059431
 21
263.947608349733
 31
0.0
  0
LINE
  5
171C
330
18
100
AcDbEntity
  8
目盛
100
AcDbLine
 10
338.5805368278225
 20
262.7828807376526
 30
0.0
 11
338.4232209698187
 21
264.0229419138938
 31
0.0
  0
LINE
  5
171D
330
18
100
AcDbEntity
  8
目盛
100
AcDbLine
 10
336.4204092292263
 20
262.6117369158997
 30
0.0
 11
336.3804916102767
 21
263.8610993868014
 31
0.0
  0
LINE
  5
171E
330
18
100
AcDbEntity
  8
目盛
100
AcDbLine
 10
337.142125799392
 20
262.6461509450738
 30
0.0
 11
337.0629844538029
 21
263.893643088303
 31
0.0
  0
LINE
  5
171F
330
18
100
AcDbEntity
  8
目盛
100
AcDbLine
 10
342.8047682930194
 20
263.72943092517
 30
0.0
 11
342.1083597139737
 21
265.8689437414513
 31
0.0
  0
LINE
  5
1720
330
18
100
AcDbEntity
  8
目盛
100
AcDbLine
 10
341.4174560867611
 20
263.3255916437033
 30
0.0
 11
341.1059598342498
 21
264.5361576620069
 31
0.0
  0
LINE
  5
1721
330
18
100
AcDbEntity
  8
目盛
100
AcDbLine
 10
342.1142841970814
 20
263.5166144636058
 30
0.0
 11
341.7649168516177
 21
264.7167988069147
 31
0.0
  0
LINE
  5
1722
330
18
100
AcDbEntity
  8
目盛
100
AcDbLine
 10
340.007524145951
 20
263.0096593009905
 30
0.0
 11
339.7726546293532
 21
264.2373955553111
 31
0.0
  0
LINE
  5
1723
330
18
100
AcDbEntity
  8
目盛
100
AcDbLine
 10
340.7149716472742
 20
263.1565509819231
 30
0.0
 11
340.4416538969089
 21
264.3763039927149
 31
0.0
  0
LINE
  5
1724
330
18
100
AcDbEntity
  8
目盛
100
AcDbLine
 10
346.1384352910133
 20
265.1123264370689
 30
0.0
 11
345.1159071143378
 21
267.1165559967515
 31
0.0
  0
LINE
  5
1725
330
18
100
AcDbEntity
  8
目盛
100
AcDbLine
 10
344.8313775820852
 20
264.4964356444601
 30
0.0
 11
344.3343421178714
 21
265.6433688366357
 31
0.0
  0
LINE
  5
1726
330
18
100
AcDbEntity
  8
目盛
100
AcDbLine
 10
345.4897440294055
 20
264.7941145891282
 30
0.0
 11
344.9569277800112
 21
265.9248695777892
 31
0.0
  0
LINE
  5
1727
330
18
100
AcDbEntity
  8
目盛
100
AcDbLine
 10
343.4882269501355
 20
263.963831004242
 30
0.0
 11
343.0641888028755
 21
265.1397101007772
 31
0.0
  0
LINE
  5
1728
330
18
100
AcDbEntity
  8
目盛
100
AcDbLine
 10
344.16398567725
 20
264.2195833762432
 30
0.0
 11
343.703221512212
 21
265.3815628873437
 31
0.0
  0
LINE
  5
1729
330
18
100
AcDbEntity
  8
目盛
100
AcDbLine
 10
349.2147267967482
 20
266.9996966238863
 30
0.0
 11
347.8912570597291
 21
268.8192921435542
 31
0.0
  0
LINE
  5
172A
330
18
100
AcDbEntity
  8
目盛
100
AcDbLine
 10
348.0201076838199
 20
266.1869195954738
 30
0.0
 11
347.3497716705988
 21
267.2419786598769
 31
0.0
  0
LINE
  5
172B
330
18
100
AcDbEntity
  8
目盛
100
AcDbLine
 10
348.6238013012143
 20
266.5839248213503
 30
0.0
 11
347.9206558522652
 21
267.6174075147819
 31
0.0
  0
LINE
  5
172C
330
18
100
AcDbEntity
  8
目盛
100
AcDbLine
 10
346.7768111869507
 20
265.4507571516061
 30
0.0
 11
346.174045635516
 21
266.5458250444802
 31
0.0
  0
LINE
  5
172D
330
18
100
AcDbEntity
  8
目盛
100
AcDbLine
 10
347.4042417172804
 20
265.8090727424836
 30
0.0
 11
346.7673766805016
 21
266.8846669619406
 31
0.0
  0
LINE
  5
172E
330
18
100
AcDbEntity
  8
目盛
100
AcDbLine
 10
351.9578943037268
 20
269.3450681678003
 30
0.0
 11
350.3660712236337
 21
270.9352251668678
 31
0.0
  0
LINE
  5
172F
330
18
100
AcDbEntity
  8
目盛
100
AcDbLine
 10
350.9051292740721
 20
268.355418171476
 30
0.0
 11
350.0779986092069
 21
269.2926240524006
 31
0.0
  0
LINE
  5
1730
330
18
100
AcDbEntity
  8
目盛
100
AcDbLine
 10
351.4392851211361
 20
268.8419740923148
 30
0.0
 11
350.5831242471912
 21
269.7527367166721
 31
0.0
  0
LINE
  5
1731
330
18
100
AcDbEntity
  8
目盛
100
AcDbLine
 10
349.7923009983008
 20
267.4338246865096
 30
0.0
 11
349.0256501310317
 21
268.4211171698781
 31
0.0
  0
LINE
  5
1732
330
18
100
AcDbEntity
  8
目盛
100
AcDbLine
 10
350.3559539098664
 20
267.8858805772349
 30
0.0
 11
349.5586697321861
 21
268.8486048056727
 31
0.0
  0
LINE
  5
1733
330
18
100
AcDbEntity
  8
目盛
100
AcDbLine
 10
354.3003919238763
 20
272.0906902375577
 30
0.0
 11
352.479411467899
 21
273.4122537732794
 31
0.0
  0
LINE
  5
1734
330
18
100
AcDbEntity
  8
目盛
100
AcDbLine
 10
353.4154035464521
 20
270.948535740691
 30
0.0
 11
352.451844932001
 21
271.7448113189409
 31
0.0
  0
LINE
  5
1735
330
18
100
AcDbEntity
  8
目盛
100
AcDbLine
 10
353.8668689334693
 20
271.5126617349346
 30
0.0
 11
352.8787741566802
 21
272.2782782917582
 31
0.0
  0
LINE
  5
1736
330
18
100
AcDbEntity
  8
目盛
100
AcDbLine
 10
352.4604450171935
 20
269.8642039048193
 30
0.0
 11
351.5487863228107
 21
270.7194105611058
 31
0.0
  0
LINE
  5
1737
330
18
100
AcDbEntity
  8
目盛
100
AcDbLine
 10
352.9464413046554
 20
270.3988689790752
 30
0.0
 11
352.0083697685627
 21
271.2250177508912
 31
0.0
  0
LINE
  5
1738
330
18
100
AcDbEntity
  8
目盛
100
AcDbLine
 10
356.1845395914846
 20
275.1689565056038
 30
0.0
 11
354.1792403419369
 21
276.1893852977122
 31
0.0
  0
LINE
  5
1739
330
18
100
AcDbEntity
  8
目盛
100
AcDbLine
 10
355.4891192172511
 20
273.9024211425011
 30
0.0
 11
354.4128586641697
 21
274.5381594706527
 31
0.0
  0
LINE
  5
173A
330
18
100
AcDbEntity
  8
目盛
100
AcDbLine
 10
355.8467775680656
 20
274.5302265559443
 30
0.0
 11
354.7510790611354
 21
275.1318450246696
 31
0.0
  0
LINE
  5
173B
330
18
100
AcDbEntity
  8
目盛
100
AcDbLine
 10
354.7155446828212
 20
272.6820508042144
 30
0.0
 11
353.6813262240021
 21
273.3841136072728
 31
0.0
  0
LINE
  5
173C
330
18
100
AcDbEntity
  8
目盛
100
AcDbLine
 10
355.1119175046529
 20
273.2861598334209
 30
0.0
 11
354.0561570446474
 21
273.9553906240225
 31
0.0
  0
LINE
  5
173D
330
18
100
AcDbEntity
  8
目盛
100
AcDbLine
 10
357.5639433378477
 20
278.5040698402394
 30
0.0
 11
355.4237024174601
 21
279.1982375452639
 31
0.0
  0
LINE
  5
173E
330
18
100
AcDbEntity
  8
目盛
100
AcDbLine
 10
357.0752145243865
 20
277.1443399149301
 30
0.0
 11
355.9127531393955
 21
277.6038870054496
 31
0.0
  0
LINE
  5
173F
330
18
100
AcDbEntity
  8
目盛
100
AcDbLine
 10
357.3302591034011
 20
277.8203660947274
 30
0.0
 11
356.1539365999853
 21
278.243172631997
 31
0.0
  0
LINE
  5
1740
330
18
100
AcDbEntity
  8
目盛
100
AcDbLine
 10
356.5020719571695
 20
275.8179806421339
 30
0.0
 11
355.3707596247447
 21
276.3496124757402
 31
0.0
  0
LINE
  5
1741
330
18
100
AcDbEntity
  8
目盛
100
AcDbLine
 10
356.7990612990116
 20
276.4766584570692
 30
0.0
 11
355.6516082414865
 21
276.972492583342
 31
0.0
  0
LINE
  5
1742
330
18
100
AcDbEntity
  8
目盛
100
AcDbLine
 10
358.4046376647515
 20
282.0139086825591
 30
0.0
 11
356.1821549080364
 21
282.3647225877914
 31
0.0
  0
LINE
  5
1743
330
18
100
AcDbEntity
  8
目盛
100
AcDbLine
 10
358.134634537448
 20
280.5944652584893
 30
0.0
 11
356.9145959778341
 21
280.8665055368588
 31
0.0
  0
LINE
  5
1744
330
18
100
AcDbEntity
  8
目盛
100
AcDbLine
 10
358.2807853006829
 20
281.3020661964916
 30
0.0
 11
357.0528037648061
 21
281.5356499021436
 31
0.0
  0
LINE
  5
1745
330
18
100
AcDbEntity
  8
目盛
100
AcDbLine
 10
357.7760366096001
 20
279.1947764184138
 30
0.0
 11
356.5754870678039
 21
279.5428867424397
 31
0.0
  0
LINE
  5
1746
330
18
100
AcDbEntity
  8
目盛
100
AcDbLine
 10
357.9663296082052
 20
279.8918041852478
 30
0.0
 11
356.7554380556153
 21
280.2020325654239
 31
0.0
  0
LINE
  5
1747
330
18
100
AcDbEntity
  8
目盛
100
AcDbLine
 10
358.6859218877632
 20
285.6120491517777
 30
0.0
 11
356.4359221961882
 21
285.6108710545865
 31
0.0
  0
LINE
  5
1748
330
18
100
AcDbEntity
  8
目盛
100
AcDbLine
 10
358.6412928197005
 20
284.1678436369106
 30
0.0
 11
357.3937184838772
 21
284.2456785686268
 31
0.0
  0
LINE
  5
1749
330
18
100
AcDbEntity
  8
目盛
100
AcDbLine
 10
358.6749510503183
 20
284.8895958496316
 30
0.0
 11
357.4255474628309
 21
284.9282051176129
 31
0.0
  0
LINE
  5
174A
330
18
100
AcDbEntity
  8
目盛
100
AcDbLine
 10
358.5060694023235
 20
282.7292902140996
 30
0.0
 11
357.2658441652706
 21
282.8853073970554
 31
0.0
  0
LINE
  5
174B
330
18
100
AcDbEntity
  8
目盛
100
AcDbLine
 10
358.5849804125199
 20
283.4475047959102
 30
0.0
 11
357.3404665336085
 21
283.5644885776808
 31
0.0
  0
LINE
  5
174C
330
18
100
AcDbEntity
  8
目盛
100
AcDbLine
 10
358.4008698557834
 20
289.2098930879996
 30
0.0
 11
356.1787556890759
 21
288.8567519970475
 31
0.0
  0
LINE
  5
174D
330
18
100
AcDbEntity
  8
目盛
100
AcDbLine
 10
358.5827137627326
 20
287.7764866151546
 30
0.0
 11
357.3383230713097
 21
287.6581996458793
 31
0.0
  0
LINE
  5
174E
330
18
100
AcDbEntity
  8
目盛
100
AcDbLine
 10
358.5030506833902
 20
288.4946181677587
 30
0.0
 11
357.262989507149
 21
288.3373023097549
 31
0.0
  0
LINE
  5
174F
330
18
100
AcDbEntity
  8
目盛
100
AcDbLine
 10
358.6741945051431
 20
286.3344905691625
 30
0.0
 11
357.4248320342414
 21
286.2945729502129
 31
0.0
  0
LINE
  5
1750
330
18
100
AcDbEntity
  8
目盛
100
AcDbLine
 10
358.6397804759691
 20
287.0562071393282
 30
0.0
 11
357.3922883327398
 21
286.9770657937392
 31
0.0
  0
LINE
  5
1751
330
18
100
AcDbEntity
  8
目盛
100
AcDbLine
 10
357.5565004958729
 20
292.7188496329555
 30
0.0
 11
355.4169876795915
 21
292.0224410539098
 31
0.0
  0
LINE
  5
1752
330
18
100
AcDbEntity
  8
目盛
100
AcDbLine
 10
357.9603397773396
 20
291.3315374266972
 30
0.0
 11
356.7497737590359
 21
291.0200411741859
 31
0.0
  0
LINE
  5
1753
330
18
100
AcDbEntity
  8
目盛
100
AcDbLine
 10
357.7693169574371
 20
292.0283655370174
 30
0.0
 11
356.5691326141281
 21
291.6789981915538
 31
0.0
  0
LINE
  5
1754
330
18
100
AcDbEntity
  8
目盛
100
AcDbLine
 10
358.2762721200524
 20
289.9216054858871
 30
0.0
 11
357.0485358657317
 21
289.6867359692893
 31
0.0
  0
LINE
  5
1755
330
18
100
AcDbEntity
  8
目盛
100
AcDbLine
 10
358.1293804391197
 20
290.6290529872103
 30
0.0
 11
356.9096274283279
 21
290.355735236845
 31
0.0
  0
LINE
  5
1756
330
18
100
AcDbEntity
  8
目盛
100
AcDbLine
 10
356.1736049839738
 20
296.0525166309495
 30
0.0
 11
354.1693754242913
 21
295.0299884542739
 31
0.0
  0
LINE
  5
1757
330
18
100
AcDbEntity
  8
目盛
100
AcDbLine
 10
356.7894957765826
 20
294.7454589220214
 30
0.0
 11
355.6425625844071
 21
294.2484234578076
 31
0.0
  0
LINE
  5
1758
330
18
100
AcDbEntity
  8
目盛
100
AcDbLine
 10
356.4918168319144
 20
295.4038253693416
 30
0.0
 11
355.3610618432534
 21
294.8710091199473
 31
0.0
  0
LINE
  5
1759
330
18
100
AcDbEntity
  8
目盛
100
AcDbLine
 10
357.3221004168007
 20
293.4023082900716
 30
0.0
 11
356.1462213202655
 21
292.9782701428117
 31
0.0
  0
LINE
  5
175A
330
18
100
AcDbEntity
  8
目盛
100
AcDbLine
 10
357.0663480447996
 20
294.0780670171863
 30
0.0
 11
355.904368533699
 21
293.6173028521482
 31
0.0
  0
LINE
  5
175B
330
18
100
AcDbEntity
  8
目盛
100
AcDbLine
 10
354.2862347971563
 20
299.1288081366844
 30
0.0
 11
352.4666392774886
 21
297.8053383996652
 31
0.0
  0
LINE
  5
175C
330
18
100
AcDbEntity
  8
目盛
100
AcDbLine
 10
355.0990118255689
 20
297.934189023756
 30
0.0
 11
354.0439527611658
 21
297.263853010535
 31
0.0
  0
LINE
  5
175D
330
18
100
AcDbEntity
  8
目盛
100
AcDbLine
 10
354.7020065996924
 20
298.5378826411504
 30
0.0
 11
353.6685239062609
 21
297.8347371922013
 31
0.0
  0
LINE
  5
175E
330
18
100
AcDbEntity
  8
目盛
100
AcDbLine
 10
355.8351742694366
 20
296.6908925268868
 30
0.0
 11
354.7401063765625
 21
296.0881269754521
 31
0.0
  0
LINE
  5
175F
330
18
100
AcDbEntity
  8
目盛
100
AcDbLine
 10
355.476858678559
 20
297.3183230572166
 30
0.0
 11
354.4012644591021
 21
296.6814580204377
 31
0.0
  0
LINE
  5
1760
330
18
100
AcDbEntity
  8
目盛
100
AcDbLine
 10
351.9408632532424
 20
301.871975643663
 30
0.0
 11
350.3507062541749
 21
300.2801525635699
 31
0.0
  0
LINE
  5
1761
330
18
100
AcDbEntity
  8
目盛
100
AcDbLine
 10
352.9305132495667
 20
300.8192106140083
 30
0.0
 11
351.993307368642
 21
299.992079949143
 31
0.0
  0
LINE
  5
1762
330
18
100
AcDbEntity
  8
目盛
100
AcDbLine
 10
352.4439573287279
 20
301.3533664610722
 30
0.0
 11
351.5331947043706
 21
300.4972055871274
 31
0.0
  0
LINE
  5
1763
330
18
100
AcDbEntity
  8
目盛
100
AcDbLine
 10
353.852106734533
 20
299.706382338237
 30
0.0
 11
352.8648142511646
 21
298.9397314709679
 31
0.0
  0
LINE
  5
1764
330
18
100
AcDbEntity
  8
目盛
100
AcDbLine
 10
353.4000508438079
 20
300.2700352498025
 30
0.0
 11
352.43732661537
 21
299.4727510721223
 31
0.0
  0
LINE
  5
1765
330
18
100
AcDbEntity
  8
目盛
100
AcDbLine
 10
349.1952411834851
 20
304.2144732638124
 30
0.0
 11
347.8736776477634
 21
302.3934928078351
 31
0.0
  0
LINE
  5
1766
330
18
100
AcDbEntity
  8
目盛
100
AcDbLine
 10
350.3373956803518
 20
303.3294848863882
 30
0.0
 11
349.5411201021018
 21
302.3659262719371
 31
0.0
  0
LINE
  5
1767
330
18
100
AcDbEntity
  8
目盛
100
AcDbLine
 10
349.7732696861082
 20
303.7809502734055
 30
0.0
 11
349.0076531292846
 21
302.7928554966164
 31
0.0
  0
LINE
  5
1768
330
18
100
AcDbEntity
  8
目盛
100
AcDbLine
 10
351.4217275162234
 20
302.3745263571296
 30
0.0
 11
350.5665208599369
 21
301.4628676627469
 31
0.0
  0
LINE
  5
1769
330
18
100
AcDbEntity
  8
目盛
100
AcDbLine
 10
350.8870624419676
 20
302.8605226445915
 30
0.0
 11
350.0609136701516
 21
301.9224511084988
 31
0.0
  0
LINE
  5
176A
330
18
100
AcDbEntity
  8
目盛
100
AcDbLine
 10
346.1169749154389
 20
306.0986209314207
 30
0.0
 11
345.0965461233305
 21
304.0933216818731
 31
0.0
  0
LINE
  5
176B
330
18
100
AcDbEntity
  8
目盛
100
AcDbLine
 10
347.3835102785417
 20
305.4032005571873
 30
0.0
 11
346.7477719503901
 21
304.3269400041059
 31
0.0
  0
LINE
  5
176C
330
18
100
AcDbEntity
  8
目盛
100
AcDbLine
 10
346.7557048650984
 20
305.7608589080017
 30
0.0
 11
346.1540863963731
 21
304.6651604010715
 31
0.0
  0
LINE
  5
176D
330
18
100
AcDbEntity
  8
目盛
100
AcDbLine
 10
348.6038806168283
 20
304.6296260227574
 30
0.0
 11
347.9018178137699
 21
303.5954075639383
 31
0.0
  0
LINE
  5
176E
330
18
100
AcDbEntity
  8
目盛
100
AcDbLine
 10
347.9997715876218
 20
305.0259988445891
 30
0.0
 11
347.3305407970203
 21
303.9702383845835
 31
0.0
  0
LINE
  5
176F
330
18
100
AcDbEntity
  8
目盛
100
AcDbLine
 10
342.7818615808034
 20
307.4780246777838
 30
0.0
 11
342.0876938757788
 21
305.3377837573963
 31
0.0
  0
LINE
  5
1770
330
18
100
AcDbEntity
  8
目盛
100
AcDbLine
 10
344.1415915061126
 20
306.9892958643226
 30
0.0
 11
343.6820444155931
 21
305.8268344793316
 31
0.0
  0
LINE
  5
1771
330
18
100
AcDbEntity
  8
目盛
100
AcDbLine
 10
343.4655653263154
 20
307.2443404433372
 30
0.0
 11
343.0427587890457
 21
306.0680179399214
 31
0.0
  0
LINE
  5
1772
330
18
100
AcDbEntity
  8
目盛
100
AcDbLine
 10
345.4679507789089
 20
306.4161532971057
 30
0.0
 11
344.9363189453026
 21
305.2848409646808
 31
0.0
  0
LINE
  5
1773
330
18
100
AcDbEntity
  8
目盛
100
AcDbLine
 10
344.8092729639736
 20
306.7131426389478
 30
0.0
 11
344.3134388377008
 21
305.5656895814228
 31
0.0
  0
LINE
  5
1774
330
18
100
AcDbEntity
  8
目盛
100
AcDbLine
 10
339.2720227384836
 20
308.3187190046877
 30
0.0
 11
338.9212088332513
 21
306.0962362479726
 31
0.0
  0
LINE
  5
1775
330
18
100
AcDbEntity
  8
目盛
100
AcDbLine
 10
340.6914661625535
 20
308.0487158773842
 30
0.0
 11
340.4194258841839
 21
306.8286773177702
 31
0.0
  0
LINE
  5
1776
330
18
100
AcDbEntity
  8
目盛
100
AcDbLine
 10
339.9838652245512
 20
308.194866640619
 30
0.0
 11
339.7502815188992
 21
306.9668851047423
 31
0.0
  0
LINE
  5
1777
330
18
100
AcDbEntity
  8
目盛
100
AcDbLine
 10
342.0911550026289
 20
307.6901179495362
 30
0.0
 11
341.7430446786032
 21
306.4895684077401
 31
0.0
  0
LINE
  5
1778
330
18
100
AcDbEntity
  8
目盛
100
AcDbLine
 10
341.3941272357949
 20
307.8804109481414
 30
0.0
 11
341.0838988556188
 21
306.6695193955514
 31
0.0
  0
MTEXT
  5
181C
330
18
100
AcDbEntity
  8
DEFPOINTS
  6
Continuous
100
AcDbMText
 10
1067.717075652788
 20
104.5274976059345
 30
0.0
 40
1.0
 41
0.0
 71
     4
 72
     1
  1
\A1;
 73
     1
 44
1.0
  0
LINE
  5
1868
330
18
100
AcDbEntity
  8
0
  6
ByBlock
 62
     2
100
AcDbLine
 10
312.6859250405533
 20
285.6000063804895
 30
0.0
 11
312.6859250405533
 21
338.4504010413595
 31
0.0
  0
LINE
  5
1869
330
18
100
AcDbEntity
  8
0
  6
ByBlock
 62
     2
100
AcDbLine
 10
358.6859250405533
 20
285.6000063804895
 30
0.0
 11
358.6859250405533
 21
338.4504010413595
 31
0.0
  0
LINE
  5
186A
330
18
100
AcDbEntity
  8
0
  6
ByBlock
 62
     2
100
AcDbLine
 10
315.1859250405533
 20
337.2004010413596
 30
0.0
 11
356.1859250405533
 21
337.2004010413596
 31
0.0
  0
INSERT
  5
186B
330
18
100
AcDbEntity
  8
0
  6
ByBlock
 62
     2
100
AcDbBlockReference
  2
_OPEN
 10
312.6859250405533
 20
337.2004010413596
 30
0.0
 41
2.5
 42
2.5
 43
2.5
 50
180.0
  0
INSERT
  5
186C
330
18
100
AcDbEntity
  8
0
  6
ByBlock
 62
     2
100
AcDbBlockReference
  2
_OPEN
 10
358.6859250405533
 20
337.2004010413596
 30
0.0
 41
2.5
 42
2.5
 43
2.5
  0
MTEXT
  5
186D
330
18
100
AcDbEntity
  8
0
  6
ByBlock
 62
     6
100
AcDbMText
 10
335.6859250405533
 20
339.0754010413596
 30
0.0
 40
2.5
 41
0.0
 71
     5
 72
     1
  1
\A1;46
  7
STYLE3
 73
     1
 44
1.0
  0
POINT
  5
186E
330
18
100
AcDbEntity
  8
DEFPOINTS
  6
ByBlock
 62
     0
100
AcDbPoint
 10
312.6859250405533
 20
285.6000063804895
 30
0.0
  0
POINT
  5
186F
330
18
100
AcDbEntity
  8
DEFPOINTS
  6
ByBlock
 62
     0
100
AcDbPoint
 10
358.6859250405533
 20
285.6000063804895
 30
0.0
  0
POINT
  5
1870
330
18
100
AcDbEntity
  8
DEFPOINTS
  6
ByBlock
 62
     0
100
AcDbPoint
 10
358.6859250405533
 20
337.2004010413596
 30
0.0
  0
LINE
  5
1871
330
18
100
AcDbEntity
  8
0
  6
ByBlock
 62
     2
100
AcDbLine
 10
413.0220664737738
 20
312.0000063804894
 30
0.0
 11
398.3796595743521
 21
312.0000063804894
 31
0.0
  0
LINE
  5
1872
330
18
100
AcDbEntity
  8
0
  6
ByBlock
 62
     2
100
AcDbLine
 10
413.0220664737738
 20
259.2000063804895
 30
0.0
 11
398.3796595743521
 21
259.2000063804895
 31
0.0
  0
LINE
  5
1873
330
18
100
AcDbEntity
  8
0
  6
ByBlock
 62
     2
100
AcDbLine
 10
399.629659574352
 20
309.5000063804894
 30
0.0
 11
399.629659574352
 21
261.7000063804895
 31
0.0
  0
INSERT
  5
1874
330
18
100
AcDbEntity
  8
0
  6
ByBlock
 62
     2
100
AcDbBlockReference
  2
_OPEN
 10
399.629659574352
 20
312.0000063804894
 30
0.0
 41
2.5
 42
2.5
 43
2.5
 50
90.0
  0
INSERT
  5
1875
330
18
100
AcDbEntity
  8
0
  6
ByBlock
 62
     2
100
AcDbBlockReference
  2
_OPEN
 10
399.629659574352
 20
259.2000063804895
 30
0.0
 41
2.5
 42
2.5
 43
2.5
 50
270.0
  0
MTEXT
  5
1876
330
18
100
AcDbEntity
  8
0
  6
ByBlock
 62
     6
100
AcDbMText
 10
397.754659574352
 20
285.6000063804895
 30
0.0
 40
2.5
 41
0.0
 71
     5
 72
     1
  1
\A1;φ53
  7
STYLE3
 11
0.0000000000000001
 21
1.0
 31
0.0
 73
     1
 44
1.0
  0
POINT
  5
1877
330
18
100
AcDbEntity
  8
DEFPOINTS
  6
ByBlock
 62
     0
100
AcDbPoint
 10
413.0220664737738
 20
312.0000063804894
 30
0.0
  0
POINT
  5
1878
330
18
100
AcDbEntity
  8
DEFPOINTS
  6
ByBlock
 62
     0
100
AcDbPoint
 10
413.0220664737738
 20
259.2000063804895
 30
0.0
  0
POINT
  5
1879
330
18
100
AcDbEntity
  8
DEFPOINTS
  6
ByBlock
 62
     0
100
AcDbPoint
 10
399.629659574352
 20
259.2000063804895
 30
0.0
  0
POINT
  5
1895
330
18
100
AcDbEntity
  8
DEFPOINTS
  6
ByBlock
 62
     0
100
AcDbPoint
 10
413.0220664737738
 20
259.2000063804895
 30
0.0
  0
LINE
  5
18A4
330
18
100
AcDbEntity
  8
ﾊｯﾁﾝｸ
  6
Continuous
100
AcDbLine
 10
331.6859250405534
 20
319.3665001767872
 30
0.0
 11
331.9194312442555
 21
319.6000063804893
 31
0.0
  0
LINE
  5
18A5
330
18
100
AcDbEntity
  8
ﾊｯﾁﾝｸ
  6
Continuous
100
AcDbLine
 10
331.6859250405534
 20
317.5987332238208
 30
0.0
 11
333.6871981972219
 21
319.6000063804893
 31
0.0
  0
LINE
  5
18A6
330
18
100
AcDbEntity
  8
ﾊｯﾁﾝｸ
  6
Continuous
100
AcDbLine
 10
331.6859250405534
 20
315.8309662708544
 30
0.0
 11
335.4549651501882
 21
319.6000063804893
 31
0.0
  0
LINE
  5
18A7
330
18
100
AcDbEntity
  8
ﾊｯﾁﾝｸ
  6
Continuous
100
AcDbLine
 10
331.6859250405534
 20
314.0631993178881
 30
0.0
 11
335.6859250405534
 21
318.0631993178881
 31
0.0
  0
LINE
  5
18A8
330
18
100
AcDbEntity
  8
ﾊｯﾁﾝｸ
  6
Continuous
100
AcDbLine
 10
332.9904990561209
 20
313.6000063804893
 30
0.0
 11
335.6859250405534
 21
316.2954323649217
 31
0.0
  0
LINE
  5
18A9
330
18
100
AcDbEntity
  8
ﾊｯﾁﾝｸ
  6
Continuous
100
AcDbLine
 10
334.7582660090874
 20
313.6000063804893
 30
0.0
 11
335.6859250405534
 21
314.5276654119553
 31
0.0
  0
LINE
  5
18AA
330
18
100
AcDbEntity
  8
ﾊｯﾁﾝｸ
  6
Continuous
100
AcDbLine
 10
331.7374706868723
 20
313.6000063804893
 30
0.0
 11
331.6859250405534
 21
313.6515520268083
 31
0.0
  0
LINE
  5
18AB
330
18
100
AcDbEntity
  8
ﾊｯﾁﾝｸ
  6
Continuous
100
AcDbLine
 10
333.5052376398386
 20
313.6000063804893
 30
0.0
 11
331.6859250405533
 21
315.4193189797747
 31
0.0
  0
LINE
  5
18AC
330
18
100
AcDbEntity
  8
ﾊｯﾁﾝｸ
  6
Continuous
100
AcDbLine
 10
335.273004592805
 20
313.6000063804893
 30
0.0
 11
331.6859250405533
 21
317.187085932741
 31
0.0
  0
LINE
  5
18AD
330
18
100
AcDbEntity
  8
ﾊｯﾁﾝｸ
  6
Continuous
100
AcDbLine
 10
335.6859250405534
 20
314.9548528857073
 30
0.0
 11
331.6859250405534
 21
318.9548528857073
 31
0.0
  0
LINE
  5
18AE
330
18
100
AcDbEntity
  8
ﾊｯﾁﾝｸ
  6
Continuous
100
AcDbLine
 10
335.6859250405533
 20
316.7226198386738
 30
0.0
 11
332.8085384987377
 21
319.6000063804893
 31
0.0
  0
LINE
  5
18AF
330
18
100
AcDbEntity
  8
ﾊｯﾁﾝｸ
  6
Continuous
100
AcDbLine
 10
335.6859250405533
 20
318.4903867916401
 30
0.0
 11
334.5763054517041
 21
319.6000063804893
 31
0.0
  0
LINE
  5
18B0
330
18
100
AcDbEntity
  8
ﾊｯﾁﾝｸ
  6
Continuous
100
AcDbLine
 10
419.3220664737737
 20
319.3665001767873
 30
0.0
 11
419.5555726774759
 21
319.6000063804894
 31
0.0
  0
LINE
  5
18B1
330
18
100
AcDbEntity
  8
ﾊｯﾁﾝｸ
  6
Continuous
100
AcDbLine
 10
419.3220664737737
 20
317.5987332238208
 30
0.0
 11
421.3233396304421
 21
319.6000063804894
 31
0.0
  0
LINE
  5
18B2
330
18
100
AcDbEntity
  8
ﾊｯﾁﾝｸ
  6
Continuous
100
AcDbLine
 10
419.3220664737737
 20
315.8309662708544
 30
0.0
 11
423.0911065834086
 21
319.6000063804894
 31
0.0
  0
LINE
  5
18B3
330
18
100
AcDbEntity
  8
ﾊｯﾁﾝｸ
  6
Continuous
100
AcDbLine
 10
419.3220664737736
 20
314.0631993178881
 30
0.0
 11
423.3220664737736
 21
318.0631993178881
 31
0.0
  0
LINE
  5
18B4
330
18
100
AcDbEntity
  8
ﾊｯﾁﾝｸ
  6
Continuous
100
AcDbLine
 10
420.6266404893413
 20
313.6000063804894
 30
0.0
 11
423.3220664737737
 21
316.2954323649217
 31
0.0
  0
LINE
  5
18B5
330
18
100
AcDbEntity
  8
ﾊｯﾁﾝｸ
  6
Continuous
100
AcDbLine
 10
422.3944074423077
 20
313.6000063804894
 30
0.0
 11
423.3220664737737
 21
314.5276654119554
 31
0.0
  0
LINE
  5
18B6
330
18
100
AcDbEntity
  8
ﾊｯﾁﾝｸ
  6
Continuous
100
AcDbLine
 10
419.3736121200926
 20
313.6000063804894
 30
0.0
 11
419.3220664737737
 21
313.6515520268084
 31
0.0
  0
LINE
  5
18B7
330
18
100
AcDbEntity
  8
ﾊｯﾁﾝｸ
  6
Continuous
100
AcDbLine
 10
421.1413790730589
 20
313.6000063804894
 30
0.0
 11
419.3220664737737
 21
315.4193189797747
 31
0.0
  0
LINE
  5
18B8
330
18
100
AcDbEntity
  8
ﾊｯﾁﾝｸ
  6
Continuous
100
AcDbLine
 10
422.9091460260254
 20
313.6000063804894
 30
0.0
 11
419.3220664737737
 21
317.1870859327411
 31
0.0
  0
LINE
  5
18B9
330
18
100
AcDbEntity
  8
ﾊｯﾁﾝｸ
  6
Continuous
100
AcDbLine
 10
423.3220664737737
 20
314.9548528857075
 30
0.0
 11
419.3220664737737
 21
318.9548528857075
 31
0.0
  0
LINE
  5
18BA
330
18
100
AcDbEntity
  8
ﾊｯﾁﾝｸ
  6
Continuous
100
AcDbLine
 10
423.3220664737737
 20
316.7226198386738
 30
0.0
 11
420.4446799319581
 21
319.6000063804893
 31
0.0
  0
LINE
  5
18BB
330
18
100
AcDbEntity
  8
ﾊｯﾁﾝｸ
  6
Continuous
100
AcDbLine
 10
423.3220664737737
 20
318.4903867916402
 30
0.0
 11
422.2124468849245
 21
319.6000063804893
 31
0.0
  0
LINE
  5
1A23
330
18
100
AcDbEntity
  8
外形線
100
AcDbLine
 10
430.9220664737737
 20
308.7000063804891
 30
0.0
 11
430.9220664737738
 21
262.5000063804894
 31
0.0
  0
LINE
  5
1A24
330
18
100
AcDbEntity
  8
外形線
100
AcDbLine
 10
315.6859250405533
 20
226.6000063804895
 30
0.0
 11
330.786945554987
 21
226.6000063804895
 31
0.0
  0
LINE
  5
1A28
330
18
100
AcDbEntity
  8
外形線
100
AcDbLine
 10
325.2122044821821
 20
259.1000063804894
 30
0.0
 11
315.6859250405533
 21
242.6000063804895
 31
0.0
  0
LINE
  5
1A29
330
18
100
AcDbEntity
  8
外形線
100
AcDbLine
 10
315.6859250405533
 20
242.6000063804895
 30
0.0
 11
315.6859250405533
 21
226.6000063804895
 31
0.0
  0
LINE
  5
1A2A
330
18
100
AcDbEntity
  8
外形線
100
AcDbLine
 10
355.6859250405532
 20
242.6000063804896
 30
0.0
 11
355.6859250405533
 21
226.6000063804896
 31
0.0
  0
LINE
  5
1A2B
330
18
100
AcDbEntity
  8
外形線
100
AcDbLine
 10
346.1596455989243
 20
259.1000063804894
 30
0.0
 11
355.6859250405532
 21
242.6000063804897
 31
0.0
  0
ARC
  5
1A2D
330
18
100
AcDbEntity
  8
外形線
100
AcDbCircle
 10
335.6859250405534
 20
225.6000063804895
 30
0.0
 40
5.0
100
AcDbArc
 50
11.53695903281545
 51
168.4630409671845
  0
LINE
  5
1A2E
330
18
100
AcDbEntity
  8
外形線
100
AcDbLine
 10
340.5849045261197
 20
226.6000063804895
 30
0.0
 11
355.6859250405533
 21
226.6000063804895
 31
0.0
  0
LINE
  5
1A2F
330
18
100
AcDbEntity
  8
中心線
 48
0.5
100
AcDbLine
 10
333.2523169991364
 20
225.6000063804895
 30
0.0
 11
335.6859250405534
 21
225.6000063804895
 31
0.0
  0
LINE
  5
1A31
330
18
100
AcDbEntity
  8
中心線
 48
0.5
100
AcDbLine
 10
317.4734635899152
 20
249.6000063804895
 30
0.0
 11
330.786945554987
 21
249.6000063804895
 31
0.0
  0
LINE
  5
1A32
330
18
100
AcDbEntity
  8
中心線
 48
0.5
100
AcDbLine
 10
340.5849045261198
 20
249.6000063804895
 30
0.0
 11
353.7494253461913
 21
249.6000063804895
 31
0.0
  0
LINE
  5
1A33
330
18
100
AcDbEntity
  8
外形線
100
AcDbLine
 10
336.3817905453537
 20
230.5513467241973
 30
0.0
 11
335.6859250405534
 21
225.6000063804895
 31
0.0
  0
LINE
  5
1A34
330
18
100
AcDbEntity
  8
外形線
100
AcDbLine
 10
334.9900595357529
 20
230.5513467241973
 30
0.0
 11
335.6859250405533
 21
225.6000063804895
 31
0.0
  0
LINE
  5
1A35
330
18
100
AcDbEntity
  8
外形線
100
AcDbLine
 10
418.3220664737739
 20
226.6000063804895
 30
0.0
 11
428.3220664737739
 21
226.6000063804895
 31
0.0
  0
LINE
  5
1A37
330
18
100
AcDbEntity
  8
外形線
100
AcDbLine
 10
418.3220664737739
 20
259.1000063804894
 30
0.0
 11
428.3220664737738
 21
259.1000063804894
 31
0.0
  0
LINE
  5
1A38
330
18
100
AcDbEntity
  8
外形線
100
AcDbLine
 10
428.3220664737738
 20
259.1000063804894
 30
0.0
 11
428.3220664737739
 21
226.6000063804895
 31
0.0
  0
LINE
  5
1A39
330
18
100
AcDbEntity
  8
外形線
100
AcDbLine
 10
418.3220664737739
 20
259.1000063804894
 30
0.0
 11
418.3220664737739
 21
226.6000063804895
 31
0.0
  0
LINE
  5
1A3A
330
18
100
AcDbEntity
  8
外形線
  6
Continuous
100
AcDbLine
 10
419.6220664737736
 20
261.1000063804894
 30
0.0
 11
419.6220664737736
 21
259.1000063804895
 31
0.0
  0
LINE
  5
1A3B
330
18
100
AcDbEntity
  8
外形線
  6
Continuous
100
AcDbLine
 10
427.0220664737737
 20
261.1000063804894
 30
0.0
 11
427.0220664737737
 21
259.1000063804894
 31
0.0
  0
LINE
  5
1A3C
330
18
100
AcDbEntity
  8
外形線
100
AcDbLine
 10
418.322066473774
 20
242.6000063804895
 30
0.0
 11
428.322066473774
 21
242.6000063804894
 31
0.0
  0
LINE
  5
1A3D
330
18
100
AcDbEntity
  8
中心線
 48
0.5
100
AcDbLine
 10
419.5413819386303
 20
249.6000063804895
 30
0.0
 11
427.2814122745161
 21
249.6000063804895
 31
0.0
  0
LINE
  5
1A3E
330
18
100
AcDbEntity
  8
外形線
100
AcDbLine
 10
325.2122044821821
 20
259.1000063804894
 30
0.0
 11
346.1596455989244
 21
259.1000063804894
 31
0.0
  0
LINE
  5
1A41
330
18
100
AcDbEntity
  8
外形線
100
AcDbLine
 10
331.6859250405532
 20
259.5047960920093
 30
0.0
 11
331.6859250405533
 21
259.1000063804894
 31
0.0
  0
LINE
  5
1A42
330
18
100
AcDbEntity
  8
外形線
100
AcDbLine
 10
339.6859250405532
 20
259.5047960920093
 30
0.0
 11
339.6859250405533
 21
259.1000063804894
 31
0.0
  0
LINE
  5
1A43
330
18
100
AcDbEntity
  8
外形線
100
AcDbLine
 10
423.1815256390714
 20
226.6000063804895
 30
0.0
 11
423.3220664737737
 21
225.6000063804895
 31
0.0
  0
LINE
  5
1A44
330
18
100
AcDbEntity
  8
外形線
100
AcDbLine
 10
423.4626073084763
 20
226.6000063804895
 30
0.0
 11
423.3220664737739
 21
225.6000063804895
 31
0.0
  0
CIRCLE
  5
1A45
330
18
100
AcDbEntity
  8
外形線
100
AcDbCircle
 10
423.3220664737738
 20
249.6000063804895
 30
0.0
 40
1.5
  0
CIRCLE
  5
1A46
330
18
100
AcDbEntity
  8
寸法線
100
AcDbCircle
 10
423.3220664737738
 20
249.6000063804895
 30
0.0
 40
0.8
  0
DIMENSION
  5
1A53
330
18
100
AcDbEntity
  8
寸法線
100
AcDbDimension
  2
*D1
 10
298.8929977451791
 20
285.6000063804895
 30
0.0
 11
297.017997745179
 21
256.1000063804895
 31
0.0
 70
    32
 71
     5
 42
58.99999999999997
  3
STYLE2
100
AcDbAlignedDimension
 13
315.6859250405533
 23
226.6000063804895
 33
0.0
 14
304.4401051507409
 24
285.6000063804895
 34
0.0
 50
90.0
100
AcDbRotatedDimension
  0
DIMENSION
  5
1A89
330
18
100
AcDbEntity
  8
寸法線
100
AcDbDimension
  2
*D2
 10
291.5495311293361
 20
327.1000063804895
 30
0.0
 11
289.674531129336
 21
276.8500063804895
 31
0.0
 70
    32
 71
     5
 42
100.4999999999999
  3
STYLE2
100
AcDbAlignedDimension
 13
297.6429977451791
 23
226.6000063804895
 33
0.0
 14
292.9165166945295
 24
327.1000063804895
 34
0.0
 50
90.0
100
AcDbRotatedDimension
  0
LINE
  5
1A99
330
18
100
AcDbEntity
  8
0
  6
ByBlock
 62
     2
100
AcDbLine
 10
333.2523169991364
 20
225.6000063804895
 30
0.0
 11
305.7920328655945
 21
225.6000063804895
 31
0.0
  0
LINE
  5
1A9A
330
18
100
AcDbEntity
  8
0
  6
ByBlock
 62
     2
100
AcDbLine
 10
309.3203418737302
 20
226.6000063804895
 30
0.0
 11
305.7920328655945
 21
226.6000063804895
 31
0.0
  0
LINE
  5
1A9B
330
18
100
AcDbEntity
  8
0
  6
ByBlock
 62
     2
100
AcDbLine
 10
307.0420328655945
 20
223.1000063804895
 30
0.0
 11
307.0420328655945
 21
220.6000063804895
 31
0.0
  0
LINE
  5
1A9C
330
18
100
AcDbEntity
  8
0
  6
ByBlock
 62
     2
100
AcDbLine
 10
307.0420328655945
 20
229.1000063804895
 30
0.0
 11
307.0420328655945
 21
233.4452444757276
 31
0.0
  0
LINE
  5
1A9D
330
18
100
AcDbEntity
  8
0
  6
ByBlock
 62
     2
100
AcDbLine
 10
307.0420328655945
 20
225.6000063804895
 30
0.0
 11
307.0420328655945
 21
226.6000063804895
 31
0.0
  0
INSERT
  5
1A9E
330
18
100
AcDbEntity
  8
0
  6
ByBlock
 62
     2
100
AcDbBlockReference
  2
_OPEN
 10
307.0420328655945
 20
225.6000063804895
 30
0.0
 41
2.5
 42
2.5
 43
2.5
 50
90.0
  0
INSERT
  5
1A9F
330
18
100
AcDbEntity
  8
0
  6
ByBlock
 62
     2
100
AcDbBlockReference
  2
_OPEN
 10
307.0420328655945
 20
226.6000063804895
 30
0.0
 41
2.5
 42
2.5
 43
2.5
 50
270.0
  0
MTEXT
  5
1AA0
330
18
100
AcDbEntity
  8
0
  6
ByBlock
 62
     6
100
AcDbMText
 10
304.8402808600759
 20
230.3352223226065
 30
0.0
 40
2.5
 41
0.0
 71
     5
 72
     1
  1
1.02
  7
STYLE3
 11
0.0000000000000001
 21
1.0
 31
0.0
 73
     1
 44
1.0
  0
POINT
  5
1AA1
330
18
100
AcDbEntity
  8
DEFPOINTS
  6
ByBlock
 62
     0
100
AcDbPoint
 10
333.2523169991364
 20
225.6000063804895
 30
0.0
  0
POINT
  5
1AA2
330
18
100
AcDbEntity
  8
DEFPOINTS
  6
ByBlock
 62
     0
100
AcDbPoint
 10
309.3203418737302
 20
226.6000063804895
 30
0.0
  0
POINT
  5
1AA3
330
18
100
AcDbEntity
  8
DEFPOINTS
  6
ByBlock
 62
     0
100
AcDbPoint
 10
307.0420328655945
 20
226.6000063804895
 30
0.0
  0
DIMENSION
  5
1AB0
330
18
100
AcDbEntity
  8
寸法線
100
AcDbDimension
  2
*D3
 10
428.3220664737739
 20
214.3205720836194
 30
0.0
 11
423.3220664737739
 21
216.1955720836194
 31
0.0
 70
    32
 71
     5
 42
10.0
  3
STYLE2
100
AcDbAlignedDimension
 13
418.3220664737739
 23
226.6000063804895
 33
0.0
 14
428.3220664737739
 24
226.6000063804895
 34
0.0
100
AcDbRotatedDimension
  0
DIMENSION
  5
1ABA
330
18
100
AcDbEntity
  8
寸法線
100
AcDbDimension
  2
*D4
 10
335.6859250405532
 20
225.6000063804894
 30
0.0
 11
343.4938564697638
 21
235.7264180927575
 31
0.0
 70
    36
 71
     5
 42
5.000000000000113
  3
STYLE2
100
AcDbRadialDimension
 15
339.2866067832333
 25
229.0691692460711
 35
0.0
 40
0.0
1001
ACAD
1000
DSTYLE
1002
{
1070
   288
1070
     1
1002
}
  0
DIMENSION
  5
1AC9
330
18
100
AcDbEntity
  8
寸法線
100
AcDbDimension
  2
*D5
 10
325.8661177524691
 20
226.6000063804895
 30
0.0
 11
323.9911177524691
 21
228.6000063804895
 31
0.0
 70
    32
 71
     5
 42
4.0
  3
STYLE2
100
AcDbAlignedDimension
 13
335.6859250405534
 23
230.6000063804895
 33
0.0
 14
328.5267998295851
 24
226.6000063804895
 34
0.0
 50
90.0
100
AcDbRotatedDimension
  0
DIMENSION
  5
1AD6
330
18
100
AcDbEntity
  8
寸法線
100
AcDbDimension
  2
*D6
 10
355.6859250405533
 20
213.5084409784076
 30
0.0
 11
335.6859250405534
 21
215.3834409784076
 31
0.0
 70
    32
 71
     5
 42
40.0
  3
STYLE2
100
AcDbAlignedDimension
 13
315.6859250405533
 23
226.6000063804895
 33
0.0
 14
355.6859250405533
 24
226.6000063804895
 34
0.0
100
AcDbRotatedDimension
  0
TEXT
  5
1BF2
330
18
100
AcDbEntity
  8
文字
100
AcDbText
 10
341.1050157052034
 20
285.1639028238427
 30
0.0
 40
1.0
  1
0.001mm
  7
STYLE3
100
AcDbText
  0
ARC
  5
1BF3
330
18
100
AcDbEntity
  8
外形線
100
AcDbCircle
 10
332.4859250405532
 20
275.5260349689754
 30
0.0
 40
4.75
100
AcDbArc
 50
0.0
 51
180.0
  0
CIRCLE
  5
1BF4
330
18
100
AcDbEntity
  8
針
 62
     4
100
AcDbCircle
 10
332.4859250405532
 20
275.5260349689755
 30
0.0
 40
0.4
  0
CIRCLE
  5
1BF5
330
18
100
AcDbEntity
  8
針
100
AcDbCircle
 10
332.4859250405532
 20
275.5260349689755
 30
0.0
 40
0.75
  0
CIRCLE
  5
1BF6
330
18
100
AcDbEntity
  8
針
100
AcDbCircle
 10
332.4859250405532
 20
275.5260349689755
 30
0.0
 40
1.1
  0
HATCH
  5
1BF7
330
18
100
AcDbEntity
  8
針
100
AcDbHatch
 10
0.0
 20
0.0
 30
0.0
210
0.0
220
0.0
230
1.0
  2
SOLID
 70
     1
 71
     0
 91
        4
 92
        7
 72
     1
 73
     1
 93
        4
 10
332.6485153927958
 20
276.6139524186737
 42
0.0
 10
332.5967820989005
 20
276.267796866497
 42
-0.4142135623730951
 10
333.2276869380746
 20
275.4151779106284
 42
0.0
 10
333.5738424902513
 20
275.363444616733
 42
0.4142135623730996
 97
        0
 92
        7
 72
     1
 73
     1
 93
        5
 10
332.5967820989005
 20
276.267796866497
 42
0.0
 10
332.6485153927958
 20
276.6139524186737
 42
0.3173569687788799
 10
331.5153252373282
 20
276.0436603373451
 42
0.0
 10
331.7147869610489
 20
275.6412823271359
 42
0.0
 10
331.7441631430317
 20
275.6368920273228
 42
-0.4142135623730839
 97
        0
 92
        7
 72
     1
 73
     1
 93
        4
 10
333.5738424902513
 20
275.363444616733
 42
0.0
 10
333.2276869380746
 20
275.4151779106284
 42
-0.4142135623730951
 10
332.3750679822059
 20
274.784273071454
 42
0.0
 10
332.3233346883106
 20
274.4381175192774
 42
0.4142135623730996
 97
        0
 92
        7
 72
     1
 73
     1
 93
        4
 10
332.3750679822059
 20
274.784273071454
 42
-0.1036385141593389
 10
332.0866256572537
 20
274.8911649015628
 42
0.0
 10
332.3101904689719
 20
274.4401632636847
 42
0.003023315109616
 10
332.3233346883106
 20
274.4381175192774
 42
0.0
 97
        0
 75
     0
 76
     1
 47
0.0223982890607777
 98
        4
 10
333.3376802286218
 20
276.0300904699745
 10
332.2080410275188
 20
276.3574454572371
 10
333.3571286994285
 20
275.0986551197834
 10
332.3022142527153
 20
274.712783663054
450
        0
451
        0
460
0.0
461
0.0
452
        0
462
0.0
453
        0
470

  0
HATCH
  5
1BF8
330
18
100
AcDbEntity
  8
針
100
AcDbHatch
 10
0.0
 20
0.0
 30
0.0
210
0.0
220
0.0
230
1.0
  2
SOLID
 70
     1
 71
     0
 91
        2
 92
        7
 72
     1
 73
     1
 93
        5
 10
331.4439937350325
 20
275.1733606793313
 42
0.31735696877887
 10
332.4691997207521
 20
274.4261621291991
 42
0.0
 10
332.7359077708442
 20
274.7874928064819
 42
0.0
 10
332.7263847834924
 20
274.815627260666
 42
-0.4142135623731173
 10
331.7755173322436
 20
275.2855752260363
 42
0.0
 97
        0
 92
        7
 72
     1
 73
     1
 93
        4
 10
331.4439937350325
 20
275.1733606793313
 42
0.0
 10
331.7755173322436
 20
275.2855752260363
 42
-0.4142135623730728
 10
332.2454652976139
 20
276.236442677285
 42
0.0
 10
332.1332507509089
 20
276.5679662744961
 42
0.4142135623730844
 97
        0
 75
     0
 76
     1
 47
0.0161501285364394
 98
        2
 10
331.7895952381495
 20
274.8644879571494
 10
331.5768856961989
 20
275.5432830280666
450
        0
451
        0
460
0.0
461
0.0
452
        0
462
0.0
453
        0
470

  0
TEXT
  5
1BF9
330
18
100
AcDbEntity
  8
文字
100
AcDbText
 10
328.3441347801907
 20
275.0698093171805
 30
0.0
 40
1.0
  1
0
  7
STYLE3
100
AcDbText
  0
LINE
  5
1BFA
330
18
100
AcDbEntity
  8
外形線
100
AcDbLine
 10
328.2359250405532
 20
275.5260349689754
 30
0.0
 11
327.7359250405532
 21
275.5260349689754
 31
0.0
  0
LINE
  5
1BFB
330
18
100
AcDbEntity
  8
外形線
100
AcDbLine
 10
328.4439348462988
 20
276.8393571950689
 30
0.0
 11
327.9684065881512
 21
276.9938656922564
 31
0.0
  0
LINE
  5
1BFC
330
18
100
AcDbEntity
  8
文字
100
AcDbLine
 10
337.1859250405532
 20
275.4260349689755
 30
0.0
 11
337.1859250405532
 21
275.6260349689755
 31
0.0
  0
ARC
  5
1BFD
330
18
100
AcDbEntity
  8
針
100
AcDbCircle
 10
333.9502184016313
 20
276.1708953823211
 30
0.0
 40
0.5
100
AcDbArc
 50
203.7682212975196
 51
269.2065408792653
  0
ARC
  5
1BFE
330
18
100
AcDbEntity
  8
針
100
AcDbCircle
 10
333.9502184016312
 20
274.88117455563
 30
0.0
 40
0.5
100
AcDbArc
 50
90.79345912073469
 51
156.2317787024804
  0
LINE
  5
1BFF
330
18
100
AcDbEntity
  8
針
100
AcDbLine
 10
333.9432943858828
 20
275.6709433266138
 30
0.0
 11
337.1859250405532
 21
275.6260349689755
 31
0.0
  0
LINE
  5
1C00
330
18
100
AcDbEntity
  8
針
100
AcDbLine
 10
333.9432943858828
 20
275.3811266113371
 30
0.0
 11
337.1859250405532
 21
275.4260349689755
 31
0.0
  0
HATCH
  5
1C01
330
18
100
AcDbEntity
  8
針
100
AcDbHatch
 10
0.0
 20
0.0
 30
0.0
210
0.0
220
0.0
230
1.0
  2
SOLID
 70
     1
 71
     0
 91
        1
 92
        7
 72
     1
 73
     1
 93
        7
 10
337.1859250405533
 20
275.4260349689754
 42
0.0
 10
337.1859250405532
 20
275.5260349689755
 42
0.0
 10
337.1859250405532
 20
275.6260349689755
 42
0.0
 10
333.9432943858828
 20
275.6709433266138
 42
-0.2935495917910092
 10
333.4926267262946
 20
275.9693765031506
 42
-0.2104432563350663
 10
333.4926270255914
 20
275.0826941144176
 42
-0.2935491884945053
 10
333.9432943858827
 20
275.3811266113371
 42
0.0
 97
        0
 75
     0
 76
     1
 47
0.0140573597042523
 98
        1
 10
335.3804850858534
 20
275.4674332530781
450
        0
451
        0
460
0.0
461
0.0
452
        0
462
0.0
453
        0
470

  0
TEXT
  5
1C02
330
18
100
AcDbEntity
  8
文字
100
AcDbText
 10
334.4520457135138
 20
274.9601302214911
 30
0.0
 40
1.0
  1
10
  7
STYLE3
100
AcDbText
  0
LINE
  5
1C03
330
18
100
AcDbEntity
  8
外形線
100
AcDbLine
 10
336.5279152348076
 20
276.8393571950689
 30
0.0
 11
337.0034434929552
 21
276.9938656922564
 31
0.0
  0
LINE
  5
1C04
330
18
100
AcDbEntity
  8
外形線
100
AcDbLine
 10
336.7359250405532
 20
275.5260349689754
 30
0.0
 11
337.2359250405532
 21
275.5260349689754
 31
0.0
  0
TEXT
  5
1C05
330
18
100
AcDbEntity
  8
文字
100
AcDbText
 10
336.5131202359738
 20
289.0411731809185
 30
0.0
 40
1.0
  1
R
 50
335.9656296592675
  7
STYLE3
100
AcDbText
  0
TEXT
  5
1C06
330
18
100
AcDbEntity
  8
文字
100
AcDbText
 10
329.2671925221912
 20
277.1726658881872
 30
0.0
 40
1.0
  1
2
  7
STYLE3
100
AcDbText
  0
TEXT
  5
1C07
330
18
100
AcDbEntity
  8
文字
100
AcDbText
 10
330.8622039522791
 20
278.3390047419108
 30
0.0
 40
1.0
  1
4
  7
STYLE3
100
AcDbText
  0
LINE
  5
1C08
330
18
100
AcDbEntity
  8
外形線
100
AcDbLine
 10
329.0476028144596
 20
278.0241222912184
 30
0.0
 11
328.6430943172722
 21
278.3180149173647
 31
0.0
  0
LINE
  5
1C09
330
18
100
AcDbEntity
  8
外形線
100
AcDbLine
 10
329.9878377183102
 20
278.9643571950689
 30
0.0
 11
329.693945092164
 21
279.3688656922564
 31
0.0
  0
LINE
  5
1C0A
330
18
100
AcDbEntity
  8
外形線
100
AcDbLine
 10
331.1726028144597
 20
279.5680251632298
 30
0.0
 11
331.0180943172722
 21
280.0435534213774
 31
0.0
  0
POINT
  5
1C0B
330
18
100
AcDbEntity
  8
DEFPOINTS
  6
ByBlock
 62
     0
100
AcDbPoint
 10
331.0180943172722
 20
280.0435534213774
 30
0.0
  0
TEXT
  5
1C0C
330
18
100
AcDbEntity
  8
文字
100
AcDbText
 10
333.1019937969876
 20
278.3430190790647
 30
0.0
 40
1.0
  1
6
  7
STYLE3
100
AcDbText
  0
TEXT
  5
1C0D
330
18
100
AcDbEntity
  8
文字
100
AcDbText
 10
334.7942322530145
 20
277.133967130713
 30
0.0
 40
1.0
  1
8
  7
STYLE3
100
AcDbText
  0
POINT
  5
1C0E
330
18
100
AcDbEntity
  8
DEFPOINTS
  6
ByBlock
 62
     0
100
AcDbPoint
 10
333.9537557638341
 20
280.0435534213774
 30
0.0
  0
LINE
  5
1C0F
330
18
100
AcDbEntity
  8
外形線
100
AcDbLine
 10
333.7992472666467
 20
279.5680251632298
 30
0.0
 11
333.9537557638342
 21
280.0435534213774
 31
0.0
  0
LINE
  5
1C10
330
18
100
AcDbEntity
  8
外形線
100
AcDbLine
 10
334.9840123627962
 20
278.9643571950689
 30
0.0
 11
335.2779049889424
 21
279.3688656922564
 31
0.0
  0
LINE
  5
1C11
330
18
100
AcDbEntity
  8
外形線
100
AcDbLine
 10
335.9242472666467
 20
278.0241222912184
 30
0.0
 11
336.3287557638342
 21
278.3180149173647
 31
0.0
  0
LINE
  5
1C12
330
18
100
AcDbEntity
  8
外形線
100
AcDbLine
 10
332.4859250405532
 20
279.7760349689754
 30
0.0
 11
332.4859250405532
 21
280.2760349689754
 31
0.0
  0
TEXT
  5
1C13
330
18
100
AcDbEntity
  8
文字
100
AcDbText
 10
332.6126140889633
 20
287.409048900098
 30
0.0
 40
1.0
  1
H
 50
45.28757819441226
  7
STYLE3
100
AcDbText
  0
TEXT
  5
1C14
330
18
100
AcDbEntity
  8
文字
100
AcDbText
 10
332.2675400100219
 20
286.6048923395348
 30
0.0
 40
1.0
  1
S
 50
61.68736420587234
  7
STYLE3
100
AcDbText
  0
TEXT
  5
1C15
330
18
100
AcDbEntity
  8
文字
100
AcDbText
 10
334.6046503770935
 20
288.9748606596047
 30
0.0
 40
1.0
  1
K
 50
4.611142636424903
  7
STYLE3
100
AcDbText
  0
TEXT
  5
1C16
330
18
100
AcDbEntity
  8
文字
100
AcDbText
 10
335.8620026656061
 20
289.1014292929478
 30
0.0
 40
1.0
  1
P
 50
352.289332036856
  7
STYLE3
100
AcDbText
  0
TEXT
  5
1C17
330
18
100
AcDbEntity
  8
文字
100
AcDbText
 10
333.0263999603473
 20
288.1958926914394
 30
0.0
 40
1.0
  1
O
 50
20.18707259137368
  7
STYLE3
100
AcDbText
  0
TEXT
  5
1C18
330
18
100
AcDbEntity
  8
文字
100
AcDbText
 10
333.9211003477453
 20
288.6594280464473
 30
0.0
 40
1.0
  1
C
 50
20.42377675680139
  7
STYLE3
100
AcDbText
  0
POINT
  5
1C1B
330
18
100
AcDbEntity
  8
DEFPOINTS
  6
ByBlock
 62
     0
100
AcDbPoint
 10
335.6859250405532
 20
285.6000063804893
 30
0.0
  0
POINT
  5
1C1C
330
18
100
AcDbEntity
  8
DEFPOINTS
  6
ByBlock
 62
     0
100
AcDbPoint
 10
335.6859250405532
 20
285.6000063804893
 30
0.0
  0
TEXT
  5
1C1D
330
18
100
AcDbEntity
  8
文字
100
AcDbText
 10
338.5902446508771
 20
287.5271809643442
 30
0.0
 40
1.0
  1
F
 50
302.7227510677594
  7
STYLE3
100
AcDbText
  0
TEXT
  5
1C1E
330
18
100
AcDbEntity
  8
文字
100
AcDbText
 10
337.2431751092857
 20
288.7238361010498
 30
0.0
 40
1.0
  1
O
 50
328.7140786003149
  7
STYLE3
100
AcDbText
  0
TEXT
  5
1C1F
330
18
100
AcDbEntity
  8
文字
100
AcDbText
 10
339.4243062536828
 20
288.2984532529884
 30
0.0
 40
1.0
  1
O
 50
141.1585456884514
  7
STYLE3
100
AcDbText
  0
LINE
  5
1C24
330
18
100
AcDbEntity
  8
中心線
 48
0.2
100
AcDbLine
 10
332.4859250405532
 20
281.8865930110091
 30
0.0
 11
332.4859250405532
 21
273.1465409417455
 31
0.0
  0
TEXT
  5
1C6C
330
18
100
AcDbEntity
  8
文字
100
AcDbText
 10
322.3577304173018
 20
358.2875265595112
 30
0.0
 40
4.0
  1
Model No.T-4 Dial Depth Gauge
  7
STYLE3
100
AcDbText
  0
LINE
  5
1C6D
330
18
100
AcDbEntity
  8
外形線
100
AcDbLine
 10
321.7391314173018
 20
356.3926115595111
 30
0.0
 11
416.7391314173018
 21
356.3926115595111
 31
0.0
  0
LINE
  5
1C6E
330
18
100
AcDbEntity
  8
外形線
100
AcDbLine
 10
321.7391314173018
 20
355.3926115595111
 30
0.0
 11
416.7391314173018
 21
355.3926115595111
 31
0.0
  0
LINE
  5
1C6F
330
18
100
AcDbEntity
  8
外形線
100
AcDbLine
 10
350.3923320047527
 20
172.4611378785681
 30
0.0
 11
350.3923320047527
 21
192.8561218785681
 31
0.0
  0
TEXT
  5
1C70
330
18
100
AcDbEntity
  8
0
  6
Continuous
100
AcDbText
 10
351.8497990047527
 20
183.9739058785681
 30
0.0
 40
2.1
  1
Design and specifications are subject to change without notice for future improvement.
  7
STYLE3
100
AcDbText
  0
TEXT
  5
1C71
330
18
100
AcDbEntity
  8
0
  6
Continuous
100
AcDbText
 10
395.1625760047527
 20
175.9574218785681
 30
0.0
 40
2.399999999999999
  1
mm
  7
STYLE3
100
AcDbText
  0
LINE
  5
1C72
330
18
100
AcDbEntity
  8
外形線
100
AcDbLine
 10
350.3923320047527
 20
182.0759158785681
 30
0.0
 11
491.1837490047528
 21
182.0759158785681
 31
0.0
  0
TEXT
  5
1C73
330
18
100
AcDbEntity
  8
0
  6
Continuous
100
AcDbText
 10
354.1817500047528
 20
177.7055618785682
 30
0.0
 40
3.0
  1
三　　角　　法
  7
STYLE3
100
AcDbText
  0
TEXT
  5
1C74
330
18
100
AcDbEntity
  8
0
  6
Continuous
100
AcDbText
 10
351.5583080047528
 20
174.2092788785681
 30
0.0
 40
2.1
  1
3RD Angle Projection
  7
STYLE3
100
AcDbText
  0
TEXT
  5
1C75
330
18
100
AcDbEntity
  8
0
  6
Continuous
100
AcDbText
 10
387.2922500047528
 20
174.2092798785682
 30
0.0
 40
2.1
  1
Unit
  7
STYLE3
100
AcDbText
  0
TEXT
  5
1C76
330
18
100
AcDbEntity
  8
0
  6
Continuous
100
AcDbText
 10
387.1205290047527
 20
177.7115158785681
 30
0.0
 40
3.0
  1
単位
  7
STYLE3
100
AcDbText
  0
LINE
  5
1C77
330
18
100
AcDbEntity
  8
外形線
100
AcDbLine
 10
385.6630590047527
 20
182.0759158785681
 30
0.0
 11
385.6630590047527
 21
172.4611378785681
 31
0.0
  0
TEXT
  5
1C78
330
18
100
AcDbEntity
  8
0
  6
Continuous
100
AcDbText
 10
453.7640620047527
 20
177.9969188785682
 30
0.0
 40
3.0
  1
株式会社　尾崎製作所
  7
STYLE3
100
AcDbText
  0
TEXT
  5
1C79
330
18
100
AcDbEntity
  8
0
  6
Continuous
100
AcDbText
 10
454.6385410047527
 20
174.2092788785681
 30
0.0
 40
2.1
  1
OZAKI MFG. CO., LTD.
  7
STYLE3
100
AcDbText
  0
TEXT
  5
1C7A
330
18
100
AcDbEntity
  8
0
  6
Continuous
100
AcDbText
 10
433.3595070047527
 20
175.9574208785682
 30
0.0
 40
2.1
  1
2010.06.22
  7
STYLE3
100
AcDbText
  0
TEXT
  5
1C7B
330
18
100
AcDbEntity
  8
0
  6
Continuous
100
AcDbText
 10
414.5209280047526
 20
176.2487788785682
 30
0.0
 40
2.399999999999999
  1
1/1
  7
STYLE3
100
AcDbText
  0
TEXT
  5
1C7C
330
18
100
AcDbEntity
  8
0
  6
Continuous
100
AcDbText
 10
404.9016400047527
 20
174.5006368785682
 30
0.0
 40
2.1
  1
Scale
  7
STYLE3
100
AcDbText
  0
TEXT
  5
1C7D
330
18
100
AcDbEntity
  8
0
  6
Continuous
100
AcDbText
 10
404.4384240047527
 20
177.4201588785681
 30
0.0
 40
3.0
  1
尺 度
  7
STYLE3
100
AcDbText
  0
LINE
  5
1C7E
330
18
100
AcDbEntity
  8
外形線
100
AcDbLine
 10
403.1526770047527
 20
182.0759158785681
 30
0.0
 11
403.1526770047527
 21
172.4611378785681
 31
0.0
  0
TEXT
  5
1C7F
330
18
100
AcDbEntity
  8
0
  6
Continuous
100
AcDbText
 10
424.6147000047526
 20
174.2092808785681
 30
0.0
 40
2.1
  1
Date
  7
STYLE3
100
AcDbText
  0
TEXT
  5
1C80
330
18
100
AcDbEntity
  8
0
  6
Continuous
100
AcDbText
 10
424.2313390047526
 20
177.5423638785681
 30
0.0
 40
3.0
  1
日 付
  7
STYLE3
100
AcDbText
  0
LINE
  5
1C81
330
18
100
AcDbEntity
  8
外形線
100
AcDbLine
 10
422.6827490047527
 20
182.0759158785681
 30
0.0
 11
422.6827490047527
 21
172.4611378785681
 31
0.0
  0
LINE
  5
1C82
330
18
100
AcDbEntity
  8
外形線
100
AcDbLine
 10
452.4150980047527
 20
182.0759158785681
 30
0.0
 11
452.4150980047527
 21
172.4611378785681
 31
0.0
  0
TEXT
  5
1C83
330
18
100
AcDbEntity
  8
0
  6
Continuous
100
AcDbText
 10
352.1412930047527
 20
187.9030538785682
 30
0.0
 40
3.5
  1
仕様及び外観は予告なく変更される場合がございますのでご了承下さい。
  7
STYLE3
100
AcDbText
  0
LINE
  5
1C84
330
18
100
AcDbEntity
  8
外形線
100
AcDbLine
 10
350.3923320047527
 20
192.8561218785681
 30
0.0
 11
491.1837490047528
 21
192.8561218785681
 31
0.0
  0
ENDSEC
  0
SECTION
  2
OBJECTS
  0
DICTIONARY
  5
C
330
0
100
AcDbDictionary
281
     1
  3
ACAD_COLOR
350
1C31
  3
ACAD_GROUP
350
D
  3
ACAD_IMAGE_DICT
350
E58
  3
ACAD_LAYOUT
350
1C34
  3
ACAD_MATERIAL
350
1C30
  3
ACAD_MLINESTYLE
350
1B
  3
ACAD_PLOTSETTINGS
350
1C35
  3
ACAD_PLOTSTYLENAME
350
1C2E
  3
ACAD_TABLESTYLE
350
1C32
  3
ACDBVARIABLEDICTIONARY
350
1025
  0
DICTIONARY
  5
1C31
102
{ACAD_REACTORS
330
C
102
}
330
C
100
AcDbDictionary
281
     1
  0
DICTIONARY
  5
D
102
{ACAD_REACTORS
330
C
102
}
330
C
100
AcDbDictionary
281
     1
  0
DICTIONARY
  5
E58
102
{ACAD_REACTORS
330
C
102
}
330
C
100
AcDbDictionary
281
     1
  3
ROGO01
350
E59
  0
DICTIONARY
  5
1C34
102
{ACAD_REACTORS
330
C
102
}
330
C
100
AcDbDictionary
281
     1
  3
Model
350
1C36
  3
レイアウト1
350
1C37
  0
DICTIONARY
  5
1C30
102
{ACAD_REACTORS
330
C
102
}
330
C
100
AcDbDictionary
281
     1
  0
DICTIONARY
  5
1B
102
{ACAD_REACTORS
330
C
102
}
330
C
100
AcDbDictionary
281
     1
  3
STANDARD
350
1C
  0
DICTIONARY
  5
1C35
102
{ACAD_REACTORS
330
C
102
}
330
C
100
AcDbDictionary
281
     1
  0
ACDBDICTIONARYWDFLT
  5
1C2E
102
{ACAD_REACTORS
330
C
102
}
330
C
100
AcDbDictionary
281
     1
  3
Normal
350
1C2F
100
AcDbDictionaryWithDefault
340
1C2F
  0
DICTIONARY
  5
1C32
102
{ACAD_REACTORS
330
C
102
}
330
C
100
AcDbDictionary
281
     1
  3
Standard
350
1C33
  0
DICTIONARY
  5
1025
102
{ACAD_REACTORS
330
C
102
}
330
C
100
AcDbDictionary
281
     1
  3
CTABLESTYLE
350
1C3D
  3
SORTENTS
350
1026
  0
IMAGEDEF
  5
E59
102
{ACAD_REACTORS
330
E58
102
}
330
E58
100
AcDbRasterImageDef
 90
        0
  1
D:\ﾃｽﾄ\rogo01.TIF
 10
3388.0
 20
4668.0
 11
0.0635
 21
0.0635
280
     1
281
     5
  0
LAYOUT
  5
1C36
102
{ACAD_REACTORS
330
1C34
102
}
330
1C34
100
AcDbPlotSettings
  1

  2
A4 EPSON LP-6100.pc3
  4
A4
  6

 40
5.873749732971191
 41
5.873747825622558
 42
5.873748779296875
 43
5.873748779296875
 44
209.9733276367187
 45
297.0106506347656
 46
1.5
 47
25.0
 48
0.0
 49
0.0
140
0.0
141
0.0
142
1.0
143
1.0
 70
 28336
 72
     1
 73
     1
 74
     1
  7
AutoCAD LT 98.ctb
 75
    16
147
1.0
 76
     1
 77
     2
 78
   300
148
-236.4583280389727
149
-171.6287529652594
100
AcDbLayout
  1
Model
 70
     1
 71
     0
 10
0.0
 20
0.0
 11
12.0
 21
9.0
 12
0.0
 22
0.0
 32
0.0
 14
0.0
 24
0.0
 34
0.0
 15
0.0
 25
0.0
 35
0.0
146
0.0
 13
0.0
 23
0.0
 33
0.0
 16
1.0
 26
0.0
 36
0.0
 17
0.0
 27
1.0
 37
0.0
 76
     0
330
18
1001
ACAD_PSEXT
1000
A4 EPSON LP-6100.pc3
1000
EPSON LP-6100
1000
USB002
1000

1070
     0
  0
LAYOUT
  5
1C37
102
{ACAD_REACTORS
330
1C34
102
}
330
1C34
100
AcDbPlotSettings
  1

  2
C:\Documents and Settings\佐藤\Application Data\Autodesk\AutoCAD LT 2005\R10\jpn\plotters\PEACOCK EPSON LP-6100.pc3
  4

  6

 40
0.0
 41
0.0
 42
0.0
 43
0.0
 44
0.0
 45
0.0
 46
0.0
 47
0.0
 48
0.0
 49
0.0
140
0.0
141
0.0
142
1.0
143
1.0
 70
   688
 72
     0
 73
     0
 74
     5
  7
AutoCAD LT 98.ctb
 75
    16
147
1.0
 76
     0
 77
     2
 78
   300
148
0.0
149
0.0
100
AcDbLayout
  1
レイアウト1
 70
     1
 71
     1
 10
0.0
 20
0.0
 11
420.0
 21
297.0
 12
0.0
 22
0.0
 32
0.0
 14
1.000000000000000E+20
 24
1.000000000000000E+20
 34
1.000000000000000E+20
 15
-1.000000000000000E+20
 25
-1.000000000000000E+20
 35
-1.000000000000000E+20
146
0.0
 13
0.0
 23
0.0
 33
0.0
 16
1.0
 26
0.0
 36
0.0
 17
0.0
 27
1.0
 37
0.0
 76
     0
330
15
  0
MLINESTYLE
  5
1C
102
{ACAD_REACTORS
330
1B
102
}
330
1B
100
AcDbMlineStyle
  2
STANDARD
 70
     0
  3

 62
   256
 51
90.0
 52
90.0
 71
     2
 49
0.5
 62
   256
  6
BYLAYER
 49
-0.5
 62
   256
  6
BYLAYER
  0
ACDBPLACEHOLDER
  5
1C2F
102
{ACAD_REACTORS
330
1C2E
102
}
330
1C2E
  0
ACAD_PROXY_OBJECT
  5
1C33
102
{ACAD_REACTORS
330
1C32
102
}
330
1C32
100
AcDbProxyObject
 90
      499
 91
      505
 95
  2555929
 70
     0
 93
     1849
310
4214DD185B99185C992420000000000000F83F0000000000003E0FC00000000000004901028000000C1008070000C3001FDFF8000000C1003FBFF000000182007F7FE00000030400FEFFC00000060801FDFF8000000C1003FBFF000000182000000000000000C2020B0000001820100E000186003FBFF000000182007F7FE0
310
0000030400FEFFC00000060801FDFF8000000C1003FBFF000000182007F7FE0000003040000000000000012404160000003040201C00030C007F7FE00000030400FEFFC00000060801FDFF8000000C1003FBFF000000182007F7FE00000030400FEFFC000000608000
340
F
340
F
340
F
 94
        0
  0
DICTIONARYVAR
  5
1C3D
102
{ACAD_REACTORS
330
1025
102
}
330
1025
100
DictionaryVariables
280
     0
  1
STANDARD
  0
DICTIONARYVAR
  5
1026
102
{ACAD_REACTORS
330
1025
102
}
330
1025
100
DictionaryVariables
280
     0
  1
96
  0
ENDSEC
  0
EOF
