  0
SECTION
  2
HEADER
  9
$ACADVER
  1
AC1018
  9
$ACADMAINTVER
 70
     0
  9
$DWGCODEPAGE
  3
ANSI_932
  9
$INSBASE
 10
0.0
 20
0.0
 30
0.0
  9
$EXTMIN
 10
236.4547188150987
 20
171.62613327917
 30
-0.0000000000000128
  9
$EXTMAX
 10
491.9140813472958
 20
367.0669803848941
 30
0.0000000000000025
  9
$LIMMIN
 10
0.0
 20
0.0
  9
$LIMMAX
 10
420.0
 20
297.0
  9
$ORTHOMODE
 70
     0
  9
$REGENMODE
 70
     1
  9
$FILLMODE
 70
     1
  9
$QTEXTMODE
 70
     0
  9
$MIRRTEXT
 70
     1
  9
$LTSCALE
 40
1.0
  9
$ATTMODE
 70
     1
  9
$TEXTSIZE
 40
2.5
  9
$TRACEWID
 40
1.0
  9
$TEXTSTYLE
  7
STYLE3
  9
$CLAYER
  8
外形線
  9
$CELTYPE
  6
BYLAYER
  9
$CECOLOR
 62
   256
  9
$CELTSCALE
 40
1.0
  9
$DISPSILH
 70
     0
  9
$DIMSCALE
 40
1.0
  9
$DIMASZ
 40
2.5
  9
$DIMEXO
 40
0.0
  9
$DIMDLI
 40
3.75
  9
$DIMRND
 40
0.0
  9
$DIMDLE
 40
0.0
  9
$DIMEXE
 40
1.25
  9
$DIMTP
 40
0.0
  9
$DIMTM
 40
0.0
  9
$DIMTXT
 40
2.5
  9
$DIMCEN
 40
2.5
  9
$DIMTSZ
 40
0.0
  9
$DIMTOL
 70
     0
  9
$DIMLIM
 70
     0
  9
$DIMTIH
 70
     0
  9
$DIMTOH
 70
     0
  9
$DIMSE1
 70
     0
  9
$DIMSE2
 70
     0
  9
$DIMTAD
 70
     1
  9
$DIMZIN
 70
     8
  9
$DIMBLK
  1

  9
$DIMASO
 70
     1
  9
$DIMSHO
 70
     1
  9
$DIMPOST
  1

  9
$DIMAPOST
  1

  9
$DIMALT
 70
     0
  9
$DIMALTD
 70
     4
  9
$DIMALTF
 40
0.0394
  9
$DIMLFAC
 40
1.0
  9
$DIMTOFL
 70
     1
  9
$DIMTVP
 40
0.0
  9
$DIMTIX
 70
     0
  9
$DIMSOXD
 70
     0
  9
$DIMSAH
 70
     1
  9
$DIMBLK1
  1
OPEN
  9
$DIMBLK2
  1
OPEN
  9
$DIMSTYLE
  2
STYLE3
  9
$DIMCLRD
 70
     2
  9
$DIMCLRE
 70
     2
  9
$DIMCLRT
 70
     6
  9
$DIMTFAC
 40
1.0
  9
$DIMGAP
 40
0.625
  9
$DIMJUST
 70
     0
  9
$DIMSD1
 70
     0
  9
$DIMSD2
 70
     0
  9
$DIMTOLJ
 70
     1
  9
$DIMTZIN
 70
     0
  9
$DIMALTZ
 70
     0
  9
$DIMALTTZ
 70
     0
  9
$DIMUPT
 70
     0
  9
$DIMDEC
 70
     2
  9
$DIMTDEC
 70
     4
  9
$DIMALTU
 70
     8
  9
$DIMALTTD
 70
     4
  9
$DIMTXSTY
  7
STYLE3
  9
$DIMAUNIT
 70
     0
  9
$DIMADEC
 70
     0
  9
$DIMALTRND
 40
0.0
  9
$DIMAZIN
 70
     0
  9
$DIMDSEP
 70
    46
  9
$DIMATFIT
 70
     3
  9
$DIMFRAC
 70
     0
  9
$DIMLDRBLK
  1

  9
$DIMLUNIT
 70
     2
  9
$DIMLWD
 70
    -2
  9
$DIMLWE
 70
    -2
  9
$DIMTMOVE
 70
     0
  9
$LUNITS
 70
     2
  9
$LUPREC
 70
     4
  9
$SKETCHINC
 40
1.0
  9
$FILLETRAD
 40
0.0
  9
$AUNITS
 70
     0
  9
$AUPREC
 70
     0
  9
$MENU
  1
.
  9
$ELEVATION
 40
0.0
  9
$PELEVATION
 40
0.0
  9
$THICKNESS
 40
0.0
  9
$LIMCHECK
 70
     0
  9
$CHAMFERA
 40
0.4
  9
$CHAMFERB
 40
0.4
  9
$CHAMFERC
 40
20.0
  9
$CHAMFERD
 40
0.0
  9
$SKPOLY
 70
     0
  9
$TDCREATE
 40
2450920.409121760
  9
$TDUCREATE
 40
2450920.034121759
  9
$TDUPDATE
 40
2455379.577853727
  9
$TDUUPDATE
 40
2455379.202853727
  9
$TDINDWG
 40
1.4709304977
  9
$TDUSRTIMER
 40
1.4709304977
  9
$USRTIMER
 70
     1
  9
$ANGBASE
 50
0.0
  9
$ANGDIR
 70
     0
  9
$PDMODE
 70
     0
  9
$PDSIZE
 40
0.0
  9
$PLINEWID
 40
0.0
  9
$SPLFRAME
 70
     0
  9
$SPLINETYPE
 70
     6
  9
$SPLINESEGS
 70
     8
  9
$HANDSEED
  5
1153
  9
$SURFTAB1
 70
     6
  9
$SURFTAB2
 70
     6
  9
$SURFTYPE
 70
     6
  9
$SURFU
 70
     6
  9
$SURFV
 70
     6
  9
$UCSBASE
  2

  9
$UCSNAME
  2

  9
$UCSORG
 10
0.0
 20
0.0
 30
0.0
  9
$UCSXDIR
 10
1.0
 20
0.0
 30
0.0
  9
$UCSYDIR
 10
0.0
 20
1.0
 30
0.0
  9
$UCSORTHOREF
  2

  9
$UCSORTHOVIEW
 70
     0
  9
$UCSORGTOP
 10
0.0
 20
0.0
 30
0.0
  9
$UCSORGBOTTOM
 10
0.0
 20
0.0
 30
0.0
  9
$UCSORGLEFT
 10
0.0
 20
0.0
 30
0.0
  9
$UCSORGRIGHT
 10
0.0
 20
0.0
 30
0.0
  9
$UCSORGFRONT
 10
0.0
 20
0.0
 30
0.0
  9
$UCSORGBACK
 10
0.0
 20
0.0
 30
0.0
  9
$PUCSBASE
  2

  9
$PUCSNAME
  2

  9
$PUCSORG
 10
0.0
 20
0.0
 30
0.0
  9
$PUCSXDIR
 10
1.0
 20
0.0
 30
0.0
  9
$PUCSYDIR
 10
0.0
 20
1.0
 30
0.0
  9
$PUCSORTHOREF
  2

  9
$PUCSORTHOVIEW
 70
     0
  9
$PUCSORGTOP
 10
0.0
 20
0.0
 30
0.0
  9
$PUCSORGBOTTOM
 10
0.0
 20
0.0
 30
0.0
  9
$PUCSORGLEFT
 10
0.0
 20
0.0
 30
0.0
  9
$PUCSORGRIGHT
 10
0.0
 20
0.0
 30
0.0
  9
$PUCSORGFRONT
 10
0.0
 20
0.0
 30
0.0
  9
$PUCSORGBACK
 10
0.0
 20
0.0
 30
0.0
  9
$USERI1
 70
     0
  9
$USERI2
 70
     0
  9
$USERI3
 70
     0
  9
$USERI4
 70
     0
  9
$USERI5
 70
     0
  9
$USERR1
 40
0.0
  9
$USERR2
 40
0.0
  9
$USERR3
 40
0.0
  9
$USERR4
 40
0.0
  9
$USERR5
 40
0.0
  9
$WORLDVIEW
 70
     1
  9
$SHADEDGE
 70
     3
  9
$SHADEDIF
 70
    70
  9
$TILEMODE
 70
     1
  9
$MAXACTVP
 70
    48
  9
$PINSBASE
 10
0.0
 20
0.0
 30
0.0
  9
$PLIMCHECK
 70
     0
  9
$PEXTMIN
 10
1.000000000000000E+20
 20
1.000000000000000E+20
 30
1.000000000000000E+20
  9
$PEXTMAX
 10
-1.000000000000000E+20
 20
-1.000000000000000E+20
 30
-1.000000000000000E+20
  9
$PLIMMIN
 10
0.0
 20
0.0
  9
$PLIMMAX
 10
420.0
 20
297.0
  9
$UNITMODE
 70
     0
  9
$VISRETAIN
 70
     1
  9
$PLINEGEN
 70
     0
  9
$PSLTSCALE
 70
     1
  9
$TREEDEPTH
 70
  3020
  9
$CMLSTYLE
  2
STANDARD
  9
$CMLJUST
 70
     0
  9
$CMLSCALE
 40
20.0
  9
$PROXYGRAPHICS
 70
     1
  9
$MEASUREMENT
 70
     1
  9
$CELWEIGHT
370
    -1
  9
$ENDCAPS
280
     0
  9
$JOINSTYLE
280
     0
  9
$LWDISPLAY
290
     0
  9
$INSUNITS
 70
     0
  9
$HYPERLINKBASE
  1

  9
$STYLESHEET
  1
AutoCAD LT 98.ctb
  9
$XEDIT
290
     1
  9
$CEPSNTYPE
380
     0
  9
$PSTYLEMODE
290
     1
  9
$FINGERPRINTGUID
  2
{58FE0FF8-6F0F-463B-A942-FCA4A93E620D}
  9
$VERSIONGUID
  2
{EDCD2766-928F-4284-9161-B7DF277A35AC}
  9
$EXTNAMES
290
     1
  9
$PSVPSCALE
 40
0.0
  9
$OLESTARTUP
290
     0
  9
$SORTENTS
280
    96
  9
$INDEXCTL
280
     0
  9
$HIDETEXT
280
     0
  9
$XCLIPFRAME
290
     0
  9
$HALOGAP
280
     0
  9
$OBSCOLOR
 70
   257
  9
$OBSLTYPE
280
     0
  9
$INTERSECTIONDISPLAY
280
     0
  9
$INTERSECTIONCOLOR
 70
   257
  9
$DIMASSOC
280
     1
  9
$PROJECTNAME
  1

  0
ENDSEC
  0
SECTION
  2
CLASSES
  0
CLASS
  1
DICTIONARYVAR
  2
AcDbDictionaryVar
  3
ObjectDBX Classes
 90
        0
 91
        2
280
     0
281
     0
  0
CLASS
  1
HATCH
  2
AcDbHatch
  3
ObjectDBX Classes
 90
        0
 91
       16
280
     0
281
     1
  0
CLASS
  1
LWPOLYLINE
  2
AcDbPolyline
  3
ObjectDBX Classes
 90
        0
 91
        5
280
     0
281
     1
  0
CLASS
  1
ACDBDICTIONARYWDFLT
  2
AcDbDictionaryWithDefault
  3
ObjectDBX Classes
 90
        0
 91
        1
280
     0
281
     0
  0
CLASS
  1
TABLESTYLE
  2
AcDbTableStyle
  3
ObjectDBX Classes
 90
     2047
 91
        1
280
     0
281
     0
  0
CLASS
  1
SORTENTSTABLE
  2
AcDbSortentsTable
  3
ObjectDBX Classes
 90
        0
 91
        1
280
     0
281
     0
  0
ENDSEC
  0
SECTION
  2
TABLES
  0
TABLE
  2
VPORT
  5
8
330
0
100
AcDbSymbolTable
 70
     2
  0
VPORT
  5
1152
330
8
100
AcDbSymbolTableRecord
100
AcDbViewportTableRecord
  2
*Active
 70
     0
 10
0.0
 20
0.0
 11
1.0
 21
1.0
 12
364.1844000811973
 22
269.3465568320321
 13
0.0
 23
0.0
 14
10.0
 24
10.0
 15
10.0
 25
10.0
 16
0.0
 26
0.0
 36
1.0
 17
0.0
 27
0.0
 37
0.0
 40
196.9736195397351
 41
1.530456852791878
 42
50.0
 43
0.0
 44
0.0
 50
0.0
 51
0.0
 71
     0
 72
   100
 73
     1
 74
     1
 75
     0
 76
     0
 77
     0
 78
     0
281
     0
 65
     1
110
0.0
120
0.0
130
0.0
111
1.0
121
0.0
131
0.0
112
0.0
122
1.0
132
0.0
 79
     0
146
0.0
  0
ENDTAB
  0
TABLE
  2
LTYPE
  5
5
330
0
100
AcDbSymbolTable
 70
    12
  0
LTYPE
  5
12
330
5
100
AcDbSymbolTableRecord
100
AcDbLinetypeTableRecord
  2
BYBLOCK
 70
     0
  3

 72
    65
 73
     0
 40
0.0
  0
LTYPE
  5
13
330
5
100
AcDbSymbolTableRecord
100
AcDbLinetypeTableRecord
  2
BYLAYER
 70
     0
  3

 72
    65
 73
     0
 40
0.0
  0
LTYPE
  5
14
330
5
100
AcDbSymbolTableRecord
100
AcDbLinetypeTableRecord
  2
CONTINUOUS
 70
     0
  3
Solid line
 72
    65
 73
     0
 40
0.0
  0
LTYPE
  5
22
330
5
100
AcDbSymbolTableRecord
100
AcDbLinetypeTableRecord
  2
CENTER2
 70
     0
  3
Center (.5x) ___ _ ___ _ ___ _ ___ _ ___ _ ___
 72
    65
 73
     4
 40
28.575
 49
19.05
 74
     0
 49
-3.174999999999999
 74
     0
 49
3.174999999999999
 74
     0
 49
-3.174999999999999
 74
     0
  0
ENDTAB
  0
TABLE
  2
LAYER
  5
2
330
0
100
AcDbSymbolTable
 70
    14
  0
LAYER
  5
E
330
2
100
AcDbSymbolTableRecord
100
AcDbLayerTableRecord
  2
0
 70
     0
 62
     7
  6
CONTINUOUS
370
    -3
390
9F1
  0
LAYER
  5
25
330
2
100
AcDbSymbolTableRecord
100
AcDbLayerTableRecord
  2
外形線
 70
     0
 62
     7
  6
CONTINUOUS
370
    -3
390
9F1
  0
LAYER
  5
26
330
2
100
AcDbSymbolTableRecord
100
AcDbLayerTableRecord
  2
寸法線
 70
     0
 62
     2
  6
CONTINUOUS
370
    -3
390
9F1
  0
LAYER
  5
27
330
2
100
AcDbSymbolTableRecord
100
AcDbLayerTableRecord
  2
中心線
 70
     0
 62
     4
  6
CENTER2
370
    -3
390
9F1
  0
LAYER
  5
2B
330
2
100
AcDbSymbolTableRecord
100
AcDbLayerTableRecord
  2
文字
 70
     0
 62
     6
  6
CONTINUOUS
370
    -3
390
9F1
  0
LAYER
  5
53
330
2
100
AcDbSymbolTableRecord
100
AcDbLayerTableRecord
  2
DEFPOINTS
 70
     0
 62
     7
  6
CONTINUOUS
290
     0
370
    -3
390
9F1
  0
LAYER
  5
A5
330
2
100
AcDbSymbolTableRecord
100
AcDbLayerTableRecord
  2
C
 70
     0
 62
     7
  6
CONTINUOUS
370
    -3
390
9F1
  0
LAYER
  5
576
330
2
100
AcDbSymbolTableRecord
100
AcDbLayerTableRecord
  2
ROGO
 70
     0
 62
     6
  6
CONTINUOUS
370
    -3
390
9F1
  0
ENDTAB
  0
TABLE
  2
STYLE
  5
3
330
0
100
AcDbSymbolTable
 70
     8
  0
STYLE
  5
F
330
3
100
AcDbSymbolTableRecord
100
AcDbTextStyleTableRecord
  2
STANDARD
 70
     0
 40
0.0
 41
1.0
 50
0.0
 71
     0
 42
2.5
  3
txt
  4

  0
STYLE
  5
3F
330
3
100
AcDbSymbolTableRecord
100
AcDbTextStyleTableRecord
  2
STYLE3
 70
     0
 40
0.0
 41
1.0
 50
0.0
 71
     0
 42
2.5
  3
romans.shx
  4
bigfont.shx
  0
STYLE
  5
578
330
3
100
AcDbSymbolTableRecord
100
AcDbTextStyleTableRecord
  2
STYLE4
 70
     0
 40
0.0
 41
1.0
 50
0.0
 71
     0
 42
5.0
  3
romans.shx
  4
bigfont.shx
  0
ENDTAB
  0
TABLE
  2
VIEW
  5
6
330
0
100
AcDbSymbolTable
 70
     0
  0
ENDTAB
  0
TABLE
  2
UCS
  5
7
330
0
100
AcDbSymbolTable
 70
     0
  0
ENDTAB
  0
TABLE
  2
APPID
  5
9
330
0
100
AcDbSymbolTable
 70
     2
  0
APPID
  5
10
330
9
100
AcDbSymbolTableRecord
100
AcDbRegAppTableRecord
  2
ACAD
 70
     0
  0
APPID
  5
ABD
330
9
100
AcDbSymbolTableRecord
100
AcDbRegAppTableRecord
  2
ACAD_PSEXT
 70
     0
  0
ENDTAB
  0
TABLE
  2
DIMSTYLE
  5
A
330
0
100
AcDbSymbolTable
 70
     6
100
AcDbDimStyleTable
 71
     1
340
8F
  0
DIMSTYLE
105
1D
330
A
100
AcDbSymbolTableRecord
100
AcDbDimStyleTableRecord
  2
STANDARD
 70
     0
 41
2.5
 42
0.625
 43
3.75
 44
1.25
 73
     0
 74
     0
 77
     1
 78
     8
140
2.5
141
2.5
143
0.0394
147
0.625
171
     4
172
     1
273
     8
274
     4
277
     6
340
F
  0
DIMSTYLE
105
8F
102
{ACAD_REACTORS
330
3C3
330
3DD
330
7D7
330
7FC
330
808
330
815
330
821
330
8D3
330
904
330
CCD
330
F1B
330
F28
330
F50
330
FCF
102
}
330
A
100
AcDbSymbolTableRecord
100
AcDbDimStyleTableRecord
  2
STYLE3
 70
     0
 41
2.5
 42
0.0
 43
3.75
 44
1.25
 73
     0
 74
     0
 77
     1
 78
     8
140
2.5
141
2.5
143
0.0394
147
0.625
171
     4
172
     1
173
     1
176
     2
177
     2
178
     6
271
     1
273
     8
274
     4
340
3F
341
45
343
45
344
45
  0
ENDTAB
  0
TABLE
  2
BLOCK_RECORD
  5
1
330
0
100
AcDbSymbolTable
 70
    25
  0
BLOCK_RECORD
  5
18
102
{ACAD_XDICTIONARY
360
A04
102
}
330
1
100
AcDbSymbolTableRecord
100
AcDbBlockTableRecord
  2
*MODEL_SPACE
340
9F8
  0
BLOCK_RECORD
  5
15
330
1
100
AcDbSymbolTableRecord
100
AcDbBlockTableRecord
  2
*PAPER_SPACE
340
9F9
  0
BLOCK_RECORD
  5
45
330
1
100
AcDbSymbolTableRecord
100
AcDbBlockTableRecord
  2
_OPEN
340
0
102
{BLKREFS
331
F17
331
F18
331
10C8
331
10C9
331
10D5
331
10D6
331
10E0
331
10E1
331
10E9
331
10EA
331
10F2
331
10F3
331
10FB
331
10FC
331
1103
331
1104
331
110C
331
110D
331
1114
331
1115
331
111D
331
111E
331
1126
331
1127
331
112F
331
1130
331
1138
331
1139
331
1141
331
1142
102
}
  0
BLOCK_RECORD
  5
3B7
330
1
100
AcDbSymbolTableRecord
100
AcDbBlockTableRecord
  2
*D3
340
0
  0
BLOCK_RECORD
  5
3D1
330
1
100
AcDbSymbolTableRecord
100
AcDbBlockTableRecord
  2
*D4
340
0
  0
BLOCK_RECORD
  5
7CB
330
1
100
AcDbSymbolTableRecord
100
AcDbBlockTableRecord
  2
*D9
340
0
  0
BLOCK_RECORD
  5
7F0
330
1
100
AcDbSymbolTableRecord
100
AcDbBlockTableRecord
  2
*D10
340
0
  0
BLOCK_RECORD
  5
7FD
330
1
100
AcDbSymbolTableRecord
100
AcDbBlockTableRecord
  2
*D11
340
0
  0
BLOCK_RECORD
  5
809
330
1
100
AcDbSymbolTableRecord
100
AcDbBlockTableRecord
  2
*D12
340
0
  0
BLOCK_RECORD
  5
816
330
1
100
AcDbSymbolTableRecord
100
AcDbBlockTableRecord
  2
*D13
340
0
  0
BLOCK_RECORD
  5
8C7
330
1
100
AcDbSymbolTableRecord
100
AcDbBlockTableRecord
  2
*D15
340
0
  0
BLOCK_RECORD
  5
8F8
330
1
100
AcDbSymbolTableRecord
100
AcDbBlockTableRecord
  2
*D16
340
0
  0
BLOCK_RECORD
  5
DD5
330
1
100
AcDbSymbolTableRecord
100
AcDbBlockTableRecord
  2
*D17
340
0
  0
BLOCK_RECORD
  5
F1C
330
1
100
AcDbSymbolTableRecord
100
AcDbBlockTableRecord
  2
*D18
340
0
  0
BLOCK_RECORD
  5
F29
330
1
100
AcDbSymbolTableRecord
100
AcDbBlockTableRecord
  2
*D19
340
0
  0
BLOCK_RECORD
  5
F51
330
1
100
AcDbSymbolTableRecord
100
AcDbBlockTableRecord
  2
*D21
340
0
  0
BLOCK_RECORD
  5
FD0
330
1
100
AcDbSymbolTableRecord
100
AcDbBlockTableRecord
  2
*D22
340
0
  0
ENDTAB
  0
ENDSEC
  0
SECTION
  2
BLOCKS
  0
BLOCK
  5
19
330
18
100
AcDbEntity
  8
0
100
AcDbBlockBegin
  2
*MODEL_SPACE
 70
     0
 10
0.0
 20
0.0
 30
0.0
  3
*MODEL_SPACE
  1

  0
ENDBLK
  5
1A
330
18
100
AcDbEntity
  8
0
100
AcDbBlockEnd
  0
BLOCK
  5
16
330
15
100
AcDbEntity
 67
     1
  8
0
100
AcDbBlockBegin
  2
*PAPER_SPACE
 70
     0
 10
0.0
 20
0.0
 30
0.0
  3
*PAPER_SPACE
  1

  0
ENDBLK
  5
17
330
15
100
AcDbEntity
 67
     1
  8
0
100
AcDbBlockEnd
  0
BLOCK
  5
46
330
45
100
AcDbEntity
  8
0
100
AcDbBlockBegin
  2
_OPEN
 70
     0
 10
0.0
 20
0.0
 30
0.0
  3
_OPEN
  1

  0
LINE
  5
47
330
45
100
AcDbEntity
  8
0
  6
ByBlock
 62
     0
100
AcDbLine
 10
-1.0
 20
0.1666666666666666
 30
0.0
 11
0.0
 21
0.0
 31
0.0
  0
LINE
  5
48
330
45
100
AcDbEntity
  8
0
  6
ByBlock
 62
     0
100
AcDbLine
 10
0.0
 20
0.0
 30
0.0
 11
-1.0
 21
-0.1666666666666666
 31
0.0
  0
LINE
  5
49
330
45
100
AcDbEntity
  8
0
  6
ByBlock
 62
     0
100
AcDbLine
 10
0.0
 20
0.0
 30
0.0
 11
-1.0
 21
0.0
 31
0.0
  0
ENDBLK
  5
4A
330
45
100
AcDbEntity
  8
0
100
AcDbBlockEnd
  0
BLOCK
  5
442
330
3B7
100
AcDbEntity
  8
0
100
AcDbBlockBegin
  2
*D3
 70
     1
 10
0.0
 20
0.0
 30
0.0
  3
*D3
  1

  0
LINE
  5
113E
330
3B7
100
AcDbEntity
  8
外形線
 62
     2
370
    -2
100
AcDbLine
 10
425.5267004808646
 20
320.5343950260737
 30
0.0
 11
436.6717076985703
 21
320.5343950260737
 31
0.0
  0
LINE
  5
113F
330
3B7
100
AcDbEntity
  8
外形線
 62
     2
370
    -2
100
AcDbLine
 10
425.5267004808646
 20
261.7343950260738
 30
0.0
 11
436.6717076985703
 21
261.7343950260738
 31
0.0
  0
LINE
  5
1140
330
3B7
100
AcDbEntity
  8
外形線
 62
     2
370
    -2
100
AcDbLine
 10
435.4217076985703
 20
318.0343950260737
 30
0.0
 11
435.4217076985703
 21
264.2343950260738
 31
0.0
  0
INSERT
  5
1141
330
3B7
100
AcDbEntity
  8
外形線
 62
     2
370
    -2
100
AcDbBlockReference
  2
_OPEN
 10
435.4217076985703
 20
320.5343950260737
 30
0.0
 41
2.5
 42
2.5
 43
2.5
 50
90.0
  0
INSERT
  5
1142
330
3B7
100
AcDbEntity
  8
外形線
 62
     2
370
    -2
100
AcDbBlockReference
  2
_OPEN
 10
435.4217076985703
 20
261.7343950260738
 30
0.0
 41
2.5
 42
2.5
 43
2.5
 50
270.0
  0
MTEXT
  5
1143
330
3B7
100
AcDbEntity
  8
外形線
 62
     6
100
AcDbMText
 10
433.5467076985702
 20
291.1343950260739
 30
0.0
 40
2.5
 41
0.0
 71
     5
 72
     1
  1
\A1;φ58.8
  7
STYLE3
 11
0.0000000000000001
 21
1.0
 31
0.0
 73
     1
 44
1.0
  0
POINT
  5
1144
330
3B7
100
AcDbEntity
  8
DEFPOINTS
 62
     0
100
AcDbPoint
 10
425.5267004808646
 20
320.5343950260737
 30
0.0
  0
POINT
  5
1145
330
3B7
100
AcDbEntity
  8
DEFPOINTS
 62
     0
100
AcDbPoint
 10
425.5267004808646
 20
261.7343950260738
 30
0.0
  0
POINT
  5
1146
330
3B7
100
AcDbEntity
  8
DEFPOINTS
 62
     0
100
AcDbPoint
 10
435.4217076985703
 20
261.7343950260738
 30
0.0
  0
ENDBLK
  5
44C
330
3B7
100
AcDbEntity
  8
0
100
AcDbBlockEnd
  0
BLOCK
  5
437
330
3D1
100
AcDbEntity
  8
0
100
AcDbBlockBegin
  2
*D4
 70
     1
 10
0.0
 20
0.0
 30
0.0
  3
*D4
  1

  0
LINE
  5
10F8
330
3D1
100
AcDbEntity
  8
外形線
 62
     2
370
    -2
100
AcDbLine
 10
394.5267004808646
 20
321.1343950260737
 30
0.0
 11
382.1149279599308
 21
321.1343950260738
 31
0.0
  0
LINE
  5
10F9
330
3D1
100
AcDbEntity
  8
外形線
 62
     2
370
    -2
100
AcDbLine
 10
394.5267004808646
 20
261.1343950260738
 30
0.0
 11
382.1149279599308
 21
261.1343950260738
 31
0.0
  0
LINE
  5
10FA
330
3D1
100
AcDbEntity
  8
外形線
 62
     2
370
    -2
100
AcDbLine
 10
383.3649279599308
 20
318.6343950260738
 30
0.0
 11
383.3649279599308
 21
263.6343950260738
 31
0.0
  0
INSERT
  5
10FB
330
3D1
100
AcDbEntity
  8
外形線
 62
     2
370
    -2
100
AcDbBlockReference
  2
_OPEN
 10
383.3649279599308
 20
321.1343950260738
 30
0.0
 41
2.5
 42
2.5
 43
2.5
 50
90.0
  0
INSERT
  5
10FC
330
3D1
100
AcDbEntity
  8
外形線
 62
     2
370
    -2
100
AcDbBlockReference
  2
_OPEN
 10
383.3649279599308
 20
261.1343950260738
 30
0.0
 41
2.5
 42
2.5
 43
2.5
 50
270.0
  0
MTEXT
  5
10FD
330
3D1
100
AcDbEntity
  8
外形線
 62
     6
100
AcDbMText
 10
381.4899279599308
 20
291.1343950260739
 30
0.0
 40
2.5
 41
0.0
 71
     5
 72
     1
  1
\A1;φ60
  7
STYLE3
 11
0.0000000000000001
 21
1.0
 31
0.0
 73
     1
 44
1.0
  0
POINT
  5
10FE
330
3D1
100
AcDbEntity
  8
DEFPOINTS
 62
     0
100
AcDbPoint
 10
394.5267004808646
 20
321.1343950260737
 30
0.0
  0
POINT
  5
10FF
330
3D1
100
AcDbEntity
  8
DEFPOINTS
 62
     0
100
AcDbPoint
 10
394.5267004808646
 20
261.1343950260738
 30
0.0
  0
POINT
  5
1100
330
3D1
100
AcDbEntity
  8
DEFPOINTS
 62
     0
100
AcDbPoint
 10
383.3649279599308
 20
261.1343950260738
 30
0.0
  0
ENDBLK
  5
441
330
3D1
100
AcDbEntity
  8
0
100
AcDbBlockEnd
  0
BLOCK
  5
9A5
330
7CB
100
AcDbEntity
  8
0
100
AcDbBlockBegin
  2
*D9
 70
     1
 10
0.0
 20
0.0
 30
0.0
  3
*D9
  1

  0
LINE
  5
1109
330
7CB
100
AcDbEntity
  8
外形線
 62
     2
370
    -2
100
AcDbLine
 10
324.6506277816227
 20
256.7343950260737
 30
0.0
 11
296.0366656397047
 21
256.7343950260737
 31
0.0
  0
LINE
  5
110A
330
7CB
100
AcDbEntity
  8
外形線
 62
     2
370
    -2
100
AcDbLine
 10
324.1506277816228
 20
226.2343950260738
 30
0.0
 11
296.0366656397047
 21
226.2343950260738
 31
0.0
  0
LINE
  5
110B
330
7CB
100
AcDbEntity
  8
外形線
 62
     2
370
    -2
100
AcDbLine
 10
297.2866656397047
 20
254.2343950260737
 30
0.0
 11
297.2866656397047
 21
228.7343950260738
 31
0.0
  0
INSERT
  5
110C
330
7CB
100
AcDbEntity
  8
外形線
 62
     2
370
    -2
100
AcDbBlockReference
  2
_OPEN
 10
297.2866656397047
 20
256.7343950260737
 30
0.0
 41
2.5
 42
2.5
 43
2.5
 50
90.0
  0
INSERT
  5
110D
330
7CB
100
AcDbEntity
  8
外形線
 62
     2
370
    -2
100
AcDbBlockReference
  2
_OPEN
 10
297.2866656397047
 20
226.2343950260738
 30
0.0
 41
2.5
 42
2.5
 43
2.5
 50
270.0
  0
MTEXT
  5
110E
330
7CB
100
AcDbEntity
  8
外形線
 62
     6
100
AcDbMText
 10
295.4116656397046
 20
241.4843950260738
 30
0.0
 40
2.5
 41
0.0
 71
     5
 72
     1
  1
\A1;30.5
  7
STYLE3
 11
0.0000000000000001
 21
1.0
 31
0.0
 73
     1
 44
1.0
  0
POINT
  5
110F
330
7CB
100
AcDbEntity
  8
DEFPOINTS
 62
     0
100
AcDbPoint
 10
324.6506277816227
 20
256.7343950260737
 30
0.0
  0
POINT
  5
1110
330
7CB
100
AcDbEntity
  8
DEFPOINTS
 62
     0
100
AcDbPoint
 10
324.1506277816228
 20
226.2343950260738
 30
0.0
  0
POINT
  5
1111
330
7CB
100
AcDbEntity
  8
DEFPOINTS
 62
     0
100
AcDbPoint
 10
297.2866656397047
 20
226.2343950260738
 30
0.0
  0
ENDBLK
  5
9AF
330
7CB
100
AcDbEntity
  8
0
100
AcDbBlockEnd
  0
BLOCK
  5
7F1
330
7F0
100
AcDbEntity
  8
0
100
AcDbBlockBegin
  2
*D10
 70
     1
 10
0.0
 20
0.0
 30
0.0
  3
*D10
  1

  0
LINE
  5
10EF
330
7F0
100
AcDbEntity
  8
外形線
 62
     2
370
    -2
100
AcDbLine
 10
328.6506277816228
 20
344.5343950260737
 30
0.0
 11
288.2922782315837
 21
344.5343950260737
 31
0.0
  0
LINE
  5
10F0
330
7F0
100
AcDbEntity
  8
外形線
 62
     2
370
    -2
100
AcDbLine
 10
295.1370429097299
 20
291.1343950260738
 30
0.0
 11
288.2922782315837
 21
291.1343950260738
 31
0.0
  0
LINE
  5
10F1
330
7F0
100
AcDbEntity
  8
外形線
 62
     2
370
    -2
100
AcDbLine
 10
289.5422782315837
 20
342.0343950260738
 30
0.0
 11
289.5422782315837
 21
293.6343950260738
 31
0.0
  0
INSERT
  5
10F2
330
7F0
100
AcDbEntity
  8
外形線
 62
     2
370
    -2
100
AcDbBlockReference
  2
_OPEN
 10
289.5422782315837
 20
344.5343950260737
 30
0.0
 41
2.5
 42
2.5
 43
2.5
 50
90.0
  0
INSERT
  5
10F3
330
7F0
100
AcDbEntity
  8
外形線
 62
     2
370
    -2
100
AcDbBlockReference
  2
_OPEN
 10
289.5422782315837
 20
291.1343950260738
 30
0.0
 41
2.5
 42
2.5
 43
2.5
 50
270.0
  0
MTEXT
  5
10F4
330
7F0
100
AcDbEntity
  8
外形線
 62
     6
100
AcDbMText
 10
287.6672782315837
 20
317.8343950260738
 30
0.0
 40
2.5
 41
0.0
 71
     5
 72
     1
  1
\A1;53.4
  7
STYLE3
 11
0.0000000000000001
 21
1.0
 31
0.0
 73
     1
 44
1.0
  0
POINT
  5
10F5
330
7F0
100
AcDbEntity
  8
DEFPOINTS
 62
     0
100
AcDbPoint
 10
328.6506277816228
 20
344.5343950260737
 30
0.0
  0
POINT
  5
10F6
330
7F0
100
AcDbEntity
  8
DEFPOINTS
 62
     0
100
AcDbPoint
 10
295.1370429097299
 20
291.1343950260738
 30
0.0
  0
POINT
  5
10F7
330
7F0
100
AcDbEntity
  8
DEFPOINTS
 62
     0
100
AcDbPoint
 10
289.5422782315837
 20
291.1343950260738
 30
0.0
  0
ENDBLK
  5
7FB
330
7F0
100
AcDbEntity
  8
0
100
AcDbBlockEnd
  0
BLOCK
  5
958
330
7FD
100
AcDbEntity
  8
0
100
AcDbBlockBegin
  2
*D11
 70
     1
 10
0.0
 20
0.0
 30
0.0
  3
*D11
  1

  0
LINE
  5
1101
330
7FD
100
AcDbEntity
  8
外形線
 62
     2
370
    -2
100
AcDbLine
 10
296.0366656397047
 20
226.2343950260738
 30
0.0
 11
288.2922782315837
 21
226.2343950260738
 31
0.0
  0
LINE
  5
1102
330
7FD
100
AcDbEntity
  8
外形線
 62
     2
370
    -2
100
AcDbLine
 10
289.5422782315837
 20
288.6343950260738
 30
0.0
 11
289.5422782315837
 21
228.7343950260738
 31
0.0
  0
INSERT
  5
1103
330
7FD
100
AcDbEntity
  8
外形線
 62
     2
370
    -2
100
AcDbBlockReference
  2
_OPEN
 10
289.5422782315837
 20
291.1343950260738
 30
0.0
 41
2.5
 42
2.5
 43
2.5
 50
90.0
  0
INSERT
  5
1104
330
7FD
100
AcDbEntity
  8
外形線
 62
     2
370
    -2
100
AcDbBlockReference
  2
_OPEN
 10
289.5422782315837
 20
226.2343950260738
 30
0.0
 41
2.5
 42
2.5
 43
2.5
 50
270.0
  0
MTEXT
  5
1105
330
7FD
100
AcDbEntity
  8
外形線
 62
     6
100
AcDbMText
 10
287.6672782315837
 20
258.6843950260738
 30
0.0
 40
2.5
 41
0.0
 71
     5
 72
     1
  1
\A1;64.9
  7
STYLE3
 11
0.0000000000000001
 21
1.0
 31
0.0
 73
     1
 44
1.0
  0
POINT
  5
1106
330
7FD
100
AcDbEntity
  8
DEFPOINTS
 62
     0
100
AcDbPoint
 10
295.1370429097299
 20
291.1343950260738
 30
0.0
  0
POINT
  5
1107
330
7FD
100
AcDbEntity
  8
DEFPOINTS
 62
     0
100
AcDbPoint
 10
296.0366656397047
 20
226.2343950260738
 30
0.0
  0
POINT
  5
1108
330
7FD
100
AcDbEntity
  8
DEFPOINTS
 62
     0
100
AcDbPoint
 10
289.5422782315837
 20
226.2343950260738
 30
0.0
  0
ENDBLK
  5
961
330
7FD
100
AcDbEntity
  8
0
100
AcDbBlockEnd
  0
BLOCK
  5
94D
330
809
100
AcDbEntity
  8
0
100
AcDbBlockBegin
  2
*D12
 70
     1
 10
0.0
 20
0.0
 30
0.0
  3
*D12
  1

  0
LINE
  5
10E6
330
809
100
AcDbEntity
  8
外形線
 62
     2
370
    -2
100
AcDbLine
 10
288.2922782315837
 20
344.5343950260737
 30
0.0
 11
280.920636567434
 21
344.5343950260737
 31
0.0
  0
LINE
  5
10E7
330
809
100
AcDbEntity
  8
外形線
 62
     2
370
    -2
100
AcDbLine
 10
288.2922782315837
 20
226.2343950260738
 30
0.0
 11
280.920636567434
 21
226.2343950260738
 31
0.0
  0
LINE
  5
10E8
330
809
100
AcDbEntity
  8
外形線
 62
     2
370
    -2
100
AcDbLine
 10
282.170636567434
 20
342.0343950260738
 30
0.0
 11
282.170636567434
 21
228.7343950260738
 31
0.0
  0
INSERT
  5
10E9
330
809
100
AcDbEntity
  8
外形線
 62
     2
370
    -2
100
AcDbBlockReference
  2
_OPEN
 10
282.170636567434
 20
344.5343950260737
 30
0.0
 41
2.5
 42
2.5
 43
2.5
 50
90.0
  0
INSERT
  5
10EA
330
809
100
AcDbEntity
  8
外形線
 62
     2
370
    -2
100
AcDbBlockReference
  2
_OPEN
 10
282.170636567434
 20
226.2343950260738
 30
0.0
 41
2.5
 42
2.5
 43
2.5
 50
270.0
  0
MTEXT
  5
10EB
330
809
100
AcDbEntity
  8
外形線
 62
     6
100
AcDbMText
 10
280.295636567434
 20
285.3843950260738
 30
0.0
 40
2.5
 41
0.0
 71
     5
 72
     1
  1
\A1;118.3
  7
STYLE3
 11
0.0000000000000001
 21
1.0
 31
0.0
 73
     1
 44
1.0
  0
POINT
  5
10EC
330
809
100
AcDbEntity
  8
DEFPOINTS
 62
     0
100
AcDbPoint
 10
288.2922782315837
 20
344.5343950260737
 30
0.0
  0
POINT
  5
10ED
330
809
100
AcDbEntity
  8
DEFPOINTS
 62
     0
100
AcDbPoint
 10
288.2922782315837
 20
226.2343950260738
 30
0.0
  0
POINT
  5
10EE
330
809
100
AcDbEntity
  8
DEFPOINTS
 62
     0
100
AcDbPoint
 10
282.170636567434
 20
226.2343950260738
 30
0.0
  0
ENDBLK
  5
957
330
809
100
AcDbEntity
  8
0
100
AcDbBlockEnd
  0
BLOCK
  5
817
330
816
100
AcDbEntity
  8
0
100
AcDbBlockBegin
  2
*D13
 70
     1
 10
0.0
 20
0.0
 30
0.0
  3
*D13
  1

  0
LINE
  5
1112
330
816
100
AcDbEntity
  8
外形線
 62
     2
370
    -2
100
AcDbLine
 10
332.1506277816228
 20
216.1343950260738
 30
0.0
 11
280.920636567434
 21
216.1343950260738
 31
0.0
  0
LINE
  5
1113
330
816
100
AcDbEntity
  8
外形線
 62
     2
370
    -2
100
AcDbLine
 10
282.170636567434
 20
223.7343950260738
 30
0.0
 11
282.170636567434
 21
218.6343950260738
 31
0.0
  0
INSERT
  5
1114
330
816
100
AcDbEntity
  8
外形線
 62
     2
370
    -2
100
AcDbBlockReference
  2
_OPEN
 10
282.170636567434
 20
226.2343950260738
 30
0.0
 41
2.5
 42
2.5
 43
2.5
 50
90.0
  0
INSERT
  5
1115
330
816
100
AcDbEntity
  8
外形線
 62
     2
370
    -2
100
AcDbBlockReference
  2
_OPEN
 10
282.170636567434
 20
216.1343950260738
 30
0.0
 41
2.5
 42
2.5
 43
2.5
 50
270.0
  0
MTEXT
  5
1116
330
816
100
AcDbEntity
  8
外形線
 62
     6
100
AcDbMText
 10
280.295636567434
 20
221.1843950260738
 30
0.0
 40
2.5
 41
0.0
 71
     5
 72
     1
  1
\A1;10.1
  7
STYLE3
 11
0.0000000000000001
 21
1.0
 31
0.0
 73
     1
 44
1.0
  0
POINT
  5
1117
330
816
100
AcDbEntity
  8
DEFPOINTS
 62
     0
100
AcDbPoint
 10
288.2922782315837
 20
226.2343950260738
 30
0.0
  0
POINT
  5
1118
330
816
100
AcDbEntity
  8
DEFPOINTS
 62
     0
100
AcDbPoint
 10
332.1506277816228
 20
216.1343950260738
 30
0.0
  0
POINT
  5
1119
330
816
100
AcDbEntity
  8
DEFPOINTS
 62
     0
100
AcDbPoint
 10
282.170636567434
 20
216.1343950260738
 30
0.0
  0
ENDBLK
  5
820
330
816
100
AcDbEntity
  8
0
100
AcDbBlockEnd
  0
BLOCK
  5
9B0
330
8C7
100
AcDbEntity
  8
0
100
AcDbBlockBegin
  2
*D15
 70
     1
 10
0.0
 20
0.0
 30
0.0
  3
*D15
  1

  0
LINE
  5
1135
330
8C7
100
AcDbEntity
  8
外形線
 62
     2
370
    -2
100
AcDbLine
 10
299.3474434607927
 20
291.1343950260738
 30
0.0
 11
296.0366656397047
 21
291.1343950260738
 31
0.0
  0
LINE
  5
1136
330
8C7
100
AcDbEntity
  8
外形線
 62
     2
370
    -2
100
AcDbLine
 10
305.9637945981435
 20
256.7343950260738
 30
0.0
 11
296.0366656397047
 21
256.7343950260738
 31
0.0
  0
LINE
  5
1137
330
8C7
100
AcDbEntity
  8
外形線
 62
     2
370
    -2
100
AcDbLine
 10
297.2866656397047
 20
288.6343950260738
 30
0.0
 11
297.2866656397047
 21
259.2343950260738
 31
0.0
  0
INSERT
  5
1138
330
8C7
100
AcDbEntity
  8
外形線
 62
     2
370
    -2
100
AcDbBlockReference
  2
_OPEN
 10
297.2866656397047
 20
291.1343950260738
 30
0.0
 41
2.5
 42
2.5
 43
2.5
 50
90.0
  0
INSERT
  5
1139
330
8C7
100
AcDbEntity
  8
外形線
 62
     2
370
    -2
100
AcDbBlockReference
  2
_OPEN
 10
297.2866656397047
 20
256.7343950260738
 30
0.0
 41
2.5
 42
2.5
 43
2.5
 50
270.0
  0
MTEXT
  5
113A
330
8C7
100
AcDbEntity
  8
外形線
 62
     6
100
AcDbMText
 10
295.4116656397046
 20
273.9343950260738
 30
0.0
 40
2.5
 41
0.0
 71
     5
 72
     1
  1
\A1;34.4
  7
STYLE3
 11
0.0000000000000001
 21
1.0
 31
0.0
 73
     1
 44
1.0
  0
POINT
  5
113B
330
8C7
100
AcDbEntity
  8
DEFPOINTS
 62
     0
100
AcDbPoint
 10
299.3474434607927
 20
291.1343950260738
 30
0.0
  0
POINT
  5
113C
330
8C7
100
AcDbEntity
  8
DEFPOINTS
 62
     0
100
AcDbPoint
 10
305.9637945981435
 20
256.7343950260738
 30
0.0
  0
POINT
  5
113D
330
8C7
100
AcDbEntity
  8
DEFPOINTS
 62
     0
100
AcDbPoint
 10
297.2866656397047
 20
256.7343950260738
 30
0.0
  0
ENDBLK
  5
9BA
330
8C7
100
AcDbEntity
  8
0
100
AcDbBlockEnd
  0
BLOCK
  5
992
330
8F8
100
AcDbEntity
  8
0
100
AcDbBlockBegin
  2
*D16
 70
     1
 10
0.0
 20
0.0
 30
0.0
  3
*D16
  1

  0
LINE
  5
10DD
330
8F8
100
AcDbEntity
  8
外形線
 62
     2
370
    -2
100
AcDbLine
 10
424.0267004808646
 20
228.3343950260738
 30
0.0
 11
424.0267004808646
 21
202.144879320838
 31
0.0
  0
LINE
  5
10DE
330
8F8
100
AcDbEntity
  8
外形線
 62
     2
370
    -2
100
AcDbLine
 10
408.0267004808646
 20
228.3343950260738
 30
0.0
 11
408.0267004808646
 21
202.144879320838
 31
0.0
  0
LINE
  5
10DF
330
8F8
100
AcDbEntity
  8
外形線
 62
     2
370
    -2
100
AcDbLine
 10
421.5267004808646
 20
203.3948793208379
 30
0.0
 11
410.5267004808647
 21
203.3948793208379
 31
0.0
  0
INSERT
  5
10E0
330
8F8
100
AcDbEntity
  8
外形線
 62
     2
370
    -2
100
AcDbBlockReference
  2
_OPEN
 10
424.0267004808646
 20
203.3948793208379
 30
0.0
 41
2.5
 42
2.5
 43
2.5
  0
INSERT
  5
10E1
330
8F8
100
AcDbEntity
  8
外形線
 62
     2
370
    -2
100
AcDbBlockReference
  2
_OPEN
 10
408.0267004808646
 20
203.3948793208379
 30
0.0
 41
2.5
 42
2.5
 43
2.5
 50
180.0
  0
MTEXT
  5
10E2
330
8F8
100
AcDbEntity
  8
外形線
 62
     6
100
AcDbMText
 10
416.0267004808646
 20
205.269879320838
 30
0.0
 40
2.5
 41
0.0
 71
     5
 72
     1
  1
\A1;φ16
  7
STYLE3
 73
     1
 44
1.0
  0
POINT
  5
10E3
330
8F8
100
AcDbEntity
  8
DEFPOINTS
 62
     0
100
AcDbPoint
 10
424.0267004808646
 20
228.3343950260738
 30
0.0
  0
POINT
  5
10E4
330
8F8
100
AcDbEntity
  8
DEFPOINTS
 62
     0
100
AcDbPoint
 10
408.0267004808646
 20
228.3343950260738
 30
0.0
  0
POINT
  5
10E5
330
8F8
100
AcDbEntity
  8
DEFPOINTS
 62
     0
100
AcDbPoint
 10
408.0267004808646
 20
203.3948793208379
 30
0.0
  0
ENDBLK
  5
99C
330
8F8
100
AcDbEntity
  8
0
100
AcDbBlockEnd
  0
BLOCK
  5
DE1
330
DD5
100
AcDbEntity
  8
0
100
AcDbBlockBegin
  2
*D17
 70
     1
 10
0.0
 20
0.0
 30
0.0
  3
*D17
  1

  0
LINE
  5
112C
330
DD5
100
AcDbEntity
  8
文字
 62
     2
370
    -2
100
AcDbLine
 10
336.6506277816228
 20
229.4940465279412
 30
0.0
 11
339.1506277816228
 21
229.4940465279412
 31
0.0
  0
LINE
  5
112D
330
DD5
100
AcDbEntity
  8
文字
 62
     2
370
    -2
100
AcDbLine
 10
327.6506277816228
 20
229.4940465279412
 30
0.0
 11
318.7798516397666
 21
229.4940465279412
 31
0.0
  0
LINE
  5
112E
330
DD5
100
AcDbEntity
  8
文字
 62
     2
370
    -2
100
AcDbLine
 10
334.1506277816228
 20
229.4940465279412
 30
0.0
 11
330.1506277816228
 21
229.4940465279412
 31
0.0
  0
INSERT
  5
112F
330
DD5
100
AcDbEntity
  8
文字
 62
     2
370
    -2
100
AcDbBlockReference
  2
_OPEN
 10
334.1506277816228
 20
229.4940465279412
 30
0.0
 41
2.5
 42
2.5
 43
2.5
 50
180.0
  0
INSERT
  5
1130
330
DD5
100
AcDbEntity
  8
文字
 62
     2
370
    -2
100
AcDbBlockReference
  2
_OPEN
 10
330.1506277816228
 20
229.4940465279412
 30
0.0
 41
2.5
 42
2.5
 43
2.5
  0
MTEXT
  5
1131
330
DD5
100
AcDbEntity
  8
文字
 62
     6
100
AcDbMText
 10
321.4286611635761
 20
231.3690465279413
 30
0.0
 40
2.5
 41
0.0
 71
     5
 72
     1
  1
\A1;%%C4
  7
STYLE3
 73
     1
 44
1.0
  0
POINT
  5
1132
330
DD5
100
AcDbEntity
  8
DEFPOINTS
 62
     0
100
AcDbPoint
 10
330.1506277816228
 20
233.7332317290376
 30
0.0
  0
POINT
  5
1133
330
DD5
100
AcDbEntity
  8
DEFPOINTS
 62
     0
100
AcDbPoint
 10
334.1506277816228
 20
233.224097342363
 30
0.0
  0
POINT
  5
1134
330
DD5
100
AcDbEntity
  8
DEFPOINTS
 62
     0
100
AcDbPoint
 10
334.1506277816228
 20
229.4940465279412
 30
0.0
  0
ENDBLK
  5
DE2
330
DD5
100
AcDbEntity
  8
0
100
AcDbBlockEnd
  0
BLOCK
  5
F26
330
F1C
100
AcDbEntity
  8
0
100
AcDbBlockBegin
  2
*D18
 70
     1
 10
0.0
 20
0.0
 30
0.0
  3
*D18
  1

  0
LINE
  5
1123
330
F1C
100
AcDbEntity
  8
寸法線
 62
     2
370
    -2
100
AcDbLine
 10
330.0506277816226
 20
223.2343950260737
 30
0.0
 11
322.5406264770498
 21
223.2343950260737
 31
0.0
  0
LINE
  5
1124
330
F1C
100
AcDbEntity
  8
寸法線
 62
     2
370
    -2
100
AcDbLine
 10
324.5812526041409
 20
216.1343950260738
 30
0.0
 11
322.5406264770498
 21
216.1343950260738
 31
0.0
  0
LINE
  5
1125
330
F1C
100
AcDbEntity
  8
寸法線
 62
     2
370
    -2
100
AcDbLine
 10
323.7906264770498
 20
220.7343950260737
 30
0.0
 11
323.7906264770498
 21
218.6343950260738
 31
0.0
  0
INSERT
  5
1126
330
F1C
100
AcDbEntity
  8
寸法線
 62
     2
370
    -2
100
AcDbBlockReference
  2
_OPEN
 10
323.7906264770498
 20
223.2343950260737
 30
0.0
 41
2.5
 42
2.5
 43
2.5
 50
90.0
  0
INSERT
  5
1127
330
F1C
100
AcDbEntity
  8
寸法線
 62
     2
370
    -2
100
AcDbBlockReference
  2
_OPEN
 10
323.7906264770498
 20
216.1343950260738
 30
0.0
 41
2.5
 42
2.5
 43
2.5
 50
270.0
  0
MTEXT
  5
1128
330
F1C
100
AcDbEntity
  8
寸法線
 62
     6
100
AcDbMText
 10
321.9156264770497
 20
219.6843950260738
 30
0.0
 40
2.5
 41
0.0
 71
     5
 72
     1
  1
\A1;7.1
  7
STYLE3
 11
0.0000000000000001
 21
1.0
 31
0.0
 73
     1
 44
1.0
  0
POINT
  5
1129
330
F1C
100
AcDbEntity
  8
DEFPOINTS
 62
     0
100
AcDbPoint
 10
330.0506277816226
 20
223.2343950260737
 30
0.0
  0
POINT
  5
112A
330
F1C
100
AcDbEntity
  8
DEFPOINTS
 62
     0
100
AcDbPoint
 10
324.5812526041409
 20
216.1343950260738
 30
0.0
  0
POINT
  5
112B
330
F1C
100
AcDbEntity
  8
DEFPOINTS
 62
     0
100
AcDbPoint
 10
323.7906264770498
 20
216.1343950260738
 30
0.0
  0
ENDBLK
  5
F27
330
F1C
100
AcDbEntity
  8
0
100
AcDbBlockEnd
  0
BLOCK
  5
F33
330
F29
100
AcDbEntity
  8
0
100
AcDbBlockBegin
  2
*D19
 70
     1
 10
0.0
 20
0.0
 30
0.0
  3
*D19
  1

  0
LINE
  5
111A
330
F29
100
AcDbEntity
  8
寸法線
 62
     2
370
    -2
100
AcDbLine
 10
330.0506277816227
 20
225.2343950260737
 30
0.0
 11
316.574994844464
 21
225.2343950260738
 31
0.0
  0
LINE
  5
111B
330
F29
100
AcDbEntity
  8
寸法線
 62
     2
370
    -2
100
AcDbLine
 10
317.824994844464
 20
216.1343950260738
 30
0.0
 11
316.574994844464
 21
216.1343950260738
 31
0.0
  0
LINE
  5
111C
330
F29
100
AcDbEntity
  8
寸法線
 62
     2
370
    -2
100
AcDbLine
 10
317.824994844464
 20
222.7343950260738
 30
0.0
 11
317.824994844464
 21
218.6343950260738
 31
0.0
  0
INSERT
  5
111D
330
F29
100
AcDbEntity
  8
寸法線
 62
     2
370
    -2
100
AcDbBlockReference
  2
_OPEN
 10
317.824994844464
 20
225.2343950260738
 30
0.0
 41
2.5
 42
2.5
 43
2.5
 50
90.0
  0
INSERT
  5
111E
330
F29
100
AcDbEntity
  8
寸法線
 62
     2
370
    -2
100
AcDbBlockReference
  2
_OPEN
 10
317.824994844464
 20
216.1343950260738
 30
0.0
 41
2.5
 42
2.5
 43
2.5
 50
270.0
  0
MTEXT
  5
111F
330
F29
100
AcDbEntity
  8
寸法線
 62
     6
100
AcDbMText
 10
315.9499948444639
 20
220.6843950260738
 30
0.0
 40
2.5
 41
0.0
 71
     5
 72
     1
  1
\A1;9.1
  7
STYLE3
 11
0.0000000000000001
 21
1.0
 31
0.0
 73
     1
 44
1.0
  0
POINT
  5
1120
330
F29
100
AcDbEntity
  8
DEFPOINTS
 62
     0
100
AcDbPoint
 10
330.0506277816227
 20
225.2343950260737
 30
0.0
  0
POINT
  5
1121
330
F29
100
AcDbEntity
  8
DEFPOINTS
 62
     0
100
AcDbPoint
 10
317.824994844464
 20
216.1343950260738
 30
0.0
  0
POINT
  5
1122
330
F29
100
AcDbEntity
  8
DEFPOINTS
 62
     0
100
AcDbPoint
 10
317.824994844464
 20
216.1343950260738
 30
0.0
  0
ENDBLK
  5
F34
330
F29
100
AcDbEntity
  8
0
100
AcDbBlockEnd
  0
BLOCK
  5
F61
330
F51
100
AcDbEntity
  8
0
100
AcDbBlockBegin
  2
*D21
 70
     1
 10
0.0
 20
0.0
 30
0.0
  3
*D21
  1

  0
LINE
  5
10CE
330
F51
100
AcDbEntity
  8
寸法線
 62
     2
370
    -2
100
AcDbLine
 10
417.0745404072516
 20
223.2343950260738
 30
0.0
 11
418.5245800746178
 21
233.5519633715067
 31
0.0
  0
LINE
  5
10CF
330
F51
100
AcDbEntity
  8
寸法線
 62
     2
370
    -2
100
AcDbLine
 10
414.9788605544776
 20
223.2343950260737
 30
0.0
 11
413.5288208871115
 21
233.5519633715067
 31
0.0
  0
ARC
  5
10D0
330
F51
100
AcDbEntity
  8
寸法線
 62
     2
370
    -2
100
AcDbCircle
 10
416.0267004808646
 20
215.7786265399545
 30
0.0
 40
16.69800558816215
100
AcDbArc
 50
64.77877526732372
 51
81.99999999999963
  0
LINE
  5
10D1
330
F51
100
AcDbEntity
  8
寸法線
 62
     2
370
    -2
100
AcDbLine
 10
423.1419619115071
 20
230.8847989670091
 30
0.0
 11
430.6485628289369
 21
227.3490636084377
 31
0.0
  0
ARC
  5
10D2
330
F51
100
AcDbEntity
  8
寸法線
 62
     2
370
    -2
100
AcDbCircle
 10
416.0267004808646
 20
215.7786265399545
 30
0.0
 40
16.69800558816215
100
AcDbArc
 50
64.82746164868399
 51
73.41373082434181
  0
ARC
  5
10D3
330
F51
100
AcDbEntity
  8
寸法線
 62
     2
370
    -2
100
AcDbCircle
 10
416.0267004808646
 20
215.7786265399545
 30
0.0
 40
16.69800558816215
100
AcDbArc
 50
106.5862691756578
 51
115.1725383513156
  0
ARC
  5
10D4
330
F51
100
AcDbEntity
  8
寸法線
 62
     2
370
    -2
100
AcDbCircle
 10
416.0267004808646
 20
215.7786265399545
 30
0.0
 40
16.69800558816215
100
AcDbArc
 50
81.99999999999963
 51
97.99999999999997
  0
INSERT
  5
10D5
330
F51
100
AcDbEntity
  8
寸法線
 62
     2
370
    -2
100
AcDbBlockReference
  2
_OPEN
 10
418.3506136984177
 20
232.3141282855798
 30
0.0
 41
2.5
 42
2.5
 43
2.5
 50
167.7068654121707
  0
INSERT
  5
10D6
330
F51
100
AcDbEntity
  8
寸法線
 62
     2
370
    -2
100
AcDbBlockReference
  2
_OPEN
 10
413.7027872633116
 20
232.3141282855798
 30
0.0
 41
2.5
 42
2.5
 43
2.5
 50
12.29313458782888
  0
MTEXT
  5
10D7
330
F51
100
AcDbEntity
  8
寸法線
 62
     6
100
AcDbMText
 10
427.6942269598562
 20
230.8131861578743
 30
0.0
 40
2.5
 41
0.0
 71
     5
 72
     1
  1
\A1;16°
  7
STYLE3
 11
0.9046692640804961
 21
-0.4261144478048752
 31
0.0
 73
     1
 44
1.0
  0
POINT
  5
10D8
330
F51
100
AcDbEntity
  8
DEFPOINTS
 62
     0
100
AcDbPoint
 10
415.2498205577956
 20
232.458550047196
 30
0.0
  0
POINT
  5
10D9
330
F51
100
AcDbEntity
  8
DEFPOINTS
 62
     0
100
AcDbPoint
 10
415.9767004808646
 20
216.1343950260738
 30
0.0
  0
POINT
  5
10DA
330
F51
100
AcDbEntity
  8
DEFPOINTS
 62
     0
100
AcDbPoint
 10
416.0767004808646
 20
216.1343950260738
 30
0.0
  0
POINT
  5
10DB
330
F51
100
AcDbEntity
  8
DEFPOINTS
 62
     0
100
AcDbPoint
 10
417.0745404072516
 20
223.2343950260738
 30
0.0
  0
POINT
  5
10DC
330
F51
100
AcDbEntity
  8
DEFPOINTS
 62
     0
100
AcDbPoint
 10
414.9788605544776
 20
223.2343950260737
 30
0.0
  0
ENDBLK
  5
F62
330
F51
100
AcDbEntity
  8
0
100
AcDbBlockEnd
  0
BLOCK
  5
FDC
330
FD0
100
AcDbEntity
  8
0
100
AcDbBlockBegin
  2
*D22
 70
     1
 10
0.0
 20
0.0
 30
0.0
  3
*D22
  1

  0
LINE
  5
10C3
330
FD0
100
AcDbEntity
  8
外形線
 62
     2
370
    -2
100
AcDbLine
 10
413.5267004808644
 20
224.2343950260738
 30
0.0
 11
413.5267004808644
 21
208.5644958765594
 31
0.0
  0
LINE
  5
10C4
330
FD0
100
AcDbEntity
  8
外形線
 62
     2
370
    -2
100
AcDbLine
 10
418.5267004808647
 20
224.2343950260738
 30
0.0
 11
418.5267004808647
 21
208.5644958765594
 31
0.0
  0
LINE
  5
10C5
330
FD0
100
AcDbEntity
  8
外形線
 62
     2
370
    -2
100
AcDbLine
 10
411.0267004808645
 20
209.8144958765594
 30
0.0
 11
408.5267004808645
 21
209.8144958765594
 31
0.0
  0
LINE
  5
10C6
330
FD0
100
AcDbEntity
  8
外形線
 62
     2
370
    -2
100
AcDbLine
 10
421.0267004808646
 20
209.8144958765594
 30
0.0
 11
423.5267004808647
 21
209.8144958765594
 31
0.0
  0
LINE
  5
10C7
330
FD0
100
AcDbEntity
  8
外形線
 62
     2
370
    -2
100
AcDbLine
 10
413.5267004808644
 20
209.8144958765594
 30
0.0
 11
418.5267004808647
 21
209.8144958765594
 31
0.0
  0
INSERT
  5
10C8
330
FD0
100
AcDbEntity
  8
外形線
 62
     2
370
    -2
100
AcDbBlockReference
  2
_OPEN
 10
413.5267004808644
 20
209.8144958765594
 30
0.0
 41
2.5
 42
2.5
 43
2.5
  0
INSERT
  5
10C9
330
FD0
100
AcDbEntity
  8
外形線
 62
     2
370
    -2
100
AcDbBlockReference
  2
_OPEN
 10
418.5267004808647
 20
209.8144958765594
 30
0.0
 41
2.5
 42
2.5
 43
2.5
 50
180.0
  0
MTEXT
  5
10CA
330
FD0
100
AcDbEntity
  8
外形線
 62
     6
100
AcDbMText
 10
416.0267004808646
 20
211.6894958765594
 30
0.0
 40
2.5
 41
0.0
 71
     5
 72
     1
  1
\A1;%%C5
  7
STYLE3
 73
     1
 44
1.0
  0
POINT
  5
10CB
330
FD0
100
AcDbEntity
  8
DEFPOINTS
 62
     0
100
AcDbPoint
 10
413.5267004808644
 20
224.2343950260738
 30
0.0
  0
POINT
  5
10CC
330
FD0
100
AcDbEntity
  8
DEFPOINTS
 62
     0
100
AcDbPoint
 10
418.5267004808647
 20
224.2343950260738
 30
0.0
  0
POINT
  5
10CD
330
FD0
100
AcDbEntity
  8
DEFPOINTS
 62
     0
100
AcDbPoint
 10
418.5267004808647
 20
209.8144958765594
 30
0.0
  0
ENDBLK
  5
FDD
330
FD0
100
AcDbEntity
  8
0
100
AcDbBlockEnd
  0
ENDSEC
  0
SECTION
  2
ENTITIES
  0
LWPOLYLINE
  5
10B
330
18
100
AcDbEntity
  8
C
100
AcDbPolyline
 90
        5
 70
     0
 43
0.4
 10
236.6915604445414
 20
366.8501752555372
 10
491.6915604445414
 20
366.8501752555372
 10
491.6915604445414
 20
171.8501752555372
 10
236.6915604445414
 20
171.8501752555372
 10
236.6915604445414
 20
366.8501752555372
  0
LINE
  5
16A
330
18
100
AcDbEntity
  8
中心線
100
AcDbLine
 10
295.1370429097299
 20
291.1343950260738
 30
0.0
 11
368.0693667475148
 21
291.1343950260738
 31
0.0
  0
LINE
  5
16B
330
18
100
AcDbEntity
  8
中心線
100
AcDbLine
 10
332.1506277816228
 20
346.4970075883307
 30
0.0
 11
332.1506277816228
 21
214.2080618006825
 31
0.0
  0
CIRCLE
  5
16C
330
18
100
AcDbEntity
  8
外形線
100
AcDbCircle
 10
332.1506277816228
 20
291.1343950260738
 30
0.0
 40
30.0
  0
ARC
  5
16D
330
18
100
AcDbEntity
  8
外形線
100
AcDbCircle
 10
332.1506277816228
 20
291.1343950260738
 30
0.0
 40
29.0
100
AcDbArc
 50
0.0
 51
180.0
  0
LINE
  5
16E
330
18
100
AcDbEntity
  8
外形線
100
AcDbLine
 10
311.6506277816228
 20
302.6343950260738
 30
0.0
 11
352.6506277816228
 21
302.6343950260738
 31
0.0
  0
LINE
  5
16F
330
18
100
AcDbEntity
  8
外形線
100
AcDbLine
 10
311.6506277816228
 20
279.6343950260738
 30
0.0
 11
352.6506277816228
 21
279.6343950260738
 31
0.0
  0
LINE
  5
170
330
18
100
AcDbEntity
  8
外形線
100
AcDbLine
 10
354.1506277816228
 20
301.1343950260738
 30
0.0
 11
354.1506277816228
 21
281.1343950260738
 31
0.0
  0
LINE
  5
171
330
18
100
AcDbEntity
  8
外形線
100
AcDbLine
 10
310.1506277816228
 20
301.1343950260738
 30
0.0
 11
310.1506277816227
 21
281.1343950260738
 31
0.0
  0
ARC
  5
17A
330
18
100
AcDbEntity
  8
外形線
100
AcDbCircle
 10
311.6506277816228
 20
301.1343950260738
 30
0.0
 40
1.5
100
AcDbArc
 50
90.0
 51
180.0
  0
ARC
  5
17B
330
18
100
AcDbEntity
  8
外形線
100
AcDbCircle
 10
352.6506277816228
 20
301.1343950260738
 30
0.0
 40
1.5
100
AcDbArc
 50
0.0
 51
90.0
  0
ARC
  5
17C
330
18
100
AcDbEntity
  8
外形線
100
AcDbCircle
 10
352.6506277816228
 20
281.1343950260738
 30
0.0
 40
1.5
100
AcDbArc
 50
270.0
 51
0.0
  0
ARC
  5
17D
330
18
100
AcDbEntity
  8
外形線
100
AcDbCircle
 10
311.6506277816228
 20
281.1343950260738
 30
0.0
 40
1.5
100
AcDbArc
 50
180.0
 51
270.0
  0
LINE
  5
17E
330
18
100
AcDbEntity
  8
外形線
100
AcDbLine
 10
303.1506277816228
 20
291.1343950260738
 30
0.0
 11
310.1506277816228
 21
291.1343950260738
 31
0.0
  0
LINE
  5
17F
330
18
100
AcDbEntity
  8
外形線
100
AcDbLine
 10
354.1506277816228
 20
291.1343950260738
 30
0.0
 11
361.1506277816228
 21
291.1343950260738
 31
0.0
  0
LINE
  5
188
330
18
100
AcDbEntity
  8
外形線
100
AcDbLine
 10
328.6506277816228
 20
344.5343950260737
 30
0.0
 11
335.6506277816228
 21
344.5343950260737
 31
0.0
  0
ARC
  5
189
330
18
100
AcDbEntity
  8
外形線
100
AcDbCircle
 10
332.1506277816228
 20
291.1343950260738
 30
0.0
 40
31.0
100
AcDbArc
 50
69.21644040415431
 51
110.7835595958456
  0
LINE
  5
18A
330
18
100
AcDbEntity
  8
外形線
100
AcDbLine
 10
343.1506277816228
 20
320.1171485184527
 30
0.0
 11
343.1506277816228
 21
319.0449664999795
 31
0.0
  0
LINE
  5
18B
330
18
100
AcDbEntity
  8
外形線
100
AcDbLine
 10
321.1506277816228
 20
320.1171485184527
 30
0.0
 11
321.1506277816228
 21
319.0449664999795
 31
0.0
  0
LINE
  5
18F
330
18
100
AcDbEntity
  8
外形線
100
AcDbLine
 10
338.1506277816228
 20
326.9343950260738
 30
0.0
 11
338.1506277816228
 21
321.5482076775649
 31
0.0
  0
LINE
  5
190
330
18
100
AcDbEntity
  8
外形線
100
AcDbLine
 10
326.1506277816228
 20
326.9343950260739
 30
0.0
 11
326.1506277816228
 21
321.5482076775649
 31
0.0
  0
LINE
  5
191
330
18
100
AcDbEntity
  8
外形線
100
AcDbLine
 10
327.1506277816228
 20
327.9343950260738
 30
0.0
 11
337.1506277816228
 21
327.9343950260738
 31
0.0
  0
LINE
  5
192
330
18
100
AcDbEntity
  8
外形線
100
AcDbLine
 10
326.1506277816228
 20
326.9343950260739
 30
0.0
 11
327.1506277816228
 21
327.9343950260738
 31
0.0
  0
LINE
  5
193
330
18
100
AcDbEntity
  8
外形線
100
AcDbLine
 10
337.1506277816228
 20
327.9343950260738
 30
0.0
 11
338.1506277816228
 21
326.9343950260738
 31
0.0
  0
LINE
  5
194
330
18
100
AcDbEntity
  8
外形線
100
AcDbLine
 10
326.1506277816228
 20
326.9343950260739
 30
0.0
 11
338.1506277816228
 21
326.9343950260738
 31
0.0
  0
LINE
  5
195
330
18
100
AcDbEntity
  8
外形線
100
AcDbLine
 10
327.1506277816228
 20
328.4343950260738
 30
0.0
 11
337.1506277816228
 21
328.4343950260738
 31
0.0
  0
LINE
  5
197
330
18
100
AcDbEntity
  8
外形線
100
AcDbLine
 10
337.1506277816228
 20
343.0343950260738
 30
0.0
 11
337.1506277816228
 21
341.5343950260737
 31
0.0
  0
LINE
  5
198
330
18
100
AcDbEntity
  8
外形線
100
AcDbLine
 10
327.1506277816228
 20
343.0343950260738
 30
0.0
 11
327.1506277816228
 21
341.5343950260738
 31
0.0
  0
LINE
  5
199
330
18
100
AcDbEntity
  8
外形線
100
AcDbLine
 10
336.1506277816228
 20
341.5343950260738
 30
0.0
 11
336.1506277816228
 21
340.5343950260738
 31
0.0
  0
LINE
  5
19A
330
18
100
AcDbEntity
  8
外形線
100
AcDbLine
 10
328.1506277816227
 20
341.5343950260738
 30
0.0
 11
328.1506277816227
 21
340.5343950260738
 31
0.0
  0
LINE
  5
19B
330
18
100
AcDbEntity
  8
外形線
100
AcDbLine
 10
327.1506277816229
 20
335.4343950260739
 30
0.0
 11
337.1506277816229
 21
335.4343950260738
 31
0.0
  0
LINE
  5
19C
330
18
100
AcDbEntity
  8
外形線
100
AcDbLine
 10
336.1506277816228
 20
328.4343950260737
 30
0.0
 11
336.1506277816228
 21
327.9343950260738
 31
0.0
  0
LINE
  5
19D
330
18
100
AcDbEntity
  8
外形線
100
AcDbLine
 10
328.1506277816228
 20
328.4343950260738
 30
0.0
 11
328.1506277816228
 21
327.9343950260738
 31
0.0
  0
LINE
  5
19E
330
18
100
AcDbEntity
  8
外形線
100
AcDbLine
 10
327.1506277816229
 20
336.9343950260738
 30
0.0
 11
337.1506277816229
 21
336.9343950260738
 31
0.0
  0
LINE
  5
19F
330
18
100
AcDbEntity
  8
外形線
100
AcDbLine
 10
337.1506277816228
 20
335.4343950260738
 30
0.0
 11
337.1506277816228
 21
328.4343950260737
 31
0.0
  0
LINE
  5
1A0
330
18
100
AcDbEntity
  8
外形線
100
AcDbLine
 10
327.1506277816228
 20
335.4343950260739
 30
0.0
 11
327.1506277816227
 21
328.4343950260738
 31
0.0
  0
LINE
  5
1A1
330
18
100
AcDbEntity
  8
外形線
100
AcDbLine
 10
327.1506277816229
 20
338.2343950260739
 30
0.0
 11
337.1506277816229
 21
338.2343950260738
 31
0.0
  0
LINE
  5
1A2
330
18
100
AcDbEntity
  8
外形線
100
AcDbLine
 10
327.1506277816229
 20
339.2343950260738
 30
0.0
 11
337.1506277816229
 21
339.2343950260738
 31
0.0
  0
LINE
  5
1A3
330
18
100
AcDbEntity
  8
外形線
100
AcDbLine
 10
327.1506277816229
 20
340.5343950260739
 30
0.0
 11
337.1506277816229
 21
340.5343950260738
 31
0.0
  0
LINE
  5
1A4
330
18
100
AcDbEntity
  8
外形線
100
AcDbLine
 10
327.1506277816229
 20
341.5343950260739
 30
0.0
 11
337.1506277816229
 21
341.5343950260738
 31
0.0
  0
LINE
  5
1A5
330
18
100
AcDbEntity
  8
外形線
100
AcDbLine
 10
336.1506277816228
 20
336.9343950260738
 30
0.0
 11
336.1506277816228
 21
335.4343950260737
 31
0.0
  0
LINE
  5
1A6
330
18
100
AcDbEntity
  8
外形線
100
AcDbLine
 10
328.1506277816228
 20
336.9343950260738
 30
0.0
 11
328.1506277816228
 21
335.4343950260738
 31
0.0
  0
LINE
  5
1A7
330
18
100
AcDbEntity
  8
外形線
100
AcDbLine
 10
327.1506277816228
 20
338.2343950260739
 30
0.0
 11
327.1506277816228
 21
336.9343950260738
 31
0.0
  0
LINE
  5
1A8
330
18
100
AcDbEntity
  8
外形線
100
AcDbLine
 10
337.1506277816228
 20
338.2343950260738
 30
0.0
 11
337.1506277816228
 21
336.9343950260738
 31
0.0
  0
LINE
  5
1A9
330
18
100
AcDbEntity
  8
外形線
100
AcDbLine
 10
336.1506277816228
 20
339.2343950260738
 30
0.0
 11
336.1506277816228
 21
338.2343950260737
 31
0.0
  0
LINE
  5
1AA
330
18
100
AcDbEntity
  8
外形線
100
AcDbLine
 10
328.1506277816227
 20
339.2343950260737
 30
0.0
 11
328.1506277816228
 21
338.2343950260738
 31
0.0
  0
LINE
  5
1AB
330
18
100
AcDbEntity
  8
外形線
100
AcDbLine
 10
327.1506277816228
 20
340.5343950260738
 30
0.0
 11
327.1506277816228
 21
339.2343950260738
 31
0.0
  0
LINE
  5
1AC
330
18
100
AcDbEntity
  8
外形線
100
AcDbLine
 10
337.1506277816228
 20
340.5343950260737
 30
0.0
 11
337.1506277816228
 21
339.2343950260737
 31
0.0
  0
ARC
  5
1AF
330
18
100
AcDbEntity
  8
外形線
100
AcDbCircle
 10
328.6506277816228
 20
343.0343950260738
 30
0.0
 40
1.5
100
AcDbArc
 50
90.0
 51
180.0
  0
ARC
  5
1B0
330
18
100
AcDbEntity
  8
外形線
100
AcDbCircle
 10
335.6506277816228
 20
343.0343950260738
 30
0.0
 40
1.5
100
AcDbArc
 50
0.0
 51
90.0
  0
LINE
  5
1B4
330
18
100
AcDbEntity
  8
外形線
100
AcDbLine
 10
326.1506277816228
 20
260.1343950260738
 30
0.0
 11
338.1506277816229
 21
260.1343950260738
 31
0.0
  0
LINE
  5
1B8
330
18
100
AcDbEntity
  8
外形線
100
AcDbLine
 10
338.1506277816228
 20
261.7405181126756
 30
0.0
 11
338.1506277816228
 21
260.1343950260738
 31
0.0
  0
LINE
  5
1B9
330
18
100
AcDbEntity
  8
外形線
100
AcDbLine
 10
326.1506277816228
 20
261.7405181126756
 30
0.0
 11
326.1506277816228
 21
260.1343950260738
 31
0.0
  0
LINE
  5
1BA
330
18
100
AcDbEntity
  8
外形線
100
AcDbLine
 10
336.1506277816228
 20
260.1343950260738
 30
0.0
 11
336.1506277816228
 21
256.7343950260737
 31
0.0
  0
LINE
  5
1BB
330
18
100
AcDbEntity
  8
外形線
100
AcDbLine
 10
328.1506277816228
 20
260.1343950260738
 30
0.0
 11
328.1506277816226
 21
256.7343950260737
 31
0.0
  0
LINE
  5
1C9
330
18
100
AcDbEntity
  8
外形線
100
AcDbLine
 10
334.1506277816228
 20
226.2343950260738
 30
0.0
 11
334.1506277816228
 21
225.2343950260738
 31
0.0
  0
LINE
  5
1CA
330
18
100
AcDbEntity
  8
外形線
100
AcDbLine
 10
330.1506277816228
 20
226.2343950260738
 30
0.0
 11
330.1506277816228
 21
225.2343950260737
 31
0.0
  0
LINE
  5
1FF
330
18
100
AcDbEntity
  8
中心線
100
AcDbLine
 10
416.0267004808646
 20
347.2218138083452
 30
0.0
 11
416.0267004808646
 21
215.2047769333556
 31
0.0
  0
LINE
  5
200
330
18
100
AcDbEntity
  8
中心線
100
AcDbLine
 10
387.8790492453039
 20
291.1343950260738
 30
0.0
 11
430.3968736908335
 21
291.1343950260738
 31
0.0
  0
LINE
  5
201
330
18
100
AcDbEntity
  8
外形線
100
AcDbLine
 10
409.5267004808646
 20
320.5343950260738
 30
0.0
 11
425.5267004808646
 21
320.5343950260737
 31
0.0
  0
LINE
  5
202
330
18
100
AcDbEntity
  8
外形線
100
AcDbLine
 10
409.5267004808646
 20
261.7343950260738
 30
0.0
 11
425.5267004808646
 21
261.7343950260738
 31
0.0
  0
LINE
  5
203
330
18
100
AcDbEntity
  8
外形線
100
AcDbLine
 10
425.5267004808646
 20
320.5343950260737
 30
0.0
 11
425.5267004808646
 21
261.7343950260738
 31
0.0
  0
LINE
  5
204
330
18
100
AcDbEntity
  8
外形線
100
AcDbLine
 10
394.5267004808646
 20
321.1343950260738
 30
0.0
 11
394.5267004808646
 21
261.1343950260738
 31
0.0
  0
LINE
  5
205
330
18
100
AcDbEntity
  8
外形線
100
AcDbLine
 10
424.0267004808646
 20
320.5343950260737
 30
0.0
 11
424.0267004808647
 21
261.7343950260738
 31
0.0
  0
LINE
  5
206
330
18
100
AcDbEntity
  8
外形線
100
AcDbLine
 10
423.0267004808646
 20
320.5343950260737
 30
0.0
 11
423.0267004808647
 21
261.7343950260738
 31
0.0
  0
LINE
  5
213
330
18
100
AcDbEntity
  8
外形線
100
AcDbLine
 10
407.5267004808647
 20
322.1343950260738
 30
0.0
 11
407.5267004808647
 21
317.6343950260738
 31
0.0
  0
LINE
  5
214
330
18
100
AcDbEntity
  8
外形線
100
AcDbLine
 10
402.0267004808646
 20
322.1343950260738
 30
0.0
 11
402.0267004808647
 21
317.6343950260738
 31
0.0
  0
LINE
  5
215
330
18
100
AcDbEntity
  8
外形線
100
AcDbLine
 10
394.5267004808646
 20
321.1343950260737
 30
0.0
 11
402.0267004808646
 21
321.1343950260738
 31
0.0
  0
LINE
  5
216
330
18
100
AcDbEntity
  8
外形線
100
AcDbLine
 10
394.5267004808647
 20
261.1343950260738
 30
0.0
 11
407.5267004808648
 21
261.1343950260738
 31
0.0
  0
LINE
  5
217
330
18
100
AcDbEntity
  8
外形線
100
AcDbLine
 10
402.0267004808646
 20
322.1343950260738
 30
0.0
 11
407.5267004808647
 21
322.1343950260738
 31
0.0
  0
LINE
  5
218
330
18
100
AcDbEntity
  8
外形線
100
AcDbLine
 10
402.0267004808646
 20
318.6343950260738
 30
0.0
 11
407.5267004808647
 21
318.6343950260738
 31
0.0
  0
LINE
  5
219
330
18
100
AcDbEntity
  8
外形線
100
AcDbLine
 10
402.0267004808647
 20
317.6343950260738
 30
0.0
 11
407.5267004808647
 21
317.6343950260738
 31
0.0
  0
LINE
  5
21A
330
18
100
AcDbEntity
  8
外形線
100
AcDbLine
 10
407.5267004808647
 20
317.6343950260738
 30
0.0
 11
407.5267004808647
 21
261.1343950260737
 31
0.0
  0
LINE
  5
21D
330
18
100
AcDbEntity
  8
外形線
100
AcDbLine
 10
406.5267004808648
 20
263.6343950260738
 30
0.0
 11
406.5267004808647
 21
261.1343950260737
 31
0.0
  0
LINE
  5
21E
330
18
100
AcDbEntity
  8
外形線
100
AcDbLine
 10
401.0267004808646
 20
263.6343950260737
 30
0.0
 11
401.0267004808647
 21
261.1343950260737
 31
0.0
  0
LINE
  5
21F
330
18
100
AcDbEntity
  8
外形線
100
AcDbLine
 10
401.0267004808646
 20
263.6343950260737
 30
0.0
 11
406.5267004808648
 21
263.6343950260738
 31
0.0
  0
LINE
  5
222
330
18
100
AcDbEntity
  8
外形線
100
AcDbLine
 10
393.5267004808646
 20
291.1343950260738
 30
0.0
 11
393.5267004808646
 21
279.6343950260738
 31
0.0
  0
LINE
  5
224
330
18
100
AcDbEntity
  8
外形線
100
AcDbLine
 10
391.9267004808646
 20
279.6343950260738
 30
0.0
 11
393.5267004808646
 21
279.6343950260738
 31
0.0
  0
ARC
  5
226
330
18
100
AcDbEntity
  8
外形線
100
AcDbCircle
 10
573.1439547211911
 20
295.6452016838754
 30
0.0
 40
181.9206400838717
100
AcDbArc
 50
185.0491250177036
 51
187.1079812663738
  0
LINE
  5
227
330
18
100
AcDbEntity
  8
外形線
100
AcDbLine
 10
391.9292385453461
 20
273.1343950260738
 30
0.0
 11
392.9292385453461
 21
273.1343950260738
 31
0.0
  0
LINE
  5
228
330
18
100
AcDbEntity
  8
外形線
100
AcDbLine
 10
391.929238545346
 20
269.1343950260738
 30
0.0
 11
393.929238545346
 21
269.1343950260738
 31
0.0
  0
LINE
  5
229
330
18
100
AcDbEntity
  8
外形線
100
AcDbLine
 10
393.5267004808646
 20
291.1343950260738
 30
0.0
 11
394.5267004808646
 21
291.1343950260738
 31
0.0
  0
LINE
  5
22D
330
18
100
AcDbEntity
  8
外形線
100
AcDbLine
 10
391.929238545346
 20
273.1343950260738
 30
0.0
 11
391.929238545346
 21
269.1343950260738
 31
0.0
  0
LINE
  5
230
330
18
100
AcDbEntity
  8
外形線
100
AcDbLine
 10
392.9292385453461
 20
273.1343950260738
 30
0.0
 11
393.929238545346
 21
269.1343950260738
 31
0.0
  0
ARC
  5
231
330
18
100
AcDbEntity
  8
外形線
100
AcDbCircle
 10
573.1439547211911
 20
295.6452016838754
 30
0.0
 40
181.9206400838717
100
AcDbArc
 50
188.3793987252573
 51
190.9354250164132
  0
LINE
  5
232
330
18
100
AcDbEntity
  8
外形線
100
AcDbLine
 10
411.0267004808646
 20
343.0343950260738
 30
0.0
 11
411.0267004808646
 21
341.5343950260738
 31
0.0
  0
LINE
  5
233
330
18
100
AcDbEntity
  8
外形線
100
AcDbLine
 10
421.0267004808646
 20
343.0343950260738
 30
0.0
 11
421.0267004808646
 21
341.5343950260737
 31
0.0
  0
LINE
  5
234
330
18
100
AcDbEntity
  8
外形線
100
AcDbLine
 10
411.0267004808647
 20
341.5343950260739
 30
0.0
 11
421.0267004808646
 21
341.5343950260738
 31
0.0
  0
LINE
  5
235
330
18
100
AcDbEntity
  8
外形線
100
AcDbLine
 10
411.0267004808647
 20
340.5343950260739
 30
0.0
 11
421.0267004808646
 21
340.5343950260738
 31
0.0
  0
LINE
  5
236
330
18
100
AcDbEntity
  8
外形線
100
AcDbLine
 10
411.0267004808647
 20
339.2343950260738
 30
0.0
 11
421.0267004808646
 21
339.2343950260738
 31
0.0
  0
LINE
  5
237
330
18
100
AcDbEntity
  8
外形線
100
AcDbLine
 10
411.0267004808647
 20
338.2343950260739
 30
0.0
 11
421.0267004808646
 21
338.2343950260738
 31
0.0
  0
LINE
  5
238
330
18
100
AcDbEntity
  8
外形線
100
AcDbLine
 10
411.0267004808647
 20
336.9343950260738
 30
0.0
 11
421.0267004808646
 21
336.9343950260738
 31
0.0
  0
LINE
  5
239
330
18
100
AcDbEntity
  8
外形線
100
AcDbLine
 10
411.0267004808647
 20
335.4343950260739
 30
0.0
 11
421.0267004808646
 21
335.4343950260738
 31
0.0
  0
LINE
  5
23A
330
18
100
AcDbEntity
  8
外形線
100
AcDbLine
 10
411.0267004808646
 20
328.4343950260738
 30
0.0
 11
421.0267004808646
 21
328.4343950260738
 31
0.0
  0
LINE
  5
23B
330
18
100
AcDbEntity
  8
外形線
100
AcDbLine
 10
410.0267004808645
 20
326.9343950260739
 30
0.0
 11
422.0267004808646
 21
326.9343950260738
 31
0.0
  0
LINE
  5
23C
330
18
100
AcDbEntity
  8
外形線
100
AcDbLine
 10
411.0267004808646
 20
327.9343950260738
 30
0.0
 11
421.0267004808646
 21
327.9343950260738
 31
0.0
  0
LINE
  5
23D
330
18
100
AcDbEntity
  8
外形線
100
AcDbLine
 10
411.0267004808646
 20
335.4343950260739
 30
0.0
 11
411.0267004808646
 21
328.4343950260738
 31
0.0
  0
LINE
  5
23E
330
18
100
AcDbEntity
  8
外形線
100
AcDbLine
 10
410.0267004808646
 20
326.9343950260739
 30
0.0
 11
411.0267004808646
 21
327.9343950260738
 31
0.0
  0
LINE
  5
23F
330
18
100
AcDbEntity
  8
外形線
100
AcDbLine
 10
410.0267004808646
 20
326.9343950260739
 30
0.0
 11
410.0267004808645
 21
320.5343950260738
 31
0.0
  0
LINE
  5
240
330
18
100
AcDbEntity
  8
外形線
100
AcDbLine
 10
412.0267004808646
 20
328.4343950260738
 30
0.0
 11
412.0267004808646
 21
327.9343950260738
 31
0.0
  0
LINE
  5
241
330
18
100
AcDbEntity
  8
外形線
100
AcDbLine
 10
412.0267004808646
 20
336.9343950260738
 30
0.0
 11
412.0267004808646
 21
335.4343950260738
 31
0.0
  0
LINE
  5
242
330
18
100
AcDbEntity
  8
外形線
100
AcDbLine
 10
411.0267004808646
 20
340.5343950260738
 30
0.0
 11
411.0267004808646
 21
339.2343950260738
 31
0.0
  0
LINE
  5
243
330
18
100
AcDbEntity
  8
外形線
100
AcDbLine
 10
412.0267004808645
 20
339.2343950260737
 30
0.0
 11
412.0267004808646
 21
338.2343950260738
 31
0.0
  0
LINE
  5
244
330
18
100
AcDbEntity
  8
外形線
100
AcDbLine
 10
411.0267004808646
 20
338.2343950260739
 30
0.0
 11
411.0267004808646
 21
336.9343950260738
 31
0.0
  0
LINE
  5
245
330
18
100
AcDbEntity
  8
外形線
100
AcDbLine
 10
412.0267004808645
 20
341.5343950260738
 30
0.0
 11
412.0267004808645
 21
340.5343950260738
 31
0.0
  0
LINE
  5
246
330
18
100
AcDbEntity
  8
外形線
100
AcDbLine
 10
421.0267004808646
 20
335.4343950260738
 30
0.0
 11
421.0267004808646
 21
328.4343950260737
 31
0.0
  0
LINE
  5
247
330
18
100
AcDbEntity
  8
外形線
100
AcDbLine
 10
422.0267004808646
 20
326.9343950260738
 30
0.0
 11
422.0267004808645
 21
320.5343950260737
 31
0.0
  0
LINE
  5
248
330
18
100
AcDbEntity
  8
外形線
100
AcDbLine
 10
420.0267004808646
 20
328.4343950260737
 30
0.0
 11
420.0267004808646
 21
327.9343950260738
 31
0.0
  0
LINE
  5
249
330
18
100
AcDbEntity
  8
外形線
100
AcDbLine
 10
421.0267004808646
 20
327.9343950260738
 30
0.0
 11
422.0267004808646
 21
326.9343950260738
 31
0.0
  0
LINE
  5
24A
330
18
100
AcDbEntity
  8
外形線
100
AcDbLine
 10
420.0267004808646
 20
336.9343950260738
 30
0.0
 11
420.0267004808646
 21
335.4343950260737
 31
0.0
  0
LINE
  5
24B
330
18
100
AcDbEntity
  8
外形線
100
AcDbLine
 10
421.0267004808646
 20
340.5343950260737
 30
0.0
 11
421.0267004808646
 21
339.2343950260737
 31
0.0
  0
LINE
  5
24C
330
18
100
AcDbEntity
  8
外形線
100
AcDbLine
 10
420.0267004808646
 20
339.2343950260738
 30
0.0
 11
420.0267004808646
 21
338.2343950260737
 31
0.0
  0
LINE
  5
24D
330
18
100
AcDbEntity
  8
外形線
100
AcDbLine
 10
421.0267004808646
 20
338.2343950260738
 30
0.0
 11
421.0267004808646
 21
336.9343950260738
 31
0.0
  0
LINE
  5
24E
330
18
100
AcDbEntity
  8
外形線
100
AcDbLine
 10
420.0267004808646
 20
341.5343950260738
 30
0.0
 11
420.0267004808646
 21
340.5343950260738
 31
0.0
  0
LINE
  5
24F
330
18
100
AcDbEntity
  8
外形線
100
AcDbLine
 10
412.5267004808646
 20
344.5343950260737
 30
0.0
 11
419.5267004808646
 21
344.5343950260737
 31
0.0
  0
ARC
  5
250
330
18
100
AcDbEntity
  8
外形線
100
AcDbCircle
 10
412.5267004808646
 20
343.0343950260738
 30
0.0
 40
1.5
100
AcDbArc
 50
90.0
 51
180.0
  0
ARC
  5
251
330
18
100
AcDbEntity
  8
外形線
100
AcDbCircle
 10
419.5267004808646
 20
343.0343950260738
 30
0.0
 40
1.5
100
AcDbArc
 50
0.0
 51
90.0
  0
LINE
  5
253
330
18
100
AcDbEntity
  8
外形線
100
AcDbLine
 10
409.5267004808646
 20
320.5343950260738
 30
0.0
 11
409.5267004808646
 21
261.7343950260738
 31
0.0
  0
LINE
  5
254
330
18
100
AcDbEntity
  8
外形線
100
AcDbLine
 10
407.5267004808648
 20
261.1343950260738
 30
0.0
 11
409.5267004808646
 21
261.7343950260738
 31
0.0
  0
LINE
  5
256
330
18
100
AcDbEntity
  8
外形線
100
AcDbLine
 10
412.0267004808646
 20
260.1343950260738
 30
0.0
 11
412.0267004808644
 21
256.7343950260737
 31
0.0
  0
LINE
  5
257
330
18
100
AcDbEntity
  8
外形線
100
AcDbLine
 10
420.0267004808646
 20
260.1343950260738
 30
0.0
 11
420.0267004808644
 21
256.7343950260737
 31
0.0
  0
LINE
  5
262
330
18
100
AcDbEntity
  8
外形線
100
AcDbLine
 10
410.0267004808646
 20
260.1343950260738
 30
0.0
 11
422.0267004808646
 21
260.1343950260738
 31
0.0
  0
LINE
  5
263
330
18
100
AcDbEntity
  8
外形線
100
AcDbLine
 10
410.0267004808646
 20
261.7343950260737
 30
0.0
 11
410.0267004808646
 21
260.1343950260738
 31
0.0
  0
LINE
  5
264
330
18
100
AcDbEntity
  8
外形線
100
AcDbLine
 10
422.0267004808646
 20
261.7343950260738
 30
0.0
 11
422.0267004808646
 21
260.1343950260738
 31
0.0
  0
DIMENSION
  5
3C3
330
18
100
AcDbEntity
  8
外形線
100
AcDbDimension
  2
*D3
 10
435.4217076985703
 20
261.7343950260738
 30
0.0
 11
433.5467076985702
 21
291.1343950260739
 31
0.0
 70
    32
  1
φ58.8
 71
     5
 42
58.7999999999999
  3
STYLE3
100
AcDbAlignedDimension
 13
425.5267004808646
 23
320.5343950260737
 33
0.0
 14
425.5267004808646
 24
261.7343950260738
 34
0.0
 50
90.0
100
AcDbRotatedDimension
1001
ACAD
1000
DSTYLE
1002
{
1070
   271
1070
     2
1002
}
  0
DIMENSION
  5
3DD
330
18
100
AcDbEntity
  8
外形線
100
AcDbDimension
  2
*D4
 10
383.3649279599308
 20
261.1343950260738
 30
0.0
 11
381.4899279599308
 21
291.1343950260739
 31
0.0
 70
    32
  1
φ60
 71
     5
 42
59.99999999999994
  3
STYLE3
100
AcDbAlignedDimension
 13
394.5267004808646
 23
321.1343950260737
 33
0.0
 14
394.5267004808646
 24
261.1343950260738
 34
0.0
 50
90.0
100
AcDbRotatedDimension
1001
ACAD
1000
DSTYLE
1002
{
1070
   271
1070
     2
1002
}
  0
POINT
  5
47A
330
18
100
AcDbEntity
  8
DEFPOINTS
  6
ByBlock
 62
     0
100
AcDbPoint
 10
327.1506277816228
 20
327.9343950260738
 30
0.0
  0
POINT
  5
483
330
18
100
AcDbEntity
  8
DEFPOINTS
  6
ByBlock
 62
     0
100
AcDbPoint
 10
326.1506277816228
 20
260.1343950260738
 30
0.0
  0
LINE
  5
4AC
330
18
100
AcDbEntity
  8
外形線
100
AcDbLine
 10
409.5267004808646
 20
320.5343950260738
 30
0.0
 11
407.5267004808647
 21
321.1343950260738
 31
0.0
  0
HATCH
  5
5F8
330
18
100
AcDbEntity
  8
ROGO
 62
     4
100
AcDbHatch
 10
0.0
 20
0.0
 30
0.0
210
0.0
220
0.0
230
1.0
  2
SOLID
 70
     1
 71
     1
 91
        2
 92
        5
 93
        6
 72
     1
 10
321.866880973857
 20
305.639170559455
 11
323.0931964886324
 21
305.6391705594549
 72
     1
 10
323.0931964886324
 20
305.6391705594549
 11
323.5229132539834
 21
306.5889712293317
 72
     1
 10
323.5229132539834
 20
306.5889712293317
 11
324.6692667416331
 21
306.5889712293316
 72
     4
 94
        3
 73
     0
 74
     0
 95
       18
 96
       14
 40
0.108740278791501
 40
0.108740278791501
 40
0.108740278791501
 40
0.108740278791501
 40
0.6623149649549278
 40
1.384304701649787
 40
2.097394834876493
 40
2.774073369849618
 40
3.428974823686337
 40
4.005208313035923
 40
4.455173659284313
 40
4.720999734343524
 40
5.086034088486724
 40
5.569973738255373
 40
6.060470601257719
 40
6.060470601257719
 40
6.060470601257719
 40
6.060470601257719
 10
324.6692667416332
 20
306.5889712293317
 10
324.7499452062121
 20
306.5895720174288
 10
324.9358470938525
 20
306.5909563724971
 10
325.1959223799903
 20
306.7298943051341
 10
325.4425480596814
 20
306.9068911084305
 10
325.6411882670717
 20
307.1280301480328
 10
325.7649471010553
 20
307.3808647534166
 10
325.7841169532587
 20
307.6231834991517
 10
325.7724142294589
 20
307.8148546144957
 10
325.6887923899036
 20
307.9484541403136
 10
325.6018572834289
 20
308.0840439966786
 10
325.4424476948683
 20
308.2014969664105
 10
325.3118346190605
 20
308.2529588266729
 10
325.2454152135284
 20
308.2773004257628
 72
     1
 10
325.2454152135286
 20
308.2773004257628
 11
323.1722030968332
 21
308.2773004257627
 72
     1
 10
323.1722030968332
 20
308.2773004257627
 11
321.866880973857
 21
305.639170559455
 97
        6
330
5FB
330
5FD
330
604
330
5FC
330
5FE
330
603
 92
       20
 93
        4
 72
     1
 10
323.7882390298105
 20
307.1754193736359
 11
323.9913790536988
 21
307.6244186827742
 72
     1
 10
323.9913790536988
 20
307.6244186827742
 11
324.5133623382525
 21
307.6244186827742
 72
     4
 94
        3
 73
     0
 74
     0
 95
       15
 96
       11
 40
0.0
 40
0.0
 40
0.0
 40
0.0
 40
0.1979620751796092
 40
0.2882218927611821
 40
0.390672794493828
 40
0.4604671121752228
 40
0.570847549457819
 40
0.6369624161317818
 40
0.7503938621545029
 40
0.7882043682941406
 40
0.7882043682941406
 40
0.7882043682941406
 40
0.7882043682941406
 10
324.5133623382526
 20
307.6244186827742
 10
324.5877130547573
 20
307.624759248743
 10
324.6959636084033
 20
307.6252550940611
 10
324.7551588665865
 20
307.4913488461519
 10
324.7286247294289
 20
307.405134111618
 10
324.6952691564554
 20
307.3166184504423
 10
324.6363223044723
 20
307.2564707236675
 10
324.5572069949927
 20
307.1985383232769
 10
324.4824392467784
 20
307.1915253468006
 10
324.4338112195277
 20
307.1786405695023
 10
324.4216542068958
 20
307.1754193736358
 72
     1
 10
324.4216542068956
 20
307.1754193736357
 11
323.7882390298105
 21
307.1754193736359
 97
        4
330
602
330
600
330
601
330
5FF
 75
     0
 76
     1
 47
0.0514683685270805
 98
        2
 10
323.1832840939421
 20
307.4567720240484
 10
323.1832840939421
 20
307.4567720240484
450
        0
451
        0
460
0.0
461
0.0
452
        0
462
0.0
453
        0
470

  0
HATCH
  5
5F9
330
18
100
AcDbEntity
  8
ROGO
 62
     4
100
AcDbHatch
 10
0.0
 20
0.0
 30
0.0
210
0.0
220
0.0
230
1.0
  2
SOLID
 70
     1
 71
     0
 91
        1
 92
        7
 72
     0
 73
     1
 93
        4
 10
323.2128335341751
 20
305.9036036818295
 10
323.0931964886324
 20
305.6391705594549
 10
338.7522869339536
 20
305.639170559455
 10
338.8841418291643
 20
305.9036036818295
 97
        0
 75
     0
 76
     1
 47
0.0514683685270805
 98
        1
 10
333.1079931553171
 20
305.8336653707091
450
        0
451
        0
460
0.0
461
0.0
452
        0
462
0.0
453
        0
470

  0
LINE
  5
5FA
330
18
100
AcDbEntity
  8
ROGO
 62
     4
100
AcDbLine
 10
323.1944948167106
 20
305.9036036818295
 30
0.0
 11
338.8841418291643
 21
305.9036036818295
 31
0.0
  0
SPLINE
  5
5FB
102
{ACAD_REACTORS
330
5F8
102
}
330
18
100
AcDbEntity
  8
ROGO
 62
     4
100
AcDbSpline
210
0.0
220
0.0
230
1.0
 70
     8
 71
     3
 72
    18
 73
    14
 74
     0
 42
0.0000000001
 43
0.0000000001
 40
0.1087402787915014
 40
0.1087402787915014
 40
0.1087402787915014
 40
0.1087402787915014
 40
0.5992371417938475
 40
1.083176791562496
 40
1.448211145705696
 40
1.714037220764907
 40
2.164002567013297
 40
2.740236056362883
 40
3.395137510199602
 40
4.071816045172726
 40
4.784906178399433
 40
5.506895915094292
 40
6.060470601257719
 40
6.060470601257719
 40
6.060470601257719
 40
6.060470601257719
 10
325.2454152135284
 20
308.2773004257628
 30
0.0
 10
325.3118346190605
 20
308.2529588266729
 30
0.0
 10
325.4424476948683
 20
308.2014969664105
 30
0.0
 10
325.6018572834289
 20
308.0840439966786
 30
0.0
 10
325.6887923899036
 20
307.9484541403136
 30
0.0
 10
325.7724142294589
 20
307.8148546144957
 30
0.0
 10
325.7841169532587
 20
307.6231834991517
 30
0.0
 10
325.7649471010553
 20
307.3808647534166
 30
0.0
 10
325.6411882670717
 20
307.1280301480328
 30
0.0
 10
325.4425480596814
 20
306.9068911084305
 30
0.0
 10
325.1959223799903
 20
306.7298943051341
 30
0.0
 10
324.9358470938525
 20
306.5909563724971
 30
0.0
 10
324.7499452062121
 20
306.5895720174288
 30
0.0
 10
324.6692667416332
 20
306.5889712293317
 30
0.0
  0
LINE
  5
5FC
102
{ACAD_REACTORS
330
5F8
330
62F
102
}
330
18
100
AcDbEntity
  8
ROGO
 62
     4
100
AcDbLine
 10
321.866880973857
 20
305.639170559455
 30
0.0
 11
339.7243946028875
 21
305.639170559455
 31
0.0
  0
LINE
  5
5FD
102
{ACAD_REACTORS
330
5F8
102
}
330
18
100
AcDbEntity
  8
ROGO
 62
     4
100
AcDbLine
 10
323.1722030968333
 20
308.2773004257628
 30
0.0
 11
325.2454152135284
 21
308.2773004257628
 31
0.0
  0
LINE
  5
5FE
102
{ACAD_REACTORS
330
5F8
102
}
330
18
100
AcDbEntity
  8
ROGO
 62
     4
100
AcDbLine
 10
323.5229132539834
 20
306.5889712293317
 30
0.0
 11
323.0931964886324
 21
305.639170559455
 31
0.0
  0
LINE
  5
5FF
102
{ACAD_REACTORS
330
5F8
102
}
330
18
100
AcDbEntity
  8
ROGO
 62
     4
100
AcDbLine
 10
324.4216542068959
 20
307.1754193736357
 30
0.0
 11
323.7882390298106
 21
307.1754193736358
 31
0.0
  0
LINE
  5
600
102
{ACAD_REACTORS
330
5F8
102
}
330
18
100
AcDbEntity
  8
ROGO
 62
     4
100
AcDbLine
 10
324.5133623382526
 20
307.6244186827742
 30
0.0
 11
323.9913790536988
 21
307.6244186827742
 31
0.0
  0
SPLINE
  5
601
102
{ACAD_REACTORS
330
5F8
102
}
330
18
100
AcDbEntity
  8
ROGO
 62
     4
100
AcDbSpline
210
0.0
220
0.0
230
1.0
 70
     8
 71
     3
 72
    15
 73
    11
 74
     9
 42
0.0000000001
 43
0.0000000001
 44
0.0000000001
 40
0.0
 40
0.0
 40
0.0
 40
0.0
 40
0.1979620751796092
 40
0.2882218927611821
 40
0.390672794493828
 40
0.4604671121752228
 40
0.570847549457819
 40
0.6369624161317818
 40
0.7503938621545029
 40
0.7882043682941406
 40
0.7882043682941406
 40
0.7882043682941406
 40
0.7882043682941406
 10
324.5133623382526
 20
307.6244186827742
 30
0.0
 10
324.5877130547573
 20
307.624759248743
 30
0.0
 10
324.6959636084033
 20
307.6252550940611
 30
0.0
 10
324.7551588665865
 20
307.4913488461519
 30
0.0
 10
324.7286247294289
 20
307.405134111618
 30
0.0
 10
324.6952691564554
 20
307.3166184504423
 30
0.0
 10
324.6363223044723
 20
307.2564707236675
 30
0.0
 10
324.5572069949927
 20
307.1985383232769
 30
0.0
 10
324.4824392467784
 20
307.1915253468006
 30
0.0
 10
324.4338112195277
 20
307.1786405695023
 30
0.0
 10
324.4216542068958
 20
307.1754193736358
 30
0.0
 11
324.5133623382526
 21
307.6244186827742
 31
0.0
 11
324.7059495723039
 21
307.5786023048086
 31
0.0
 11
324.7426329303146
 21
307.4961331232016
 31
0.0
 11
324.7242915149792
 21
307.3953373904084
 31
0.0
 11
324.6967791283063
 21
307.3311944612566
 31
0.0
 11
324.6234124122848
 21
307.2487252796496
 31
0.0
 11
324.5683876389387
 21
307.2120721772772
 31
0.0
 11
324.4583375649065
 21
307.1845826492289
 31
0.0
 11
324.4216542068958
 21
307.1754193736358
 31
0.0
  0
LINE
  5
602
102
{ACAD_REACTORS
330
5F8
102
}
330
18
100
AcDbEntity
  8
ROGO
 62
     4
100
AcDbLine
 10
323.9913790536988
 20
307.6244186827742
 30
0.0
 11
323.7882390298106
 21
307.1754193736358
 31
0.0
  0
LINE
  5
603
102
{ACAD_REACTORS
330
5F8
102
}
330
18
100
AcDbEntity
  8
ROGO
 62
     4
100
AcDbLine
 10
324.6692667420306
 20
306.5889712293317
 30
0.0
 11
323.5229132539834
 21
306.5889712293317
 31
0.0
  0
LINE
  5
604
102
{ACAD_REACTORS
330
5F8
102
}
330
18
100
AcDbEntity
  8
ROGO
 62
     4
100
AcDbLine
 10
323.1722030968333
 20
308.2773004257628
 30
0.0
 11
321.866880973857
 21
305.639170559455
 31
0.0
  0
TEXT
  5
605
330
18
100
AcDbEntity
  8
文字
100
AcDbText
 10
327.2636218438573
 20
310.4776145968855
 30
0.0
 40
2.0
  1
T5-127
 51
10.0
  7
STYLE3
100
AcDbText
  0
HATCH
  5
606
330
18
100
AcDbEntity
  8
ROGO
 62
     4
100
AcDbHatch
 10
0.0
 20
0.0
 30
0.0
210
0.0
220
0.0
230
1.0
  2
SOLID
 70
     1
 71
     1
 91
        2
 92
        5
 93
        6
 72
     4
 94
        3
 73
     0
 74
     0
 95
       38
 96
       34
 40
0.0
 40
0.0
 40
0.0
 40
0.0
 40
0.2324160190625641
 40
0.3054076598660179
 40
0.3991969555208118
 40
0.4773548548861183
 40
0.5433001127836845
 40
0.6308904647837286
 40
0.6756456824938584
 40
0.7260518053353911
 40
0.8003409450195571
 40
0.884494420029689
 40
0.9390839551137702
 40
0.9983865037096219
 40
1.064308042580248
 40
1.164347318186099
 40
1.259395062462607
 40
1.303582284428296
 40
1.353971899974848
 40
1.413666953858189
 40
1.456162161198055
 40
1.491785383230425
 40
1.542647296663551
 40
1.598535826931799
 40
1.654424046021893
 40
1.703326315520178
 40
1.815321205179844
 40
1.859508427145426
 40
1.947882923564461
 40
2.026002047025105
 40
2.175555252260891
 40
2.360088422381767
 40
2.626581173122162
 40
2.626581173122162
 40
2.626581173122162
 40
2.626581173122162
 10
335.211765943234
 20
308.2843425646986
 10
335.1342947177154
 20
308.2788697687118
 10
335.0324931904883
 20
308.271678208414
 10
334.9032290544043
 20
308.2362636890077
 10
334.8327657986946
 20
308.1940735925619
 10
334.759434697001
 20
308.1630618493754
 10
334.6969131030773
 20
308.1171396074835
 10
334.633673830754
 20
308.0934763186635
 10
334.5893917564138
 20
308.0508071793271
 10
334.5381388673857
 20
308.024743027388
 10
334.4973252818832
 20
307.9664038779408
 10
334.4517072691996
 20
307.9118588872371
 10
334.3987846355333
 20
307.8720434766375
 10
334.355350319814
 20
307.8302256465431
 10
334.3155053746256
 20
307.7656881698779
 10
334.2919233527484
 20
307.6799369738537
 10
334.225449591365
 20
307.6257967612013
 10
334.2154407241724
 20
307.560704071332
 10
334.1786720596351
 20
307.5223004796583
 10
334.1626837583346
 20
307.4727269599633
 10
334.156594643604
 20
307.4273088594081
 10
334.1492862539781
 20
307.3848914975717
 10
334.1301688908219
 20
307.3402703066231
 10
334.1364088641152
 20
307.2851513765638
 10
334.1346312830608
 20
307.231777887101
 10
334.1356773915981
 20
307.1597220143151
 10
334.1319018410102
 20
307.0895667611328
 10
334.1620103773867
 20
307.013221206059
 10
334.179827610019
 20
306.9451697057736
 10
334.2286229999465
 20
306.8509441514502
 10
334.3127940249981
 20
306.7422282352531
 10
334.4728522698777
 20
306.6102677110194
 10
334.6267529520255
 20
306.5968809300972
 10
334.7176865641071
 20
306.5889712293317
 72
     1
 10
334.7176865641071
 20
306.5889712293317
 11
335.6825557653464
 21
306.5889712293317
 72
     4
 94
        3
 73
     0
 74
     0
 95
       11
 96
        7
 40
0.1647869275458135
 40
0.1647869275458135
 40
0.1647869275458135
 40
0.1647869275458135
 40
0.2545010798212315
 40
0.5111620267764023
 40
0.7602998271033902
 40
0.8850764140209603
 40
0.8850764140209603
 40
0.8850764140209603
 40
0.8850764140209603
 10
335.6825557653455
 20
306.5889712293317
 10
335.6960196371854
 20
306.5887117520764
 10
335.7480019591078
 20
306.5877099429106
 10
335.8368403703746
 20
306.6004726250908
 10
335.9303102138379
 20
306.612702846428
 10
335.9860343713961
 20
306.6216097475788
 10
336.0040067835686
 20
306.626612375357
 72
     4
 94
        3
 73
     0
 74
     0
 95
        9
 96
        5
 40
0.0
 40
0.0
 40
0.0
 40
0.0
 40
0.146030572742497
 40
0.3423777932799819
 40
0.3423777932799819
 40
0.3423777932799819
 40
0.3423777932799819
 10
336.0040067835686
 20
306.626612375357
 10
336.0509160285488
 20
306.6409639550012
 10
336.1608976815627
 20
306.6746121293277
 10
336.2517677208672
 20
306.7457279664663
 10
336.303879978139
 20
306.7865115605907
 72
     4
 94
        3
 73
     0
 74
     0
 95
       25
 96
       21
 40
0.0
 40
0.0
 40
0.0
 40
0.0
 40
0.165525918914855
 40
0.3412380755365305
 40
0.5940540902285263
 40
0.7697671103696209
 40
0.9377330196075423
 40
1.11479469302833
 40
1.274661249598185
 40
1.574522170874768
 40
1.815540668866877
 40
2.15849091873445
 40
2.536227739636605
 40
2.738070817316548
 40
2.925680654369045
 40
3.162706124480894
 40
3.395643218188267
 40
3.648478129958861
 40
3.928509979727306
 40
4.337226830236035
 40
4.337226830236035
 40
4.337226830236035
 40
4.337226830236035
 10
336.303879978139
 20
306.7865115605907
 10
336.3230276805024
 20
306.8023345170923
 10
336.3593456367503
 20
306.8399675326631
 10
336.4237615124298
 20
306.9009622662413
 10
336.4805260036098
 20
306.9720259711107
 10
336.5505490902462
 20
307.0296206133765
 10
336.5870028902249
 20
307.1000343329663
 10
336.6395481653302
 20
307.1554132236079
 10
336.6836250467954
 20
307.2409404575958
 10
336.7210221022668
 20
307.3391841556382
 10
336.7566750307636
 20
307.4672429489713
 10
336.7703376007679
 20
307.611712302887
 10
336.7501152980787
 20
307.7514863302982
 10
336.7012633267825
 20
307.85596282456
 10
336.665347977222
 20
307.9430332148449
 10
336.6108419346819
 20
308.025504205287
 10
336.5486579070039
 20
308.1152005277167
 10
336.4610516231704
 20
308.1893939078359
 10
336.3465592049433
 20
308.2788830798902
 10
336.239918066448
 20
308.2823093496836
 10
336.1766351444724
 20
308.2843425646986
 72
     1
 10
336.1766351444724
 20
308.2843425646985
 11
335.211765943234
 21
308.2843425646986
 97
        6
330
631
330
608
330
60C
330
60B
330
60A
330
607
 92
       20
 93
        1
 72
     3
 10
335.4334981649021
 20
307.4130191461313
 11
0.2292231973722778
 21
0.2015731185223643
 40
0.6788083417438792
 50
0.0
 51
360.0
 73
     1
 97
        1
330
609
 75
     0
 76
     1
 47
0.088756267210375
 98
        2
 10
335.5009098051761
 20
307.8160742079765
 10
335.5009098051761
 20
307.8160742079765
450
        0
451
        0
460
0.0
461
0.0
452
        0
462
0.0
453
        0
470

  0
SPLINE
  5
607
102
{ACAD_REACTORS
330
606
102
}
330
18
100
AcDbEntity
  8
ROGO
 62
     4
100
AcDbSpline
210
0.0
220
0.0
230
1.0
 70
     8
 71
     3
 72
     9
 73
     5
 74
     3
 42
0.0000000001
 43
0.0000000001
 44
0.0000000001
 40
0.0
 40
0.0
 40
0.0
 40
0.0
 40
0.146030572742497
 40
0.3423777932799819
 40
0.3423777932799819
 40
0.3423777932799819
 40
0.3423777932799819
 10
336.0040067835686
 20
306.626612375357
 30
0.0
 10
336.0509160285488
 20
306.6409639550012
 30
0.0
 10
336.1608976815627
 20
306.6746121293277
 30
0.0
 10
336.2517677208672
 20
306.7457279664663
 30
0.0
 10
336.303879978139
 20
306.7865115605907
 30
0.0
 11
336.0040067835686
 21
306.626612375357
 31
0.0
 11
336.1412577661432
 21
306.6764831679896
 31
0.0
 11
336.303879978139
 21
306.7865115605907
 31
0.0
  0
LINE
  5
608
102
{ACAD_REACTORS
330
606
102
}
330
18
100
AcDbEntity
  8
ROGO
 62
     4
100
AcDbLine
 10
335.211765943234
 20
308.2843425646986
 30
0.0
 11
336.1766351444724
 21
308.2843425646986
 31
0.0
  0
ELLIPSE
  5
609
102
{ACAD_REACTORS
330
606
102
}
330
18
100
AcDbEntity
  8
ROGO
 62
     4
100
AcDbEllipse
 10
335.4334981649021
 20
307.4130191461313
 30
0.0
 11
0.2292231973722778
 21
0.2015731185223643
 31
0.0
210
0.0
220
0.0
230
1.0
 40
0.6788083417438792
 41
0.0
 42
6.283185307179586
  0
SPLINE
  5
60A
102
{ACAD_REACTORS
330
606
102
}
330
18
100
AcDbEntity
  8
ROGO
 62
     4
100
AcDbSpline
210
0.0
220
0.0
230
1.0
 70
     8
 71
     3
 72
    11
 73
     7
 74
     0
 42
0.0000000001
 43
0.0000000001
 40
0.1647869275458134
 40
0.1647869275458134
 40
0.1647869275458134
 40
0.1647869275458134
 40
0.2895635144633836
 40
0.5387013147903714
 40
0.7953622617455423
 40
0.8850764140209602
 40
0.8850764140209602
 40
0.8850764140209602
 40
0.8850764140209602
 10
336.0040067835686
 20
306.626612375357
 30
0.0
 10
335.9860343713961
 20
306.6216097475788
 30
0.0
 10
335.9303102138379
 20
306.612702846428
 30
0.0
 10
335.8368403703746
 20
306.6004726250908
 30
0.0
 10
335.7480019591078
 20
306.5877099429106
 30
0.0
 10
335.6960196371854
 20
306.5887117520764
 30
0.0
 10
335.6825557653455
 20
306.5889712293317
 30
0.0
  0
LINE
  5
60B
102
{ACAD_REACTORS
330
606
102
}
330
18
100
AcDbEntity
  8
ROGO
 62
     4
100
AcDbLine
 10
334.7176865641071
 20
306.5889712293317
 30
0.0
 11
335.6825557653455
 21
306.5889712293317
 31
0.0
  0
SPLINE
  5
60C
102
{ACAD_REACTORS
330
606
102
}
330
18
100
AcDbEntity
  8
ROGO
 62
     4
100
AcDbSpline
210
0.0
220
0.0
230
1.0
 70
     8
 71
     3
 72
    38
 73
    34
 74
    32
 42
0.0000000001
 43
0.0000000001
 44
0.0000000001
 40
0.0
 40
0.0
 40
0.0
 40
0.0
 40
0.2324160190625641
 40
0.3054076598660179
 40
0.3991969555208118
 40
0.4773548548861183
 40
0.5433001127836845
 40
0.6308904647837286
 40
0.6756456824938584
 40
0.7260518053353911
 40
0.8003409450195571
 40
0.884494420029689
 40
0.9390839551137702
 40
0.9983865037096219
 40
1.064308042580248
 40
1.164347318186099
 40
1.259395062462607
 40
1.303582284428296
 40
1.353971899974848
 40
1.413666953858189
 40
1.456162161198055
 40
1.491785383230425
 40
1.542647296663551
 40
1.598535826931799
 40
1.654424046021893
 40
1.703326315520178
 40
1.815321205179844
 40
1.859508427145426
 40
1.947882923564461
 40
2.026002047025105
 40
2.175555252260891
 40
2.360088422381767
 40
2.626581173122162
 40
2.626581173122162
 40
2.626581173122162
 40
2.626581173122162
 10
335.211765943234
 20
308.2843425646986
 30
0.0
 10
335.1342947177154
 20
308.2788697687118
 30
0.0
 10
335.0324931904883
 20
308.271678208414
 30
0.0
 10
334.9032290544043
 20
308.2362636890077
 30
0.0
 10
334.8327657986946
 20
308.1940735925619
 30
0.0
 10
334.759434697001
 20
308.1630618493754
 30
0.0
 10
334.6969131030773
 20
308.1171396074835
 30
0.0
 10
334.633673830754
 20
308.0934763186635
 30
0.0
 10
334.5893917564138
 20
308.0508071793271
 30
0.0
 10
334.5381388673857
 20
308.024743027388
 30
0.0
 10
334.4973252818832
 20
307.9664038779408
 30
0.0
 10
334.4517072691996
 20
307.9118588872371
 30
0.0
 10
334.3987846355333
 20
307.8720434766375
 30
0.0
 10
334.355350319814
 20
307.8302256465431
 30
0.0
 10
334.3155053746256
 20
307.7656881698779
 30
0.0
 10
334.2919233527484
 20
307.6799369738537
 30
0.0
 10
334.225449591365
 20
307.6257967612013
 30
0.0
 10
334.2154407241724
 20
307.560704071332
 30
0.0
 10
334.1786720596351
 20
307.5223004796583
 30
0.0
 10
334.1626837583346
 20
307.4727269599633
 30
0.0
 10
334.156594643604
 20
307.4273088594081
 30
0.0
 10
334.1492862539781
 20
307.3848914975717
 30
0.0
 10
334.1301688908219
 20
307.3402703066231
 30
0.0
 10
334.1364088641152
 20
307.2851513765638
 30
0.0
 10
334.1346312830608
 20
307.231777887101
 30
0.0
 10
334.1356773915981
 20
307.1597220143151
 30
0.0
 10
334.1319018410102
 20
307.0895667611328
 30
0.0
 10
334.1620103773867
 20
307.013221206059
 30
0.0
 10
334.179827610019
 20
306.9451697057736
 30
0.0
 10
334.2286229999465
 20
306.8509441514502
 30
0.0
 10
334.3127940249981
 20
306.7422282352531
 30
0.0
 10
334.4728522698777
 20
306.6102677110194
 30
0.0
 10
334.6267529520255
 20
306.5968809300972
 30
0.0
 10
334.7176865641071
 20
306.5889712293317
 30
0.0
 11
335.211765943234
 21
308.2843425646986
 31
0.0
 11
334.9810359814446
 21
308.2563981439754
 31
0.0
 11
334.9111178278513
 21
308.2354402952003
 31
0.0
 11
334.8272163731267
 21
308.1935239752936
 31
0.0
 11
334.7572982195334
 21
308.1585939161568
 31
0.0
 11
334.7013639163837
 21
308.123663545842
 31
0.0
 11
334.6244541122247
 21
308.0817475371135
 31
0.0
 11
334.5894947607718
 21
308.0538034275684
 31
0.0
 11
334.5475437587532
 21
308.0258590068452
 31
0.0
 11
334.4986011061692
 21
307.9699707877552
 31
0.0
 11
334.4426668030195
 21
307.9070966190733
 31
0.0
 11
334.4007158010009
 21
307.8721662487584
 31
0.0
 11
334.3587653482949
 21
307.8302502400299
 31
0.0
 11
334.323805996842
 21
307.7743620209399
 31
0.0
 11
334.2818555441361
 21
307.6835434315349
 31
0.0
 11
334.2259206916738
 21
307.6066970524915
 31
0.0
 11
334.2119373905426
 21
307.5647807325848
 31
0.0
 11
334.1839702389679
 21
307.5228647238564
 31
0.0
 11
334.1629947379586
 21
307.4669761935882
 31
0.0
 11
334.1560025380804
 21
307.4250601848597
 31
0.0
 11
334.1490108875148
 21
307.3901298145448
 31
0.0
 11
334.1350275863837
 21
307.3412278562246
 31
0.0
 11
334.1350275863837
 21
307.2853393259563
 31
0.0
 11
334.1350275863837
 21
307.2294511068662
 31
0.0
 11
334.1350275863837
 21
307.180548837368
 31
0.0
 11
334.1420192369493
 21
307.0687723991877
 31
0.0
 11
334.1560025380804
 21
307.0268560792812
 31
0.0
 11
334.1839702389679
 21
306.943023750646
 31
0.0
 11
334.2189290411083
 21
306.8731633211944
 31
0.0
 11
334.3098226957109
 21
306.7544009334225
 31
0.0
 11
334.4566506534633
 21
306.6426241840642
 31
0.0
 11
334.7176865641071
 21
306.5889712293317
 31
0.0
  0
HATCH
  5
60D
330
18
100
AcDbEntity
  8
ROGO
 62
     4
100
AcDbHatch
 10
0.0
 20
0.0
 30
0.0
210
0.0
220
0.0
230
1.0
  2
SOLID
 70
     1
 71
     1
 91
        2
 92
        7
 72
     0
 73
     1
 93
        8
 10
330.7657643573753
 20
308.2773004257628
 10
329.415245593812
 20
308.2773004257628
 10
328.1977585979701
 20
306.5889712293317
 10
329.1327907787165
 20
306.5889712293318
 10
329.364592769892
 20
306.9104186623056
 10
330.4315774697575
 20
306.9104186623056
 10
330.5743771565606
 20
306.5889712293317
 10
331.515787085011
 20
306.5889712293318
 97
        8
330
61D
330
623
330
61E
330
61F
330
621
330
60E
330
61C
330
610
 92
       22
 72
     0
 73
     1
 93
        3
 10
330.2809623339853
 20
307.2494589630577
 10
329.6090813199356
 20
307.2494589630577
 10
330.0248385523384
 20
307.826003169682
 97
        3
330
620
330
622
330
60F
 75
     0
 76
     1
 47
0.0128389261915577
 98
        2
 10
330.6600080670236
 20
307.8722465327226
 10
330.6600080670236
 20
307.8722465327226
450
        0
451
        0
460
0.0
461
0.0
452
        0
462
0.0
453
        0
470

  0
LINE
  5
60E
102
{ACAD_REACTORS
330
60D
102
}
330
18
100
AcDbEntity
  8
ROGO
 62
     4
100
AcDbLine
 10
330.4315774697575
 20
306.9104186623056
 30
0.0
 11
330.5743771565604
 21
306.5889712293317
 31
0.0
  0
LINE
  5
60F
102
{ACAD_REACTORS
330
60D
102
}
330
18
100
AcDbEntity
  8
ROGO
 62
     4
100
AcDbLine
 10
330.0248385523385
 20
307.826003169682
 30
0.0
 11
330.2809623339854
 21
307.2494589630577
 31
0.0
  0
LINE
  5
610
102
{ACAD_REACTORS
330
60D
102
}
330
18
100
AcDbEntity
  8
ROGO
 62
     4
100
AcDbLine
 10
330.7657643573752
 20
308.2773004257628
 30
0.0
 11
331.515787085011
 21
306.5889712293317
 31
0.0
  0
HATCH
  5
611
330
18
100
AcDbEntity
  8
ROGO
 62
     4
100
AcDbHatch
 10
0.0
 20
0.0
 30
0.0
210
0.0
220
0.0
230
1.0
  2
SOLID
 70
     1
 71
     1
 91
        1
 92
        5
 93
        8
 72
     1
 10
333.9609657167698
 20
307.6491325014841
 11
334.2741905317506
 21
308.2773004257629
 72
     1
 10
334.2741905317506
 20
308.2773004257629
 11
332.5834295204716
 21
308.2773004257628
 72
     4
 94
        3
 73
     0
 74
     0
 95
       26
 96
       22
 40
0.0
 40
0.0
 40
0.0
 40
0.0
 40
0.306282258847545
 40
0.5113145150563467
 40
0.6591594689727181
 40
0.7695505122602936
 40
0.9127334891892449
 40
1.017243103820777
 40
1.205963108812785
 40
1.359578479722587
 40
1.464061546148638
 40
1.566512542290269
 40
1.749777456690453
 40
1.879367624743226
 40
1.949161942424621
 40
2.048302708997833
 40
2.119894481049029
 40
2.223607322578598
 40
2.282299819925661
 40
2.410021277698012
 40
2.468340004823004
 40
2.468340004823004
 40
2.468340004823004
 40
2.468340004823004
 10
332.583429520471
 20
308.2773004257628
 10
332.4794725894956
 20
308.2710981769933
 10
332.3059245428394
 20
308.2607440029261
 10
332.1153698433528
 20
308.144984069394
 10
331.9757583148254
 20
308.0776863310967
 10
331.8761875419941
 20
307.9862007892713
 10
331.8032017618789
 20
307.8917029074584
 10
331.7111894844105
 20
307.779109374154
 10
331.6361561013887
 20
307.6479987608425
 10
331.5979461609888
 20
307.503492008047
 10
331.5641001584342
 20
307.388319287614
 10
331.5389993963261
 20
307.2599743210379
 10
331.5453857407997
 20
307.1213166077378
 10
331.5545312783656
 20
306.9925384221616
 10
331.5953638796964
 20
306.9006100783986
 10
331.6418649799121
 20
306.8351634323468
 10
331.698804940297
 20
306.7630812074483
 10
331.7611097087053
 20
306.7153413833095
 10
331.8126408378473
 20
306.6288574838429
 10
331.9028443410419
 20
306.617821514545
 10
331.9601812762822
 20
306.5958566418461
 10
331.9781549043041
 20
306.5889712293317
 72
     1
 10
331.9781549043041
 20
306.5889712293317
 11
333.4323350664528
 21
306.5889712293317
 72
     1
 10
333.4323350664528
 20
306.5889712293317
 11
333.7455565644685
 21
307.2171325014839
 72
     1
 10
333.7455565644685
 20
307.2171325014839
 11
332.6659666804901
 21
307.2171325014839
 72
     4
 94
        3
 73
     0
 74
     0
 95
       16
 96
       12
 40
0.0
 40
0.0
 40
0.0
 40
0.0
 40
0.092496428386945
 40
0.1859468902404647
 40
0.2416858907028242
 40
0.2951281203562815
 40
0.3538203845089407
 40
0.3948066843496557
 40
0.4336991257336609
 40
0.512567413098898
 40
0.6740411735369377
 40
0.6740411735369377
 40
0.6740411735369377
 40
0.6740411735369377
 10
332.6659666804901
 20
307.2171325014839
 10
332.633402445055
 20
307.2267133770264
 10
332.5679380977521
 20
307.2459739478827
 10
332.5624592605191
 20
307.3393421196306
 10
332.5699233835988
 20
307.4058745822924
 10
332.6011831477265
 20
307.4543141003561
 10
332.6391066635476
 20
307.489560223116
 10
332.653227270442
 20
307.5354627870646
 10
332.6947335078876
 20
307.5701249657572
 10
332.7683351882474
 20
307.6283872461547
 10
332.8497259055192
 20
307.6407958100931
 10
332.9044082438896
 20
307.6491325014839
 72
     1
 10
332.9044082438896
 20
307.6491325014839
 11
333.9609657167698
 21
307.6491325014841
 97
        8
330
614
330
617
330
61B
330
615
330
618
330
616
330
619
330
61A
 75
     0
 76
     1
 47
0.0514683685270805
 98
        1
 10
333.1747512454514
 20
307.9014585533166
450
        0
451
        0
460
0.0
461
0.0
452
        0
462
0.0
453
        0
470

  0
HATCH
  5
612
330
18
100
AcDbEntity
  8
ROGO
 62
     4
100
AcDbHatch
 10
0.0
 20
0.0
 30
0.0
210
0.0
220
0.0
230
1.0
  2
SOLID
 70
     1
 71
     1
 91
        1
 92
        1
 93
       12
 72
     1
 10
326.470217490507
 20
308.2773004257628
 11
328.7537529671292
 21
308.2773004257628
 72
     1
 10
328.7537529671292
 20
308.2773004257628
 11
328.5623947154705
 21
307.8905545720157
 72
     1
 10
328.5623947154705
 20
307.8905545720157
 11
327.3622261726188
 21
307.8905545720157
 72
     1
 10
327.3622261726188
 20
307.8905545720157
 11
327.2126077990919
 21
307.5881673736361
 72
     1
 10
327.2126077990919
 20
307.5881673736361
 11
328.4127763419435
 21
307.5881673736361
 72
     1
 10
328.4127763419435
 20
307.5881673736361
 11
328.2593567161415
 21
307.2780976293317
 72
     1
 10
328.2593567161415
 20
307.2780976293318
 11
327.0591881732898
 21
307.2780976293317
 72
     1
 10
327.0591881732898
 20
307.2780976293317
 11
326.9095634656402
 21
306.9756976293316
 72
     1
 10
326.9095634656402
 20
306.9756976293316
 11
328.1097320084918
 21
306.9756976293316
 72
     1
 10
328.1097320084918
 20
306.9756976293316
 11
327.9183833823662
 21
306.5889712293317
 72
     1
 10
327.9183833823662
 20
306.5889712293317
 11
325.6348479057441
 21
306.5889712293317
 72
     1
 10
325.6348479057441
 20
306.5889712293317
 11
326.470217490507
 21
308.2773004257628
 97
       12
330
613
330
62D
330
62A
330
62B
330
629
330
626
330
627
330
624
330
628
330
625
330
62C
330
62E
 75
     0
 76
     1
 98
        1
 10
233.0629088035955
 20
191.5368912210482
450
        0
451
        0
460
0.0
461
0.0
452
        0
462
0.0
453
        0
470

  0
LINE
  5
613
102
{ACAD_REACTORS
330
612
102
}
330
18
100
AcDbEntity
  8
ROGO
 62
     4
100
AcDbLine
 10
326.470217490507
 20
308.2773004257628
 30
0.0
 11
328.7537529671292
 21
308.2773004257628
 31
0.0
  0
LINE
  5
614
102
{ACAD_REACTORS
330
611
102
}
330
18
100
AcDbEntity
  8
ROGO
 62
     4
100
AcDbLine
 10
332.5834295204714
 20
308.2773004257628
 30
0.0
 11
334.2741905317505
 21
308.2773004257628
 31
0.0
  0
LINE
  5
615
102
{ACAD_REACTORS
330
611
102
}
330
18
100
AcDbEntity
  8
ROGO
 62
     4
100
AcDbLine
 10
333.7455565644685
 20
307.2171325014839
 30
0.0
 11
333.4323350664529
 21
306.5889712293317
 31
0.0
  0
SPLINE
  5
616
102
{ACAD_REACTORS
330
611
102
}
330
18
100
AcDbEntity
  8
ROGO
 62
     4
100
AcDbSpline
210
0.0
220
0.0
230
1.0
 70
     8
 71
     3
 72
    16
 73
    12
 74
    10
 42
0.0000000001
 43
0.0000000001
 44
0.0000000001
 40
0.0
 40
0.0
 40
0.0
 40
0.0
 40
0.1614737604380397
 40
0.2403420478032769
 40
0.279234489187282
 40
0.320220789027997
 40
0.3789130531806562
 40
0.4323552828341136
 40
0.488094283296473
 40
0.5815447451499928
 40
0.6740411735369377
 40
0.6740411735369377
 40
0.6740411735369377
 40
0.6740411735369377
 10
332.9044082438896
 20
307.6491325014839
 30
0.0
 10
332.8497259055192
 20
307.6407958100931
 30
0.0
 10
332.7683351882474
 20
307.6283872461547
 30
0.0
 10
332.6947335078876
 20
307.5701249657572
 30
0.0
 10
332.653227270442
 20
307.5354627870646
 30
0.0
 10
332.6391066635476
 20
307.489560223116
 30
0.0
 10
332.6011831477265
 20
307.4543141003561
 30
0.0
 10
332.5699233835988
 20
307.4058745822924
 30
0.0
 10
332.5624592605191
 20
307.3393421196306
 30
0.0
 10
332.5679380977521
 20
307.2459739478827
 30
0.0
 10
332.633402445055
 20
307.2267133770264
 30
0.0
 10
332.6659666804901
 20
307.2171325014839
 30
0.0
 11
332.9044082438896
 21
307.6491325014839
 31
0.0
 11
332.7485043678491
 21
307.6070878021087
 31
0.0
 11
332.6843086231654
 21
307.5612717228742
 31
0.0
 11
332.6567962364924
 21
307.5337818960948
 31
0.0
 11
332.6384542938171
 21
307.4971287937223
 31
0.0
 11
332.6017709358063
 21
307.4513127144878
 31
0.0
 11
332.5742585491332
 21
307.4054963365222
 31
0.0
 11
332.5650875777955
 21
307.3505169816946
 31
0.0
 11
332.583429520471
 21
307.2588842257635
 31
0.0
 11
332.6659666804901
 21
307.2171325014839
 31
0.0
  0
SPLINE
  5
617
102
{ACAD_REACTORS
330
611
102
}
330
18
100
AcDbEntity
  8
ROGO
 62
     4
100
AcDbSpline
210
0.0
220
0.0
230
1.0
 70
     8
 71
     3
 72
    26
 73
    22
 74
    20
 42
0.0000000001
 43
0.0000000001
 44
0.0000000001
 40
0.0
 40
0.0
 40
0.0
 40
0.0
 40
0.306282258847545
 40
0.5113145150563467
 40
0.6591594689727181
 40
0.7695505122602936
 40
0.9127334891892449
 40
1.017243103820777
 40
1.205963108812785
 40
1.359578479722587
 40
1.464061546148638
 40
1.566512542290269
 40
1.749777456690453
 40
1.879367624743226
 40
1.949161942424621
 40
2.048302708997833
 40
2.119894481049029
 40
2.223607322578598
 40
2.282299819925661
 40
2.410021277698012
 40
2.468340004823004
 40
2.468340004823004
 40
2.468340004823004
 40
2.468340004823004
 10
332.583429520471
 20
308.2773004257628
 30
0.0
 10
332.4794725894956
 20
308.2710981769933
 30
0.0
 10
332.3059245428394
 20
308.2607440029261
 30
0.0
 10
332.1153698433528
 20
308.144984069394
 30
0.0
 10
331.9757583148254
 20
308.0776863310967
 30
0.0
 10
331.8761875419941
 20
307.9862007892713
 30
0.0
 10
331.8032017618789
 20
307.8917029074584
 30
0.0
 10
331.7111894844105
 20
307.779109374154
 30
0.0
 10
331.6361561013887
 20
307.6479987608425
 30
0.0
 10
331.5979461609888
 20
307.503492008047
 30
0.0
 10
331.5641001584342
 20
307.388319287614
 30
0.0
 10
331.5389993963261
 20
307.2599743210379
 30
0.0
 10
331.5453857407997
 20
307.1213166077378
 30
0.0
 10
331.5545312783656
 20
306.9925384221616
 30
0.0
 10
331.5953638796964
 20
306.9006100783986
 30
0.0
 10
331.6418649799121
 20
306.8351634323468
 30
0.0
 10
331.698804940297
 20
306.7630812074483
 30
0.0
 10
331.7611097087053
 20
306.7153413833095
 30
0.0
 10
331.8126408378473
 20
306.6288574838429
 30
0.0
 10
331.9028443410419
 20
306.617821514545
 30
0.0
 10
331.9601812762822
 20
306.5958566418461
 30
0.0
 10
331.9781549043041
 20
306.5889712293317
 30
0.0
 11
332.583429520471
 21
308.2773004257628
 31
0.0
 11
332.2807922123875
 21
308.2301890487851
 31
0.0
 11
332.0973754223339
 21
308.138556591585
 31
0.0
 11
331.9689839329663
 21
308.0652506855712
 31
0.0
 11
331.8864467729472
 21
307.9919444808263
 31
0.0
 11
331.7947386415906
 21
307.88198547244
 31
0.0
 11
331.7305428969067
 21
307.799516290833
 31
0.0
 11
331.6388342382099
 21
307.634577628888
 31
0.0
 11
331.5929804362015
 21
307.4879655181293
 31
0.0
 11
331.5654680495286
 21
307.3871697853359
 31
0.0
 11
331.5471261068532
 21
307.2863740525428
 31
0.0
 11
331.5471261068532
 21
307.1031091381426
 31
0.0
 11
331.5654680495286
 21
306.9748235785701
 31
0.0
 11
331.5929804362015
 21
306.9106806494183
 31
0.0
 11
331.6480052095476
 21
306.8282114678112
 31
0.0
 11
331.6938595388961
 21
306.7732318142526
 31
0.0
 11
331.7672257275774
 21
306.6999259082387
 31
0.0
 11
331.8039090855882
 21
306.6541095302731
 31
0.0
 11
331.9231301309581
 21
306.6082934510387
 31
0.0
 11
331.9781549043041
 21
306.5889712293317
 31
0.0
  0
LINE
  5
618
102
{ACAD_REACTORS
330
611
102
}
330
18
100
AcDbEntity
  8
ROGO
 62
     4
100
AcDbLine
 10
332.66596668049
 20
307.2171325014839
 30
0.0
 11
333.7455565644685
 21
307.2171325014839
 31
0.0
  0
LINE
  5
619
102
{ACAD_REACTORS
330
611
102
}
330
18
100
AcDbEntity
  8
ROGO
 62
     4
100
AcDbLine
 10
332.9044082438896
 20
307.6491325014839
 30
0.0
 11
333.9609657167697
 21
307.649132501484
 31
0.0
  0
LINE
  5
61A
102
{ACAD_REACTORS
330
611
102
}
330
18
100
AcDbEntity
  8
ROGO
 62
     4
100
AcDbLine
 10
334.2741905317505
 20
308.2773004257628
 30
0.0
 11
333.9609657167697
 21
307.6491325014839
 31
0.0
  0
LINE
  5
61B
102
{ACAD_REACTORS
330
611
102
}
330
18
100
AcDbEntity
  8
ROGO
 62
     4
100
AcDbLine
 10
331.978154904304
 20
306.5889712293317
 30
0.0
 11
333.4323350664529
 21
306.5889712293317
 31
0.0
  0
LINE
  5
61C
102
{ACAD_REACTORS
330
60D
102
}
330
18
100
AcDbEntity
  8
ROGO
 62
     4
100
AcDbLine
 10
331.515787085011
 20
306.5889712293318
 30
0.0
 11
330.5743771565604
 21
306.5889712293317
 31
0.0
  0
LINE
  5
61D
102
{ACAD_REACTORS
330
60D
102
}
330
18
100
AcDbEntity
  8
ROGO
 62
     4
100
AcDbLine
 10
329.415245593812
 20
308.2773004257628
 30
0.0
 11
330.7657643573752
 21
308.2773004257628
 31
0.0
  0
LINE
  5
61E
102
{ACAD_REACTORS
330
60D
102
}
330
18
100
AcDbEntity
  8
ROGO
 62
     4
100
AcDbLine
 10
328.1977585979702
 20
306.5889712293317
 30
0.0
 11
329.1327907787165
 21
306.5889712293317
 31
0.0
  0
LINE
  5
61F
102
{ACAD_REACTORS
330
60D
102
}
330
18
100
AcDbEntity
  8
ROGO
 62
     4
100
AcDbLine
 10
329.364592769892
 20
306.9104186623056
 30
0.0
 11
329.1327907787165
 21
306.5889712293318
 31
0.0
  0
LINE
  5
620
102
{ACAD_REACTORS
330
60D
102
}
330
18
100
AcDbEntity
  8
ROGO
 62
     4
100
AcDbLine
 10
329.6090813199358
 20
307.2494589630577
 30
0.0
 11
330.2809623339854
 21
307.2494589630577
 31
0.0
  0
LINE
  5
621
102
{ACAD_REACTORS
330
60D
102
}
330
18
100
AcDbEntity
  8
ROGO
 62
     4
100
AcDbLine
 10
329.364592769892
 20
306.9104186623056
 30
0.0
 11
330.4315774697575
 21
306.9104186623056
 31
0.0
  0
LINE
  5
622
102
{ACAD_REACTORS
330
60D
102
}
330
18
100
AcDbEntity
  8
ROGO
 62
     4
100
AcDbLine
 10
330.0248385523383
 20
307.826003169682
 30
0.0
 11
329.6090813199356
 21
307.2494589630577
 31
0.0
  0
LINE
  5
623
102
{ACAD_REACTORS
330
60D
102
}
330
18
100
AcDbEntity
  8
ROGO
 62
     4
100
AcDbLine
 10
329.415245593812
 20
308.2773004257628
 30
0.0
 11
328.1977585979702
 21
306.5889712293317
 31
0.0
  0
LINE
  5
624
102
{ACAD_REACTORS
330
612
102
}
330
18
100
AcDbEntity
  8
ROGO
 62
     4
100
AcDbLine
 10
327.0591881732898
 20
307.2780976293317
 30
0.0
 11
326.9095634656402
 21
306.9756976293316
 31
0.0
  0
LINE
  5
625
102
{ACAD_REACTORS
330
612
102
}
330
18
100
AcDbEntity
  8
ROGO
 62
     4
100
AcDbLine
 10
328.1097320084918
 20
306.9756976293316
 30
0.0
 11
327.9183833823662
 21
306.5889712293317
 31
0.0
  0
LINE
  5
626
102
{ACAD_REACTORS
330
612
102
}
330
18
100
AcDbEntity
  8
ROGO
 62
     4
100
AcDbLine
 10
328.4127763419435
 20
307.5881673736361
 30
0.0
 11
328.2593567161415
 21
307.2780976293317
 31
0.0
  0
LINE
  5
627
102
{ACAD_REACTORS
330
612
102
}
330
18
100
AcDbEntity
  8
ROGO
 62
     4
100
AcDbLine
 10
327.0591881732898
 20
307.2780976293317
 30
0.0
 11
328.2593567161415
 21
307.2780976293318
 31
0.0
  0
LINE
  5
628
102
{ACAD_REACTORS
330
612
102
}
330
18
100
AcDbEntity
  8
ROGO
 62
     4
100
AcDbLine
 10
326.9095634656402
 20
306.9756976293316
 30
0.0
 11
328.1097320084918
 21
306.9756976293316
 31
0.0
  0
LINE
  5
629
102
{ACAD_REACTORS
330
612
102
}
330
18
100
AcDbEntity
  8
ROGO
 62
     4
100
AcDbLine
 10
327.2126077990919
 20
307.5881673736361
 30
0.0
 11
328.4127763419435
 21
307.5881673736361
 31
0.0
  0
LINE
  5
62A
102
{ACAD_REACTORS
330
612
102
}
330
18
100
AcDbEntity
  8
ROGO
 62
     4
100
AcDbLine
 10
327.3622261726188
 20
307.8905545720157
 30
0.0
 11
328.5623947154705
 21
307.8905545720157
 31
0.0
  0
LINE
  5
62B
102
{ACAD_REACTORS
330
612
102
}
330
18
100
AcDbEntity
  8
ROGO
 62
     4
100
AcDbLine
 10
327.3622261726188
 20
307.8905545720157
 30
0.0
 11
327.2126077990919
 21
307.5881673736361
 31
0.0
  0
LINE
  5
62C
102
{ACAD_REACTORS
330
612
102
}
330
18
100
AcDbEntity
  8
ROGO
 62
     4
100
AcDbLine
 10
325.6348479057441
 20
306.5889712293317
 30
0.0
 11
327.9183833823662
 21
306.5889712293317
 31
0.0
  0
LINE
  5
62D
102
{ACAD_REACTORS
330
612
102
}
330
18
100
AcDbEntity
  8
ROGO
 62
     4
100
AcDbLine
 10
328.7537529671292
 20
308.2773004257628
 30
0.0
 11
328.5623947154705
 21
307.8905545720157
 31
0.0
  0
LINE
  5
62E
102
{ACAD_REACTORS
330
612
102
}
330
18
100
AcDbEntity
  8
ROGO
 62
     4
100
AcDbLine
 10
326.470217490507
 20
308.2773004257628
 30
0.0
 11
325.6348479057441
 21
306.5889712293317
 31
0.0
  0
HATCH
  5
62F
330
18
100
AcDbEntity
  8
ROGO
 62
     4
100
AcDbHatch
 10
0.0
 20
0.0
 30
0.0
210
0.0
220
0.0
230
1.0
  2
SOLID
 70
     1
 71
     1
 91
        1
 92
        7
 72
     0
 73
     1
 93
       11
 10
340.8026834102039
 20
307.8016634701986
 10
341.0398513578916
 20
308.2773004257628
 10
340.0677436889577
 20
308.2773004257628
 10
338.7522869339535
 20
305.6391705594549
 10
339.7243946028875
 20
305.6391705594551
 10
340.0677436889576
 20
306.3277522821802
 10
340.4110927750279
 20
305.6391705594549
 10
341.3831791750277
 20
305.639170559455
 10
340.7254507975257
 20
306.9582354926089
 10
342.3234763272374
 20
308.2773004257628
 10
341.3513899272373
 20
308.2773004257627
 97
       11
330
634
330
630
330
639
330
63B
330
63A
330
5FC
330
636
330
638
330
633
330
637
330
635
 75
     0
 76
     1
 47
0.015942268611278
 98
        1
 10
340.5924945707474
 20
307.421440349969
450
        0
451
        0
460
0.0
461
0.0
452
        0
462
0.0
453
        0
470

  0
LINE
  5
630
102
{ACAD_REACTORS
330
62F
102
}
330
18
100
AcDbEntity
  8
ROGO
 62
     4
100
AcDbLine
 10
340.8026834102037
 20
307.8016634701986
 30
0.0
 11
341.3513899272374
 21
308.2773004257628
 31
0.0
  0
SPLINE
  5
631
102
{ACAD_REACTORS
330
606
102
}
330
18
100
AcDbEntity
  8
ROGO
 62
     4
100
AcDbSpline
210
0.0
220
0.0
230
1.0
 70
     8
 71
     3
 72
    25
 73
    21
 74
     0
 42
0.0000000001
 43
0.0000000001
 40
0.0
 40
0.0
 40
0.0
 40
0.0
 40
0.4087168505087288
 40
0.6887487002771746
 40
0.9415836120477687
 40
1.17452070575514
 40
1.41154617586699
 40
1.599156012919487
 40
1.80099909059943
 40
2.178735911501585
 40
2.521686161369157
 40
2.762704659361267
 40
3.06256558063785
 40
3.222432137207705
 40
3.399493810628493
 40
3.567459719866414
 40
3.743172740007509
 40
3.995988754699505
 40
4.17170091132118
 40
4.337226830236035
 40
4.337226830236035
 40
4.337226830236035
 40
4.337226830236035
 10
336.1766351444724
 20
308.2843425646986
 30
0.0
 10
336.239918066448
 20
308.2823093496836
 30
0.0
 10
336.3465592049433
 20
308.2788830798902
 30
0.0
 10
336.4610516231704
 20
308.1893939078359
 30
0.0
 10
336.5486579070039
 20
308.1152005277167
 30
0.0
 10
336.6108419346819
 20
308.025504205287
 30
0.0
 10
336.665347977222
 20
307.9430332148449
 30
0.0
 10
336.7012633267825
 20
307.85596282456
 30
0.0
 10
336.7501152980787
 20
307.7514863302982
 30
0.0
 10
336.7703376007679
 20
307.611712302887
 30
0.0
 10
336.7566750307636
 20
307.4672429489713
 30
0.0
 10
336.7210221022668
 20
307.3391841556382
 30
0.0
 10
336.6836250467954
 20
307.2409404575958
 30
0.0
 10
336.6395481653302
 20
307.1554132236079
 30
0.0
 10
336.5870028902249
 20
307.1000343329663
 30
0.0
 10
336.5505490902462
 20
307.0296206133765
 30
0.0
 10
336.4805260036098
 20
306.9720259711107
 30
0.0
 10
336.4237615124298
 20
306.9009622662413
 30
0.0
 10
336.3593456367503
 20
306.8399675326631
 30
0.0
 10
336.3230276805024
 20
306.8023345170923
 30
0.0
 10
336.303879978139
 20
306.7865115605907
 30
0.0
  0
HATCH
  5
632
330
18
100
AcDbEntity
  8
ROGO
 62
     4
100
AcDbHatch
 10
0.0
 20
0.0
 30
0.0
210
0.0
220
0.0
230
1.0
  2
SOLID
 70
     1
 71
     1
 91
        1
 92
        5
 93
        8
 72
     4
 94
        3
 73
     0
 74
     0
 95
       26
 96
       22
 40
0.0
 40
0.0
 40
0.0
 40
0.0
 40
0.306282258847545
 40
0.5113145150563467
 40
0.6591594689727181
 40
0.7695505122602936
 40
0.9127334891893321
 40
1.017243103820775
 40
1.205963108812882
 40
1.359578479722684
 40
1.464061546148625
 40
1.566512542290257
 40
1.74977745669044
 40
1.879367624743214
 40
1.949161942424609
 40
2.048302708997821
 40
2.119894481049017
 40
2.223607322578586
 40
2.282299819925649
 40
2.41002127769804
 40
2.468340004822995
 40
2.468340004822995
 40
2.468340004822995
 40
2.468340004822995
 10
338.0233763688068
 20
308.2773004257628
 10
337.9194194378314
 20
308.2710981769933
 10
337.7458713911752
 20
308.2607440029261
 10
337.5553166916887
 20
308.144984069394
 10
337.4157051631611
 20
308.0776863310966
 10
337.31613439033
 20
307.9862007892714
 10
337.2431486102148
 20
307.8917029074582
 10
337.1511363327462
 20
307.7791093741542
 10
337.0761029497245
 20
307.6479987608426
 10
337.0378930093246
 20
307.5034920080467
 10
337.00404700677
 20
307.388319287614
 10
336.9789462446619
 20
307.259974321038
 10
336.9853325891357
 20
307.1213166077379
 10
336.9944781267013
 20
306.9925384221615
 10
337.0353107280322
 20
306.9006100783988
 10
337.0818118282479
 20
306.8351634323466
 10
337.1387517886329
 20
306.7630812074484
 10
337.201056557041
 20
306.7153413833095
 10
337.2525876861832
 20
306.628857483843
 10
337.3427911893778
 20
306.617821514545
 10
337.4001281246181
 20
306.5958566418461
 10
337.4181017526399
 20
306.5889712293317
 72
     1
 10
337.4181017526398
 20
306.5889712293317
 11
338.8722819147887
 21
306.5889712293317
 72
     1
 10
338.8722819147887
 20
306.5889712293317
 11
339.1855034128044
 21
307.2171325014839
 72
     1
 10
339.1855034128044
 20
307.2171325014839
 11
338.1059135288258
 21
307.2171325014839
 72
     4
 94
        3
 73
     0
 74
     0
 95
       16
 96
       12
 40
0.0
 40
0.0
 40
0.0
 40
0.0
 40
0.0924964283868937
 40
0.185946890240525
 40
0.2416858907028844
 40
0.2951281203562444
 40
0.3538203845089212
 40
0.3948066843497379
 40
0.4336991257335823
 40
0.5125674130988856
 40
0.6740411735369252
 40
0.6740411735369252
 40
0.6740411735369252
 40
0.6740411735369252
 10
338.1059135288259
 20
307.2171325014839
 10
338.0733492933909
 20
307.2267133770264
 10
338.0078849460879
 20
307.2459739478826
 10
338.0024061088549
 20
307.3393421196305
 10
338.0098702319345
 20
307.4058745822923
 10
338.0411299960623
 20
307.4543141003559
 10
338.079053511883
 20
307.4895602231159
 10
338.0931741187781
 20
307.5354627870646
 10
338.1346803562234
 20
307.5701249657571
 10
338.2082820365832
 20
307.6283872461546
 10
338.289672753855
 20
307.6407958100931
 10
338.3443550922255
 20
307.6491325014839
 72
     1
 10
338.3443550922255
 20
307.6491325014839
 11
339.4009125651055
 21
307.6491325014839
 72
     1
 10
339.4009125651055
 20
307.6491325014839
 11
339.7141373800863
 21
308.2773004257628
 72
     1
 10
339.7141373800863
 20
308.2773004257628
 11
338.0233763688067
 21
308.2773004257628
 97
        8
330
642
330
640
330
643
330
63F
330
63E
330
641
330
63D
330
63C
 75
     0
 76
     1
 47
0.0514683685270805
 98
        1
 10
338.3151273498302
 20
307.9681616073897
450
        0
451
        0
460
0.0
461
0.0
452
        0
462
0.0
453
        0
470

  0
LINE
  5
633
102
{ACAD_REACTORS
330
62F
102
}
330
18
100
AcDbEntity
  8
ROGO
 62
     4
100
AcDbLine
 10
340.4110927750278
 20
305.639170559455
 30
0.0
 11
341.3831791750277
 21
305.639170559455
 31
0.0
  0
LINE
  5
634
102
{ACAD_REACTORS
330
62F
102
}
330
18
100
AcDbEntity
  8
ROGO
 62
     4
100
AcDbLine
 10
341.3513899272374
 20
308.2773004257628
 30
0.0
 11
342.3234763272374
 21
308.2773004257628
 31
0.0
  0
LINE
  5
635
102
{ACAD_REACTORS
330
62F
102
}
330
18
100
AcDbEntity
  8
ROGO
 62
     4
100
AcDbLine
 10
340.7254507975257
 20
306.9582354926089
 30
0.0
 11
342.3234763272374
 21
308.2773004257628
 31
0.0
  0
LINE
  5
636
102
{ACAD_REACTORS
330
62F
102
}
330
18
100
AcDbEntity
  8
ROGO
 62
     4
100
AcDbLine
 10
340.0677436889576
 20
306.3277522821802
 30
0.0
 11
339.7243946028875
 21
305.639170559455
 31
0.0
  0
LINE
  5
637
102
{ACAD_REACTORS
330
62F
102
}
330
18
100
AcDbEntity
  8
ROGO
 62
     4
100
AcDbLine
 10
340.7254507975257
 20
306.9582354926089
 30
0.0
 11
341.3831791750277
 21
305.639170559455
 31
0.0
  0
LINE
  5
638
102
{ACAD_REACTORS
330
62F
102
}
330
18
100
AcDbEntity
  8
ROGO
 62
     4
100
AcDbLine
 10
340.0677436889576
 20
306.3277522821802
 30
0.0
 11
340.4110927750278
 21
305.639170559455
 31
0.0
  0
LINE
  5
639
102
{ACAD_REACTORS
330
62F
102
}
330
18
100
AcDbEntity
  8
ROGO
 62
     4
100
AcDbLine
 10
341.0398513578916
 20
308.2773004257628
 30
0.0
 11
340.8026834102037
 21
307.8016634701986
 31
0.0
  0
LINE
  5
63A
102
{ACAD_REACTORS
330
62F
102
}
330
18
100
AcDbEntity
  8
ROGO
 62
     4
100
AcDbLine
 10
340.0677436889576
 20
308.2773004257628
 30
0.0
 11
338.7522869339536
 21
305.639170559455
 31
0.0
  0
LINE
  5
63B
102
{ACAD_REACTORS
330
62F
102
}
330
18
100
AcDbEntity
  8
ROGO
 62
     4
100
AcDbLine
 10
340.0677436889576
 20
308.2773004257628
 30
0.0
 11
341.0398513578916
 21
308.2773004257628
 31
0.0
  0
LINE
  5
63C
102
{ACAD_REACTORS
330
632
102
}
330
18
100
AcDbEntity
  8
ROGO
 62
     4
100
AcDbLine
 10
339.7141373800863
 20
308.2773004257628
 30
0.0
 11
339.4009125651055
 21
307.6491325014839
 31
0.0
  0
LINE
  5
63D
102
{ACAD_REACTORS
330
632
102
}
330
18
100
AcDbEntity
  8
ROGO
 62
     4
100
AcDbLine
 10
338.3443550922253
 20
307.6491325014839
 30
0.0
 11
339.4009125651055
 21
307.6491325014839
 31
0.0
  0
LINE
  5
63E
102
{ACAD_REACTORS
330
632
102
}
330
18
100
AcDbEntity
  8
ROGO
 62
     4
100
AcDbLine
 10
338.1059135288258
 20
307.2171325014839
 30
0.0
 11
339.1855034128044
 21
307.2171325014839
 31
0.0
  0
LINE
  5
63F
102
{ACAD_REACTORS
330
632
102
}
330
18
100
AcDbEntity
  8
ROGO
 62
     4
100
AcDbLine
 10
339.1855034128044
 20
307.2171325014839
 30
0.0
 11
338.8722819147887
 21
306.5889712293317
 31
0.0
  0
SPLINE
  5
640
102
{ACAD_REACTORS
330
632
102
}
330
18
100
AcDbEntity
  8
ROGO
 62
     4
100
AcDbSpline
210
0.0
220
0.0
230
1.0
 70
     8
 71
     3
 72
    26
 73
    22
 74
    20
 42
0.0000000001
 43
0.0000000001
 44
0.0000000001
 40
0.0
 40
0.0
 40
0.0
 40
0.0
 40
0.306282258847545
 40
0.5113145150563467
 40
0.6591594689727181
 40
0.7695505122602936
 40
0.9127334891893321
 40
1.017243103820775
 40
1.205963108812882
 40
1.359578479722684
 40
1.464061546148625
 40
1.566512542290257
 40
1.74977745669044
 40
1.879367624743214
 40
1.949161942424609
 40
2.048302708997821
 40
2.119894481049017
 40
2.223607322578586
 40
2.282299819925649
 40
2.41002127769804
 40
2.468340004822995
 40
2.468340004822995
 40
2.468340004822995
 40
2.468340004822995
 10
338.0233763688068
 20
308.2773004257628
 30
0.0
 10
337.9194194378314
 20
308.2710981769933
 30
0.0
 10
337.7458713911752
 20
308.2607440029261
 30
0.0
 10
337.5553166916887
 20
308.144984069394
 30
0.0
 10
337.4157051631611
 20
308.0776863310966
 30
0.0
 10
337.31613439033
 20
307.9862007892714
 30
0.0
 10
337.2431486102148
 20
307.8917029074582
 30
0.0
 10
337.1511363327462
 20
307.7791093741542
 30
0.0
 10
337.0761029497245
 20
307.6479987608426
 30
0.0
 10
337.0378930093246
 20
307.5034920080467
 30
0.0
 10
337.00404700677
 20
307.388319287614
 30
0.0
 10
336.9789462446619
 20
307.259974321038
 30
0.0
 10
336.9853325891357
 20
307.1213166077379
 30
0.0
 10
336.9944781267013
 20
306.9925384221615
 30
0.0
 10
337.0353107280322
 20
306.9006100783988
 30
0.0
 10
337.0818118282479
 20
306.8351634323466
 30
0.0
 10
337.1387517886329
 20
306.7630812074484
 30
0.0
 10
337.201056557041
 20
306.7153413833095
 30
0.0
 10
337.2525876861832
 20
306.628857483843
 30
0.0
 10
337.3427911893778
 20
306.617821514545
 30
0.0
 10
337.4001281246181
 20
306.5958566418461
 30
0.0
 10
337.4181017526399
 20
306.5889712293317
 30
0.0
 11
338.0233763688068
 21
308.2773004257628
 31
0.0
 11
337.7207390607233
 21
308.2301890487851
 31
0.0
 11
337.5373222706697
 21
308.138556591585
 31
0.0
 11
337.4089307813022
 21
308.0652506855712
 31
0.0
 11
337.326393621283
 21
307.9919444808263
 31
0.0
 11
337.2346854899264
 21
307.8819854724399
 31
0.0
 11
337.1704897452425
 21
307.799516290833
 31
0.0
 11
337.0787810865457
 21
307.6345776288879
 31
0.0
 11
337.0329272845373
 21
307.4879655181292
 31
0.0
 11
337.0054148978644
 21
307.3871697853359
 31
0.0
 11
336.987072955189
 21
307.2863740525428
 31
0.0
 11
336.987072955189
 21
307.1031091381426
 31
0.0
 11
337.0054148978644
 21
306.9748235785701
 31
0.0
 11
337.0329272845373
 21
306.9106806494183
 31
0.0
 11
337.0879520578834
 21
306.8282114678112
 31
0.0
 11
337.1338063872319
 21
306.7732318142526
 31
0.0
 11
337.2071725759132
 21
306.6999259082387
 31
0.0
 11
337.243855933924
 21
306.6541095302731
 31
0.0
 11
337.3630769792939
 21
306.6082934510386
 31
0.0
 11
337.4181017526399
 21
306.5889712293317
 31
0.0
  0
SPLINE
  5
641
102
{ACAD_REACTORS
330
632
102
}
330
18
100
AcDbEntity
  8
ROGO
 62
     4
100
AcDbSpline
210
0.0
220
0.0
230
1.0
 70
     8
 71
     3
 72
    16
 73
    12
 74
    10
 42
0.0000000001
 43
0.0000000001
 44
0.0000000001
 40
0.0
 40
0.0
 40
0.0
 40
0.0
 40
0.1614737604380397
 40
0.2403420478033429
 40
0.2792344891871872
 40
0.320220789028004
 40
0.3789130531806808
 40
0.4323552828340408
 40
0.4880942832964002
 40
0.5815447451500316
 40
0.6740411735369252
 40
0.6740411735369252
 40
0.6740411735369252
 40
0.6740411735369252
 10
338.3443550922255
 20
307.6491325014839
 30
0.0
 10
338.289672753855
 20
307.6407958100931
 30
0.0
 10
338.2082820365832
 20
307.6283872461546
 30
0.0
 10
338.1346803562234
 20
307.5701249657571
 30
0.0
 10
338.0931741187781
 20
307.5354627870646
 30
0.0
 10
338.079053511883
 20
307.4895602231159
 30
0.0
 10
338.0411299960623
 20
307.4543141003559
 30
0.0
 10
338.0098702319345
 20
307.4058745822923
 30
0.0
 10
338.0024061088549
 20
307.3393421196305
 30
0.0
 10
338.0078849460879
 20
307.2459739478826
 30
0.0
 10
338.0733492933909
 20
307.2267133770264
 30
0.0
 10
338.1059135288259
 20
307.2171325014839
 30
0.0
 11
338.3443550922255
 21
307.6491325014839
 31
0.0
 11
338.188451216185
 21
307.6070878021087
 31
0.0
 11
338.1242554715012
 21
307.561271722874
 31
0.0
 11
338.0967430848283
 21
307.5337818960948
 31
0.0
 11
338.0784011421527
 21
307.4971287937223
 31
0.0
 11
338.0417177841421
 21
307.4513127144877
 31
0.0
 11
338.014205397469
 21
307.4054963365222
 31
0.0
 11
338.0050344261313
 21
307.3505169816946
 31
0.0
 11
338.0233763688068
 21
307.2588842257634
 31
0.0
 11
338.1059135288259
 21
307.2171325014839
 31
0.0
  0
LINE
  5
642
102
{ACAD_REACTORS
330
632
102
}
330
18
100
AcDbEntity
  8
ROGO
 62
     4
100
AcDbLine
 10
338.0233763688072
 20
308.2773004257628
 30
0.0
 11
339.7141373800863
 21
308.2773004257628
 31
0.0
  0
LINE
  5
643
102
{ACAD_REACTORS
330
632
102
}
330
18
100
AcDbEntity
  8
ROGO
 62
     4
100
AcDbLine
 10
337.4181017526398
 20
306.5889712293317
 30
0.0
 11
338.8722819147887
 21
306.5889712293317
 31
0.0
  0
LINE
  5
723
330
18
100
AcDbEntity
  8
外形線
100
AcDbLine
 10
324.1506277816228
 20
226.2343950260738
 30
0.0
 11
330.1506277816228
 21
226.2343950260738
 31
0.0
  0
LINE
  5
73B
330
18
100
AcDbEntity
  8
外形線
100
AcDbLine
 10
324.6506277816227
 20
256.7343950260737
 30
0.0
 11
328.1506277816229
 21
256.7343950260737
 31
0.0
  0
LINE
  5
757
330
18
100
AcDbEntity
  8
外形線
100
AcDbLine
 10
340.1506277816229
 20
256.2343950260737
 30
0.0
 11
340.1506277816228
 21
226.2343950260738
 31
0.0
  0
LINE
  5
758
330
18
100
AcDbEntity
  8
外形線
100
AcDbLine
 10
324.1506277816228
 20
256.2343950260737
 30
0.0
 11
324.1506277816228
 21
226.2343950260738
 31
0.0
  0
DIMENSION
  5
7D7
330
18
100
AcDbEntity
  8
外形線
100
AcDbDimension
  2
*D9
 10
297.2866656397047
 20
226.2343950260738
 30
0.0
 11
295.4116656397046
 21
241.4843950260738
 31
0.0
 70
    32
 71
     5
 42
30.49999999999994
  3
STYLE3
100
AcDbAlignedDimension
 13
324.6506277816227
 23
256.7343950260737
 33
0.0
 14
324.1506277816228
 24
226.2343950260738
 34
0.0
 50
90.0
100
AcDbRotatedDimension
1001
ACAD
1000
DSTYLE
1002
{
1070
   271
1070
     2
1002
}
  0
DIMENSION
  5
7FC
330
18
100
AcDbEntity
  8
外形線
100
AcDbDimension
  2
*D10
 10
289.5422782315837
 20
291.1343950260738
 30
0.0
 11
287.6672782315837
 21
317.8343950260738
 31
0.0
 70
    32
 71
     5
 42
53.39999999999998
  3
STYLE3
100
AcDbAlignedDimension
 13
328.6506277816228
 23
344.5343950260737
 33
0.0
 14
295.1370429097299
 24
291.1343950260738
 34
0.0
 50
90.0
100
AcDbRotatedDimension
1001
ACAD
1000
DSTYLE
1002
{
1070
   271
1070
     2
1002
}
  0
DIMENSION
  5
808
330
18
100
AcDbEntity
  8
外形線
100
AcDbDimension
  2
*D11
 10
289.5422782315837
 20
226.2343950260738
 30
0.0
 11
287.6672782315837
 21
258.6843950260738
 31
0.0
 70
    32
 71
     5
 42
64.90000000000001
  3
STYLE3
100
AcDbAlignedDimension
 13
295.1370429097299
 23
291.1343950260738
 33
0.0
 14
296.0366656397047
 24
226.2343950260738
 34
0.0
 50
90.0
100
AcDbRotatedDimension
1001
ACAD
1000
DSTYLE
1002
{
1070
    75
1070
     1
1070
   271
1070
     2
1070
   279
1070
     1
1002
}
  0
DIMENSION
  5
815
330
18
100
AcDbEntity
  8
外形線
100
AcDbDimension
  2
*D12
 10
282.170636567434
 20
226.2343950260738
 30
0.0
 11
280.295636567434
 21
285.3843950260738
 31
0.0
 70
    32
 71
     5
 42
118.3
  3
STYLE3
100
AcDbAlignedDimension
 13
288.2922782315837
 23
344.5343950260737
 33
0.0
 14
288.2922782315837
 24
226.2343950260738
 34
0.0
 50
90.0
100
AcDbRotatedDimension
1001
ACAD
1000
DSTYLE
1002
{
1070
   271
1070
     2
1002
}
  0
DIMENSION
  5
821
330
18
100
AcDbEntity
  8
外形線
100
AcDbDimension
  2
*D13
 10
282.170636567434
 20
216.1343950260738
 30
0.0
 11
280.295636567434
 21
221.1843950260738
 31
0.0
 70
    32
 71
     5
 42
10.09999999999999
  3
STYLE3
100
AcDbAlignedDimension
 13
288.2922782315837
 23
226.2343950260738
 33
0.0
 14
332.1506277816228
 24
216.1343950260738
 34
0.0
 50
90.0
100
AcDbRotatedDimension
1001
ACAD
1000
DSTYLE
1002
{
1070
    75
1070
     1
1070
   271
1070
     2
1070
   279
1070
     1
1002
}
  0
DIMENSION
  5
8D3
330
18
100
AcDbEntity
  8
外形線
100
AcDbDimension
  2
*D15
 10
297.2866656397047
 20
256.7343950260738
 30
0.0
 11
295.4116656397046
 21
273.9343950260738
 31
0.0
 70
    32
 71
     5
 42
34.40000000000003
  3
STYLE3
100
AcDbAlignedDimension
 13
299.3474434607927
 23
291.1343950260738
 33
0.0
 14
305.9637945981435
 24
256.7343950260738
 34
0.0
 50
90.0
100
AcDbRotatedDimension
1001
ACAD
1000
DSTYLE
1002
{
1070
   271
1070
     2
1002
}
  0
LINE
  5
8D8
330
18
100
AcDbEntity
  8
外形線
100
AcDbLine
 10
324.1506277816228
 20
256.2343950260737
 30
0.0
 11
324.6506277816227
 21
256.7343950260737
 31
0.0
  0
LINE
  5
8D9
330
18
100
AcDbEntity
  8
外形線
100
AcDbLine
 10
339.6506277816229
 20
256.7343950260737
 30
0.0
 11
340.1506277816229
 21
256.2343950260737
 31
0.0
  0
DIMENSION
  5
904
330
18
100
AcDbEntity
  8
外形線
100
AcDbDimension
  2
*D16
 10
408.0267004808646
 20
203.3948793208379
 30
0.0
 11
416.0267004808646
 21
205.269879320838
 31
0.0
 70
    32
  1
φ16
 71
     5
 42
15.99999999999994
  3
STYLE3
100
AcDbAlignedDimension
 13
424.0267004808646
 23
228.3343950260738
 33
0.0
 14
408.0267004808646
 24
228.3343950260738
 34
0.0
100
AcDbRotatedDimension
1001
ACAD
1000
DSTYLE
1002
{
1070
   271
1070
     2
1002
}
  0
LINE
  5
91F
330
18
100
AcDbEntity
  8
外形線
100
AcDbLine
 10
332.2006277816228
 20
216.1343950260738
 30
0.0
 11
333.1984677080098
 21
223.2343950260738
 31
0.0
  0
LINE
  5
920
330
18
100
AcDbEntity
  8
外形線
100
AcDbLine
 10
332.1006277816228
 20
216.1343950260738
 30
0.0
 11
331.1027878552358
 21
223.2343950260737
 31
0.0
  0
LINE
  5
924
330
18
100
AcDbEntity
  8
外形線
100
AcDbLine
 10
332.1006277816228
 20
216.1343950260738
 30
0.0
 11
332.2006277816228
 21
216.1343950260738
 31
0.0
  0
LINE
  5
92B
330
18
100
AcDbEntity
  8
外形線
100
AcDbLine
 10
334.6506277816228
 20
224.8343950260738
 30
0.0
 11
334.6506277816228
 21
223.6343950260738
 31
0.0
  0
LINE
  5
92C
330
18
100
AcDbEntity
  8
外形線
100
AcDbLine
 10
329.6506277816227
 20
224.8343950260737
 30
0.0
 11
329.6506277816226
 21
223.6343950260737
 31
0.0
  0
LINE
  5
934
330
18
100
AcDbEntity
  8
外形線
100
AcDbLine
 10
330.0506277816227
 20
225.2343950260737
 30
0.0
 11
334.2506277816229
 21
225.2343950260738
 31
0.0
  0
LINE
  5
935
330
18
100
AcDbEntity
  8
外形線
100
AcDbLine
 10
330.0506277816226
 20
223.2343950260737
 30
0.0
 11
334.2506277816229
 21
223.2343950260738
 31
0.0
  0
LINE
  5
936
330
18
100
AcDbEntity
  8
外形線
100
AcDbLine
 10
329.6506277816226
 20
223.6343950260737
 30
0.0
 11
330.0506277816226
 21
223.2343950260737
 31
0.0
  0
LINE
  5
937
330
18
100
AcDbEntity
  8
外形線
100
AcDbLine
 10
334.2506277816229
 20
223.2343950260738
 30
0.0
 11
334.6506277816228
 21
223.6343950260738
 31
0.0
  0
LINE
  5
938
330
18
100
AcDbEntity
  8
外形線
100
AcDbLine
 10
334.6506277816228
 20
224.8343950260738
 30
0.0
 11
334.2506277816229
 21
225.2343950260738
 31
0.0
  0
LINE
  5
939
330
18
100
AcDbEntity
  8
外形線
100
AcDbLine
 10
330.0506277816227
 20
225.2343950260737
 30
0.0
 11
329.6506277816227
 21
224.8343950260737
 31
0.0
  0
LINE
  5
93A
330
18
100
AcDbEntity
  8
外形線
100
AcDbLine
 10
329.6506277816227
 20
224.8343950260737
 30
0.0
 11
334.6506277816228
 21
224.8343950260738
 31
0.0
  0
LINE
  5
93B
330
18
100
AcDbEntity
  8
外形線
100
AcDbLine
 10
329.6506277816226
 20
223.6343950260737
 30
0.0
 11
334.6506277816228
 21
223.6343950260738
 31
0.0
  0
LINE
  5
978
330
18
100
AcDbEntity
  8
外形線
100
AcDbLine
 10
408.0267004808646
 20
256.2343950260737
 30
0.0
 11
408.0267004808646
 21
226.2343950260738
 31
0.0
  0
LINE
  5
979
330
18
100
AcDbEntity
  8
外形線
100
AcDbLine
 10
424.0267004808647
 20
256.2343950260737
 30
0.0
 11
424.0267004808646
 21
226.2343950260738
 31
0.0
  0
LINE
  5
97A
330
18
100
AcDbEntity
  8
外形線
100
AcDbLine
 10
408.0267004808646
 20
226.2343950260738
 30
0.0
 11
424.0267004808646
 21
226.2343950260738
 31
0.0
  0
LINE
  5
97B
330
18
100
AcDbEntity
  8
外形線
100
AcDbLine
 10
415.9767004808646
 20
216.1343950260738
 30
0.0
 11
414.9788605544776
 21
223.2343950260737
 31
0.0
  0
LINE
  5
97C
330
18
100
AcDbEntity
  8
外形線
100
AcDbLine
 10
416.0767004808646
 20
216.1343950260738
 30
0.0
 11
417.0745404072516
 21
223.2343950260738
 31
0.0
  0
LINE
  5
97D
330
18
100
AcDbEntity
  8
外形線
100
AcDbLine
 10
415.9767004808646
 20
216.1343950260738
 30
0.0
 11
416.0767004808646
 21
216.1343950260738
 31
0.0
  0
LINE
  5
97E
330
18
100
AcDbEntity
  8
外形線
100
AcDbLine
 10
413.5267004808644
 20
223.6343950260737
 30
0.0
 11
418.5267004808647
 21
223.6343950260738
 31
0.0
  0
LINE
  5
97F
330
18
100
AcDbEntity
  8
外形線
100
AcDbLine
 10
413.5267004808644
 20
224.8343950260737
 30
0.0
 11
418.5267004808647
 21
224.8343950260738
 31
0.0
  0
LINE
  5
980
330
18
100
AcDbEntity
  8
外形線
100
AcDbLine
 10
413.9267004808645
 20
225.2343950260737
 30
0.0
 11
418.1267004808646
 21
225.2343950260738
 31
0.0
  0
LINE
  5
981
330
18
100
AcDbEntity
  8
外形線
100
AcDbLine
 10
413.9267004808644
 20
223.2343950260737
 30
0.0
 11
418.1267004808646
 21
223.2343950260738
 31
0.0
  0
LINE
  5
982
330
18
100
AcDbEntity
  8
外形線
100
AcDbLine
 10
413.9267004808645
 20
225.2343950260737
 30
0.0
 11
413.5267004808644
 21
224.8343950260737
 31
0.0
  0
LINE
  5
983
330
18
100
AcDbEntity
  8
外形線
100
AcDbLine
 10
413.5267004808644
 20
224.8343950260737
 30
0.0
 11
413.5267004808644
 21
223.6343950260737
 31
0.0
  0
LINE
  5
984
330
18
100
AcDbEntity
  8
外形線
100
AcDbLine
 10
413.5267004808644
 20
223.6343950260737
 30
0.0
 11
413.9267004808644
 21
223.2343950260737
 31
0.0
  0
LINE
  5
985
330
18
100
AcDbEntity
  8
外形線
100
AcDbLine
 10
414.0267004808645
 20
226.2343950260738
 30
0.0
 11
414.0267004808645
 21
225.2343950260737
 31
0.0
  0
LINE
  5
986
330
18
100
AcDbEntity
  8
外形線
100
AcDbLine
 10
418.0267004808646
 20
226.2343950260738
 30
0.0
 11
418.0267004808646
 21
225.2343950260738
 31
0.0
  0
LINE
  5
987
330
18
100
AcDbEntity
  8
外形線
100
AcDbLine
 10
418.5267004808647
 20
224.8343950260738
 30
0.0
 11
418.1267004808646
 21
225.2343950260738
 31
0.0
  0
LINE
  5
988
330
18
100
AcDbEntity
  8
外形線
100
AcDbLine
 10
418.5267004808647
 20
224.8343950260738
 30
0.0
 11
418.5267004808647
 21
223.6343950260738
 31
0.0
  0
LINE
  5
989
330
18
100
AcDbEntity
  8
外形線
100
AcDbLine
 10
418.1267004808646
 20
223.2343950260738
 30
0.0
 11
418.5267004808647
 21
223.6343950260738
 31
0.0
  0
LINE
  5
98A
330
18
100
AcDbEntity
  8
外形線
100
AcDbLine
 10
408.5267004808645
 20
256.7343950260737
 30
0.0
 11
423.5267004808647
 21
256.7343950260737
 31
0.0
  0
LINE
  5
98B
330
18
100
AcDbEntity
  8
外形線
100
AcDbLine
 10
408.0267004808646
 20
256.2343950260737
 30
0.0
 11
424.0267004808647
 21
256.2343950260737
 31
0.0
  0
LINE
  5
98C
330
18
100
AcDbEntity
  8
外形線
100
AcDbLine
 10
408.0267004808646
 20
256.2343950260737
 30
0.0
 11
408.5267004808645
 21
256.7343950260737
 31
0.0
  0
LINE
  5
98D
330
18
100
AcDbEntity
  8
外形線
100
AcDbLine
 10
423.5267004808647
 20
256.7343950260737
 30
0.0
 11
424.0267004808647
 21
256.2343950260737
 31
0.0
  0
LINE
  5
A03
330
18
100
AcDbEntity
  8
外形線
100
AcDbLine
 10
328.1506277816228
 20
256.7343950260737
 30
0.0
 11
328.1506277816228
 21
226.2343950260738
 31
0.0
  0
LINE
  5
A06
330
18
100
AcDbEntity
  8
外形線
100
AcDbLine
 10
336.1506277816229
 20
256.7343950260737
 30
0.0
 11
336.1506277816229
 21
226.2343950260738
 31
0.0
  0
LINE
  5
A07
330
18
100
AcDbEntity
  8
外形線
100
AcDbLine
 10
336.1506277816229
 20
256.7343950260737
 30
0.0
 11
339.6506277816229
 21
256.7343950260737
 31
0.0
  0
LINE
  5
C49
330
18
100
AcDbEntity
  8
外形線
100
AcDbLine
 10
328.4006277816228
 20
239.1343950260738
 30
0.0
 11
335.9006277816228
 21
239.1343950260738
 31
0.0
  0
LINE
  5
C4E
330
18
100
AcDbEntity
  8
外形線
100
AcDbLine
 10
328.1506277816227
 20
245.1343950260738
 30
0.0
 11
336.1506277816228
 21
245.1343950260738
 31
0.0
  0
LINE
  5
C4F
330
18
100
AcDbEntity
  8
外形線
100
AcDbLine
 10
328.4006277816228
 20
242.1343950260737
 30
0.0
 11
335.9006277816228
 21
242.1343950260738
 31
0.0
  0
LINE
  5
C50
330
18
100
AcDbEntity
  8
外形線
100
AcDbLine
 10
328.4006277816228
 20
240.1343950260738
 30
0.0
 11
335.9006277816228
 21
240.1343950260738
 31
0.0
  0
LINE
  5
C51
330
18
100
AcDbEntity
  8
外形線
100
AcDbLine
 10
335.9006277816228
 20
240.1343950260738
 30
0.0
 11
335.9006277816228
 21
239.1343950260738
 31
0.0
  0
LINE
  5
C52
330
18
100
AcDbEntity
  8
外形線
100
AcDbLine
 10
328.4006277816228
 20
240.1343950260738
 30
0.0
 11
328.4006277816228
 21
239.1343950260738
 31
0.0
  0
LINE
  5
C53
330
18
100
AcDbEntity
  8
外形線
100
AcDbLine
 10
335.1506277816229
 20
242.1343950260738
 30
0.0
 11
335.1506277816228
 21
240.1343950260738
 31
0.0
  0
LINE
  5
C54
330
18
100
AcDbEntity
  8
外形線
100
AcDbLine
 10
329.1506277816228
 20
242.1343950260738
 30
0.0
 11
329.1506277816228
 21
240.1343950260737
 31
0.0
  0
LINE
  5
C55
330
18
100
AcDbEntity
  8
外形線
100
AcDbLine
 10
335.9006277816228
 20
242.1343950260738
 30
0.0
 11
335.9006277816229
 21
245.1343950260738
 31
0.0
  0
LINE
  5
C56
330
18
100
AcDbEntity
  8
外形線
100
AcDbLine
 10
328.4006277816228
 20
242.1343950260737
 30
0.0
 11
328.4006277816228
 21
245.1343950260738
 31
0.0
  0
LINE
  5
C57
330
18
100
AcDbEntity
  8
外形線
100
AcDbLine
 10
334.1506277816228
 20
239.1343950260738
 30
0.0
 11
334.1506277816228
 21
225.2343950260737
 31
0.0
  0
LINE
  5
C58
330
18
100
AcDbEntity
  8
外形線
100
AcDbLine
 10
330.1506277816228
 20
239.1343950260738
 30
0.0
 11
330.1506277816228
 21
225.2343950260737
 31
0.0
  0
DIMENSION
  5
CCD
330
18
100
AcDbEntity
  8
文字
100
AcDbDimension
  2
*D17
 10
334.1506277816228
 20
229.4940465279412
 30
0.0
 11
321.4286611635761
 21
229.4940465279412
 31
0.0
 70
   160
  1
%%C<>
 71
     5
 42
4.0
  3
STYLE3
100
AcDbAlignedDimension
 13
330.1506277816228
 23
233.7332317290376
 33
0.0
 14
334.1506277816228
 24
233.224097342363
 34
0.0
100
AcDbRotatedDimension
1001
ACAD
1000
DSTYLE
1002
{
1070
    76
1070
     1
1070
    75
1070
     1
1070
   281
1070
     0
1070
   271
1070
     2
1002
}
  0
TEXT
  5
D57
330
18
100
AcDbEntity
  8
寸法線
100
AcDbText
 10
322.2092956412904
 20
276.2448876232266
 30
0.0
 40
1.199999999999999
  1
MODE
  7
STYLE4
100
AcDbText
  0
TEXT
  5
D58
330
18
100
AcDbEntity
  8
寸法線
100
AcDbText
 10
336.4149832014776
 20
276.2448876232266
 30
0.0
 40
1.199999999999999
  1
ON/OFF
  7
STYLE4
100
AcDbText
  0
LINE
  5
D59
330
18
100
AcDbEntity
  8
外形線
100
AcDbLine
 10
316.1506277816228
 20
277.6343950260738
 30
0.0
 11
316.1506277816228
 21
267.4912141910001
 31
0.0
  0
LINE
  5
D5A
330
18
100
AcDbEntity
  8
外形線
100
AcDbLine
 10
348.1506277816228
 20
277.6343950260738
 30
0.0
 11
348.1506277816228
 21
267.4912141910001
 31
0.0
  0
LINE
  5
D5B
330
18
100
AcDbEntity
  8
外形線
100
AcDbLine
 10
317.1506277816228
 20
278.6343950260738
 30
0.0
 11
347.1506277816228
 21
278.6343950260738
 31
0.0
  0
ARC
  5
D5C
330
18
100
AcDbEntity
  8
外形線
100
AcDbCircle
 10
332.1506277816228
 20
291.1343950260738
 30
0.0
 40
29.0
100
AcDbArc
 50
237.6076345141536
 51
302.3923654858464
  0
ARC
  5
D5D
330
18
100
AcDbEntity
  8
外形線
100
AcDbCircle
 10
317.1506277816228
 20
277.6343950260738
 30
0.0
 40
1.0
100
AcDbArc
 50
90.0
 51
180.0
  0
ARC
  5
D5E
330
18
100
AcDbEntity
  8
外形線
100
AcDbCircle
 10
347.1506277816228
 20
277.6343950260738
 30
0.0
 40
1.0
100
AcDbArc
 50
0.0
 51
90.0
  0
ARC
  5
D5F
330
18
100
AcDbEntity
  8
外形線
100
AcDbCircle
 10
347.1506277816228
 20
267.4912141910001
 30
0.0
 40
1.0
100
AcDbArc
 50
302.3923654858423
 51
0.0
  0
ARC
  5
D60
330
18
100
AcDbEntity
  8
外形線
100
AcDbCircle
 10
317.1506277816228
 20
267.4912141910001
 30
0.0
 40
1.0
100
AcDbArc
 50
180.0
 51
237.6076345141575
  0
ELLIPSE
  5
D61
330
18
100
AcDbEntity
  8
外形線
100
AcDbEllipse
 10
339.9994096692316
 20
271.2261115528945
 30
0.0
 11
-4.089143464216689
 21
0.0
 31
0.0
210
0.0
220
0.0
230
1.0
 40
0.6358299782710266
 41
0.0
 42
6.283185307179586
  0
ELLIPSE
  5
D62
330
18
100
AcDbEntity
  8
外形線
100
AcDbEllipse
 10
324.8232139722226
 20
271.2261115528945
 30
0.0
 11
-4.089143464216689
 21
0.0
 31
0.0
210
0.0
220
0.0
230
1.0
 40
0.6358299782710266
 41
0.0
 42
6.283185307179586
  0
TEXT
  5
D63
330
18
100
AcDbEntity
  8
寸法線
100
AcDbText
 10
338.3051240903209
 20
265.0916638606353
 30
0.0
 40
1.199999999999999
  1
SET
  7
STYLE4
100
AcDbText
  0
ELLIPSE
  5
D64
330
18
100
AcDbEntity
  8
外形線
100
AcDbEllipse
 10
339.9994096692316
 20
271.2261115528945
 30
0.0
 11
-5.473687379191062
 21
0.0
 31
0.0
210
0.0
220
0.0
230
1.0
 40
0.7307688077339824
 41
0.0
 42
6.283185307179586
  0
ELLIPSE
  5
D65
330
18
100
AcDbEntity
  8
外形線
100
AcDbEllipse
 10
324.8232139722226
 20
271.2261115528945
 30
0.0
 11
-5.473687379191062
 21
0.0
 31
0.0
210
0.0
220
0.0
230
1.0
 40
0.7307688077339824
 41
0.0
 42
6.283185307179586
  0
LINE
  5
D66
330
18
100
AcDbEntity
  8
中心線
 48
0.3
100
AcDbLine
 10
317.8536258746563
 20
271.2261115528945
 30
0.0
 11
331.7928020697885
 21
271.2261115528945
 31
0.0
  0
LINE
  5
D67
330
18
100
AcDbEntity
  8
中心線
 48
0.3
100
AcDbLine
 10
324.8232139722226
 20
276.543721536685
 30
0.0
 11
324.8232139722226
 21
265.9448727964448
 31
0.0
  0
LINE
  5
D68
330
18
100
AcDbEntity
  8
中心線
 48
0.3
100
AcDbLine
 10
339.9994096692316
 20
276.543721536685
 30
0.0
 11
339.9994096692316
 21
265.9448727964448
 31
0.0
  0
LINE
  5
D69
330
18
100
AcDbEntity
  8
中心線
 48
0.3
100
AcDbLine
 10
333.0298215716654
 20
271.2261115528945
 30
0.0
 11
346.9689977667976
 21
271.2261115528945
 31
0.0
  0
LINE
  5
EFD
330
18
100
AcDbEntity
  8
外形線
100
AcDbLine
 10
334.1506277816228
 20
226.2343950260738
 30
0.0
 11
340.1506277816228
 21
226.2343950260738
 31
0.0
  0
LINE
  5
F14
330
18
100
AcDbEntity
  8
寸法線
 62
     2
100
AcDbLine
 10
328.1506277816228
 20
234.9740480854346
 30
0.0
 11
328.1506277816228
 21
233.2929964421132
 31
0.0
  0
LINE
  5
F15
330
18
100
AcDbEntity
  8
寸法線
 62
     2
100
AcDbLine
 10
336.1506277816228
 20
234.9740480854346
 30
0.0
 11
336.1506277816228
 21
233.2929964421132
 31
0.0
  0
LINE
  5
F16
330
18
100
AcDbEntity
  8
寸法線
 62
     2
100
AcDbLine
 10
330.6506277816229
 20
235.1926935158863
 30
0.0
 11
333.6506277816228
 21
235.1926935158863
 31
0.0
  0
INSERT
  5
F17
330
18
100
AcDbEntity
  8
寸法線
 62
     2
100
AcDbBlockReference
  2
_OPEN
 10
328.1506277816228
 20
235.1926935158863
 30
0.0
 41
2.5
 42
2.5
 43
2.5
 50
180.0
  0
INSERT
  5
F18
330
18
100
AcDbEntity
  8
寸法線
 62
     2
100
AcDbBlockReference
  2
_OPEN
 10
336.1506277816228
 20
235.1926935158863
 30
0.0
 41
2.5
 42
2.5
 43
2.5
  0
MTEXT
  5
F19
330
18
100
AcDbEntity
  8
寸法線
 62
     6
100
AcDbMText
 10
321.081865170058
 20
237.0676935158863
 30
0.0
 40
2.5
 41
0.0
 71
     5
 72
     1
  1
\A1;φ8
  7
STYLE3
 73
     1
 44
1.0
  0
LINE
  5
F1A
330
18
100
AcDbEntity
  8
寸法線
100
AcDbLine
 10
328.1506277816228
 20
235.1926935158863
 30
0.0
 11
317.6812442075781
 21
235.1926935158863
 31
0.0
  0
DIMENSION
  5
F1B
330
18
100
AcDbEntity
  8
寸法線
100
AcDbDimension
  2
*D18
 10
323.7906264770498
 20
216.1343950260738
 30
0.0
 11
321.9156264770497
 21
219.6843950260738
 31
0.0
 70
    32
 71
     5
 42
7.099999999999994
  3
STYLE3
100
AcDbAlignedDimension
 13
330.0506277816226
 23
223.2343950260737
 33
0.0
 14
324.5812526041409
 24
216.1343950260738
 34
0.0
 50
90.0
100
AcDbRotatedDimension
1001
ACAD
1000
DSTYLE
1002
{
1070
   271
1070
     2
1070
   341
1005
0
1002
}
  0
DIMENSION
  5
F28
330
18
100
AcDbEntity
  8
寸法線
100
AcDbDimension
  2
*D19
 10
317.824994844464
 20
216.1343950260738
 30
0.0
 11
315.9499948444639
 21
220.6843950260738
 31
0.0
 70
    32
 71
     5
 42
9.100000000000022
  3
STYLE3
100
AcDbAlignedDimension
 13
330.0506277816227
 23
225.2343950260737
 33
0.0
 14
317.824994844464
 24
216.1343950260738
 34
0.0
 50
90.0
100
AcDbRotatedDimension
1001
ACAD
1000
DSTYLE
1002
{
1070
   271
1070
     2
1070
   341
1005
0
1002
}
  0
DIMENSION
  5
F50
330
18
100
AcDbEntity
  8
寸法線
100
AcDbDimension
  2
*D21
 10
414.9788605544776
 20
223.2343950260737
 30
0.0
 11
427.6942269598562
 21
230.8131861578743
 31
0.0
 70
    34
 71
     5
 42
0.2792526803190987
  3
STYLE3
100
AcDb2LineAngularDimension
 13
416.0767004808646
 23
216.1343950260738
 33
0.0
 14
417.0745404072516
 24
223.2343950260738
 34
0.0
 15
415.9767004808646
 25
216.1343950260738
 35
0.0
 16
415.2498205577956
 26
232.458550047196
 36
0.0
1001
ACAD
1000
DSTYLE
1002
{
1070
   271
1070
     2
1070
   341
1005
0
1002
}
  0
LINE
  5
F6C
330
18
100
AcDbEntity
  8
寸法線
100
AcDbLine
 10
332.1506277816228
 20
216.1343950260738
 30
0.0
 11
326.2552735937608
 21
206.2191836121577
 31
0.0
  0
LINE
  5
F6D
330
18
100
AcDbEntity
  8
寸法線
100
AcDbLine
 10
326.2552735937608
 20
206.2191836121577
 30
0.0
 11
343.3362767170095
 21
206.2191836121577
 31
0.0
  0
MTEXT
  5
F6E
330
18
100
AcDbEntity
  8
寸法線
 62
     6
100
AcDbMText
 10
335.4947093326178
 20
208.1201066942664
 30
0.0
 40
2.5
 41
0.0
 71
     5
 72
     1
  1
先端%%c0.1
  7
STYLE3
 73
     1
 44
1.0
  0
LINE
  5
F81
330
18
100
AcDbEntity
  8
中心線
 48
0.2
100
AcDbLine
 10
335.1303086952199
 20
253.7343950260737
 30
0.0
 11
341.5521298777079
 21
253.7343950260737
 31
0.0
  0
LINE
  5
F83
330
18
100
AcDbEntity
  8
外形線
100
AcDbLine
 10
336.1506277816229
 20
255.2343950260737
 30
0.0
 11
340.1506277816229
 21
255.2343950260737
 31
0.0
  0
LINE
  5
F84
330
18
100
AcDbEntity
  8
外形線
100
AcDbLine
 10
336.1506277816229
 20
252.2343950260737
 30
0.0
 11
340.1506277816229
 21
252.2343950260737
 31
0.0
  0
LINE
  5
F85
330
18
100
AcDbEntity
  8
文字
 62
     2
100
AcDbLine
 10
336.1506277816229
 20
254.7343950260737
 30
0.0
 11
340.1506277816229
 21
254.7343950260737
 31
0.0
  0
LINE
  5
F86
330
18
100
AcDbEntity
  8
文字
 62
     2
100
AcDbLine
 10
336.1506277816229
 20
252.7343950260737
 30
0.0
 11
340.1506277816229
 21
252.7343950260737
 31
0.0
  0
LINE
  5
F87
330
18
100
AcDbEntity
  8
中心線
 48
0.2
100
AcDbLine
 10
335.1303086952199
 20
247.7343950260737
 30
0.0
 11
341.5521298777079
 21
247.7343950260737
 31
0.0
  0
LINE
  5
F88
330
18
100
AcDbEntity
  8
外形線
100
AcDbLine
 10
336.1506277816229
 20
246.2343950260737
 30
0.0
 11
340.1506277816229
 21
246.2343950260737
 31
0.0
  0
LINE
  5
F89
330
18
100
AcDbEntity
  8
文字
 62
     2
100
AcDbLine
 10
336.1506277816229
 20
246.7343950260737
 30
0.0
 11
340.1506277816229
 21
246.7343950260737
 31
0.0
  0
LINE
  5
F8A
330
18
100
AcDbEntity
  8
外形線
100
AcDbLine
 10
336.1506277816229
 20
249.2343950260737
 30
0.0
 11
340.1506277816229
 21
249.2343950260737
 31
0.0
  0
LINE
  5
F8B
330
18
100
AcDbEntity
  8
文字
 62
     2
100
AcDbLine
 10
336.1506277816229
 20
248.7343950260737
 30
0.0
 11
340.1506277816229
 21
248.7343950260737
 31
0.0
  0
LINE
  5
F8C
330
18
100
AcDbEntity
  8
中心線
 48
0.2
100
AcDbLine
 10
412.861346393945
 20
253.7343950260737
 30
0.0
 11
419.2831675764329
 21
253.7343950260737
 31
0.0
  0
LINE
  5
F8D
330
18
100
AcDbEntity
  8
中心線
 48
0.2
100
AcDbLine
 10
412.861346393945
 20
247.7343950260737
 30
0.0
 11
419.2831675764329
 21
247.7343950260737
 31
0.0
  0
CIRCLE
  5
F8E
330
18
100
AcDbEntity
  8
寸法線
100
AcDbCircle
 10
416.0267004808646
 20
253.7343950260737
 30
0.0
 40
1.0
  0
CIRCLE
  5
F8F
330
18
100
AcDbEntity
  8
外形線
100
AcDbCircle
 10
416.0267004808646
 20
253.7343950260737
 30
0.0
 40
1.5
  0
CIRCLE
  5
F90
330
18
100
AcDbEntity
  8
寸法線
100
AcDbCircle
 10
416.0267004808646
 20
247.7343950260737
 30
0.0
 40
1.0
  0
CIRCLE
  5
F91
330
18
100
AcDbEntity
  8
外形線
100
AcDbCircle
 10
416.0267004808646
 20
247.7343950260737
 30
0.0
 40
1.5
  0
DIMENSION
  5
FCF
330
18
100
AcDbEntity
  8
外形線
100
AcDbDimension
  2
*D22
 10
418.5267004808647
 20
209.8144958765594
 30
0.0
 11
416.0267004808646
 21
209.8144958765594
 31
0.0
 70
   160
  1
%%C<>
 71
     5
 42
5.00000000000017
  3
STYLE3
100
AcDbAlignedDimension
 13
413.5267004808644
 23
224.2343950260738
 33
0.0
 14
418.5267004808647
 24
224.2343950260738
 34
0.0
100
AcDbRotatedDimension
1001
ACAD
1000
DSTYLE
1002
{
1070
   271
1070
     2
1070
   341
1005
0
1002
}
  0
LINE
  5
10A9
330
18
100
AcDbEntity
  8
外形線
100
AcDbLine
 10
324.9721691746797
 20
356.0417273713451
 30
0.0
 11
423.9721691746797
 21
356.0417273713451
 31
0.0
  0
LINE
  5
10AA
330
18
100
AcDbEntity
  8
外形線
100
AcDbLine
 10
324.9721691746797
 20
355.0417273713451
 30
0.0
 11
423.9721691746797
 21
355.0417273713451
 31
0.0
  0
TEXT
  5
10AB
330
18
100
AcDbEntity
  8
文字
100
AcDbText
 10
325.2060291746797
 20
358.3265193713451
 30
0.0
 40
3.5
  1
Model No.T5-127 Digital Depth Gauge
  7
STYLE3
100
AcDbText
  0
LINE
  5
10AD
330
18
100
AcDbEntity
  8
外形線
100
AcDbLine
 10
350.2405817266902
 20
192.8774534215519
 30
0.0
 11
491.0319997266902
 21
192.8774534215519
 31
0.0
  0
LINE
  5
10AE
330
18
100
AcDbEntity
  8
外形線
100
AcDbLine
 10
350.2405817266902
 20
182.0972474215519
 30
0.0
 11
491.0319997266902
 21
182.0972474215519
 31
0.0
  0
TEXT
  5
10AF
330
18
100
AcDbEntity
  8
0
  6
Continuous
100
AcDbText
 10
351.6980487266902
 20
183.9952374215519
 30
0.0
 40
2.1
  1
Design and specifications are subject to change without notice for future improvement.
  7
STYLE3
100
AcDbText
  0
TEXT
  5
10B0
330
18
100
AcDbEntity
  8
0
  6
Continuous
100
AcDbText
 10
351.9895427266902
 20
187.9243854215519
 30
0.0
 40
3.5
  1
仕様及び外観は予告なく変更される場合がございますのでご了承下さい。
  7
STYLE3
100
AcDbText
  0
TEXT
  5
10B1
330
18
100
AcDbEntity
  8
0
  6
Continuous
100
AcDbText
 10
351.4065577266901
 20
174.2306094215519
 30
0.0
 40
2.1
  1
3RD Angle Projection
  7
STYLE3
100
AcDbText
  0
TEXT
  5
10B2
330
18
100
AcDbEntity
  8
0
  6
Continuous
100
AcDbText
 10
354.0300007266901
 20
177.7268924215519
 30
0.0
 40
3.0
  1
三　　角　　法
  7
STYLE3
100
AcDbText
  0
LINE
  5
10B3
330
18
100
AcDbEntity
  8
外形線
100
AcDbLine
 10
350.2405817266902
 20
172.4824694215519
 30
0.0
 11
350.2405817266902
 21
192.8774534215519
 31
0.0
  0
LINE
  5
10B4
330
18
100
AcDbEntity
  8
外形線
100
AcDbLine
 10
452.2633487266901
 20
182.0972474215519
 30
0.0
 11
452.2633487266901
 21
172.4824694215519
 31
0.0
  0
LINE
  5
10B5
330
18
100
AcDbEntity
  8
外形線
100
AcDbLine
 10
422.5309987266901
 20
182.0972474215519
 30
0.0
 11
422.5309987266901
 21
172.4824694215519
 31
0.0
  0
LINE
  5
10B6
330
18
100
AcDbEntity
  8
外形線
100
AcDbLine
 10
403.0009267266901
 20
182.0972474215519
 30
0.0
 11
403.0009267266901
 21
172.4824694215519
 31
0.0
  0
LINE
  5
10B7
330
18
100
AcDbEntity
  8
外形線
100
AcDbLine
 10
385.5113097266902
 20
182.0972474215519
 30
0.0
 11
385.5113097266902
 21
172.4824694215519
 31
0.0
  0
TEXT
  5
10B8
330
18
100
AcDbEntity
  8
0
  6
Continuous
100
AcDbText
 10
386.9687787266902
 20
177.7328474215519
 30
0.0
 40
3.0
  1
単位
  7
STYLE3
100
AcDbText
  0
TEXT
  5
10B9
330
18
100
AcDbEntity
  8
0
  6
Continuous
100
AcDbText
 10
387.1404997266902
 20
174.2306104215519
 30
0.0
 40
2.1
  1
Unit
  7
STYLE3
100
AcDbText
  0
TEXT
  5
10BA
330
18
100
AcDbEntity
  8
0
  6
Continuous
100
AcDbText
 10
404.2866747266901
 20
177.441489421552
 30
0.0
 40
3.0
  1
尺 度
  7
STYLE3
100
AcDbText
  0
TEXT
  5
10BB
330
18
100
AcDbEntity
  8
0
  6
Continuous
100
AcDbText
 10
395.0108267266902
 20
175.978753421552
 30
0.0
 40
2.399999999999999
  1
mm
  7
STYLE3
100
AcDbText
  0
TEXT
  5
10BC
330
18
100
AcDbEntity
  8
0
  6
Continuous
100
AcDbText
 10
404.7498897266901
 20
174.5219674215519
 30
0.0
 40
2.1
  1
Scale
  7
STYLE3
100
AcDbText
  0
TEXT
  5
10BD
330
18
100
AcDbEntity
  8
0
  6
Continuous
100
AcDbText
 10
414.3691787266901
 20
176.270110421552
 30
0.0
 40
2.399999999999999
  1
1/1
  7
STYLE3
100
AcDbText
  0
TEXT
  5
10BE
330
18
100
AcDbEntity
  8
0
  6
Continuous
100
AcDbText
 10
424.4629497266902
 20
174.230611421552
 30
0.0
 40
2.1
  1
Date
  7
STYLE3
100
AcDbText
  0
TEXT
  5
10BF
330
18
100
AcDbEntity
  8
0
  6
Continuous
100
AcDbText
 10
424.0795887266901
 20
177.5636944215519
 30
0.0
 40
3.0
  1
日 付
  7
STYLE3
100
AcDbText
  0
TEXT
  5
10C0
330
18
100
AcDbEntity
  8
0
  6
Continuous
100
AcDbText
 10
433.2077577266901
 20
175.978752421552
 30
0.0
 40
2.1
  1
2010.07.01
  7
STYLE3
100
AcDbText
  0
TEXT
  5
10C1
330
18
100
AcDbEntity
  8
0
  6
Continuous
100
AcDbText
 10
453.6123117266901
 20
178.0182494215519
 30
0.0
 40
3.0
  1
株式会社　尾崎製作所
  7
STYLE3
100
AcDbText
  0
TEXT
  5
10C2
330
18
100
AcDbEntity
  8
0
  6
Continuous
100
AcDbText
 10
454.4867907266901
 20
174.2306104215519
 30
0.0
 40
2.1
  1
OZAKI MFG. CO., LTD.
  7
STYLE3
100
AcDbText
  0
ENDSEC
  0
SECTION
  2
OBJECTS
  0
DICTIONARY
  5
C
330
0
100
AcDbDictionary
281
     1
  3
ACAD_COLOR
350
9F3
  3
ACAD_GROUP
350
D
  3
ACAD_LAYOUT
350
9F6
  3
ACAD_MATERIAL
350
9F2
  3
ACAD_MLINESTYLE
350
1B
  3
ACAD_PLOTSETTINGS
350
9F7
  3
ACAD_PLOTSTYLENAME
350
9F0
  3
ACAD_TABLESTYLE
350
9F4
  3
ACDBVARIABLEDICTIONARY
350
208
  0
DICTIONARY
  5
A04
330
18
100
AcDbDictionary
280
     1
281
     1
  3
ACAD_SORTENTS
360
A05
  0
DICTIONARY
  5
9F3
102
{ACAD_REACTORS
330
C
102
}
330
C
100
AcDbDictionary
281
     1
  0
DICTIONARY
  5
D
102
{ACAD_REACTORS
330
C
102
}
330
C
100
AcDbDictionary
281
     1
  0
DICTIONARY
  5
9F6
102
{ACAD_REACTORS
330
C
102
}
330
C
100
AcDbDictionary
281
     1
  3
Model
350
9F8
  3
レイアウト1
350
9F9
  0
DICTIONARY
  5
9F2
102
{ACAD_REACTORS
330
C
102
}
330
C
100
AcDbDictionary
281
     1
  0
DICTIONARY
  5
1B
102
{ACAD_REACTORS
330
C
102
}
330
C
100
AcDbDictionary
281
     1
  3
STANDARD
350
1C
  0
DICTIONARY
  5
9F7
102
{ACAD_REACTORS
330
C
102
}
330
C
100
AcDbDictionary
281
     1
  0
ACDBDICTIONARYWDFLT
  5
9F0
102
{ACAD_REACTORS
330
C
102
}
330
C
100
AcDbDictionary
281
     1
  3
Normal
350
9F1
100
AcDbDictionaryWithDefault
340
9F1
  0
DICTIONARY
  5
9F4
102
{ACAD_REACTORS
330
C
102
}
330
C
100
AcDbDictionary
281
     1
  3
Standard
350
9F5
  0
DICTIONARY
  5
208
102
{ACAD_REACTORS
330
C
102
}
330
C
100
AcDbDictionary
281
     1
  3
CTABLESTYLE
350
A01
  3
SORTENTS
350
209
  0
SORTENTSTABLE
  5
A05
102
{ACAD_REACTORS
330
A04
102
}
330
A04
100
AcDbSortentsTable
330
18
331
641
  5
643
331
602
  5
604
331
758
  5
889
331
896
  5
8D8
331
60A
  5
60C
331
612
  5
614
331
89E
  5
934
331
935
  5
97B
331
61A
  5
61C
331
11B
  5
11B
331
1A9
  5
1AB
331
C50
  5
C57
331
C58
  5
D56
331
257
  5
263
331
97A
  5
984
331
123
  5
123
331
16A
  5
16A
331
218
  5
21A
331
F4E
  5
F81
331
982
  5
98C
331
1B9
  5
1BB
331
12B
  5
12B
331
F17
  5
F49
331
4E5
  5
4E7
331
98A
  5
C49
331
17A
  5
17C
331
228
  5
22D
331
622
  5
624
331
62A
  5
62C
331
808
  5
88C
331
632
  5
634
331
63A
  5
63C
331
5FB
  5
5FD
331
887
  5
891
331
88F
  5
899
331
D58
  5
D5F
331
230
  5
232
331
1C9
  5
1FF
331
93B
  5
981
331
133
  5
133
331
18A
  5
18F
331
D60
  5
D67
331
13B
  5
13B
331
192
  5
194
331
238
  5
23A
331
D68
  5
F16
331
F6E
  5
F86
331
201
  5
203
331
143
  5
143
331
19A
  5
19C
331
240
  5
242
331
F86
  5
821
331
C49
  5
C54
331
1A2
  5
1A4
331
114
  5
114
331
14B
  5
14B
331
248
  5
24A
331
603
  5
605
331
642
  5
723
331
897
  5
8D9
331
60B
  5
60D
331
613
  5
615
331
61B
  5
61D
331
936
  5
97C
331
C51
  5
C58
331
250
  5
253
331
11C
  5
11C
331
1AA
  5
1AC
331
97B
  5
985
331
16B
  5
16B
331
124
  5
124
331
219
  5
21D
331
F4F
  5
F82
331
983
  5
98D
331
1BA
  5
1C9
331
12C
  5
12C
331
4E6
  5
4E8
331
98B
  5
C4E
331
17B
  5
17D
331
229
  5
230
331
623
  5
625
331
62B
  5
62D
331
633
  5
635
331
888
  5
892
331
63B
  5
63D
331
5FC
  5
5FE
331
91F
  5
939
331
D59
  5
D60
331
F18
  5
F4A
331
1CA
  5
200
331
18B
  5
190
331
134
  5
134
331
231
  5
233
331
D61
  5
D68
331
193
  5
195
331
13C
  5
13C
331
239
  5
23B
331
D69
  5
F17
331
F28
  5
F4E
331
241
  5
243
331
202
  5
204
331
144
  5
144
331
19B
  5
19D
331
14C
  5
14C
331
115
  5
115
331
1A3
  5
1A5
331
249
  5
24B
331
890
  5
89A
331
643
  5
73B
331
604
  5
606
331
821
  5
88E
331
60C
  5
60E
331
898
  5
904
331
614
  5
616
331
937
  5
97D
331
61C
  5
61E
331
251
  5
254
331
11D
  5
11D
331
1AB
  5
1AF
331
C52
  5
C59
331
21A
  5
21E
331
125
  5
125
331
16C
  5
16E
331
97C
  5
986
331
222
  5
226
331
1BB
  5
1CA
331
12D
  5
12D
331
984
  5
98F
331
F50
  5
F83
331
4E7
  5
4EE
331
17C
  5
17E
331
98C
  5
C4F
331
8D8
  5
936
331
624
  5
626
331
723
  5
757
331
62C
  5
62E
331
634
  5
636
331
73B
  5
7D7
331
889
  5
893
331
5FD
  5
5FF
331
63C
  5
63E
331
232
  5
234
331
135
  5
135
331
D5A
  5
D61
331
F19
  5
F4B
331
23A
  5
23C
331
13D
  5
13D
331
194
  5
197
331
A03
  5
16D
331
D62
  5
D69
331
203
  5
205
331
19C
  5
19E
331
145
  5
145
331
242
  5
244
331
1A4
  5
1A6
331
116
  5
116
331
14D
  5
14D
331
24A
  5
24C
331
920
  5
93A
331
605
  5
607
331
891
  5
89B
331
899
  5
91F
331
60D
  5
60F
331
615
  5
617
331
61D
  5
61F
331
213
  5
215
331
11E
  5
11E
331
1AC
  5
1B0
331
C53
  5
D1A
331
1B4
  5
1B9
331
262
  5
264
331
16D
  5
16F
331
126
  5
126
331
97D
  5
987
331
F49
  5
F4F
331
12E
  5
12E
331
985
  5
990
331
17D
  5
17F
331
98D
  5
C50
331
4E8
  5
5F4
331
625
  5
627
331
8D9
  5
937
331
62D
  5
62F
331
635
  5
637
331
88A
  5
894
331
63D
  5
63F
331
5FE
  5
600
331
233
  5
235
331
136
  5
136
331
D5B
  5
D62
331
F1A
  5
F4C
331
195
  5
198
331
13E
  5
13E
331
23B
  5
23D
331
D63
  5
D6A
331
243
  5
245
331
204
  5
206
331
146
  5
146
331
19D
  5
19F
331
F81
  5
808
331
14E
  5
14E
331
117
  5
117
331
1A5
  5
1A7
331
24B
  5
24D
331
892
  5
89C
331
606
  5
608
331
60E
  5
610
331
89A
  5
920
331
616
  5
618
331
61E
  5
620
331
253
  5
256
331
214
  5
216
331
11F
  5
11F
331
C54
  5
D52
331
263
  5
3C3
331
127
  5
127
331
16E
  5
170
331
97E
  5
988
331
F4A
  5
F50
331
224
  5
227
331
12F
  5
12F
331
986
  5
991
331
17E
  5
180
331
626
  5
628
331
7FC
  5
88B
331
62E
  5
630
331
636
  5
638
331
88B
  5
895
331
5FF
  5
601
331
63E
  5
640
331
234
  5
236
331
D5C
  5
D63
331
F1B
  5
F4D
331
13F
  5
13F
331
23C
  5
23E
331
D64
  5
D6B
331
244
  5
246
331
19E
  5
1A0
331
147
  5
147
331
205
  5
213
331
1A6
  5
1A8
331
14F
  5
14F
331
24C
  5
24E
331
47A
  5
4AC
331
607
  5
609
331
893
  5
89D
331
89B
  5
924
331
60F
  5
611
331
617
  5
619
331
61F
  5
621
331
8D3
  5
935
331
118
  5
118
331
254
  5
257
331
3C3
  5
47A
331
215
  5
217
331
120
  5
120
331
C55
  5
D53
331
21D
  5
21F
331
264
  5
3DD
331
16F
  5
171
331
128
  5
128
331
97F
  5
989
331
F4B
  5
F6C
331
CCD
  5
D57
331
987
  5
A03
331
F14
  5
F1A
331
22D
  5
231
331
17F
  5
181
331
98F
  5
C51
331
627
  5
629
331
62F
  5
631
331
637
  5
639
331
5F8
  5
5FA
331
815
  5
88D
331
88C
  5
896
331
63F
  5
641
331
130
  5
130
331
938
  5
97E
331
18F
  5
191
331
235
  5
237
331
D5D
  5
D64
331
23D
  5
23F
331
D65
  5
EFD
331
197
  5
199
331
140
  5
140
331
A06
  5
16C
331
245
  5
247
331
206
  5
214
331
19F
  5
1A1
331
F83
  5
885
331
24D
  5
24F
331
1A7
  5
1A9
331
C4E
  5
C55
331
600
  5
602
331
894
  5
89E
331
608
  5
60A
331
92B
  5
978
331
610
  5
612
331
89C
  5
92B
331
618
  5
61A
331
150
  5
150
331
119
  5
119
331
483
  5
4E4
331
1AF
  5
1B4
331
216
  5
218
331
C56
  5
D54
331
121
  5
121
331
978
  5
982
331
F4C
  5
F6D
331
21E
  5
222
331
129
  5
129
331
170
  5
17A
331
980
  5
98A
331
EFD
  5
758
331
226
  5
228
331
F15
  5
F1B
331
988
  5
A06
331
620
  5
622
331
628
  5
62A
331
630
  5
632
331
885
  5
88F
331
638
  5
63A
331
5F9
  5
5FB
331
904
  5
938
331
757
  5
888
331
88D
  5
897
331
188
  5
18A
331
131
  5
131
331
939
  5
97F
331
990
  5
C52
331
236
  5
238
331
190
  5
192
331
D5E
  5
D65
331
23E
  5
240
331
D66
  5
F14
331
1FF
  5
201
331
141
  5
141
331
198
  5
19A
331
A07
  5
7FC
331
F6C
  5
F84
331
1A0
  5
1A2
331
112
  5
112
331
149
  5
149
331
246
  5
248
331
F84
  5
815
331
24E
  5
250
331
C4F
  5
C56
331
601
  5
603
331
640
  5
642
331
924
  5
93B
331
895
  5
8D3
331
609
  5
60B
331
92C
  5
979
331
89D
  5
92C
331
611
  5
613
331
619
  5
61B
331
7D7
  5
88A
331
934
  5
97A
331
1A8
  5
1AA
331
151
  5
151
331
11A
  5
11A
331
256
  5
262
331
217
  5
219
331
1B0
  5
1B8
331
C57
  5
D55
331
122
  5
122
331
979
  5
983
331
4AC
  5
4E5
331
21F
  5
224
331
1B8
  5
1BA
331
171
  5
17B
331
12A
  5
12A
331
981
  5
98B
331
F4D
  5
F6E
331
3DD
  5
483
331
4E4
  5
4E6
331
227
  5
229
331
989
  5
A07
331
F16
  5
F28
331
D57
  5
D5E
331
621
  5
623
331
629
  5
62B
331
631
  5
633
331
886
  5
890
331
639
  5
63B
331
5FA
  5
5FC
331
88E
  5
898
331
189
  5
18B
331
991
  5
C53
331
132
  5
132
331
93A
  5
980
331
191
  5
193
331
13A
  5
13A
331
237
  5
239
331
D5F
  5
D66
331
23F
  5
241
331
200
  5
202
331
142
  5
142
331
10B
  5
10B
331
199
  5
19B
331
D67
  5
F15
331
F6D
  5
F85
331
247
  5
249
331
14A
  5
14A
331
113
  5
113
331
1A1
  5
1A3
331
F85
  5
886
331
24F
  5
251
  0
LAYOUT
  5
9F8
102
{ACAD_REACTORS
330
9F6
102
}
330
9F6
100
AcDbPlotSettings
  1

  2
A3 EPSON LP-6100.pc3
  4
A3
  6

 40
5.873749732971191
 41
5.873747825622558
 42
5.873748779296875
 43
5.873748779296875
 44
297.0106506347656
 45
419.9466552734374
 46
44.15212748905474
 47
50.9659477899159
 48
0.0
 49
0.0
140
0.0
141
0.0
142
1.0
143
1.0
 70
 28340
 72
     1
 73
     1
 74
     0
  7
AutoCAD LT 98.ctb
 75
    16
147
1.0
 76
     1
 77
     2
 78
   300
148
-211.0563244474667
149
-170.8712173468643
100
AcDbLayout
  1
Model
 70
     1
 71
     0
 10
0.0
 20
0.0
 11
12.0
 21
9.0
 12
0.0
 22
0.0
 32
0.0
 14
0.0
 24
0.0
 34
0.0
 15
0.0
 25
0.0
 35
0.0
146
0.0
 13
0.0
 23
0.0
 33
0.0
 16
1.0
 26
0.0
 36
0.0
 17
0.0
 27
1.0
 37
0.0
 76
     0
330
18
1001
ACAD_PSEXT
1000
A3 EPSON LP-6100.pc3
1000
EPSON LP-6100
1000
USB002
1000

1070
     0
  0
LAYOUT
  5
9F9
102
{ACAD_REACTORS
330
9F6
102
}
330
9F6
100
AcDbPlotSettings
  1

  2
C:\Documents and Settings\佐藤\Application Data\Autodesk\AutoCAD LT 2005\R10\jpn\plotters\PEACOCK EPSON LP-6100.pc3
  4

  6

 40
0.0
 41
0.0
 42
0.0
 43
0.0
 44
0.0
 45
0.0
 46
0.0
 47
0.0
 48
0.0
 49
0.0
140
0.0
141
0.0
142
1.0
143
1.0
 70
   688
 72
     0
 73
     0
 74
     5
  7
AutoCAD LT 98.ctb
 75
    16
147
1.0
 76
     0
 77
     2
 78
   300
148
0.0
149
0.0
100
AcDbLayout
  1
レイアウト1
 70
     1
 71
     1
 10
0.0
 20
0.0
 11
420.0
 21
297.0
 12
0.0
 22
0.0
 32
0.0
 14
1.000000000000000E+20
 24
1.000000000000000E+20
 34
1.000000000000000E+20
 15
-1.000000000000000E+20
 25
-1.000000000000000E+20
 35
-1.000000000000000E+20
146
0.0
 13
0.0
 23
0.0
 33
0.0
 16
1.0
 26
0.0
 36
0.0
 17
0.0
 27
1.0
 37
0.0
 76
     0
330
15
  0
MLINESTYLE
  5
1C
102
{ACAD_REACTORS
330
1B
102
}
330
1B
100
AcDbMlineStyle
  2
STANDARD
 70
     0
  3

 62
   256
 51
90.0
 52
90.0
 71
     2
 49
0.5
 62
   256
  6
BYLAYER
 49
-0.5
 62
   256
  6
BYLAYER
  0
ACDBPLACEHOLDER
  5
9F1
102
{ACAD_REACTORS
330
9F0
102
}
330
9F0
  0
ACAD_PROXY_OBJECT
  5
9F5
102
{ACAD_REACTORS
330
9F4
102
}
330
9F4
100
AcDbProxyObject
 90
      499
 91
      504
 95
  2555929
 70
     0
 93
     1849
310
4214DD185B99185C992420000000000000F83F0000000000003E0FC00000000000004901028000000C1008070000C3001FDFF8000000C1003FBFF000000182007F7FE00000030400FEFFC00000060801FDFF8000000C1003FBFF000000182000000000000000C2020B0000001820100E000186003FBFF000000182007F7FE0
310
0000030400FEFFC00000060801FDFF8000000C1003FBFF000000182007F7FE0000003040000000000000012404160000003040201C00030C007F7FE00000030400FEFFC00000060801FDFF8000000C1003FBFF000000182007F7FE00000030400FEFFC000000608000
340
F
340
F
340
F
 94
        0
  0
DICTIONARYVAR
  5
A01
102
{ACAD_REACTORS
330
208
102
}
330
208
100
DictionaryVariables
280
     0
  1
STANDARD
  0
DICTIONARYVAR
  5
209
102
{ACAD_REACTORS
330
208
102
}
330
208
100
DictionaryVariables
280
     0
  1
96
  0
ENDSEC
  0
EOF
