  0
SECTION
  2
HEADER
  9
$ACADVER
  1
AC1018
  9
$ACADMAINTVER
 70
     0
  9
$DWGCODEPAGE
  3
ANSI_932
  9
$INSBASE
 10
0.0
 20
0.0
 30
0.0
  9
$EXTMIN
 10
236.4886399213253
 20
171.6235150316331
 30
-0.0000000000000146
  9
$EXTMAX
 10
491.9065769375231
 20
367.0613805837511
 30
0.0000000000000007
  9
$LIMMIN
 10
0.0
 20
0.0
  9
$LIMMAX
 10
420.0
 20
297.0
  9
$ORTHOMODE
 70
     0
  9
$REGENMODE
 70
     1
  9
$FILLMODE
 70
     1
  9
$QTEXTMODE
 70
     0
  9
$MIRRTEXT
 70
     1
  9
$LTSCALE
 40
1.0
  9
$ATTMODE
 70
     1
  9
$TEXTSIZE
 40
2.0
  9
$TRACEWID
 40
1.0
  9
$TEXTSTYLE
  7
STYLE3
  9
$CLAYER
  8
寸法線
  9
$CELTYPE
  6
BYLAYER
  9
$CECOLOR
 62
   256
  9
$CELTSCALE
 40
1.0
  9
$DISPSILH
 70
     0
  9
$DIMSCALE
 40
1.0
  9
$DIMASZ
 40
2.5
  9
$DIMEXO
 40
0.0
  9
$DIMDLI
 40
3.75
  9
$DIMRND
 40
0.0
  9
$DIMDLE
 40
0.0
  9
$DIMEXE
 40
1.25
  9
$DIMTP
 40
0.0
  9
$DIMTM
 40
0.0
  9
$DIMTXT
 40
2.5
  9
$DIMCEN
 40
2.5
  9
$DIMTSZ
 40
0.0
  9
$DIMTOL
 70
     0
  9
$DIMLIM
 70
     0
  9
$DIMTIH
 70
     0
  9
$DIMTOH
 70
     0
  9
$DIMSE1
 70
     0
  9
$DIMSE2
 70
     0
  9
$DIMTAD
 70
     1
  9
$DIMZIN
 70
     8
  9
$DIMBLK
  1

  9
$DIMASO
 70
     1
  9
$DIMSHO
 70
     1
  9
$DIMPOST
  1

  9
$DIMAPOST
  1

  9
$DIMALT
 70
     0
  9
$DIMALTD
 70
     4
  9
$DIMALTF
 40
0.0394
  9
$DIMLFAC
 40
1.0
  9
$DIMTOFL
 70
     1
  9
$DIMTVP
 40
0.0
  9
$DIMTIX
 70
     0
  9
$DIMSOXD
 70
     0
  9
$DIMSAH
 70
     1
  9
$DIMBLK1
  1
OPEN
  9
$DIMBLK2
  1
OPEN
  9
$DIMSTYLE
  2
STYLE3
  9
$DIMCLRD
 70
     2
  9
$DIMCLRE
 70
     2
  9
$DIMCLRT
 70
     6
  9
$DIMTFAC
 40
1.0
  9
$DIMGAP
 40
0.625
  9
$DIMJUST
 70
     0
  9
$DIMSD1
 70
     0
  9
$DIMSD2
 70
     0
  9
$DIMTOLJ
 70
     1
  9
$DIMTZIN
 70
     0
  9
$DIMALTZ
 70
     0
  9
$DIMALTTZ
 70
     0
  9
$DIMUPT
 70
     0
  9
$DIMDEC
 70
     2
  9
$DIMTDEC
 70
     4
  9
$DIMALTU
 70
     8
  9
$DIMALTTD
 70
     4
  9
$DIMTXSTY
  7
STYLE3
  9
$DIMAUNIT
 70
     0
  9
$DIMADEC
 70
     0
  9
$DIMALTRND
 40
0.0
  9
$DIMAZIN
 70
     0
  9
$DIMDSEP
 70
    46
  9
$DIMATFIT
 70
     3
  9
$DIMFRAC
 70
     0
  9
$DIMLDRBLK
  1

  9
$DIMLUNIT
 70
     2
  9
$DIMLWD
 70
    -2
  9
$DIMLWE
 70
    -2
  9
$DIMTMOVE
 70
     0
  9
$LUNITS
 70
     2
  9
$LUPREC
 70
     4
  9
$SKETCHINC
 40
1.0
  9
$FILLETRAD
 40
0.0
  9
$AUNITS
 70
     0
  9
$AUPREC
 70
     0
  9
$MENU
  1
.
  9
$ELEVATION
 40
0.0
  9
$PELEVATION
 40
0.0
  9
$THICKNESS
 40
0.0
  9
$LIMCHECK
 70
     0
  9
$CHAMFERA
 40
0.5
  9
$CHAMFERB
 40
0.5
  9
$CHAMFERC
 40
20.0
  9
$CHAMFERD
 40
0.0
  9
$SKPOLY
 70
     0
  9
$TDCREATE
 40
2450920.409121760
  9
$TDUCREATE
 40
2450920.034121759
  9
$TDUPDATE
 40
2455379.582723160
  9
$TDUUPDATE
 40
2455379.207723160
  9
$TDINDWG
 40
1.2220735532
  9
$TDUSRTIMER
 40
1.2220735532
  9
$USRTIMER
 70
     1
  9
$ANGBASE
 50
0.0
  9
$ANGDIR
 70
     0
  9
$PDMODE
 70
     0
  9
$PDSIZE
 40
0.0
  9
$PLINEWID
 40
0.0
  9
$SPLFRAME
 70
     0
  9
$SPLINETYPE
 70
     6
  9
$SPLINESEGS
 70
     8
  9
$HANDSEED
  5
FA1
  9
$SURFTAB1
 70
     6
  9
$SURFTAB2
 70
     6
  9
$SURFTYPE
 70
     6
  9
$SURFU
 70
     6
  9
$SURFV
 70
     6
  9
$UCSBASE
  2

  9
$UCSNAME
  2

  9
$UCSORG
 10
0.0
 20
0.0
 30
0.0
  9
$UCSXDIR
 10
1.0
 20
0.0
 30
0.0
  9
$UCSYDIR
 10
0.0
 20
1.0
 30
0.0
  9
$UCSORTHOREF
  2

  9
$UCSORTHOVIEW
 70
     0
  9
$UCSORGTOP
 10
0.0
 20
0.0
 30
0.0
  9
$UCSORGBOTTOM
 10
0.0
 20
0.0
 30
0.0
  9
$UCSORGLEFT
 10
0.0
 20
0.0
 30
0.0
  9
$UCSORGRIGHT
 10
0.0
 20
0.0
 30
0.0
  9
$UCSORGFRONT
 10
0.0
 20
0.0
 30
0.0
  9
$UCSORGBACK
 10
0.0
 20
0.0
 30
0.0
  9
$PUCSBASE
  2

  9
$PUCSNAME
  2

  9
$PUCSORG
 10
0.0
 20
0.0
 30
0.0
  9
$PUCSXDIR
 10
1.0
 20
0.0
 30
0.0
  9
$PUCSYDIR
 10
0.0
 20
1.0
 30
0.0
  9
$PUCSORTHOREF
  2

  9
$PUCSORTHOVIEW
 70
     0
  9
$PUCSORGTOP
 10
0.0
 20
0.0
 30
0.0
  9
$PUCSORGBOTTOM
 10
0.0
 20
0.0
 30
0.0
  9
$PUCSORGLEFT
 10
0.0
 20
0.0
 30
0.0
  9
$PUCSORGRIGHT
 10
0.0
 20
0.0
 30
0.0
  9
$PUCSORGFRONT
 10
0.0
 20
0.0
 30
0.0
  9
$PUCSORGBACK
 10
0.0
 20
0.0
 30
0.0
  9
$USERI1
 70
     0
  9
$USERI2
 70
     0
  9
$USERI3
 70
     0
  9
$USERI4
 70
     0
  9
$USERI5
 70
     0
  9
$USERR1
 40
0.0
  9
$USERR2
 40
0.0
  9
$USERR3
 40
0.0
  9
$USERR4
 40
0.0
  9
$USERR5
 40
0.0
  9
$WORLDVIEW
 70
     1
  9
$SHADEDGE
 70
     3
  9
$SHADEDIF
 70
    70
  9
$TILEMODE
 70
     1
  9
$MAXACTVP
 70
    48
  9
$PINSBASE
 10
0.0
 20
0.0
 30
0.0
  9
$PLIMCHECK
 70
     0
  9
$PEXTMIN
 10
1.000000000000000E+20
 20
1.000000000000000E+20
 30
1.000000000000000E+20
  9
$PEXTMAX
 10
-1.000000000000000E+20
 20
-1.000000000000000E+20
 30
-1.000000000000000E+20
  9
$PLIMMIN
 10
0.0
 20
0.0
  9
$PLIMMAX
 10
420.0
 20
297.0
  9
$UNITMODE
 70
     0
  9
$VISRETAIN
 70
     1
  9
$PLINEGEN
 70
     0
  9
$PSLTSCALE
 70
     1
  9
$TREEDEPTH
 70
  3020
  9
$CMLSTYLE
  2
STANDARD
  9
$CMLJUST
 70
     0
  9
$CMLSCALE
 40
20.0
  9
$PROXYGRAPHICS
 70
     1
  9
$MEASUREMENT
 70
     1
  9
$CELWEIGHT
370
    -1
  9
$ENDCAPS
280
     0
  9
$JOINSTYLE
280
     0
  9
$LWDISPLAY
290
     0
  9
$INSUNITS
 70
     0
  9
$HYPERLINKBASE
  1

  9
$STYLESHEET
  1
AutoCAD LT 98.ctb
  9
$XEDIT
290
     1
  9
$CEPSNTYPE
380
     0
  9
$PSTYLEMODE
290
     1
  9
$FINGERPRINTGUID
  2
{D0178BE4-1C89-4039-AB44-ED245B9079A8}
  9
$VERSIONGUID
  2
{9539CCF4-3ABE-44EC-8AA3-3C70F8970705}
  9
$EXTNAMES
290
     1
  9
$PSVPSCALE
 40
0.0
  9
$OLESTARTUP
290
     0
  9
$SORTENTS
280
    96
  9
$INDEXCTL
280
     0
  9
$HIDETEXT
280
     0
  9
$XCLIPFRAME
290
     0
  9
$HALOGAP
280
     0
  9
$OBSCOLOR
 70
   257
  9
$OBSLTYPE
280
     0
  9
$INTERSECTIONDISPLAY
280
     0
  9
$INTERSECTIONCOLOR
 70
   257
  9
$DIMASSOC
280
     1
  9
$PROJECTNAME
  1

  0
ENDSEC
  0
SECTION
  2
CLASSES
  0
CLASS
  1
DICTIONARYVAR
  2
AcDbDictionaryVar
  3
ObjectDBX Classes
 90
        0
 91
        2
280
     0
281
     0
  0
CLASS
  1
HATCH
  2
AcDbHatch
  3
ObjectDBX Classes
 90
        0
 91
       16
280
     0
281
     1
  0
CLASS
  1
LWPOLYLINE
  2
AcDbPolyline
  3
ObjectDBX Classes
 90
        0
 91
        5
280
     0
281
     1
  0
CLASS
  1
ACDBDICTIONARYWDFLT
  2
AcDbDictionaryWithDefault
  3
ObjectDBX Classes
 90
        0
 91
        1
280
     0
281
     0
  0
CLASS
  1
TABLESTYLE
  2
AcDbTableStyle
  3
ObjectDBX Classes
 90
     2047
 91
        1
280
     0
281
     0
  0
CLASS
  1
SORTENTSTABLE
  2
AcDbSortentsTable
  3
ObjectDBX Classes
 90
        0
 91
        1
280
     0
281
     0
  0
ENDSEC
  0
SECTION
  2
TABLES
  0
TABLE
  2
VPORT
  5
8
330
0
100
AcDbSymbolTable
 70
     2
  0
VPORT
  5
FA0
330
8
100
AcDbSymbolTableRecord
100
AcDbViewportTableRecord
  2
*Active
 70
     0
 10
0.0
 20
0.0
 11
1.0
 21
1.0
 12
364.1976084294243
 22
269.3424478076921
 13
0.0
 23
0.0
 14
10.0
 24
10.0
 15
10.0
 25
10.0
 16
0.0
 26
0.0
 36
1.0
 17
0.0
 27
0.0
 37
0.0
 40
196.92408506202
 41
1.530456852791878
 42
50.0
 43
0.0
 44
0.0
 50
0.0
 51
0.0
 71
     0
 72
   100
 73
     1
 74
     1
 75
     0
 76
     0
 77
     0
 78
     0
281
     0
 65
     1
110
0.0
120
0.0
130
0.0
111
1.0
121
0.0
131
0.0
112
0.0
122
1.0
132
0.0
 79
     0
146
0.0
  0
ENDTAB
  0
TABLE
  2
LTYPE
  5
5
330
0
100
AcDbSymbolTable
 70
    12
  0
LTYPE
  5
12
330
5
100
AcDbSymbolTableRecord
100
AcDbLinetypeTableRecord
  2
BYBLOCK
 70
     0
  3

 72
    65
 73
     0
 40
0.0
  0
LTYPE
  5
13
330
5
100
AcDbSymbolTableRecord
100
AcDbLinetypeTableRecord
  2
BYLAYER
 70
     0
  3

 72
    65
 73
     0
 40
0.0
  0
LTYPE
  5
14
330
5
100
AcDbSymbolTableRecord
100
AcDbLinetypeTableRecord
  2
CONTINUOUS
 70
     0
  3
Solid line
 72
    65
 73
     0
 40
0.0
  0
LTYPE
  5
22
330
5
100
AcDbSymbolTableRecord
100
AcDbLinetypeTableRecord
  2
CENTER2
 70
     0
  3
Center (.5x) ___ _ ___ _ ___ _ ___ _ ___ _ ___
 72
    65
 73
     4
 40
28.575
 49
19.05
 74
     0
 49
-3.174999999999999
 74
     0
 49
3.174999999999999
 74
     0
 49
-3.174999999999999
 74
     0
  0
LTYPE
  5
23
330
5
100
AcDbSymbolTableRecord
100
AcDbLinetypeTableRecord
  2
HIDDEN2
 70
     0
  3
Hidden (.5x) _ _ _ _ _ _ _ _ _ _ _ _ _ _ _ _ _
 72
    65
 73
     2
 40
4.762499999999999
 49
3.174999999999999
 74
     0
 49
-1.587499999999999
 74
     0
  0
ENDTAB
  0
TABLE
  2
LAYER
  5
2
330
0
100
AcDbSymbolTable
 70
    15
  0
LAYER
  5
E
330
2
100
AcDbSymbolTableRecord
100
AcDbLayerTableRecord
  2
0
 70
     0
 62
     7
  6
CONTINUOUS
370
    -3
390
967
  0
LAYER
  5
25
330
2
100
AcDbSymbolTableRecord
100
AcDbLayerTableRecord
  2
外形線
 70
     0
 62
     7
  6
CONTINUOUS
370
    -3
390
967
  0
LAYER
  5
26
330
2
100
AcDbSymbolTableRecord
100
AcDbLayerTableRecord
  2
寸法線
 70
     0
 62
     2
  6
CONTINUOUS
370
    -3
390
967
  0
LAYER
  5
27
330
2
100
AcDbSymbolTableRecord
100
AcDbLayerTableRecord
  2
中心線
 70
     0
 62
     4
  6
CENTER2
370
    -3
390
967
  0
LAYER
  5
2B
330
2
100
AcDbSymbolTableRecord
100
AcDbLayerTableRecord
  2
文字
 70
     0
 62
     6
  6
CONTINUOUS
370
    -3
390
967
  0
LAYER
  5
53
330
2
100
AcDbSymbolTableRecord
100
AcDbLayerTableRecord
  2
DEFPOINTS
 70
     0
 62
     7
  6
CONTINUOUS
290
     0
370
    -3
390
967
  0
LAYER
  5
A5
330
2
100
AcDbSymbolTableRecord
100
AcDbLayerTableRecord
  2
C
 70
     0
 62
     7
  6
CONTINUOUS
370
    -3
390
967
  0
LAYER
  5
576
330
2
100
AcDbSymbolTableRecord
100
AcDbLayerTableRecord
  2
ROGO
 70
     0
 62
     6
  6
CONTINUOUS
370
    -3
390
967
  0
LAYER
  5
BC4
330
2
100
AcDbSymbolTableRecord
100
AcDbLayerTableRecord
  2
隠れ線2
 70
     0
 62
     1
  6
HIDDEN2
370
    -3
390
967
  0
ENDTAB
  0
TABLE
  2
STYLE
  5
3
330
0
100
AcDbSymbolTable
 70
     8
  0
STYLE
  5
F
330
3
100
AcDbSymbolTableRecord
100
AcDbTextStyleTableRecord
  2
STANDARD
 70
     0
 40
0.0
 41
1.0
 50
0.0
 71
     0
 42
2.5
  3
txt
  4

  0
STYLE
  5
3F
330
3
100
AcDbSymbolTableRecord
100
AcDbTextStyleTableRecord
  2
STYLE3
 70
     0
 40
0.0
 41
1.0
 50
0.0
 71
     0
 42
2.0
  3
romans.shx
  4
bigfont.shx
  0
STYLE
  5
578
330
3
100
AcDbSymbolTableRecord
100
AcDbTextStyleTableRecord
  2
STYLE4
 70
     0
 40
0.0
 41
1.0
 50
0.0
 71
     0
 42
5.0
  3
romans.shx
  4
bigfont.shx
  0
ENDTAB
  0
TABLE
  2
VIEW
  5
6
330
0
100
AcDbSymbolTable
 70
     0
  0
ENDTAB
  0
TABLE
  2
UCS
  5
7
330
0
100
AcDbSymbolTable
 70
     0
  0
ENDTAB
  0
TABLE
  2
APPID
  5
9
330
0
100
AcDbSymbolTable
 70
     2
  0
APPID
  5
10
330
9
100
AcDbSymbolTableRecord
100
AcDbRegAppTableRecord
  2
ACAD
 70
     0
  0
APPID
  5
97B
330
9
100
AcDbSymbolTableRecord
100
AcDbRegAppTableRecord
  2
ACAD_PSEXT
 70
     0
  0
ENDTAB
  0
TABLE
  2
DIMSTYLE
  5
A
330
0
100
AcDbSymbolTable
 70
     6
100
AcDbDimStyleTable
 71
     1
340
8F
  0
DIMSTYLE
105
1D
330
A
100
AcDbSymbolTableRecord
100
AcDbDimStyleTableRecord
  2
STANDARD
 70
     0
 41
2.5
 42
0.625
 43
3.75
 44
1.25
 73
     0
 74
     0
 77
     1
 78
     8
140
2.5
141
2.5
143
0.0394
147
0.625
171
     4
172
     1
273
     8
274
     4
277
     6
340
F
  0
DIMSTYLE
105
8F
102
{ACAD_REACTORS
330
3C3
330
3DD
330
7D7
330
7E3
330
7FC
330
808
330
815
330
821
330
82E
330
83B
330
8D3
330
BD1
330
BE7
330
E94
102
}
330
A
100
AcDbSymbolTableRecord
100
AcDbDimStyleTableRecord
  2
STYLE3
 70
     0
 41
2.5
 42
0.0
 43
3.75
 44
1.25
 73
     0
 74
     0
 77
     1
 78
     8
140
2.5
141
2.5
143
0.0394
147
0.625
171
     4
172
     1
173
     1
176
     2
177
     2
178
     6
271
     1
273
     8
274
     4
340
3F
341
45
343
45
344
45
  0
ENDTAB
  0
TABLE
  2
BLOCK_RECORD
  5
1
330
0
100
AcDbSymbolTable
 70
    25
  0
BLOCK_RECORD
  5
18
102
{ACAD_XDICTIONARY
360
BCE
102
}
330
1
100
AcDbSymbolTableRecord
100
AcDbBlockTableRecord
  2
*MODEL_SPACE
340
96E
  0
BLOCK_RECORD
  5
15
330
1
100
AcDbSymbolTableRecord
100
AcDbBlockTableRecord
  2
*PAPER_SPACE
340
96F
  0
BLOCK_RECORD
  5
45
330
1
100
AcDbSymbolTableRecord
100
AcDbBlockTableRecord
  2
_OPEN
340
0
102
{BLKREFS
331
F1F
331
F20
331
F28
331
F29
331
F2F
331
F30
331
F38
331
F39
331
F41
331
F42
331
F4A
331
F4B
331
F52
331
F53
331
F5B
331
F5C
331
F63
331
F64
331
F6B
331
F6C
331
F74
331
F75
331
F7D
331
F7E
331
F86
331
F87
331
F8F
331
F90
102
}
  0
BLOCK_RECORD
  5
3B7
330
1
100
AcDbSymbolTableRecord
100
AcDbBlockTableRecord
  2
*D3
340
0
  0
BLOCK_RECORD
  5
3D1
330
1
100
AcDbSymbolTableRecord
100
AcDbBlockTableRecord
  2
*D4
340
0
  0
BLOCK_RECORD
  5
672
330
1
100
AcDbSymbolTableRecord
100
AcDbBlockTableRecord
  2
A$C3582528B
340
0
102
{BLKREFS
331
687
331
6A7
102
}
  0
BLOCK_RECORD
  5
7CB
330
1
100
AcDbSymbolTableRecord
100
AcDbBlockTableRecord
  2
*D9
340
0
  0
BLOCK_RECORD
  5
7D8
330
1
100
AcDbSymbolTableRecord
100
AcDbBlockTableRecord
  2
*D10
340
0
  0
BLOCK_RECORD
  5
7F0
330
1
100
AcDbSymbolTableRecord
100
AcDbBlockTableRecord
  2
*D11
340
0
  0
BLOCK_RECORD
  5
7FD
330
1
100
AcDbSymbolTableRecord
100
AcDbBlockTableRecord
  2
*D12
340
0
  0
BLOCK_RECORD
  5
809
330
1
100
AcDbSymbolTableRecord
100
AcDbBlockTableRecord
  2
*D13
340
0
  0
BLOCK_RECORD
  5
816
330
1
100
AcDbSymbolTableRecord
100
AcDbBlockTableRecord
  2
*D14
340
0
  0
BLOCK_RECORD
  5
822
330
1
100
AcDbSymbolTableRecord
100
AcDbBlockTableRecord
  2
*D15
340
0
  0
BLOCK_RECORD
  5
82F
330
1
100
AcDbSymbolTableRecord
100
AcDbBlockTableRecord
  2
*D16
340
0
  0
BLOCK_RECORD
  5
8C7
330
1
100
AcDbSymbolTableRecord
100
AcDbBlockTableRecord
  2
*D18
340
0
  0
BLOCK_RECORD
  5
BD2
330
1
100
AcDbSymbolTableRecord
100
AcDbBlockTableRecord
  2
*D20
340
0
  0
BLOCK_RECORD
  5
BE8
330
1
100
AcDbSymbolTableRecord
100
AcDbBlockTableRecord
  2
*D21
340
0
  0
BLOCK_RECORD
  5
E95
330
1
100
AcDbSymbolTableRecord
100
AcDbBlockTableRecord
  2
*D22
340
0
  0
ENDTAB
  0
ENDSEC
  0
SECTION
  2
BLOCKS
  0
BLOCK
  5
19
330
18
100
AcDbEntity
  8
0
100
AcDbBlockBegin
  2
*MODEL_SPACE
 70
     0
 10
0.0
 20
0.0
 30
0.0
  3
*MODEL_SPACE
  1

  0
ENDBLK
  5
1A
330
18
100
AcDbEntity
  8
0
100
AcDbBlockEnd
  0
BLOCK
  5
16
330
15
100
AcDbEntity
 67
     1
  8
0
100
AcDbBlockBegin
  2
*PAPER_SPACE
 70
     0
 10
0.0
 20
0.0
 30
0.0
  3
*PAPER_SPACE
  1

  0
ENDBLK
  5
17
330
15
100
AcDbEntity
 67
     1
  8
0
100
AcDbBlockEnd
  0
BLOCK
  5
46
330
45
100
AcDbEntity
  8
0
100
AcDbBlockBegin
  2
_OPEN
 70
     0
 10
0.0
 20
0.0
 30
0.0
  3
_OPEN
  1

  0
LINE
  5
47
330
45
100
AcDbEntity
  8
0
  6
ByBlock
 62
     0
100
AcDbLine
 10
-1.0
 20
0.1666666666666666
 30
0.0
 11
0.0
 21
0.0
 31
0.0
  0
LINE
  5
48
330
45
100
AcDbEntity
  8
0
  6
ByBlock
 62
     0
100
AcDbLine
 10
0.0
 20
0.0
 30
0.0
 11
-1.0
 21
-0.1666666666666666
 31
0.0
  0
LINE
  5
49
330
45
100
AcDbEntity
  8
0
  6
ByBlock
 62
     0
100
AcDbLine
 10
0.0
 20
0.0
 30
0.0
 11
-1.0
 21
0.0
 31
0.0
  0
ENDBLK
  5
4A
330
45
100
AcDbEntity
  8
0
100
AcDbBlockEnd
  0
BLOCK
  5
442
330
3B7
100
AcDbEntity
  8
0
100
AcDbBlockBegin
  2
*D3
 70
     1
 10
0.0
 20
0.0
 30
0.0
  3
*D3
  1

  0
LINE
  5
F8C
330
3B7
100
AcDbEntity
  8
外形線
 62
     2
370
    -2
100
AcDbLine
 10
423.7733599331298
 20
319.0368734683214
 30
0.0
 11
434.9183671508355
 21
319.0368734683214
 31
0.0
  0
LINE
  5
F8D
330
3B7
100
AcDbEntity
  8
外形線
 62
     2
370
    -2
100
AcDbLine
 10
423.7733599331299
 20
260.2368734683215
 30
0.0
 11
434.9183671508355
 21
260.2368734683215
 31
0.0
  0
LINE
  5
F8E
330
3B7
100
AcDbEntity
  8
外形線
 62
     2
370
    -2
100
AcDbLine
 10
433.6683671508356
 20
316.5368734683214
 30
0.0
 11
433.6683671508356
 21
262.7368734683215
 31
0.0
  0
INSERT
  5
F8F
330
3B7
100
AcDbEntity
  8
外形線
 62
     2
370
    -2
100
AcDbBlockReference
  2
_OPEN
 10
433.6683671508356
 20
319.0368734683214
 30
0.0
 41
2.5
 42
2.5
 43
2.5
 50
90.0
  0
INSERT
  5
F90
330
3B7
100
AcDbEntity
  8
外形線
 62
     2
370
    -2
100
AcDbBlockReference
  2
_OPEN
 10
433.6683671508356
 20
260.2368734683215
 30
0.0
 41
2.5
 42
2.5
 43
2.5
 50
270.0
  0
MTEXT
  5
F91
330
3B7
100
AcDbEntity
  8
外形線
 62
     6
100
AcDbMText
 10
431.7933671508355
 20
289.6368734683216
 30
0.0
 40
2.5
 41
0.0
 71
     5
 72
     1
  1
\A1;φ58.8
  7
STYLE3
 11
0.0000000000000001
 21
1.0
 31
0.0
 73
     1
 44
1.0
  0
POINT
  5
F92
330
3B7
100
AcDbEntity
  8
DEFPOINTS
 62
     0
100
AcDbPoint
 10
423.7733599331298
 20
319.0368734683214
 30
0.0
  0
POINT
  5
F93
330
3B7
100
AcDbEntity
  8
DEFPOINTS
 62
     0
100
AcDbPoint
 10
423.7733599331299
 20
260.2368734683215
 30
0.0
  0
POINT
  5
F94
330
3B7
100
AcDbEntity
  8
DEFPOINTS
 62
     0
100
AcDbPoint
 10
433.6683671508356
 20
260.2368734683215
 30
0.0
  0
ENDBLK
  5
44C
330
3B7
100
AcDbEntity
  8
0
100
AcDbBlockEnd
  0
BLOCK
  5
437
330
3D1
100
AcDbEntity
  8
0
100
AcDbBlockBegin
  2
*D4
 70
     1
 10
0.0
 20
0.0
 30
0.0
  3
*D4
  1

  0
LINE
  5
F47
330
3D1
100
AcDbEntity
  8
外形線
 62
     2
370
    -2
100
AcDbLine
 10
392.7733599331299
 20
319.6368734683214
 30
0.0
 11
380.3615874121961
 21
319.6368734683215
 31
0.0
  0
LINE
  5
F48
330
3D1
100
AcDbEntity
  8
外形線
 62
     2
370
    -2
100
AcDbLine
 10
392.7733599331299
 20
259.6368734683215
 30
0.0
 11
380.3615874121961
 21
259.6368734683216
 31
0.0
  0
LINE
  5
F49
330
3D1
100
AcDbEntity
  8
外形線
 62
     2
370
    -2
100
AcDbLine
 10
381.611587412196
 20
317.1368734683215
 30
0.0
 11
381.611587412196
 21
262.1368734683215
 31
0.0
  0
INSERT
  5
F4A
330
3D1
100
AcDbEntity
  8
外形線
 62
     2
370
    -2
100
AcDbBlockReference
  2
_OPEN
 10
381.611587412196
 20
319.6368734683215
 30
0.0
 41
2.5
 42
2.5
 43
2.5
 50
90.0
  0
INSERT
  5
F4B
330
3D1
100
AcDbEntity
  8
外形線
 62
     2
370
    -2
100
AcDbBlockReference
  2
_OPEN
 10
381.611587412196
 20
259.6368734683216
 30
0.0
 41
2.5
 42
2.5
 43
2.5
 50
270.0
  0
MTEXT
  5
F4C
330
3D1
100
AcDbEntity
  8
外形線
 62
     6
100
AcDbMText
 10
379.736587412196
 20
289.6368734683216
 30
0.0
 40
2.5
 41
0.0
 71
     5
 72
     1
  1
\A1;φ60
  7
STYLE3
 11
0.0000000000000001
 21
1.0
 31
0.0
 73
     1
 44
1.0
  0
POINT
  5
F4D
330
3D1
100
AcDbEntity
  8
DEFPOINTS
 62
     0
100
AcDbPoint
 10
392.7733599331299
 20
319.6368734683214
 30
0.0
  0
POINT
  5
F4E
330
3D1
100
AcDbEntity
  8
DEFPOINTS
 62
     0
100
AcDbPoint
 10
392.7733599331299
 20
259.6368734683215
 30
0.0
  0
POINT
  5
F4F
330
3D1
100
AcDbEntity
  8
DEFPOINTS
 62
     0
100
AcDbPoint
 10
381.611587412196
 20
259.6368734683216
 30
0.0
  0
ENDBLK
  5
441
330
3D1
100
AcDbEntity
  8
0
100
AcDbBlockEnd
  0
BLOCK
  5
685
330
672
100
AcDbEntity
  8
0
100
AcDbBlockBegin
  2
A$C3582528B
 70
     0
 10
0.0
 20
0.0
 30
0.0
  3
A$C3582528B
  1

  0
LINE
  5
673
330
672
100
AcDbEntity
  8
外形線
 62
     4
100
AcDbLine
 10
0.5575949379821737
 20
4.990247803822938
 30
0.0
 11
1.712295476361418
 21
6.990247803822967
 31
0.0
  0
LINE
  5
674
330
672
100
AcDbEntity
  8
外形線
 62
     4
100
AcDbLine
 10
1.819721623749899
 20
4.99024780382291
 30
0.0
 11
0.665021085370654
 21
6.990247803822938
 31
0.0
  0
LINE
  5
675
330
672
100
AcDbEntity
  8
外形線
 62
     4
100
AcDbLine
 10
1.712295476361305
 20
4.990247803822938
 30
0.0
 11
2.866996014740664
 21
6.990247803822938
 31
0.0
  0
LINE
  5
676
330
672
100
AcDbEntity
  8
外形線
 62
     4
100
AcDbLine
 10
2.866996014740607
 20
4.990247803822938
 30
0.0
 11
4.021696553119909
 21
6.990247803822938
 31
0.0
  0
LINE
  5
677
330
672
100
AcDbEntity
  8
外形線
 62
     4
100
AcDbLine
 10
2.974422162129258
 20
4.99024780382291
 30
0.0
 11
1.819721623749956
 21
6.990247803822967
 31
0.0
  0
LINE
  5
678
330
672
100
AcDbEntity
  8
外形線
 62
     4
100
AcDbLine
 10
4.021696553119795
 20
4.990247803822882
 30
0.0
 11
5.000000291994467
 21
6.684719584788382
 31
0.0
  0
LINE
  5
679
330
672
100
AcDbEntity
  8
外形線
 62
     4
100
AcDbLine
 10
4.129122700508446
 20
4.990247803822882
 30
0.0
 11
2.974422162129144
 21
6.990247803822967
 31
0.0
  0
LINE
  5
67A
330
672
100
AcDbEntity
  8
外形線
100
AcDbLine
 10
5.000000291994467
 20
6.990247803822938
 30
0.0
 11
5.000000291994524
 21
4.990247803822938
 31
0.0
  0
LINE
  5
67B
330
672
100
AcDbEntity
  8
外形線
100
AcDbLine
 10
0.0000002919944677
 20
6.990247803822967
 30
0.0
 11
0.0000002919944677
 21
4.990247803822967
 31
0.0
  0
LINE
  5
67C
330
672
100
AcDbEntity
  8
外形線
 62
     4
100
AcDbLine
 10
5.000000291994467
 20
5.48184356819587
 30
0.0
 11
4.129122700508332
 21
6.99024780382291
 31
0.0
  0
LINE
  5
67D
330
672
100
AcDbEntity
  8
外形線
 62
     4
100
AcDbLine
 10
0.0000002919945246
 20
6.024465546943929
 30
0.0
 11
0.5575949379822305
 21
6.990247803822967
 31
0.0
  0
LINE
  5
67E
330
672
100
AcDbEntity
  8
外形線
 62
     4
100
AcDbLine
 10
0.6650210853707108
 20
4.99024780382291
 30
0.0
 11
0.0000002919945246
 21
6.142097606040266
 31
0.0
  0
LINE
  5
67F
330
672
100
AcDbEntity
  8
外形線
100
AcDbLine
 10
0.0000002919944677
 20
4.990247803822967
 30
0.0
 11
5.000000291994524
 21
4.990247803822938
 31
0.0
  0
LINE
  5
680
330
672
100
AcDbEntity
  8
外形線
100
AcDbLine
 10
0.5575949379821737
 20
4.990247803822967
 30
0.0
 11
1.250000291994467
 21
0.9902478038229389
 31
0.0
  0
LINE
  5
681
330
672
100
AcDbEntity
  8
外形線
100
AcDbLine
 10
4.500000291994467
 20
4.990247803822967
 30
0.0
 11
3.75000029199441
 21
0.9902478038229389
 31
0.0
  0
LINE
  5
682
330
672
100
AcDbEntity
  8
外形線
100
AcDbLine
 10
1.250000291994467
 20
0.9902478038229389
 30
0.0
 11
3.75000029199441
 21
0.9902478038229389
 31
0.0
  0
ARC
  5
683
330
672
100
AcDbEntity
  8
外形線
100
AcDbCircle
 10
2.499808085840584
 20
1.190247788429928
 30
0.0
 40
1.199999999999999
100
AcDbArc
 50
189.5940674814648
 51
350.4059325185351
  0
LINE
  5
684
330
672
100
AcDbEntity
  8
外形線
100
AcDbLine
 10
0.0000002919944677
 20
6.990247803822967
 30
0.0
 11
5.000000291994467
 21
6.990247803822938
 31
0.0
  0
ENDBLK
  5
686
330
672
100
AcDbEntity
  8
0
100
AcDbBlockEnd
  0
BLOCK
  5
91D
330
7CB
100
AcDbEntity
  8
0
100
AcDbBlockBegin
  2
*D9
 70
     1
 10
0.0
 20
0.0
 30
0.0
  3
*D9
  1

  0
LINE
  5
F58
330
7CB
100
AcDbEntity
  8
外形線
 62
     2
370
    -2
100
AcDbLine
 10
322.897287233888
 20
257.3368734683215
 30
0.0
 11
294.2833250919699
 21
257.3368734683215
 31
0.0
  0
LINE
  5
F59
330
7CB
100
AcDbEntity
  8
外形線
 62
     2
370
    -2
100
AcDbLine
 10
318.3972872338882
 20
236.8368734683215
 30
0.0
 11
294.2833250919699
 21
236.8368734683215
 31
0.0
  0
LINE
  5
F5A
330
7CB
100
AcDbEntity
  8
外形線
 62
     2
370
    -2
100
AcDbLine
 10
295.5333250919699
 20
254.8368734683215
 30
0.0
 11
295.5333250919699
 21
239.3368734683216
 31
0.0
  0
INSERT
  5
F5B
330
7CB
100
AcDbEntity
  8
外形線
 62
     2
370
    -2
100
AcDbBlockReference
  2
_OPEN
 10
295.5333250919699
 20
257.3368734683215
 30
0.0
 41
2.5
 42
2.5
 43
2.5
 50
90.0
  0
INSERT
  5
F5C
330
7CB
100
AcDbEntity
  8
外形線
 62
     2
370
    -2
100
AcDbBlockReference
  2
_OPEN
 10
295.5333250919699
 20
236.8368734683215
 30
0.0
 41
2.5
 42
2.5
 43
2.5
 50
270.0
  0
MTEXT
  5
F5D
330
7CB
100
AcDbEntity
  8
外形線
 62
     6
100
AcDbMText
 10
293.6583250919698
 20
247.0868734683215
 30
0.0
 40
2.5
 41
0.0
 71
     5
 72
     1
  1
\A1;20.5
  7
STYLE3
 11
0.0000000000000001
 21
1.0
 31
0.0
 73
     1
 44
1.0
  0
POINT
  5
F5E
330
7CB
100
AcDbEntity
  8
DEFPOINTS
 62
     0
100
AcDbPoint
 10
322.897287233888
 20
257.3368734683215
 30
0.0
  0
POINT
  5
F5F
330
7CB
100
AcDbEntity
  8
DEFPOINTS
 62
     0
100
AcDbPoint
 10
318.3972872338882
 20
236.8368734683215
 30
0.0
  0
POINT
  5
F60
330
7CB
100
AcDbEntity
  8
DEFPOINTS
 62
     0
100
AcDbPoint
 10
295.5333250919699
 20
236.8368734683215
 30
0.0
  0
ENDBLK
  5
927
330
7CB
100
AcDbEntity
  8
0
100
AcDbBlockEnd
  0
BLOCK
  5
8B4
330
7D8
100
AcDbEntity
  8
0
100
AcDbBlockBegin
  2
*D10
 70
     1
 10
0.0
 20
0.0
 30
0.0
  3
*D10
  1

  0
LINE
  5
F69
330
7D8
100
AcDbEntity
  8
外形線
 62
     2
370
    -2
100
AcDbLine
 10
317.8972872338881
 20
226.8368734683215
 30
0.0
 11
294.2833250919699
 21
226.8368734683215
 31
0.0
  0
LINE
  5
F6A
330
7D8
100
AcDbEntity
  8
外形線
 62
     2
370
    -2
100
AcDbLine
 10
295.5333250919699
 20
234.3368734683215
 30
0.0
 11
295.5333250919699
 21
229.3368734683215
 31
0.0
  0
INSERT
  5
F6B
330
7D8
100
AcDbEntity
  8
外形線
 62
     2
370
    -2
100
AcDbBlockReference
  2
_OPEN
 10
295.5333250919699
 20
236.8368734683215
 30
0.0
 41
2.5
 42
2.5
 43
2.5
 50
90.0
  0
INSERT
  5
F6C
330
7D8
100
AcDbEntity
  8
外形線
 62
     2
370
    -2
100
AcDbBlockReference
  2
_OPEN
 10
295.5333250919699
 20
226.8368734683215
 30
0.0
 41
2.5
 42
2.5
 43
2.5
 50
270.0
  0
MTEXT
  5
F6D
330
7D8
100
AcDbEntity
  8
外形線
 62
     6
100
AcDbMText
 10
293.6583250919698
 20
231.8368734683216
 30
0.0
 40
2.5
 41
0.0
 71
     5
 72
     1
  1
\A1;10
  7
STYLE3
 11
0.0000000000000001
 21
1.0
 31
0.0
 73
     1
 44
1.0
  0
POINT
  5
F6E
330
7D8
100
AcDbEntity
  8
DEFPOINTS
 62
     0
100
AcDbPoint
 10
318.3972872338882
 20
236.8368734683215
 30
0.0
  0
POINT
  5
F6F
330
7D8
100
AcDbEntity
  8
DEFPOINTS
 62
     0
100
AcDbPoint
 10
317.8972872338881
 20
226.8368734683215
 30
0.0
  0
POINT
  5
F70
330
7D8
100
AcDbEntity
  8
DEFPOINTS
 62
     0
100
AcDbPoint
 10
295.5333250919699
 20
226.8368734683215
 30
0.0
  0
ENDBLK
  5
8BD
330
7D8
100
AcDbEntity
  8
0
100
AcDbBlockEnd
  0
BLOCK
  5
7F1
330
7F0
100
AcDbEntity
  8
0
100
AcDbBlockBegin
  2
*D11
 70
     1
 10
0.0
 20
0.0
 30
0.0
  3
*D11
  1

  0
LINE
  5
F3E
330
7F0
100
AcDbEntity
  8
外形線
 62
     2
370
    -2
100
AcDbLine
 10
326.897287233888
 20
343.0368734683215
 30
0.0
 11
286.538937683849
 21
343.0368734683215
 31
0.0
  0
LINE
  5
F3F
330
7F0
100
AcDbEntity
  8
外形線
 62
     2
370
    -2
100
AcDbLine
 10
293.3837023619951
 20
289.6368734683215
 30
0.0
 11
286.538937683849
 21
289.6368734683215
 31
0.0
  0
LINE
  5
F40
330
7F0
100
AcDbEntity
  8
外形線
 62
     2
370
    -2
100
AcDbLine
 10
287.788937683849
 20
340.5368734683215
 30
0.0
 11
287.788937683849
 21
292.1368734683215
 31
0.0
  0
INSERT
  5
F41
330
7F0
100
AcDbEntity
  8
外形線
 62
     2
370
    -2
100
AcDbBlockReference
  2
_OPEN
 10
287.788937683849
 20
343.0368734683215
 30
0.0
 41
2.5
 42
2.5
 43
2.5
 50
90.0
  0
INSERT
  5
F42
330
7F0
100
AcDbEntity
  8
外形線
 62
     2
370
    -2
100
AcDbBlockReference
  2
_OPEN
 10
287.788937683849
 20
289.6368734683215
 30
0.0
 41
2.5
 42
2.5
 43
2.5
 50
270.0
  0
MTEXT
  5
F43
330
7F0
100
AcDbEntity
  8
外形線
 62
     6
100
AcDbMText
 10
285.9139376838489
 20
316.3368734683215
 30
0.0
 40
2.5
 41
0.0
 71
     5
 72
     1
  1
\A1;53.4
  7
STYLE3
 11
0.0000000000000001
 21
1.0
 31
0.0
 73
     1
 44
1.0
  0
POINT
  5
F44
330
7F0
100
AcDbEntity
  8
DEFPOINTS
 62
     0
100
AcDbPoint
 10
326.897287233888
 20
343.0368734683215
 30
0.0
  0
POINT
  5
F45
330
7F0
100
AcDbEntity
  8
DEFPOINTS
 62
     0
100
AcDbPoint
 10
293.3837023619951
 20
289.6368734683215
 30
0.0
  0
POINT
  5
F46
330
7F0
100
AcDbEntity
  8
DEFPOINTS
 62
     0
100
AcDbPoint
 10
287.788937683849
 20
289.6368734683215
 30
0.0
  0
ENDBLK
  5
7FB
330
7F0
100
AcDbEntity
  8
0
100
AcDbBlockEnd
  0
BLOCK
  5
89F
330
7FD
100
AcDbEntity
  8
0
100
AcDbBlockBegin
  2
*D12
 70
     1
 10
0.0
 20
0.0
 30
0.0
  3
*D12
  1

  0
LINE
  5
F50
330
7FD
100
AcDbEntity
  8
外形線
 62
     2
370
    -2
100
AcDbLine
 10
294.2833250919699
 20
226.8368734683215
 30
0.0
 11
286.538937683849
 21
226.8368734683215
 31
0.0
  0
LINE
  5
F51
330
7FD
100
AcDbEntity
  8
外形線
 62
     2
370
    -2
100
AcDbLine
 10
287.788937683849
 20
287.1368734683215
 30
0.0
 11
287.788937683849
 21
229.3368734683215
 31
0.0
  0
INSERT
  5
F52
330
7FD
100
AcDbEntity
  8
外形線
 62
     2
370
    -2
100
AcDbBlockReference
  2
_OPEN
 10
287.788937683849
 20
289.6368734683215
 30
0.0
 41
2.5
 42
2.5
 43
2.5
 50
90.0
  0
INSERT
  5
F53
330
7FD
100
AcDbEntity
  8
外形線
 62
     2
370
    -2
100
AcDbBlockReference
  2
_OPEN
 10
287.788937683849
 20
226.8368734683215
 30
0.0
 41
2.5
 42
2.5
 43
2.5
 50
270.0
  0
MTEXT
  5
F54
330
7FD
100
AcDbEntity
  8
外形線
 62
     6
100
AcDbMText
 10
285.9139376838489
 20
258.2368734683216
 30
0.0
 40
2.5
 41
0.0
 71
     5
 72
     1
  1
\A1;62.8
  7
STYLE3
 11
0.0000000000000001
 21
1.0
 31
0.0
 73
     1
 44
1.0
  0
POINT
  5
F55
330
7FD
100
AcDbEntity
  8
DEFPOINTS
 62
     0
100
AcDbPoint
 10
293.3837023619951
 20
289.6368734683215
 30
0.0
  0
POINT
  5
F56
330
7FD
100
AcDbEntity
  8
DEFPOINTS
 62
     0
100
AcDbPoint
 10
294.2833250919699
 20
226.8368734683215
 30
0.0
  0
POINT
  5
F57
330
7FD
100
AcDbEntity
  8
DEFPOINTS
 62
     0
100
AcDbPoint
 10
287.788937683849
 20
226.8368734683215
 30
0.0
  0
ENDBLK
  5
8A8
330
7FD
100
AcDbEntity
  8
0
100
AcDbBlockEnd
  0
BLOCK
  5
80A
330
809
100
AcDbEntity
  8
0
100
AcDbBlockBegin
  2
*D13
 70
     1
 10
0.0
 20
0.0
 30
0.0
  3
*D13
  1

  0
LINE
  5
F35
330
809
100
AcDbEntity
  8
外形線
 62
     2
370
    -2
100
AcDbLine
 10
286.538937683849
 20
343.0368734683215
 30
0.0
 11
279.1672960196993
 21
343.0368734683215
 31
0.0
  0
LINE
  5
F36
330
809
100
AcDbEntity
  8
外形線
 62
     2
370
    -2
100
AcDbLine
 10
286.538937683849
 20
226.8368734683215
 30
0.0
 11
279.1672960196993
 21
226.8368734683215
 31
0.0
  0
LINE
  5
F37
330
809
100
AcDbEntity
  8
外形線
 62
     2
370
    -2
100
AcDbLine
 10
280.4172960196993
 20
340.5368734683215
 30
0.0
 11
280.4172960196993
 21
229.3368734683215
 31
0.0
  0
INSERT
  5
F38
330
809
100
AcDbEntity
  8
外形線
 62
     2
370
    -2
100
AcDbBlockReference
  2
_OPEN
 10
280.4172960196993
 20
343.0368734683215
 30
0.0
 41
2.5
 42
2.5
 43
2.5
 50
90.0
  0
INSERT
  5
F39
330
809
100
AcDbEntity
  8
外形線
 62
     2
370
    -2
100
AcDbBlockReference
  2
_OPEN
 10
280.4172960196993
 20
226.8368734683215
 30
0.0
 41
2.5
 42
2.5
 43
2.5
 50
270.0
  0
MTEXT
  5
F3A
330
809
100
AcDbEntity
  8
外形線
 62
     6
100
AcDbMText
 10
278.5422960196992
 20
284.9368734683216
 30
0.0
 40
2.5
 41
0.0
 71
     5
 72
     1
  1
\A1;116.2
  7
STYLE3
 11
0.0000000000000001
 21
1.0
 31
0.0
 73
     1
 44
1.0
  0
POINT
  5
F3B
330
809
100
AcDbEntity
  8
DEFPOINTS
 62
     0
100
AcDbPoint
 10
286.538937683849
 20
343.0368734683215
 30
0.0
  0
POINT
  5
F3C
330
809
100
AcDbEntity
  8
DEFPOINTS
 62
     0
100
AcDbPoint
 10
286.538937683849
 20
226.8368734683215
 30
0.0
  0
POINT
  5
F3D
330
809
100
AcDbEntity
  8
DEFPOINTS
 62
     0
100
AcDbPoint
 10
280.4172960196993
 20
226.8368734683215
 30
0.0
  0
ENDBLK
  5
814
330
809
100
AcDbEntity
  8
0
100
AcDbBlockEnd
  0
BLOCK
  5
817
330
816
100
AcDbEntity
  8
0
100
AcDbBlockBegin
  2
*D14
 70
     1
 10
0.0
 20
0.0
 30
0.0
  3
*D14
  1

  0
LINE
  5
F61
330
816
100
AcDbEntity
  8
外形線
 62
     2
370
    -2
100
AcDbLine
 10
330.3972872338881
 20
216.7368734683215
 30
0.0
 11
279.1672960196993
 21
216.7368734683215
 31
0.0
  0
LINE
  5
F62
330
816
100
AcDbEntity
  8
外形線
 62
     2
370
    -2
100
AcDbLine
 10
280.4172960196993
 20
224.3368734683215
 30
0.0
 11
280.4172960196993
 21
219.2368734683215
 31
0.0
  0
INSERT
  5
F63
330
816
100
AcDbEntity
  8
外形線
 62
     2
370
    -2
100
AcDbBlockReference
  2
_OPEN
 10
280.4172960196993
 20
226.8368734683215
 30
0.0
 41
2.5
 42
2.5
 43
2.5
 50
90.0
  0
INSERT
  5
F64
330
816
100
AcDbEntity
  8
外形線
 62
     2
370
    -2
100
AcDbBlockReference
  2
_OPEN
 10
280.4172960196993
 20
216.7368734683215
 30
0.0
 41
2.5
 42
2.5
 43
2.5
 50
270.0
  0
MTEXT
  5
F65
330
816
100
AcDbEntity
  8
外形線
 62
     6
100
AcDbMText
 10
278.5422960196992
 20
221.7868734683215
 30
0.0
 40
2.5
 41
0.0
 71
     5
 72
     1
  1
\A1;10.1
  7
STYLE3
 11
0.0000000000000001
 21
1.0
 31
0.0
 73
     1
 44
1.0
  0
POINT
  5
F66
330
816
100
AcDbEntity
  8
DEFPOINTS
 62
     0
100
AcDbPoint
 10
286.538937683849
 20
226.8368734683215
 30
0.0
  0
POINT
  5
F67
330
816
100
AcDbEntity
  8
DEFPOINTS
 62
     0
100
AcDbPoint
 10
330.3972872338881
 20
216.7368734683215
 30
0.0
  0
POINT
  5
F68
330
816
100
AcDbEntity
  8
DEFPOINTS
 62
     0
100
AcDbPoint
 10
280.4172960196993
 20
216.7368734683215
 30
0.0
  0
ENDBLK
  5
820
330
816
100
AcDbEntity
  8
0
100
AcDbBlockEnd
  0
BLOCK
  5
848
330
822
100
AcDbEntity
  8
0
100
AcDbBlockBegin
  2
*D15
 70
     1
 10
0.0
 20
0.0
 30
0.0
  3
*D15
  1

  0
LINE
  5
F2E
330
822
100
AcDbEntity
  8
外形線
 62
     2
370
    -2
100
AcDbLine
 10
419.7733599331298
 20
240.8201237987225
 30
0.0
 11
408.7733599331298
 21
240.8201237987225
 31
0.0
  0
INSERT
  5
F2F
330
822
100
AcDbEntity
  8
外形線
 62
     2
370
    -2
100
AcDbBlockReference
  2
_OPEN
 10
422.2733599331299
 20
240.8201237987225
 30
0.0
 41
2.5
 42
2.5
 43
2.5
  0
INSERT
  5
F30
330
822
100
AcDbEntity
  8
外形線
 62
     2
370
    -2
100
AcDbBlockReference
  2
_OPEN
 10
406.2733599331298
 20
240.8201237987225
 30
0.0
 41
2.5
 42
2.5
 43
2.5
 50
180.0
  0
MTEXT
  5
F31
330
822
100
AcDbEntity
  8
外形線
 62
     6
100
AcDbMText
 10
413.579251861719
 20
242.6951237987226
 30
0.0
 40
2.5
 41
0.0
 71
     5
 72
     1
  1
\A1;%%C16
  7
STYLE3
 73
     1
 44
1.0
  0
POINT
  5
F32
330
822
100
AcDbEntity
  8
DEFPOINTS
 62
     0
100
AcDbPoint
 10
422.2733599331299
 20
256.1939346275764
 30
0.0
  0
POINT
  5
F33
330
822
100
AcDbEntity
  8
DEFPOINTS
 62
     0
100
AcDbPoint
 10
406.2733599331298
 20
256.1939346275764
 30
0.0
  0
POINT
  5
F34
330
822
100
AcDbEntity
  8
DEFPOINTS
 62
     0
100
AcDbPoint
 10
406.2733599331298
 20
240.8201237987225
 30
0.0
  0
ENDBLK
  5
853
330
822
100
AcDbEntity
  8
0
100
AcDbBlockEnd
  0
BLOCK
  5
854
330
82F
100
AcDbEntity
  8
0
100
AcDbBlockBegin
  2
*D16
 70
     1
 10
0.0
 20
0.0
 30
0.0
  3
*D16
  1

  0
LINE
  5
F25
330
82F
100
AcDbEntity
  8
外形線
 62
     2
370
    -2
100
AcDbLine
 10
426.7733599331299
 20
226.8368734683215
 30
0.0
 11
426.7733599331299
 21
201.471893084589
 31
0.0
  0
LINE
  5
F26
330
82F
100
AcDbEntity
  8
外形線
 62
     2
370
    -2
100
AcDbLine
 10
401.7733599331299
 20
226.8368734683215
 30
0.0
 11
401.7733599331299
 21
201.471893084589
 31
0.0
  0
LINE
  5
F27
330
82F
100
AcDbEntity
  8
外形線
 62
     2
370
    -2
100
AcDbLine
 10
424.2733599331298
 20
202.721893084589
 30
0.0
 11
404.2733599331299
 21
202.721893084589
 31
0.0
  0
INSERT
  5
F28
330
82F
100
AcDbEntity
  8
外形線
 62
     2
370
    -2
100
AcDbBlockReference
  2
_OPEN
 10
426.7733599331299
 20
202.721893084589
 30
0.0
 41
2.5
 42
2.5
 43
2.5
  0
INSERT
  5
F29
330
82F
100
AcDbEntity
  8
外形線
 62
     2
370
    -2
100
AcDbBlockReference
  2
_OPEN
 10
401.7733599331299
 20
202.721893084589
 30
0.0
 41
2.5
 42
2.5
 43
2.5
 50
180.0
  0
MTEXT
  5
F2A
330
82F
100
AcDbEntity
  8
外形線
 62
     6
100
AcDbMText
 10
414.2733599331299
 20
204.596893084589
 30
0.0
 40
2.5
 41
0.0
 71
     5
 72
     1
  1
\A1;φ25
  7
STYLE3
 73
     1
 44
1.0
  0
POINT
  5
F2B
330
82F
100
AcDbEntity
  8
DEFPOINTS
 62
     0
100
AcDbPoint
 10
426.7733599331299
 20
226.8368734683215
 30
0.0
  0
POINT
  5
F2C
330
82F
100
AcDbEntity
  8
DEFPOINTS
 62
     0
100
AcDbPoint
 10
401.7733599331299
 20
226.8368734683215
 30
0.0
  0
POINT
  5
F2D
330
82F
100
AcDbEntity
  8
DEFPOINTS
 62
     0
100
AcDbPoint
 10
401.7733599331299
 20
202.721893084589
 30
0.0
  0
ENDBLK
  5
85E
330
82F
100
AcDbEntity
  8
0
100
AcDbBlockEnd
  0
BLOCK
  5
928
330
8C7
100
AcDbEntity
  8
0
100
AcDbBlockBegin
  2
*D18
 70
     1
 10
0.0
 20
0.0
 30
0.0
  3
*D18
  1

  0
LINE
  5
F83
330
8C7
100
AcDbEntity
  8
外形線
 62
     2
370
    -2
100
AcDbLine
 10
297.5941029130579
 20
289.6368734683215
 30
0.0
 11
294.2833250919699
 21
289.6368734683215
 31
0.0
  0
LINE
  5
F84
330
8C7
100
AcDbEntity
  8
外形線
 62
     2
370
    -2
100
AcDbLine
 10
304.2104540504087
 20
257.3368734683215
 30
0.0
 11
294.2833250919699
 21
257.3368734683215
 31
0.0
  0
LINE
  5
F85
330
8C7
100
AcDbEntity
  8
外形線
 62
     2
370
    -2
100
AcDbLine
 10
295.5333250919699
 20
287.1368734683215
 30
0.0
 11
295.5333250919699
 21
259.8368734683215
 31
0.0
  0
INSERT
  5
F86
330
8C7
100
AcDbEntity
  8
外形線
 62
     2
370
    -2
100
AcDbBlockReference
  2
_OPEN
 10
295.5333250919699
 20
289.6368734683215
 30
0.0
 41
2.5
 42
2.5
 43
2.5
 50
90.0
  0
INSERT
  5
F87
330
8C7
100
AcDbEntity
  8
外形線
 62
     2
370
    -2
100
AcDbBlockReference
  2
_OPEN
 10
295.5333250919699
 20
257.3368734683215
 30
0.0
 41
2.5
 42
2.5
 43
2.5
 50
270.0
  0
MTEXT
  5
F88
330
8C7
100
AcDbEntity
  8
外形線
 62
     6
100
AcDbMText
 10
293.6583250919698
 20
273.4868734683216
 30
0.0
 40
2.5
 41
0.0
 71
     5
 72
     1
  1
\A1;32.3
  7
STYLE3
 11
0.0000000000000001
 21
1.0
 31
0.0
 73
     1
 44
1.0
  0
POINT
  5
F89
330
8C7
100
AcDbEntity
  8
DEFPOINTS
 62
     0
100
AcDbPoint
 10
297.5941029130579
 20
289.6368734683215
 30
0.0
  0
POINT
  5
F8A
330
8C7
100
AcDbEntity
  8
DEFPOINTS
 62
     0
100
AcDbPoint
 10
304.2104540504087
 20
257.3368734683215
 30
0.0
  0
POINT
  5
F8B
330
8C7
100
AcDbEntity
  8
DEFPOINTS
 62
     0
100
AcDbPoint
 10
295.5333250919699
 20
257.3368734683215
 30
0.0
  0
ENDBLK
  5
932
330
8C7
100
AcDbEntity
  8
0
100
AcDbBlockEnd
  0
BLOCK
  5
BDC
330
BD2
100
AcDbEntity
  8
0
100
AcDbBlockBegin
  2
*D20
 70
     1
 10
0.0
 20
0.0
 30
0.0
  3
*D20
  1

  0
LINE
  5
F71
330
BD2
100
AcDbEntity
  8
寸法線
 62
     2
370
    -2
100
AcDbLine
 10
326.3972872338881
 20
226.8368734683215
 30
0.0
 11
326.3972872338881
 21
206.3677751795077
 31
0.0
  0
LINE
  5
F72
330
BD2
100
AcDbEntity
  8
寸法線
 62
     2
370
    -2
100
AcDbLine
 10
334.3972872338881
 20
226.8368734683215
 30
0.0
 11
334.3972872338881
 21
206.3677751795077
 31
0.0
  0
LINE
  5
F73
330
BD2
100
AcDbEntity
  8
寸法線
 62
     2
370
    -2
100
AcDbLine
 10
328.897287233888
 20
207.6177751795078
 30
0.0
 11
331.8972872338881
 21
207.6177751795078
 31
0.0
  0
INSERT
  5
F74
330
BD2
100
AcDbEntity
  8
寸法線
 62
     2
370
    -2
100
AcDbBlockReference
  2
_OPEN
 10
326.3972872338881
 20
207.6177751795078
 30
0.0
 41
2.5
 42
2.5
 43
2.5
 50
180.0
  0
INSERT
  5
F75
330
BD2
100
AcDbEntity
  8
寸法線
 62
     2
370
    -2
100
AcDbBlockReference
  2
_OPEN
 10
334.3972872338881
 20
207.6177751795078
 30
0.0
 41
2.5
 42
2.5
 43
2.5
  0
MTEXT
  5
F76
330
BD2
100
AcDbEntity
  8
寸法線
 62
     6
100
AcDbMText
 10
330.3972872338881
 20
209.4927751795077
 30
0.0
 40
2.5
 41
0.0
 71
     5
 72
     1
  1
\A1;φ8
  7
STYLE3
 73
     1
 44
1.0
  0
POINT
  5
F77
330
BD2
100
AcDbEntity
  8
DEFPOINTS
 62
     0
100
AcDbPoint
 10
326.3972872338881
 20
226.8368734683215
 30
0.0
  0
POINT
  5
F78
330
BD2
100
AcDbEntity
  8
DEFPOINTS
 62
     0
100
AcDbPoint
 10
334.3972872338881
 20
226.8368734683215
 30
0.0
  0
POINT
  5
F79
330
BD2
100
AcDbEntity
  8
DEFPOINTS
 62
     0
100
AcDbPoint
 10
334.3972872338881
 20
207.6177751795078
 30
0.0
  0
ENDBLK
  5
BDD
330
BD2
100
AcDbEntity
  8
0
100
AcDbBlockEnd
  0
BLOCK
  5
BF2
330
BE8
100
AcDbEntity
  8
0
100
AcDbBlockBegin
  2
*D21
 70
     1
 10
0.0
 20
0.0
 30
0.0
  3
*D21
  1

  0
LINE
  5
F7A
330
BE8
100
AcDbEntity
  8
寸法線
 62
     2
370
    -2
100
AcDbLine
 10
327.8974794400419
 20
223.7368734837145
 30
0.0
 11
315.2745440360101
 21
223.7368734837145
 31
0.0
  0
LINE
  5
F7B
330
BE8
100
AcDbEntity
  8
寸法線
 62
     2
370
    -2
100
AcDbLine
 10
316.6949960844424
 20
216.7368734683215
 30
0.0
 11
315.2745440360101
 21
216.7368734683215
 31
0.0
  0
LINE
  5
F7C
330
BE8
100
AcDbEntity
  8
寸法線
 62
     2
370
    -2
100
AcDbLine
 10
316.5245440360101
 20
221.2368734837145
 30
0.0
 11
316.5245440360101
 21
219.2368734683215
 31
0.0
  0
INSERT
  5
F7D
330
BE8
100
AcDbEntity
  8
寸法線
 62
     2
370
    -2
100
AcDbBlockReference
  2
_OPEN
 10
316.5245440360101
 20
223.7368734837145
 30
0.0
 41
2.5
 42
2.5
 43
2.5
 50
90.0
  0
INSERT
  5
F7E
330
BE8
100
AcDbEntity
  8
寸法線
 62
     2
370
    -2
100
AcDbBlockReference
  2
_OPEN
 10
316.5245440360101
 20
216.7368734683215
 30
0.0
 41
2.5
 42
2.5
 43
2.5
 50
270.0
  0
MTEXT
  5
F7F
330
BE8
100
AcDbEntity
  8
寸法線
 62
     6
100
AcDbMText
 10
314.6495440360101
 20
220.236873476018
 30
0.0
 40
2.5
 41
0.0
 71
     5
 72
     1
  1
\A1;7
  7
STYLE3
 11
0.0000000000000001
 21
1.0
 31
0.0
 73
     1
 44
1.0
  0
POINT
  5
F80
330
BE8
100
AcDbEntity
  8
DEFPOINTS
 62
     0
100
AcDbPoint
 10
327.8974794400419
 20
223.7368734837145
 30
0.0
  0
POINT
  5
F81
330
BE8
100
AcDbEntity
  8
DEFPOINTS
 62
     0
100
AcDbPoint
 10
316.6949960844424
 20
216.7368734683215
 30
0.0
  0
POINT
  5
F82
330
BE8
100
AcDbEntity
  8
DEFPOINTS
 62
     0
100
AcDbPoint
 10
316.5245440360101
 20
216.7368734683215
 30
0.0
  0
ENDBLK
  5
BF3
330
BE8
100
AcDbEntity
  8
0
100
AcDbBlockEnd
  0
BLOCK
  5
EA1
330
E95
100
AcDbEntity
  8
0
100
AcDbBlockBegin
  2
*D22
 70
     1
 10
0.0
 20
0.0
 30
0.0
  3
*D22
  1

  0
LINE
  5
F1A
330
E95
100
AcDbEntity
  8
寸法線
 62
     2
370
    -2
100
AcDbLine
 10
411.7735521392837
 20
221.7368734837145
 30
0.0
 11
411.7735521392837
 21
207.9746217532494
 31
0.0
  0
LINE
  5
F1B
330
E95
100
AcDbEntity
  8
寸法線
 62
     2
370
    -2
100
AcDbLine
 10
416.7735521392838
 20
221.7368734837145
 30
0.0
 11
416.7735521392838
 21
207.9746217532494
 31
0.0
  0
LINE
  5
F1C
330
E95
100
AcDbEntity
  8
寸法線
 62
     2
370
    -2
100
AcDbLine
 10
409.2735521392837
 20
209.2246217532494
 30
0.0
 11
406.7735521392838
 21
209.2246217532494
 31
0.0
  0
LINE
  5
F1D
330
E95
100
AcDbEntity
  8
寸法線
 62
     2
370
    -2
100
AcDbLine
 10
419.2735521392838
 20
209.2246217532494
 30
0.0
 11
421.7735521392838
 21
209.2246217532494
 31
0.0
  0
LINE
  5
F1E
330
E95
100
AcDbEntity
  8
寸法線
 62
     2
370
    -2
100
AcDbLine
 10
411.7735521392837
 20
209.2246217532494
 30
0.0
 11
416.7735521392838
 21
209.2246217532494
 31
0.0
  0
INSERT
  5
F1F
330
E95
100
AcDbEntity
  8
寸法線
 62
     2
370
    -2
100
AcDbBlockReference
  2
_OPEN
 10
411.7735521392837
 20
209.2246217532494
 30
0.0
 41
2.5
 42
2.5
 43
2.5
  0
INSERT
  5
F20
330
E95
100
AcDbEntity
  8
寸法線
 62
     2
370
    -2
100
AcDbBlockReference
  2
_OPEN
 10
416.7735521392838
 20
209.2246217532494
 30
0.0
 41
2.5
 42
2.5
 43
2.5
 50
180.0
  0
MTEXT
  5
F21
330
E95
100
AcDbEntity
  8
寸法線
 62
     6
100
AcDbMText
 10
414.2735521392837
 20
211.0996217532494
 30
0.0
 40
2.5
 41
0.0
 71
     5
 72
     1
  1
\A1;%%C5
  7
STYLE3
 73
     1
 44
1.0
  0
POINT
  5
F22
330
E95
100
AcDbEntity
  8
DEFPOINTS
 62
     0
100
AcDbPoint
 10
411.7735521392837
 20
221.7368734837145
 30
0.0
  0
POINT
  5
F23
330
E95
100
AcDbEntity
  8
DEFPOINTS
 62
     0
100
AcDbPoint
 10
416.7735521392838
 20
221.7368734837145
 30
0.0
  0
POINT
  5
F24
330
E95
100
AcDbEntity
  8
DEFPOINTS
 62
     0
100
AcDbPoint
 10
416.7735521392838
 20
209.2246217532494
 30
0.0
  0
ENDBLK
  5
EA2
330
E95
100
AcDbEntity
  8
0
100
AcDbBlockEnd
  0
ENDSEC
  0
SECTION
  2
ENTITIES
  0
LWPOLYLINE
  5
10B
330
18
100
AcDbEntity
  8
C
100
AcDbPolyline
 90
        5
 70
     0
 43
0.4
 10
236.6915604445414
 20
366.8501752555372
 10
491.6915604445414
 20
366.8501752555372
 10
491.6915604445414
 20
171.8501752555372
 10
236.6915604445414
 20
171.8501752555372
 10
236.6915604445414
 20
366.8501752555372
  0
LINE
  5
16A
330
18
100
AcDbEntity
  8
中心線
100
AcDbLine
 10
293.3837023619951
 20
289.6368734683215
 30
0.0
 11
366.31602619978
 21
289.6368734683215
 31
0.0
  0
LINE
  5
16B
330
18
100
AcDbEntity
  8
中心線
100
AcDbLine
 10
330.3972872338881
 20
344.9994860305784
 30
0.0
 11
330.3972872338881
 21
214.493926686283
 31
0.0
  0
CIRCLE
  5
16C
330
18
100
AcDbEntity
  8
外形線
100
AcDbCircle
 10
330.3972872338881
 20
289.6368734683215
 30
0.0
 40
30.0
  0
ARC
  5
16D
330
18
100
AcDbEntity
  8
外形線
100
AcDbCircle
 10
330.3972872338881
 20
289.6368734683215
 30
0.0
 40
29.0
100
AcDbArc
 50
0.0
 51
180.0
  0
LINE
  5
16E
330
18
100
AcDbEntity
  8
外形線
100
AcDbLine
 10
309.897287233888
 20
301.1368734683215
 30
0.0
 11
350.8972872338881
 21
301.1368734683215
 31
0.0
  0
LINE
  5
16F
330
18
100
AcDbEntity
  8
外形線
100
AcDbLine
 10
309.897287233888
 20
278.1368734683215
 30
0.0
 11
350.8972872338881
 21
278.1368734683215
 31
0.0
  0
LINE
  5
170
330
18
100
AcDbEntity
  8
外形線
100
AcDbLine
 10
352.3972872338881
 20
299.6368734683215
 30
0.0
 11
352.3972872338881
 21
279.6368734683215
 31
0.0
  0
LINE
  5
171
330
18
100
AcDbEntity
  8
外形線
100
AcDbLine
 10
308.397287233888
 20
299.6368734683215
 30
0.0
 11
308.397287233888
 21
279.6368734683215
 31
0.0
  0
ARC
  5
17A
330
18
100
AcDbEntity
  8
外形線
100
AcDbCircle
 10
309.897287233888
 20
299.6368734683215
 30
0.0
 40
1.5
100
AcDbArc
 50
90.0
 51
180.0
  0
ARC
  5
17B
330
18
100
AcDbEntity
  8
外形線
100
AcDbCircle
 10
350.8972872338881
 20
299.6368734683215
 30
0.0
 40
1.5
100
AcDbArc
 50
0.0
 51
90.0
  0
ARC
  5
17C
330
18
100
AcDbEntity
  8
外形線
100
AcDbCircle
 10
350.8972872338881
 20
279.6368734683215
 30
0.0
 40
1.5
100
AcDbArc
 50
270.0
 51
0.0
  0
ARC
  5
17D
330
18
100
AcDbEntity
  8
外形線
100
AcDbCircle
 10
309.897287233888
 20
279.6368734683215
 30
0.0
 40
1.5
100
AcDbArc
 50
180.0
 51
270.0
  0
LINE
  5
17E
330
18
100
AcDbEntity
  8
外形線
100
AcDbLine
 10
301.3972872338881
 20
289.6368734683215
 30
0.0
 11
308.397287233888
 21
289.6368734683215
 31
0.0
  0
LINE
  5
17F
330
18
100
AcDbEntity
  8
外形線
100
AcDbLine
 10
352.3972872338881
 20
289.6368734683215
 30
0.0
 11
359.3972872338881
 21
289.6368734683215
 31
0.0
  0
LINE
  5
188
330
18
100
AcDbEntity
  8
外形線
100
AcDbLine
 10
326.897287233888
 20
343.0368734683215
 30
0.0
 11
333.8972872338881
 21
343.0368734683215
 31
0.0
  0
ARC
  5
189
330
18
100
AcDbEntity
  8
外形線
100
AcDbCircle
 10
330.3972872338881
 20
289.6368734683215
 30
0.0
 40
31.0
100
AcDbArc
 50
69.21644040415431
 51
110.7835595958456
  0
LINE
  5
18A
330
18
100
AcDbEntity
  8
外形線
100
AcDbLine
 10
341.397287233888
 20
318.6196269607004
 30
0.0
 11
341.397287233888
 21
317.5474449422272
 31
0.0
  0
LINE
  5
18B
330
18
100
AcDbEntity
  8
外形線
100
AcDbLine
 10
319.3972872338881
 20
318.6196269607004
 30
0.0
 11
319.3972872338881
 21
317.5474449422272
 31
0.0
  0
LINE
  5
18F
330
18
100
AcDbEntity
  8
外形線
100
AcDbLine
 10
336.3972872338881
 20
325.4368734683215
 30
0.0
 11
336.3972872338881
 21
320.0506861198126
 31
0.0
  0
LINE
  5
190
330
18
100
AcDbEntity
  8
外形線
100
AcDbLine
 10
324.397287233888
 20
325.4368734683215
 30
0.0
 11
324.397287233888
 21
320.0506861198125
 31
0.0
  0
LINE
  5
191
330
18
100
AcDbEntity
  8
外形線
100
AcDbLine
 10
325.3972872338881
 20
326.4368734683216
 30
0.0
 11
335.397287233888
 21
326.4368734683215
 31
0.0
  0
LINE
  5
192
330
18
100
AcDbEntity
  8
外形線
100
AcDbLine
 10
324.397287233888
 20
325.4368734683215
 30
0.0
 11
325.3972872338881
 21
326.4368734683216
 31
0.0
  0
LINE
  5
193
330
18
100
AcDbEntity
  8
外形線
100
AcDbLine
 10
335.397287233888
 20
326.4368734683215
 30
0.0
 11
336.3972872338881
 21
325.4368734683215
 31
0.0
  0
LINE
  5
194
330
18
100
AcDbEntity
  8
外形線
100
AcDbLine
 10
324.397287233888
 20
325.4368734683216
 30
0.0
 11
336.3972872338881
 21
325.4368734683215
 31
0.0
  0
LINE
  5
195
330
18
100
AcDbEntity
  8
外形線
100
AcDbLine
 10
325.3972872338881
 20
326.9368734683216
 30
0.0
 11
335.397287233888
 21
326.9368734683215
 31
0.0
  0
LINE
  5
197
330
18
100
AcDbEntity
  8
外形線
100
AcDbLine
 10
335.397287233888
 20
341.5368734683215
 30
0.0
 11
335.397287233888
 21
340.0368734683214
 31
0.0
  0
LINE
  5
198
330
18
100
AcDbEntity
  8
外形線
100
AcDbLine
 10
325.3972872338881
 20
341.5368734683215
 30
0.0
 11
325.3972872338881
 21
340.0368734683215
 31
0.0
  0
LINE
  5
199
330
18
100
AcDbEntity
  8
外形線
100
AcDbLine
 10
334.3972872338881
 20
340.0368734683214
 30
0.0
 11
334.3972872338881
 21
339.0368734683215
 31
0.0
  0
LINE
  5
19A
330
18
100
AcDbEntity
  8
外形線
100
AcDbLine
 10
326.3972872338879
 20
340.0368734683215
 30
0.0
 11
326.3972872338879
 21
339.0368734683215
 31
0.0
  0
LINE
  5
19B
330
18
100
AcDbEntity
  8
外形線
100
AcDbLine
 10
325.3972872338881
 20
333.9368734683215
 30
0.0
 11
335.3972872338881
 21
333.9368734683215
 31
0.0
  0
LINE
  5
19C
330
18
100
AcDbEntity
  8
外形線
100
AcDbLine
 10
334.3972872338881
 20
326.9368734683214
 30
0.0
 11
334.3972872338881
 21
326.4368734683215
 31
0.0
  0
LINE
  5
19D
330
18
100
AcDbEntity
  8
外形線
100
AcDbLine
 10
326.397287233888
 20
326.9368734683215
 30
0.0
 11
326.397287233888
 21
326.4368734683216
 31
0.0
  0
LINE
  5
19E
330
18
100
AcDbEntity
  8
外形線
100
AcDbLine
 10
325.3972872338881
 20
335.4368734683216
 30
0.0
 11
335.3972872338881
 21
335.4368734683215
 31
0.0
  0
LINE
  5
19F
330
18
100
AcDbEntity
  8
外形線
100
AcDbLine
 10
335.397287233888
 20
333.9368734683215
 30
0.0
 11
335.397287233888
 21
326.9368734683214
 31
0.0
  0
LINE
  5
1A0
330
18
100
AcDbEntity
  8
外形線
100
AcDbLine
 10
325.3972872338881
 20
333.9368734683215
 30
0.0
 11
325.397287233888
 21
326.9368734683215
 31
0.0
  0
LINE
  5
1A1
330
18
100
AcDbEntity
  8
外形線
100
AcDbLine
 10
325.3972872338881
 20
336.7368734683215
 30
0.0
 11
335.3972872338881
 21
336.7368734683215
 31
0.0
  0
LINE
  5
1A2
330
18
100
AcDbEntity
  8
外形線
100
AcDbLine
 10
325.3972872338881
 20
337.7368734683216
 30
0.0
 11
335.3972872338881
 21
337.7368734683215
 31
0.0
  0
LINE
  5
1A3
330
18
100
AcDbEntity
  8
外形線
100
AcDbLine
 10
325.3972872338881
 20
339.0368734683216
 30
0.0
 11
335.3972872338881
 21
339.0368734683215
 31
0.0
  0
LINE
  5
1A4
330
18
100
AcDbEntity
  8
外形線
100
AcDbLine
 10
325.3972872338881
 20
340.0368734683216
 30
0.0
 11
335.3972872338881
 21
340.0368734683215
 31
0.0
  0
LINE
  5
1A5
330
18
100
AcDbEntity
  8
外形線
100
AcDbLine
 10
334.3972872338881
 20
335.4368734683215
 30
0.0
 11
334.3972872338881
 21
333.9368734683215
 31
0.0
  0
LINE
  5
1A6
330
18
100
AcDbEntity
  8
外形線
100
AcDbLine
 10
326.397287233888
 20
335.4368734683216
 30
0.0
 11
326.397287233888
 21
333.9368734683215
 31
0.0
  0
LINE
  5
1A7
330
18
100
AcDbEntity
  8
外形線
100
AcDbLine
 10
325.3972872338881
 20
336.7368734683215
 30
0.0
 11
325.3972872338881
 21
335.4368734683216
 31
0.0
  0
LINE
  5
1A8
330
18
100
AcDbEntity
  8
外形線
100
AcDbLine
 10
335.397287233888
 20
336.7368734683215
 30
0.0
 11
335.397287233888
 21
335.4368734683215
 31
0.0
  0
LINE
  5
1A9
330
18
100
AcDbEntity
  8
外形線
100
AcDbLine
 10
334.3972872338881
 20
337.7368734683215
 30
0.0
 11
334.3972872338881
 21
336.7368734683215
 31
0.0
  0
LINE
  5
1AA
330
18
100
AcDbEntity
  8
外形線
100
AcDbLine
 10
326.3972872338879
 20
337.7368734683214
 30
0.0
 11
326.397287233888
 21
336.7368734683215
 31
0.0
  0
LINE
  5
1AB
330
18
100
AcDbEntity
  8
外形線
100
AcDbLine
 10
325.3972872338881
 20
339.0368734683215
 30
0.0
 11
325.3972872338881
 21
337.7368734683216
 31
0.0
  0
LINE
  5
1AC
330
18
100
AcDbEntity
  8
外形線
100
AcDbLine
 10
335.397287233888
 20
339.0368734683215
 30
0.0
 11
335.397287233888
 21
337.7368734683214
 31
0.0
  0
ARC
  5
1AF
330
18
100
AcDbEntity
  8
外形線
100
AcDbCircle
 10
326.897287233888
 20
341.5368734683215
 30
0.0
 40
1.5
100
AcDbArc
 50
90.0
 51
180.0
  0
ARC
  5
1B0
330
18
100
AcDbEntity
  8
外形線
100
AcDbCircle
 10
333.8972872338881
 20
341.5368734683215
 30
0.0
 40
1.5
100
AcDbArc
 50
0.0
 51
90.0
  0
LINE
  5
1B4
330
18
100
AcDbEntity
  8
外形線
100
AcDbLine
 10
324.397287233888
 20
258.6368734683215
 30
0.0
 11
336.3972872338881
 21
258.6368734683215
 31
0.0
  0
LINE
  5
1B8
330
18
100
AcDbEntity
  8
外形線
100
AcDbLine
 10
336.3972872338881
 20
260.2429965549234
 30
0.0
 11
336.3972872338881
 21
258.6368734683215
 31
0.0
  0
LINE
  5
1B9
330
18
100
AcDbEntity
  8
外形線
100
AcDbLine
 10
324.397287233888
 20
260.2429965549234
 30
0.0
 11
324.397287233888
 21
258.6368734683215
 31
0.0
  0
LINE
  5
1BA
330
18
100
AcDbEntity
  8
外形線
100
AcDbLine
 10
334.3972872338881
 20
258.6368734683215
 30
0.0
 11
334.3972872338881
 21
257.3368734683215
 31
0.0
  0
LINE
  5
1BB
330
18
100
AcDbEntity
  8
外形線
100
AcDbLine
 10
326.3972872338881
 20
258.6368734683215
 30
0.0
 11
326.3972872338879
 21
257.3368734683215
 31
0.0
  0
LINE
  5
1C9
330
18
100
AcDbEntity
  8
外形線
100
AcDbLine
 10
332.3972872338881
 20
226.8368734683215
 30
0.0
 11
332.3972872338881
 21
223.7368734683215
 31
0.0
  0
LINE
  5
1CA
330
18
100
AcDbEntity
  8
外形線
100
AcDbLine
 10
328.3972872338881
 20
226.8368734683215
 30
0.0
 11
328.3972872338881
 21
223.7368734683215
 31
0.0
  0
LINE
  5
1FF
330
18
100
AcDbEntity
  8
中心線
100
AcDbLine
 10
414.2733599331299
 20
345.7242922505928
 30
0.0
 11
414.2733599331299
 21
214.1345643287305
 31
0.0
  0
LINE
  5
200
330
18
100
AcDbEntity
  8
中心線
100
AcDbLine
 10
386.1257086975692
 20
289.6368734683215
 30
0.0
 11
428.6435331430988
 21
289.6368734683215
 31
0.0
  0
LINE
  5
201
330
18
100
AcDbEntity
  8
外形線
100
AcDbLine
 10
407.7733599331299
 20
319.0368734683215
 30
0.0
 11
423.7733599331298
 21
319.0368734683214
 31
0.0
  0
LINE
  5
202
330
18
100
AcDbEntity
  8
外形線
100
AcDbLine
 10
407.7733599331298
 20
260.2368734683214
 30
0.0
 11
423.7733599331299
 21
260.2368734683215
 31
0.0
  0
LINE
  5
203
330
18
100
AcDbEntity
  8
外形線
100
AcDbLine
 10
423.7733599331298
 20
319.0368734683214
 30
0.0
 11
423.7733599331299
 21
260.2368734683215
 31
0.0
  0
LINE
  5
204
330
18
100
AcDbEntity
  8
外形線
100
AcDbLine
 10
392.7733599331299
 20
319.6368734683215
 30
0.0
 11
392.7733599331299
 21
259.6368734683215
 31
0.0
  0
LINE
  5
205
330
18
100
AcDbEntity
  8
外形線
100
AcDbLine
 10
422.2733599331299
 20
319.0368734683214
 30
0.0
 11
422.2733599331299
 21
260.2368734683215
 31
0.0
  0
LINE
  5
206
330
18
100
AcDbEntity
  8
外形線
100
AcDbLine
 10
421.2733599331299
 20
319.0368734683214
 30
0.0
 11
421.2733599331299
 21
260.2368734683215
 31
0.0
  0
LINE
  5
213
330
18
100
AcDbEntity
  8
外形線
100
AcDbLine
 10
405.7733599331299
 20
320.6368734683215
 30
0.0
 11
405.7733599331299
 21
316.1368734683215
 31
0.0
  0
LINE
  5
214
330
18
100
AcDbEntity
  8
外形線
100
AcDbLine
 10
400.2733599331298
 20
320.6368734683215
 30
0.0
 11
400.2733599331299
 21
316.1368734683215
 31
0.0
  0
LINE
  5
215
330
18
100
AcDbEntity
  8
外形線
100
AcDbLine
 10
392.7733599331299
 20
319.6368734683214
 30
0.0
 11
400.2733599331298
 21
319.6368734683215
 31
0.0
  0
LINE
  5
216
330
18
100
AcDbEntity
  8
外形線
100
AcDbLine
 10
392.77335993313
 20
259.6368734683215
 30
0.0
 11
405.77335993313
 21
259.6368734683215
 31
0.0
  0
LINE
  5
217
330
18
100
AcDbEntity
  8
外形線
100
AcDbLine
 10
400.2733599331298
 20
320.6368734683215
 30
0.0
 11
405.7733599331299
 21
320.6368734683215
 31
0.0
  0
LINE
  5
218
330
18
100
AcDbEntity
  8
外形線
100
AcDbLine
 10
400.2733599331298
 20
317.1368734683215
 30
0.0
 11
405.7733599331299
 21
317.1368734683215
 31
0.0
  0
LINE
  5
219
330
18
100
AcDbEntity
  8
外形線
100
AcDbLine
 10
400.2733599331299
 20
316.1368734683215
 30
0.0
 11
405.7733599331299
 21
316.1368734683215
 31
0.0
  0
LINE
  5
21A
330
18
100
AcDbEntity
  8
外形線
100
AcDbLine
 10
405.7733599331299
 20
316.1368734683215
 30
0.0
 11
405.7733599331299
 21
259.6368734683214
 31
0.0
  0
LINE
  5
21D
330
18
100
AcDbEntity
  8
外形線
100
AcDbLine
 10
404.77335993313
 20
262.1368734683215
 30
0.0
 11
404.77335993313
 21
259.6368734683214
 31
0.0
  0
LINE
  5
21E
330
18
100
AcDbEntity
  8
外形線
100
AcDbLine
 10
399.27335993313
 20
262.1368734683214
 30
0.0
 11
399.27335993313
 21
259.6368734683214
 31
0.0
  0
LINE
  5
21F
330
18
100
AcDbEntity
  8
外形線
100
AcDbLine
 10
399.27335993313
 20
262.1368734683214
 30
0.0
 11
404.77335993313
 21
262.1368734683215
 31
0.0
  0
LINE
  5
222
330
18
100
AcDbEntity
  8
外形線
100
AcDbLine
 10
391.7733599331299
 20
289.6368734683215
 30
0.0
 11
391.7733599331299
 21
278.1368734683215
 31
0.0
  0
LINE
  5
224
330
18
100
AcDbEntity
  8
外形線
100
AcDbLine
 10
390.1733599331299
 20
278.1368734683215
 30
0.0
 11
391.7733599331299
 21
278.1368734683215
 31
0.0
  0
ARC
  5
226
330
18
100
AcDbEntity
  8
外形線
100
AcDbCircle
 10
571.3906141734563
 20
294.1476801261231
 30
0.0
 40
181.9206400838717
100
AcDbArc
 50
185.0491250177036
 51
187.1079812663738
  0
LINE
  5
227
330
18
100
AcDbEntity
  8
外形線
100
AcDbLine
 10
390.1758979976114
 20
271.6368734683215
 30
0.0
 11
391.1758979976113
 21
271.6368734683215
 31
0.0
  0
LINE
  5
228
330
18
100
AcDbEntity
  8
外形線
100
AcDbLine
 10
390.1758979976113
 20
267.6368734683215
 30
0.0
 11
392.1758979976113
 21
267.6368734683215
 31
0.0
  0
LINE
  5
229
330
18
100
AcDbEntity
  8
外形線
100
AcDbLine
 10
391.7733599331299
 20
289.6368734683215
 30
0.0
 11
392.7733599331299
 21
289.6368734683215
 31
0.0
  0
LINE
  5
22D
330
18
100
AcDbEntity
  8
外形線
100
AcDbLine
 10
390.1758979976113
 20
271.6368734683215
 30
0.0
 11
390.1758979976113
 21
267.6368734683215
 31
0.0
  0
LINE
  5
230
330
18
100
AcDbEntity
  8
外形線
100
AcDbLine
 10
391.1758979976113
 20
271.6368734683215
 30
0.0
 11
392.1758979976113
 21
267.6368734683215
 31
0.0
  0
ARC
  5
231
330
18
100
AcDbEntity
  8
外形線
100
AcDbCircle
 10
571.3906141734563
 20
294.1476801261231
 30
0.0
 40
181.9206400838717
100
AcDbArc
 50
188.3793987252573
 51
190.9354250164132
  0
LINE
  5
232
330
18
100
AcDbEntity
  8
外形線
100
AcDbLine
 10
409.2733599331299
 20
341.5368734683215
 30
0.0
 11
409.2733599331299
 21
340.0368734683215
 31
0.0
  0
LINE
  5
233
330
18
100
AcDbEntity
  8
外形線
100
AcDbLine
 10
419.2733599331298
 20
341.5368734683215
 30
0.0
 11
419.2733599331298
 21
340.0368734683214
 31
0.0
  0
LINE
  5
234
330
18
100
AcDbEntity
  8
外形線
100
AcDbLine
 10
409.2733599331299
 20
340.0368734683216
 30
0.0
 11
419.2733599331299
 21
340.0368734683215
 31
0.0
  0
LINE
  5
235
330
18
100
AcDbEntity
  8
外形線
100
AcDbLine
 10
409.2733599331299
 20
339.0368734683216
 30
0.0
 11
419.2733599331299
 21
339.0368734683215
 31
0.0
  0
LINE
  5
236
330
18
100
AcDbEntity
  8
外形線
100
AcDbLine
 10
409.2733599331299
 20
337.7368734683216
 30
0.0
 11
419.2733599331299
 21
337.7368734683215
 31
0.0
  0
LINE
  5
237
330
18
100
AcDbEntity
  8
外形線
100
AcDbLine
 10
409.2733599331299
 20
336.7368734683215
 30
0.0
 11
419.2733599331299
 21
336.7368734683215
 31
0.0
  0
LINE
  5
238
330
18
100
AcDbEntity
  8
外形線
100
AcDbLine
 10
409.2733599331299
 20
335.4368734683216
 30
0.0
 11
419.2733599331299
 21
335.4368734683215
 31
0.0
  0
LINE
  5
239
330
18
100
AcDbEntity
  8
外形線
100
AcDbLine
 10
409.2733599331299
 20
333.9368734683215
 30
0.0
 11
419.2733599331299
 21
333.9368734683215
 31
0.0
  0
LINE
  5
23A
330
18
100
AcDbEntity
  8
外形線
100
AcDbLine
 10
409.2733599331299
 20
326.9368734683216
 30
0.0
 11
419.2733599331298
 21
326.9368734683215
 31
0.0
  0
LINE
  5
23B
330
18
100
AcDbEntity
  8
外形線
100
AcDbLine
 10
408.2733599331298
 20
325.4368734683216
 30
0.0
 11
420.2733599331298
 21
325.4368734683215
 31
0.0
  0
LINE
  5
23C
330
18
100
AcDbEntity
  8
外形線
100
AcDbLine
 10
409.2733599331299
 20
326.4368734683216
 30
0.0
 11
419.2733599331298
 21
326.4368734683215
 31
0.0
  0
LINE
  5
23D
330
18
100
AcDbEntity
  8
外形線
100
AcDbLine
 10
409.2733599331299
 20
333.9368734683215
 30
0.0
 11
409.2733599331298
 21
326.9368734683215
 31
0.0
  0
LINE
  5
23E
330
18
100
AcDbEntity
  8
外形線
100
AcDbLine
 10
408.2733599331298
 20
325.4368734683215
 30
0.0
 11
409.2733599331299
 21
326.4368734683216
 31
0.0
  0
LINE
  5
23F
330
18
100
AcDbEntity
  8
外形線
100
AcDbLine
 10
408.2733599331298
 20
325.4368734683215
 30
0.0
 11
408.2733599331298
 21
319.0368734683215
 31
0.0
  0
LINE
  5
240
330
18
100
AcDbEntity
  8
外形線
100
AcDbLine
 10
410.2733599331298
 20
326.9368734683215
 30
0.0
 11
410.2733599331298
 21
326.4368734683216
 31
0.0
  0
LINE
  5
241
330
18
100
AcDbEntity
  8
外形線
100
AcDbLine
 10
410.2733599331298
 20
335.4368734683216
 30
0.0
 11
410.2733599331298
 21
333.9368734683215
 31
0.0
  0
LINE
  5
242
330
18
100
AcDbEntity
  8
外形線
100
AcDbLine
 10
409.2733599331299
 20
339.0368734683215
 30
0.0
 11
409.2733599331299
 21
337.7368734683216
 31
0.0
  0
LINE
  5
243
330
18
100
AcDbEntity
  8
外形線
100
AcDbLine
 10
410.2733599331298
 20
337.7368734683214
 30
0.0
 11
410.2733599331298
 21
336.7368734683215
 31
0.0
  0
LINE
  5
244
330
18
100
AcDbEntity
  8
外形線
100
AcDbLine
 10
409.2733599331299
 20
336.7368734683215
 30
0.0
 11
409.2733599331299
 21
335.4368734683216
 31
0.0
  0
LINE
  5
245
330
18
100
AcDbEntity
  8
外形線
100
AcDbLine
 10
410.2733599331298
 20
340.0368734683215
 30
0.0
 11
410.2733599331298
 21
339.0368734683215
 31
0.0
  0
LINE
  5
246
330
18
100
AcDbEntity
  8
外形線
100
AcDbLine
 10
419.2733599331298
 20
333.9368734683215
 30
0.0
 11
419.2733599331298
 21
326.9368734683214
 31
0.0
  0
LINE
  5
247
330
18
100
AcDbEntity
  8
外形線
100
AcDbLine
 10
420.2733599331298
 20
325.4368734683215
 30
0.0
 11
420.2733599331298
 21
319.0368734683214
 31
0.0
  0
LINE
  5
248
330
18
100
AcDbEntity
  8
外形線
100
AcDbLine
 10
418.2733599331299
 20
326.9368734683214
 30
0.0
 11
418.2733599331299
 21
326.4368734683215
 31
0.0
  0
LINE
  5
249
330
18
100
AcDbEntity
  8
外形線
100
AcDbLine
 10
419.2733599331298
 20
326.4368734683215
 30
0.0
 11
420.2733599331298
 21
325.4368734683215
 31
0.0
  0
LINE
  5
24A
330
18
100
AcDbEntity
  8
外形線
100
AcDbLine
 10
418.2733599331299
 20
335.4368734683215
 30
0.0
 11
418.2733599331299
 21
333.9368734683215
 31
0.0
  0
LINE
  5
24B
330
18
100
AcDbEntity
  8
外形線
100
AcDbLine
 10
419.2733599331298
 20
339.0368734683215
 30
0.0
 11
419.2733599331298
 21
337.7368734683214
 31
0.0
  0
LINE
  5
24C
330
18
100
AcDbEntity
  8
外形線
100
AcDbLine
 10
418.2733599331299
 20
337.7368734683215
 30
0.0
 11
418.2733599331299
 21
336.7368734683215
 31
0.0
  0
LINE
  5
24D
330
18
100
AcDbEntity
  8
外形線
100
AcDbLine
 10
419.2733599331298
 20
336.7368734683215
 30
0.0
 11
419.2733599331298
 21
335.4368734683215
 31
0.0
  0
LINE
  5
24E
330
18
100
AcDbEntity
  8
外形線
100
AcDbLine
 10
418.2733599331299
 20
340.0368734683214
 30
0.0
 11
418.2733599331299
 21
339.0368734683215
 31
0.0
  0
LINE
  5
24F
330
18
100
AcDbEntity
  8
外形線
100
AcDbLine
 10
410.7733599331298
 20
343.0368734683215
 30
0.0
 11
417.7733599331299
 21
343.0368734683215
 31
0.0
  0
ARC
  5
250
330
18
100
AcDbEntity
  8
外形線
100
AcDbCircle
 10
410.7733599331298
 20
341.5368734683215
 30
0.0
 40
1.5
100
AcDbArc
 50
90.0
 51
180.0
  0
ARC
  5
251
330
18
100
AcDbEntity
  8
外形線
100
AcDbCircle
 10
417.7733599331299
 20
341.5368734683215
 30
0.0
 40
1.5
100
AcDbArc
 50
0.0
 51
90.0
  0
LINE
  5
253
330
18
100
AcDbEntity
  8
外形線
100
AcDbLine
 10
407.7733599331299
 20
319.0368734683215
 30
0.0
 11
407.7733599331298
 21
260.2368734683214
 31
0.0
  0
LINE
  5
254
330
18
100
AcDbEntity
  8
外形線
100
AcDbLine
 10
405.77335993313
 20
259.6368734683215
 30
0.0
 11
407.7733599331298
 21
260.2368734683214
 31
0.0
  0
LINE
  5
256
330
18
100
AcDbEntity
  8
外形線
100
AcDbLine
 10
410.2733599331298
 20
258.6368734683215
 30
0.0
 11
410.2733599331298
 21
257.3368734683215
 31
0.0
  0
LINE
  5
257
330
18
100
AcDbEntity
  8
外形線
100
AcDbLine
 10
418.2733599331299
 20
258.6368734683215
 30
0.0
 11
418.2733599331298
 21
257.3368734683215
 31
0.0
  0
LINE
  5
262
330
18
100
AcDbEntity
  8
外形線
100
AcDbLine
 10
408.2733599331298
 20
258.6368734683215
 30
0.0
 11
420.2733599331299
 21
258.6368734683215
 31
0.0
  0
LINE
  5
263
330
18
100
AcDbEntity
  8
外形線
100
AcDbLine
 10
408.2733599331298
 20
260.2368734683214
 30
0.0
 11
408.2733599331298
 21
258.6368734683215
 31
0.0
  0
LINE
  5
264
330
18
100
AcDbEntity
  8
外形線
100
AcDbLine
 10
420.2733599331298
 20
260.2368734683214
 30
0.0
 11
420.2733599331298
 21
258.6368734683215
 31
0.0
  0
LINE
  5
265
330
18
100
AcDbEntity
  8
外形線
100
AcDbLine
 10
412.2733599331298
 20
226.8368734683215
 30
0.0
 11
412.2733599331298
 21
223.7368734683215
 31
0.0
  0
LINE
  5
266
330
18
100
AcDbEntity
  8
外形線
100
AcDbLine
 10
416.2733599331298
 20
226.8368734683215
 30
0.0
 11
416.2733599331298
 21
223.7368734683215
 31
0.0
  0
DIMENSION
  5
3C3
330
18
100
AcDbEntity
  8
外形線
100
AcDbDimension
  2
*D3
 10
433.6683671508356
 20
260.2368734683215
 30
0.0
 11
431.7933671508355
 21
289.6368734683216
 31
0.0
 70
    32
  1
φ58.8
 71
     5
 42
58.7999999999999
  3
STYLE3
100
AcDbAlignedDimension
 13
423.7733599331298
 23
319.0368734683214
 33
0.0
 14
423.7733599331299
 24
260.2368734683215
 34
0.0
 50
90.0
100
AcDbRotatedDimension
1001
ACAD
1000
DSTYLE
1002
{
1070
   271
1070
     2
1002
}
  0
DIMENSION
  5
3DD
330
18
100
AcDbEntity
  8
外形線
100
AcDbDimension
  2
*D4
 10
381.611587412196
 20
259.6368734683216
 30
0.0
 11
379.736587412196
 21
289.6368734683216
 31
0.0
 70
    32
  1
φ60
 71
     5
 42
59.99999999999994
  3
STYLE3
100
AcDbAlignedDimension
 13
392.7733599331299
 23
319.6368734683214
 33
0.0
 14
392.7733599331299
 24
259.6368734683215
 34
0.0
 50
90.0
100
AcDbRotatedDimension
1001
ACAD
1000
DSTYLE
1002
{
1070
   271
1070
     2
1002
}
  0
POINT
  5
47A
330
18
100
AcDbEntity
  8
DEFPOINTS
  6
ByBlock
 62
     0
100
AcDbPoint
 10
325.3972872338881
 20
326.4368734683216
 30
0.0
  0
POINT
  5
483
330
18
100
AcDbEntity
  8
DEFPOINTS
  6
ByBlock
 62
     0
100
AcDbPoint
 10
324.397287233888
 20
258.6368734683215
 30
0.0
  0
LINE
  5
4AC
330
18
100
AcDbEntity
  8
外形線
100
AcDbLine
 10
407.7733599331299
 20
319.0368734683215
 30
0.0
 11
405.7733599331299
 21
319.6368734683215
 31
0.0
  0
HATCH
  5
5F8
330
18
100
AcDbEntity
  8
ROGO
 62
     4
100
AcDbHatch
 10
0.0
 20
0.0
 30
0.0
210
0.0
220
0.0
230
1.0
  2
SOLID
 70
     1
 71
     1
 91
        2
 92
        5
 93
        6
 72
     1
 10
320.1135404261222
 20
304.1416490017028
 11
321.3398559408977
 21
304.1416490017027
 72
     1
 10
321.3398559408977
 20
304.1416490017027
 11
321.7695727062487
 21
305.0914496715794
 72
     1
 10
321.7695727062487
 20
305.0914496715794
 11
322.9159261938984
 21
305.0914496715794
 72
     4
 94
        3
 73
     0
 74
     0
 95
       18
 96
       14
 40
0.108740278791501
 40
0.108740278791501
 40
0.108740278791501
 40
0.108740278791501
 40
0.6623149649549278
 40
1.384304701649787
 40
2.097394834876493
 40
2.774073369849618
 40
3.428974823686337
 40
4.005208313035923
 40
4.455173659284313
 40
4.720999734343524
 40
5.086034088486724
 40
5.569973738255373
 40
6.060470601257719
 40
6.060470601257719
 40
6.060470601257719
 40
6.060470601257719
 10
322.9159261938985
 20
305.0914496715794
 10
322.9966046584774
 20
305.0920504596766
 10
323.1825065461177
 20
305.0934348147448
 10
323.4425818322555
 20
305.2323727473817
 10
323.6892075119466
 20
305.4093695506782
 10
323.8878477193369
 20
305.6305085902806
 10
324.0116065533206
 20
305.8833431956643
 10
324.030776405524
 20
306.1256619413994
 10
324.0190736817242
 20
306.3173330567435
 10
323.9354518421688
 20
306.4509325825613
 10
323.8485167356941
 20
306.5865224389263
 10
323.6891071471335
 20
306.7039754086581
 10
323.5584940713258
 20
306.7554372689206
 10
323.4920746657937
 20
306.7797788680106
 72
     1
 10
323.4920746657938
 20
306.7797788680104
 11
321.4188625490986
 21
306.7797788680104
 72
     1
 10
321.4188625490986
 20
306.7797788680104
 11
320.1135404261222
 21
304.1416490017028
 97
        6
330
5FB
330
5FD
330
604
330
5FC
330
5FE
330
603
 92
       20
 93
        4
 72
     1
 10
322.0348984820758
 20
305.6778978158835
 11
322.238038505964
 21
306.1268971250219
 72
     1
 10
322.238038505964
 20
306.1268971250219
 11
322.760021790518
 21
306.1268971250218
 72
     4
 94
        3
 73
     0
 74
     0
 95
       15
 96
       11
 40
0.0
 40
0.0
 40
0.0
 40
0.0
 40
0.1979620751796092
 40
0.2882218927611821
 40
0.390672794493828
 40
0.4604671121752228
 40
0.570847549457819
 40
0.6369624161317818
 40
0.7503938621545029
 40
0.7882043682941406
 40
0.7882043682941406
 40
0.7882043682941406
 40
0.7882043682941406
 10
322.7600217905179
 20
306.1268971250219
 10
322.8343725070225
 20
306.1272376909907
 10
322.9426230606685
 20
306.1277335363088
 10
323.0018183188518
 20
305.9938272883997
 10
322.9752841816942
 20
305.9076125538656
 10
322.9419286087206
 20
305.81909689269
 10
322.8829817567375
 20
305.7589491659152
 10
322.8038664472579
 20
305.7010167655246
 10
322.7290986990436
 20
305.6940037890483
 10
322.680470671793
 20
305.68111901175
 10
322.6683136591611
 20
305.6778978158835
 72
     1
 10
322.6683136591609
 20
305.6778978158834
 11
322.0348984820758
 21
305.6778978158835
 97
        4
330
602
330
600
330
601
330
5FF
 75
     0
 76
     1
 47
0.0514683685270805
 98
        2
 10
321.4299435462074
 20
305.9592504662961
 10
321.4299435462074
 20
305.9592504662961
450
        0
451
        0
460
0.0
461
0.0
452
        0
462
0.0
453
        0
470

  0
HATCH
  5
5F9
330
18
100
AcDbEntity
  8
ROGO
 62
     4
100
AcDbHatch
 10
0.0
 20
0.0
 30
0.0
210
0.0
220
0.0
230
1.0
  2
SOLID
 70
     1
 71
     0
 91
        1
 92
        7
 72
     0
 73
     1
 93
        4
 10
321.4594929864403
 20
304.4060821240772
 10
321.3398559408977
 20
304.1416490017027
 10
336.9989463862188
 20
304.1416490017027
 10
337.1308012814295
 20
304.4060821240772
 97
        0
 75
     0
 76
     1
 47
0.0514683685270805
 98
        1
 10
331.3546526075823
 20
304.3361438129569
450
        0
451
        0
460
0.0
461
0.0
452
        0
462
0.0
453
        0
470

  0
LINE
  5
5FA
330
18
100
AcDbEntity
  8
ROGO
 62
     4
100
AcDbLine
 10
321.4411542689759
 20
304.4060821240772
 30
0.0
 11
337.1308012814295
 21
304.4060821240772
 31
0.0
  0
SPLINE
  5
5FB
102
{ACAD_REACTORS
330
5F8
102
}
330
18
100
AcDbEntity
  8
ROGO
 62
     4
100
AcDbSpline
210
0.0
220
0.0
230
1.0
 70
     8
 71
     3
 72
    18
 73
    14
 74
     0
 42
0.0000000001
 43
0.0000000001
 40
0.1087402787915014
 40
0.1087402787915014
 40
0.1087402787915014
 40
0.1087402787915014
 40
0.5992371417938475
 40
1.083176791562496
 40
1.448211145705696
 40
1.714037220764907
 40
2.164002567013297
 40
2.740236056362883
 40
3.395137510199602
 40
4.071816045172726
 40
4.784906178399433
 40
5.506895915094292
 40
6.060470601257719
 40
6.060470601257719
 40
6.060470601257719
 40
6.060470601257719
 10
323.4920746657937
 20
306.7797788680106
 30
0.0
 10
323.5584940713258
 20
306.7554372689206
 30
0.0
 10
323.6891071471335
 20
306.7039754086581
 30
0.0
 10
323.8485167356941
 20
306.5865224389263
 30
0.0
 10
323.9354518421688
 20
306.4509325825613
 30
0.0
 10
324.0190736817242
 20
306.3173330567435
 30
0.0
 10
324.030776405524
 20
306.1256619413994
 30
0.0
 10
324.0116065533206
 20
305.8833431956643
 30
0.0
 10
323.8878477193369
 20
305.6305085902806
 30
0.0
 10
323.6892075119466
 20
305.4093695506782
 30
0.0
 10
323.4425818322555
 20
305.2323727473817
 30
0.0
 10
323.1825065461177
 20
305.0934348147448
 30
0.0
 10
322.9966046584774
 20
305.0920504596766
 30
0.0
 10
322.9159261938985
 20
305.0914496715794
 30
0.0
  0
LINE
  5
5FC
102
{ACAD_REACTORS
330
5F8
330
62F
102
}
330
18
100
AcDbEntity
  8
ROGO
 62
     4
100
AcDbLine
 10
320.1135404261222
 20
304.1416490017027
 30
0.0
 11
337.9710540551528
 21
304.1416490017027
 31
0.0
  0
LINE
  5
5FD
102
{ACAD_REACTORS
330
5F8
102
}
330
18
100
AcDbEntity
  8
ROGO
 62
     4
100
AcDbLine
 10
321.4188625490986
 20
306.7797788680104
 30
0.0
 11
323.4920746657937
 21
306.7797788680104
 31
0.0
  0
LINE
  5
5FE
102
{ACAD_REACTORS
330
5F8
102
}
330
18
100
AcDbEntity
  8
ROGO
 62
     4
100
AcDbLine
 10
321.7695727062486
 20
305.0914496715794
 30
0.0
 11
321.3398559408977
 21
304.1416490017027
 31
0.0
  0
LINE
  5
5FF
102
{ACAD_REACTORS
330
5F8
102
}
330
18
100
AcDbEntity
  8
ROGO
 62
     4
100
AcDbLine
 10
322.6683136591612
 20
305.6778978158834
 30
0.0
 11
322.0348984820759
 21
305.6778978158835
 31
0.0
  0
LINE
  5
600
102
{ACAD_REACTORS
330
5F8
102
}
330
18
100
AcDbEntity
  8
ROGO
 62
     4
100
AcDbLine
 10
322.7600217905179
 20
306.1268971250219
 30
0.0
 11
322.238038505964
 21
306.1268971250219
 31
0.0
  0
SPLINE
  5
601
102
{ACAD_REACTORS
330
5F8
102
}
330
18
100
AcDbEntity
  8
ROGO
 62
     4
100
AcDbSpline
210
0.0
220
0.0
230
1.0
 70
     8
 71
     3
 72
    15
 73
    11
 74
     9
 42
0.0000000001
 43
0.0000000001
 44
0.0000000001
 40
0.0
 40
0.0
 40
0.0
 40
0.0
 40
0.1979620751796092
 40
0.2882218927611821
 40
0.390672794493828
 40
0.4604671121752228
 40
0.570847549457819
 40
0.6369624161317818
 40
0.7503938621545029
 40
0.7882043682941406
 40
0.7882043682941406
 40
0.7882043682941406
 40
0.7882043682941406
 10
322.7600217905179
 20
306.1268971250219
 30
0.0
 10
322.8343725070225
 20
306.1272376909907
 30
0.0
 10
322.9426230606685
 20
306.1277335363088
 30
0.0
 10
323.0018183188518
 20
305.9938272883997
 30
0.0
 10
322.9752841816942
 20
305.9076125538656
 30
0.0
 10
322.9419286087206
 20
305.81909689269
 30
0.0
 10
322.8829817567375
 20
305.7589491659152
 30
0.0
 10
322.8038664472579
 20
305.7010167655246
 30
0.0
 10
322.7290986990436
 20
305.6940037890483
 30
0.0
 10
322.680470671793
 20
305.68111901175
 30
0.0
 10
322.6683136591611
 20
305.6778978158835
 30
0.0
 11
322.7600217905179
 21
306.1268971250219
 31
0.0
 11
322.9526090245692
 21
306.0810807470563
 31
0.0
 11
322.9892923825798
 21
305.9986115654493
 31
0.0
 11
322.9709509672444
 21
305.8978158326561
 31
0.0
 11
322.9434385805715
 21
305.8336729035043
 31
0.0
 11
322.87007186455
 21
305.7512037218974
 31
0.0
 11
322.8150470912039
 21
305.7145506195249
 31
0.0
 11
322.7049970171718
 21
305.6870610914766
 31
0.0
 11
322.6683136591611
 21
305.6778978158835
 31
0.0
  0
LINE
  5
602
102
{ACAD_REACTORS
330
5F8
102
}
330
18
100
AcDbEntity
  8
ROGO
 62
     4
100
AcDbLine
 10
322.238038505964
 20
306.1268971250219
 30
0.0
 11
322.0348984820759
 21
305.6778978158835
 31
0.0
  0
LINE
  5
603
102
{ACAD_REACTORS
330
5F8
102
}
330
18
100
AcDbEntity
  8
ROGO
 62
     4
100
AcDbLine
 10
322.9159261942958
 20
305.0914496715794
 30
0.0
 11
321.7695727062486
 21
305.0914496715794
 31
0.0
  0
LINE
  5
604
102
{ACAD_REACTORS
330
5F8
102
}
330
18
100
AcDbEntity
  8
ROGO
 62
     4
100
AcDbLine
 10
321.4188625490986
 20
306.7797788680104
 30
0.0
 11
320.1135404261222
 21
304.1416490017027
 31
0.0
  0
TEXT
  5
605
330
18
100
AcDbEntity
  8
文字
100
AcDbText
 10
325.5102812961226
 20
308.9800930391332
 30
0.0
 40
2.0
  1
T6-127
 51
10.0
  7
STYLE3
100
AcDbText
  0
HATCH
  5
606
330
18
100
AcDbEntity
  8
ROGO
 62
     4
100
AcDbHatch
 10
0.0
 20
0.0
 30
0.0
210
0.0
220
0.0
230
1.0
  2
SOLID
 70
     1
 71
     1
 91
        2
 92
        5
 93
        6
 72
     4
 94
        3
 73
     0
 74
     0
 95
       38
 96
       34
 40
0.0
 40
0.0
 40
0.0
 40
0.0
 40
0.2324160190625641
 40
0.3054076598660179
 40
0.3991969555208118
 40
0.4773548548861183
 40
0.5433001127836845
 40
0.6308904647837286
 40
0.6756456824938584
 40
0.7260518053353911
 40
0.8003409450195571
 40
0.884494420029689
 40
0.9390839551137702
 40
0.9983865037096219
 40
1.064308042580248
 40
1.164347318186099
 40
1.259395062462607
 40
1.303582284428296
 40
1.353971899974848
 40
1.413666953858189
 40
1.456162161198055
 40
1.491785383230425
 40
1.542647296663551
 40
1.598535826931799
 40
1.654424046021893
 40
1.703326315520178
 40
1.815321205179844
 40
1.859508427145426
 40
1.947882923564461
 40
2.026002047025105
 40
2.175555252260891
 40
2.360088422381767
 40
2.626581173122162
 40
2.626581173122162
 40
2.626581173122162
 40
2.626581173122162
 10
333.4584253954993
 20
306.7868210069463
 10
333.3809541699806
 20
306.7813482109595
 10
333.2791526427535
 20
306.7741566506617
 10
333.1498885066695
 20
306.7387421312554
 10
333.0794252509599
 20
306.6965520348095
 10
333.0060941492662
 20
306.6655402916231
 10
332.9435725553426
 20
306.6196180497312
 10
332.8803332830192
 20
306.5959547609113
 10
332.8360512086791
 20
306.5532856215748
 10
332.784798319651
 20
306.5272214696357
 10
332.7439847341484
 20
306.4688823201885
 10
332.6983667214648
 20
306.4143373294848
 10
332.6454440877985
 20
306.3745219188852
 10
332.6020097720792
 20
306.3327040887908
 10
332.5621648268909
 20
306.2681666121256
 10
332.5385828050137
 20
306.1824154161014
 10
332.4721090436302
 20
306.128275203449
 10
332.4621001764377
 20
306.0631825135797
 10
332.4253315119004
 20
306.024778921906
 10
332.4093432105999
 20
305.975205402211
 10
332.4032540958693
 20
305.9297873016558
 10
332.3959457062433
 20
305.8873699398195
 10
332.3768283430871
 20
305.8427487488708
 10
332.3830683163805
 20
305.7876298188115
 10
332.3812907353261
 20
305.7342563293487
 10
332.3823368438634
 20
305.6622004565629
 10
332.3785612932754
 20
305.5920452033805
 10
332.408669829652
 20
305.5156996483067
 10
332.4264870622842
 20
305.4476481480213
 10
332.4752824522117
 20
305.3534225936979
 10
332.5594534772634
 20
305.2447066775008
 10
332.719511722143
 20
305.1127461532672
 10
332.8734124042907
 20
305.0993593723449
 10
332.9643460163723
 20
305.0914496715794
 72
     1
 10
332.9643460163724
 20
305.0914496715794
 11
333.929215217611
 21
305.0914496715794
 72
     4
 94
        3
 73
     0
 74
     0
 95
       11
 96
        7
 40
0.1647869275458135
 40
0.1647869275458135
 40
0.1647869275458135
 40
0.1647869275458135
 40
0.2545010798212315
 40
0.5111620267764023
 40
0.7602998271033902
 40
0.8850764140209603
 40
0.8850764140209603
 40
0.8850764140209603
 40
0.8850764140209603
 10
333.9292152176107
 20
305.0914496715794
 10
333.9426790894506
 20
305.0911901943241
 10
333.994661411373
 20
305.0901883851583
 10
334.0834998226398
 20
305.1029510673385
 10
334.1769696661031
 20
305.1151812886757
 10
334.2326938236613
 20
305.1240881898265
 10
334.2506662358338
 20
305.1290908176047
 72
     4
 94
        3
 73
     0
 74
     0
 95
        9
 96
        5
 40
0.0
 40
0.0
 40
0.0
 40
0.0
 40
0.146030572742497
 40
0.3423777932799819
 40
0.3423777932799819
 40
0.3423777932799819
 40
0.3423777932799819
 10
334.2506662358338
 20
305.1290908176047
 10
334.2975754808141
 20
305.1434423972489
 10
334.4075571338279
 20
305.1770905715754
 10
334.4984271731324
 20
305.248206408714
 10
334.5505394304042
 20
305.2889900028384
 72
     4
 94
        3
 73
     0
 74
     0
 95
       25
 96
       21
 40
0.0
 40
0.0
 40
0.0
 40
0.0
 40
0.165525918914855
 40
0.3412380755365305
 40
0.5940540902285263
 40
0.7697671103696209
 40
0.9377330196075423
 40
1.11479469302833
 40
1.274661249598185
 40
1.574522170874768
 40
1.815540668866877
 40
2.15849091873445
 40
2.536227739636605
 40
2.738070817316548
 40
2.925680654369045
 40
3.162706124480894
 40
3.395643218188267
 40
3.648478129958861
 40
3.928509979727306
 40
4.337226830236035
 40
4.337226830236035
 40
4.337226830236035
 40
4.337226830236035
 10
334.5505394304042
 20
305.2889900028384
 10
334.5696871327676
 20
305.30481295934
 10
334.6060050890155
 20
305.3424459749108
 10
334.670420964695
 20
305.403440708489
 10
334.7271854558751
 20
305.4745044133584
 10
334.7972085425115
 20
305.5320990556243
 10
334.8336623424901
 20
305.602512775214
 10
334.8862076175955
 20
305.6578916658556
 10
334.9302844990607
 20
305.7434188998435
 10
334.9676815545321
 20
305.841662597886
 10
335.0033344830289
 20
305.969721391219
 10
335.0169970530331
 20
306.1141907451347
 10
334.9967747503439
 20
306.253964772546
 10
334.9479227790478
 20
306.3584412668078
 10
334.9120074294873
 20
306.4455116570926
 10
334.8575013869471
 20
306.5279826475347
 10
334.7953173592691
 20
306.6176789699643
 10
334.7077110754357
 20
306.6918723500836
 10
334.5932186572086
 20
306.7813615221379
 10
334.4865775187133
 20
306.7847877919313
 10
334.4232945967376
 20
306.7868210069463
 72
     1
 10
334.4232945967376
 20
306.7868210069463
 11
333.4584253954992
 21
306.7868210069463
 97
        6
330
631
330
608
330
60C
330
60B
330
60A
330
607
 92
       20
 93
        1
 72
     3
 10
333.6801576171673
 20
305.915497588379
 11
0.2292231973722778
 21
0.2015731185223643
 40
0.6788083417438792
 50
0.0
 51
360.0
 73
     1
 97
        1
330
609
 75
     0
 76
     1
 47
0.088756267210375
 98
        2
 10
333.7475692574413
 20
306.3185526502242
 10
333.7475692574413
 20
306.3185526502242
450
        0
451
        0
460
0.0
461
0.0
452
        0
462
0.0
453
        0
470

  0
SPLINE
  5
607
102
{ACAD_REACTORS
330
606
102
}
330
18
100
AcDbEntity
  8
ROGO
 62
     4
100
AcDbSpline
210
0.0
220
0.0
230
1.0
 70
     8
 71
     3
 72
     9
 73
     5
 74
     3
 42
0.0000000001
 43
0.0000000001
 44
0.0000000001
 40
0.0
 40
0.0
 40
0.0
 40
0.0
 40
0.146030572742497
 40
0.3423777932799819
 40
0.3423777932799819
 40
0.3423777932799819
 40
0.3423777932799819
 10
334.2506662358338
 20
305.1290908176047
 30
0.0
 10
334.2975754808141
 20
305.1434423972489
 30
0.0
 10
334.4075571338279
 20
305.1770905715754
 30
0.0
 10
334.4984271731324
 20
305.248206408714
 30
0.0
 10
334.5505394304042
 20
305.2889900028384
 30
0.0
 11
334.2506662358338
 21
305.1290908176047
 31
0.0
 11
334.3879172184085
 21
305.1789616102372
 31
0.0
 11
334.5505394304042
 21
305.2889900028384
 31
0.0
  0
LINE
  5
608
102
{ACAD_REACTORS
330
606
102
}
330
18
100
AcDbEntity
  8
ROGO
 62
     4
100
AcDbLine
 10
333.4584253954993
 20
306.7868210069463
 30
0.0
 11
334.4232945967376
 21
306.7868210069463
 31
0.0
  0
ELLIPSE
  5
609
102
{ACAD_REACTORS
330
606
102
}
330
18
100
AcDbEntity
  8
ROGO
 62
     4
100
AcDbEllipse
 10
333.6801576171673
 20
305.915497588379
 30
0.0
 11
0.2292231973722778
 21
0.2015731185223643
 31
0.0
210
0.0
220
0.0
230
1.0
 40
0.6788083417438792
 41
0.0
 42
6.283185307179586
  0
SPLINE
  5
60A
102
{ACAD_REACTORS
330
606
102
}
330
18
100
AcDbEntity
  8
ROGO
 62
     4
100
AcDbSpline
210
0.0
220
0.0
230
1.0
 70
     8
 71
     3
 72
    11
 73
     7
 74
     0
 42
0.0000000001
 43
0.0000000001
 40
0.1647869275458134
 40
0.1647869275458134
 40
0.1647869275458134
 40
0.1647869275458134
 40
0.2895635144633836
 40
0.5387013147903714
 40
0.7953622617455423
 40
0.8850764140209602
 40
0.8850764140209602
 40
0.8850764140209602
 40
0.8850764140209602
 10
334.2506662358338
 20
305.1290908176047
 30
0.0
 10
334.2326938236613
 20
305.1240881898265
 30
0.0
 10
334.1769696661031
 20
305.1151812886757
 30
0.0
 10
334.0834998226398
 20
305.1029510673385
 30
0.0
 10
333.994661411373
 20
305.0901883851583
 30
0.0
 10
333.9426790894506
 20
305.0911901943241
 30
0.0
 10
333.9292152176107
 20
305.0914496715794
 30
0.0
  0
LINE
  5
60B
102
{ACAD_REACTORS
330
606
102
}
330
18
100
AcDbEntity
  8
ROGO
 62
     4
100
AcDbLine
 10
332.9643460163723
 20
305.0914496715794
 30
0.0
 11
333.9292152176107
 21
305.0914496715794
 31
0.0
  0
SPLINE
  5
60C
102
{ACAD_REACTORS
330
606
102
}
330
18
100
AcDbEntity
  8
ROGO
 62
     4
100
AcDbSpline
210
0.0
220
0.0
230
1.0
 70
     8
 71
     3
 72
    38
 73
    34
 74
    32
 42
0.0000000001
 43
0.0000000001
 44
0.0000000001
 40
0.0
 40
0.0
 40
0.0
 40
0.0
 40
0.2324160190625641
 40
0.3054076598660179
 40
0.3991969555208118
 40
0.4773548548861183
 40
0.5433001127836845
 40
0.6308904647837286
 40
0.6756456824938584
 40
0.7260518053353911
 40
0.8003409450195571
 40
0.884494420029689
 40
0.9390839551137702
 40
0.9983865037096219
 40
1.064308042580248
 40
1.164347318186099
 40
1.259395062462607
 40
1.303582284428296
 40
1.353971899974848
 40
1.413666953858189
 40
1.456162161198055
 40
1.491785383230425
 40
1.542647296663551
 40
1.598535826931799
 40
1.654424046021893
 40
1.703326315520178
 40
1.815321205179844
 40
1.859508427145426
 40
1.947882923564461
 40
2.026002047025105
 40
2.175555252260891
 40
2.360088422381767
 40
2.626581173122162
 40
2.626581173122162
 40
2.626581173122162
 40
2.626581173122162
 10
333.4584253954993
 20
306.7868210069463
 30
0.0
 10
333.3809541699806
 20
306.7813482109595
 30
0.0
 10
333.2791526427535
 20
306.7741566506617
 30
0.0
 10
333.1498885066695
 20
306.7387421312554
 30
0.0
 10
333.0794252509599
 20
306.6965520348095
 30
0.0
 10
333.0060941492662
 20
306.6655402916231
 30
0.0
 10
332.9435725553426
 20
306.6196180497312
 30
0.0
 10
332.8803332830192
 20
306.5959547609113
 30
0.0
 10
332.8360512086791
 20
306.5532856215748
 30
0.0
 10
332.784798319651
 20
306.5272214696357
 30
0.0
 10
332.7439847341484
 20
306.4688823201885
 30
0.0
 10
332.6983667214648
 20
306.4143373294848
 30
0.0
 10
332.6454440877985
 20
306.3745219188852
 30
0.0
 10
332.6020097720792
 20
306.3327040887908
 30
0.0
 10
332.5621648268909
 20
306.2681666121256
 30
0.0
 10
332.5385828050137
 20
306.1824154161014
 30
0.0
 10
332.4721090436302
 20
306.128275203449
 30
0.0
 10
332.4621001764377
 20
306.0631825135797
 30
0.0
 10
332.4253315119004
 20
306.024778921906
 30
0.0
 10
332.4093432105999
 20
305.975205402211
 30
0.0
 10
332.4032540958693
 20
305.9297873016558
 30
0.0
 10
332.3959457062433
 20
305.8873699398195
 30
0.0
 10
332.3768283430871
 20
305.8427487488708
 30
0.0
 10
332.3830683163805
 20
305.7876298188115
 30
0.0
 10
332.3812907353261
 20
305.7342563293487
 30
0.0
 10
332.3823368438634
 20
305.6622004565629
 30
0.0
 10
332.3785612932754
 20
305.5920452033805
 30
0.0
 10
332.408669829652
 20
305.5156996483067
 30
0.0
 10
332.4264870622842
 20
305.4476481480213
 30
0.0
 10
332.4752824522117
 20
305.3534225936979
 30
0.0
 10
332.5594534772634
 20
305.2447066775008
 30
0.0
 10
332.719511722143
 20
305.1127461532672
 30
0.0
 10
332.8734124042907
 20
305.0993593723449
 30
0.0
 10
332.9643460163723
 20
305.0914496715794
 30
0.0
 11
333.4584253954993
 21
306.7868210069463
 31
0.0
 11
333.2276954337099
 21
306.7588765862231
 31
0.0
 11
333.1577772801165
 21
306.737918737448
 31
0.0
 11
333.0738758253919
 21
306.6960024175413
 31
0.0
 11
333.0039576717986
 21
306.6610723584046
 31
0.0
 11
332.9480233686489
 21
306.6261419880897
 31
0.0
 11
332.87111356449
 21
306.5842259793612
 31
0.0
 11
332.836154213037
 21
306.5562818698161
 31
0.0
 11
332.7942032110185
 21
306.5283374490929
 31
0.0
 11
332.7452605584344
 21
306.4724492300029
 31
0.0
 11
332.6893262552848
 21
306.409575061321
 31
0.0
 11
332.6473752532662
 21
306.3746446910061
 31
0.0
 11
332.6054248005602
 21
306.3327286822777
 31
0.0
 11
332.5704654491072
 21
306.2768404631876
 31
0.0
 11
332.5285149964013
 21
306.1860218737826
 31
0.0
 11
332.472580143939
 21
306.1091754947392
 31
0.0
 11
332.4585968428079
 21
306.0672591748325
 31
0.0
 11
332.4306296912331
 21
306.0253431661041
 31
0.0
 11
332.4096541902238
 21
305.9694546358358
 31
0.0
 11
332.4026619903457
 21
305.9275386271074
 31
0.0
 11
332.3956703397801
 21
305.8926082567925
 31
0.0
 11
332.3816870386489
 21
305.8437062984723
 31
0.0
 11
332.3816870386489
 21
305.787817768204
 31
0.0
 11
332.3816870386489
 21
305.731929549114
 31
0.0
 11
332.3816870386489
 21
305.6830272796156
 31
0.0
 11
332.3886786892146
 21
305.5712508414355
 31
0.0
 11
332.4026619903457
 21
305.5293345215289
 31
0.0
 11
332.4306296912331
 21
305.4455021928938
 31
0.0
 11
332.4655884933735
 21
305.3756417634421
 31
0.0
 11
332.5564821479761
 21
305.2568793756702
 31
0.0
 11
332.7033101057285
 21
305.1451026263119
 31
0.0
 11
332.9643460163723
 21
305.0914496715794
 31
0.0
  0
HATCH
  5
60D
330
18
100
AcDbEntity
  8
ROGO
 62
     4
100
AcDbHatch
 10
0.0
 20
0.0
 30
0.0
210
0.0
220
0.0
230
1.0
  2
SOLID
 70
     1
 71
     1
 91
        2
 92
        7
 72
     0
 73
     1
 93
        8
 10
329.0124238096406
 20
306.7797788680105
 10
327.6619050460772
 20
306.7797788680104
 10
326.4444180502354
 20
305.0914496715794
 10
327.3794502309817
 20
305.0914496715795
 10
327.6112522221573
 20
305.4128971045533
 10
328.6782369220227
 20
305.4128971045533
 10
328.8210366088258
 20
305.0914496715794
 10
329.7624465372761
 20
305.0914496715795
 97
        8
330
61D
330
623
330
61E
330
61F
330
621
330
60E
330
61C
330
610
 92
       22
 72
     0
 73
     1
 93
        3
 10
328.5276217862507
 20
305.7519374053054
 10
327.8557407722009
 20
305.7519374053054
 10
328.2714980046037
 20
306.3284816119297
 97
        3
330
620
330
622
330
60F
 75
     0
 76
     1
 47
0.0128389261915577
 98
        2
 10
328.9066675192888
 20
306.3747249749703
 10
328.9066675192888
 20
306.3747249749703
450
        0
451
        0
460
0.0
461
0.0
452
        0
462
0.0
453
        0
470

  0
LINE
  5
60E
102
{ACAD_REACTORS
330
60D
102
}
330
18
100
AcDbEntity
  8
ROGO
 62
     4
100
AcDbLine
 10
328.6782369220227
 20
305.4128971045533
 30
0.0
 11
328.8210366088257
 21
305.0914496715794
 31
0.0
  0
LINE
  5
60F
102
{ACAD_REACTORS
330
60D
102
}
330
18
100
AcDbEntity
  8
ROGO
 62
     4
100
AcDbLine
 10
328.2714980046037
 20
306.3284816119296
 30
0.0
 11
328.5276217862506
 21
305.7519374053054
 31
0.0
  0
LINE
  5
610
102
{ACAD_REACTORS
330
60D
102
}
330
18
100
AcDbEntity
  8
ROGO
 62
     4
100
AcDbLine
 10
329.0124238096405
 20
306.7797788680104
 30
0.0
 11
329.7624465372762
 21
305.0914496715794
 31
0.0
  0
HATCH
  5
611
330
18
100
AcDbEntity
  8
ROGO
 62
     4
100
AcDbHatch
 10
0.0
 20
0.0
 30
0.0
210
0.0
220
0.0
230
1.0
  2
SOLID
 70
     1
 71
     1
 91
        1
 92
        5
 93
        8
 72
     1
 10
332.2076251690349
 20
306.1516109437317
 11
332.5208499840158
 21
306.7797788680106
 72
     1
 10
332.5208499840158
 20
306.7797788680106
 11
330.8300889727367
 21
306.7797788680106
 72
     4
 94
        3
 73
     0
 74
     0
 95
       26
 96
       22
 40
0.0
 40
0.0
 40
0.0
 40
0.0
 40
0.306282258847545
 40
0.5113145150563467
 40
0.6591594689727181
 40
0.7695505122602936
 40
0.9127334891892449
 40
1.017243103820777
 40
1.205963108812785
 40
1.359578479722587
 40
1.464061546148638
 40
1.566512542290269
 40
1.749777456690453
 40
1.879367624743226
 40
1.949161942424621
 40
2.048302708997833
 40
2.119894481049029
 40
2.223607322578598
 40
2.282299819925661
 40
2.410021277698012
 40
2.468340004823004
 40
2.468340004823004
 40
2.468340004823004
 40
2.468340004823004
 10
330.8300889727362
 20
306.7797788680104
 10
330.7261320417608
 20
306.773576619241
 10
330.5525839951047
 20
306.7632224451738
 10
330.3620292956181
 20
306.6474625116417
 10
330.2224177670906
 20
306.5801647733444
 10
330.1228469942594
 20
306.488679231519
 10
330.0498612141441
 20
306.3941813497061
 10
329.9578489366757
 20
306.2815878164017
 10
329.8828155536539
 20
306.1504772030902
 10
329.8446056132541
 20
306.0059704502947
 10
329.8107596106995
 20
305.8907977298617
 10
329.7856588485913
 20
305.7624527632857
 10
329.792045193065
 20
305.6237950499855
 10
329.8011907306309
 20
305.4950168644093
 10
329.8420233319616
 20
305.4030885206464
 10
329.8885244321774
 20
305.3376418745945
 10
329.9454643925622
 20
305.265559649696
 10
330.0077691609705
 20
305.2178198255572
 10
330.0593002901126
 20
305.1313359260906
 10
330.1495037933072
 20
305.1202999567927
 10
330.2068407285475
 20
305.0983350840938
 10
330.2248143565694
 20
305.0914496715794
 72
     1
 10
330.2248143565693
 20
305.0914496715794
 11
331.6789945187181
 21
305.0914496715795
 72
     1
 10
331.6789945187181
 20
305.0914496715795
 11
331.9922160167338
 21
305.7196109437315
 72
     1
 10
331.9922160167338
 20
305.7196109437315
 11
330.9126261327553
 21
305.7196109437317
 72
     4
 94
        3
 73
     0
 74
     0
 95
       16
 96
       12
 40
0.0
 40
0.0
 40
0.0
 40
0.0
 40
0.092496428386945
 40
0.1859468902404647
 40
0.2416858907028242
 40
0.2951281203562815
 40
0.3538203845089407
 40
0.3948066843496557
 40
0.4336991257336609
 40
0.512567413098898
 40
0.6740411735369377
 40
0.6740411735369377
 40
0.6740411735369377
 40
0.6740411735369377
 10
330.9126261327553
 20
305.7196109437316
 10
330.8800618973203
 20
305.7291918192741
 10
330.8145975500173
 20
305.7484523901304
 10
330.8091187127843
 20
305.8418205618782
 10
330.8165828358641
 20
305.9083530245402
 10
330.8478425999918
 20
305.9567925426037
 10
330.8857661158129
 20
305.9920386653637
 10
330.8998867227073
 20
306.0379412293123
 10
330.9413929601528
 20
306.0726034080049
 10
331.0149946405126
 20
306.1308656884024
 10
331.0963853577844
 20
306.1432742523408
 10
331.1510676961549
 20
306.1516109437316
 72
     1
 10
331.1510676961549
 20
306.1516109437316
 11
332.2076251690349
 21
306.1516109437317
 97
        8
330
614
330
617
330
61B
330
615
330
618
330
616
330
619
330
61A
 75
     0
 76
     1
 47
0.0514683685270805
 98
        1
 10
331.4214106977166
 20
306.4039369955643
450
        0
451
        0
460
0.0
461
0.0
452
        0
462
0.0
453
        0
470

  0
HATCH
  5
612
330
18
100
AcDbEntity
  8
ROGO
 62
     4
100
AcDbHatch
 10
0.0
 20
0.0
 30
0.0
210
0.0
220
0.0
230
1.0
  2
SOLID
 70
     1
 71
     1
 91
        1
 92
        1
 93
       12
 72
     1
 10
324.7168769427723
 20
306.7797788680104
 11
327.0004124193945
 21
306.7797788680106
 72
     1
 10
327.0004124193945
 20
306.7797788680104
 11
326.8090541677358
 21
306.3930330142635
 72
     1
 10
326.8090541677358
 20
306.3930330142635
 11
325.608885624884
 21
306.3930330142635
 72
     1
 10
325.608885624884
 20
306.3930330142635
 11
325.4592672513571
 21
306.0906458158838
 72
     1
 10
325.4592672513571
 20
306.0906458158838
 11
326.6594357942088
 21
306.0906458158838
 72
     1
 10
326.6594357942088
 20
306.0906458158838
 11
326.5060161684067
 21
305.7805760715794
 72
     1
 10
326.5060161684067
 20
305.7805760715795
 11
325.3058476255551
 21
305.7805760715794
 72
     1
 10
325.3058476255551
 20
305.7805760715794
 11
325.1562229179054
 21
305.4781760715794
 72
     1
 10
325.1562229179054
 20
305.4781760715794
 11
326.3563914607571
 21
305.4781760715794
 72
     1
 10
326.3563914607571
 20
305.4781760715794
 11
326.1650428346314
 21
305.0914496715794
 72
     1
 10
326.1650428346314
 20
305.0914496715794
 11
323.8815073580093
 21
305.0914496715794
 72
     1
 10
323.8815073580093
 20
305.0914496715794
 11
324.7168769427723
 21
306.7797788680104
 97
       12
330
613
330
62D
330
62A
330
62B
330
629
330
626
330
627
330
624
330
628
330
625
330
62C
330
62E
 75
     0
 76
     1
 98
        1
 10
231.3095682558607
 20
190.0393696632959
450
        0
451
        0
460
0.0
461
0.0
452
        0
462
0.0
453
        0
470

  0
LINE
  5
613
102
{ACAD_REACTORS
330
612
102
}
330
18
100
AcDbEntity
  8
ROGO
 62
     4
100
AcDbLine
 10
324.7168769427723
 20
306.7797788680104
 30
0.0
 11
327.0004124193945
 21
306.7797788680106
 31
0.0
  0
LINE
  5
614
102
{ACAD_REACTORS
330
611
102
}
330
18
100
AcDbEntity
  8
ROGO
 62
     4
100
AcDbLine
 10
330.8300889727367
 20
306.7797788680106
 30
0.0
 11
332.5208499840158
 21
306.7797788680106
 31
0.0
  0
LINE
  5
615
102
{ACAD_REACTORS
330
611
102
}
330
18
100
AcDbEntity
  8
ROGO
 62
     4
100
AcDbLine
 10
331.9922160167338
 20
305.7196109437316
 30
0.0
 11
331.6789945187181
 21
305.0914496715794
 31
0.0
  0
SPLINE
  5
616
102
{ACAD_REACTORS
330
611
102
}
330
18
100
AcDbEntity
  8
ROGO
 62
     4
100
AcDbSpline
210
0.0
220
0.0
230
1.0
 70
     8
 71
     3
 72
    16
 73
    12
 74
    10
 42
0.0000000001
 43
0.0000000001
 44
0.0000000001
 40
0.0
 40
0.0
 40
0.0
 40
0.0
 40
0.1614737604380397
 40
0.2403420478032769
 40
0.279234489187282
 40
0.320220789027997
 40
0.3789130531806562
 40
0.4323552828341136
 40
0.488094283296473
 40
0.5815447451499928
 40
0.6740411735369377
 40
0.6740411735369377
 40
0.6740411735369377
 40
0.6740411735369377
 10
331.1510676961549
 20
306.1516109437316
 30
0.0
 10
331.0963853577844
 20
306.1432742523408
 30
0.0
 10
331.0149946405126
 20
306.1308656884024
 30
0.0
 10
330.9413929601528
 20
306.0726034080049
 30
0.0
 10
330.8998867227073
 20
306.0379412293123
 30
0.0
 10
330.8857661158129
 20
305.9920386653637
 30
0.0
 10
330.8478425999918
 20
305.9567925426037
 30
0.0
 10
330.8165828358641
 20
305.9083530245402
 30
0.0
 10
330.8091187127843
 20
305.8418205618782
 30
0.0
 10
330.8145975500173
 20
305.7484523901304
 30
0.0
 10
330.8800618973203
 20
305.7291918192741
 30
0.0
 10
330.9126261327553
 20
305.7196109437316
 30
0.0
 11
331.1510676961549
 21
306.1516109437316
 31
0.0
 11
330.9951638201144
 21
306.1095662443564
 31
0.0
 11
330.9309680754306
 21
306.0637501651219
 31
0.0
 11
330.9034556887576
 21
306.0362603383425
 31
0.0
 11
330.8851137460823
 21
305.9996072359699
 31
0.0
 11
330.8484303880715
 21
305.9537911567355
 31
0.0
 11
330.8209180013985
 21
305.9079747787699
 31
0.0
 11
330.8117470300607
 21
305.8529954239423
 31
0.0
 11
330.8300889727362
 21
305.7613626680112
 31
0.0
 11
330.9126261327553
 21
305.7196109437316
 31
0.0
  0
SPLINE
  5
617
102
{ACAD_REACTORS
330
611
102
}
330
18
100
AcDbEntity
  8
ROGO
 62
     4
100
AcDbSpline
210
0.0
220
0.0
230
1.0
 70
     8
 71
     3
 72
    26
 73
    22
 74
    20
 42
0.0000000001
 43
0.0000000001
 44
0.0000000001
 40
0.0
 40
0.0
 40
0.0
 40
0.0
 40
0.306282258847545
 40
0.5113145150563467
 40
0.6591594689727181
 40
0.7695505122602936
 40
0.9127334891892449
 40
1.017243103820777
 40
1.205963108812785
 40
1.359578479722587
 40
1.464061546148638
 40
1.566512542290269
 40
1.749777456690453
 40
1.879367624743226
 40
1.949161942424621
 40
2.048302708997833
 40
2.119894481049029
 40
2.223607322578598
 40
2.282299819925661
 40
2.410021277698012
 40
2.468340004823004
 40
2.468340004823004
 40
2.468340004823004
 40
2.468340004823004
 10
330.8300889727362
 20
306.7797788680104
 30
0.0
 10
330.7261320417608
 20
306.773576619241
 30
0.0
 10
330.5525839951047
 20
306.7632224451738
 30
0.0
 10
330.3620292956181
 20
306.6474625116417
 30
0.0
 10
330.2224177670906
 20
306.5801647733444
 30
0.0
 10
330.1228469942594
 20
306.488679231519
 30
0.0
 10
330.0498612141441
 20
306.3941813497061
 30
0.0
 10
329.9578489366757
 20
306.2815878164017
 30
0.0
 10
329.8828155536539
 20
306.1504772030902
 30
0.0
 10
329.8446056132541
 20
306.0059704502947
 30
0.0
 10
329.8107596106995
 20
305.8907977298617
 30
0.0
 10
329.7856588485913
 20
305.7624527632857
 30
0.0
 10
329.792045193065
 20
305.6237950499855
 30
0.0
 10
329.8011907306309
 20
305.4950168644093
 30
0.0
 10
329.8420233319616
 20
305.4030885206464
 30
0.0
 10
329.8885244321774
 20
305.3376418745945
 30
0.0
 10
329.9454643925622
 20
305.265559649696
 30
0.0
 10
330.0077691609705
 20
305.2178198255572
 30
0.0
 10
330.0593002901126
 20
305.1313359260906
 30
0.0
 10
330.1495037933072
 20
305.1202999567927
 30
0.0
 10
330.2068407285475
 20
305.0983350840938
 30
0.0
 10
330.2248143565694
 20
305.0914496715794
 30
0.0
 11
330.8300889727362
 21
306.7797788680104
 31
0.0
 11
330.5274516646528
 21
306.7326674910328
 31
0.0
 11
330.3440348745992
 21
306.6410350338327
 31
0.0
 11
330.2156433852316
 21
306.5677291278189
 31
0.0
 11
330.1331062252125
 21
306.494422923074
 31
0.0
 11
330.0413980938558
 21
306.3844639146877
 31
0.0
 11
329.977202349172
 21
306.3019947330807
 31
0.0
 11
329.8854936904752
 21
306.1370560711357
 31
0.0
 11
329.8396398884668
 21
305.990443960377
 31
0.0
 11
329.8121275017938
 21
305.8896482275836
 31
0.0
 11
329.7937855591184
 21
305.7888524947905
 31
0.0
 11
329.7937855591184
 21
305.6055875803903
 31
0.0
 11
329.8121275017938
 21
305.4773020208178
 31
0.0
 11
329.8396398884668
 21
305.413159091666
 31
0.0
 11
329.8946646618128
 21
305.330689910059
 31
0.0
 11
329.9405189911613
 21
305.2757102565002
 31
0.0
 11
330.0138851798426
 21
305.2024043504864
 31
0.0
 11
330.0505685378535
 21
305.1565879725208
 31
0.0
 11
330.1697895832233
 21
305.1107718932864
 31
0.0
 11
330.2248143565694
 21
305.0914496715794
 31
0.0
  0
LINE
  5
618
102
{ACAD_REACTORS
330
611
102
}
330
18
100
AcDbEntity
  8
ROGO
 62
     4
100
AcDbLine
 10
330.9126261327552
 20
305.7196109437316
 30
0.0
 11
331.9922160167338
 21
305.7196109437316
 31
0.0
  0
LINE
  5
619
102
{ACAD_REACTORS
330
611
102
}
330
18
100
AcDbEntity
  8
ROGO
 62
     4
100
AcDbLine
 10
331.1510676961549
 20
306.1516109437316
 30
0.0
 11
332.2076251690349
 21
306.1516109437317
 31
0.0
  0
LINE
  5
61A
102
{ACAD_REACTORS
330
611
102
}
330
18
100
AcDbEntity
  8
ROGO
 62
     4
100
AcDbLine
 10
332.5208499840158
 20
306.7797788680104
 30
0.0
 11
332.2076251690349
 21
306.1516109437316
 31
0.0
  0
LINE
  5
61B
102
{ACAD_REACTORS
330
611
102
}
330
18
100
AcDbEntity
  8
ROGO
 62
     4
100
AcDbLine
 10
330.2248143565693
 20
305.0914496715794
 30
0.0
 11
331.6789945187181
 21
305.0914496715794
 31
0.0
  0
LINE
  5
61C
102
{ACAD_REACTORS
330
60D
102
}
330
18
100
AcDbEntity
  8
ROGO
 62
     4
100
AcDbLine
 10
329.7624465372762
 20
305.0914496715795
 30
0.0
 11
328.8210366088257
 21
305.0914496715794
 31
0.0
  0
LINE
  5
61D
102
{ACAD_REACTORS
330
60D
102
}
330
18
100
AcDbEntity
  8
ROGO
 62
     4
100
AcDbLine
 10
327.6619050460772
 20
306.7797788680104
 30
0.0
 11
329.0124238096405
 21
306.7797788680104
 31
0.0
  0
LINE
  5
61E
102
{ACAD_REACTORS
330
60D
102
}
330
18
100
AcDbEntity
  8
ROGO
 62
     4
100
AcDbLine
 10
326.4444180502354
 20
305.0914496715794
 30
0.0
 11
327.3794502309818
 21
305.0914496715794
 31
0.0
  0
LINE
  5
61F
102
{ACAD_REACTORS
330
60D
102
}
330
18
100
AcDbEntity
  8
ROGO
 62
     4
100
AcDbLine
 10
327.6112522221572
 20
305.4128971045533
 30
0.0
 11
327.3794502309818
 21
305.0914496715795
 31
0.0
  0
LINE
  5
620
102
{ACAD_REACTORS
330
60D
102
}
330
18
100
AcDbEntity
  8
ROGO
 62
     4
100
AcDbLine
 10
327.855740772201
 20
305.7519374053054
 30
0.0
 11
328.5276217862506
 21
305.7519374053054
 31
0.0
  0
LINE
  5
621
102
{ACAD_REACTORS
330
60D
102
}
330
18
100
AcDbEntity
  8
ROGO
 62
     4
100
AcDbLine
 10
327.6112522221572
 20
305.4128971045533
 30
0.0
 11
328.6782369220227
 21
305.4128971045533
 31
0.0
  0
LINE
  5
622
102
{ACAD_REACTORS
330
60D
102
}
330
18
100
AcDbEntity
  8
ROGO
 62
     4
100
AcDbLine
 10
328.2714980046036
 20
306.3284816119296
 30
0.0
 11
327.8557407722009
 21
305.7519374053054
 31
0.0
  0
LINE
  5
623
102
{ACAD_REACTORS
330
60D
102
}
330
18
100
AcDbEntity
  8
ROGO
 62
     4
100
AcDbLine
 10
327.6619050460772
 20
306.7797788680104
 30
0.0
 11
326.4444180502354
 21
305.0914496715794
 31
0.0
  0
LINE
  5
624
102
{ACAD_REACTORS
330
612
102
}
330
18
100
AcDbEntity
  8
ROGO
 62
     4
100
AcDbLine
 10
325.3058476255551
 20
305.7805760715794
 30
0.0
 11
325.1562229179054
 21
305.4781760715794
 31
0.0
  0
LINE
  5
625
102
{ACAD_REACTORS
330
612
102
}
330
18
100
AcDbEntity
  8
ROGO
 62
     4
100
AcDbLine
 10
326.3563914607571
 20
305.4781760715794
 30
0.0
 11
326.1650428346314
 21
305.0914496715794
 31
0.0
  0
LINE
  5
626
102
{ACAD_REACTORS
330
612
102
}
330
18
100
AcDbEntity
  8
ROGO
 62
     4
100
AcDbLine
 10
326.6594357942088
 20
306.0906458158838
 30
0.0
 11
326.5060161684067
 21
305.7805760715794
 31
0.0
  0
LINE
  5
627
102
{ACAD_REACTORS
330
612
102
}
330
18
100
AcDbEntity
  8
ROGO
 62
     4
100
AcDbLine
 10
325.3058476255551
 20
305.7805760715794
 30
0.0
 11
326.5060161684067
 21
305.7805760715795
 31
0.0
  0
LINE
  5
628
102
{ACAD_REACTORS
330
612
102
}
330
18
100
AcDbEntity
  8
ROGO
 62
     4
100
AcDbLine
 10
325.1562229179054
 20
305.4781760715794
 30
0.0
 11
326.3563914607571
 21
305.4781760715794
 31
0.0
  0
LINE
  5
629
102
{ACAD_REACTORS
330
612
102
}
330
18
100
AcDbEntity
  8
ROGO
 62
     4
100
AcDbLine
 10
325.4592672513571
 20
306.0906458158838
 30
0.0
 11
326.6594357942088
 21
306.0906458158838
 31
0.0
  0
LINE
  5
62A
102
{ACAD_REACTORS
330
612
102
}
330
18
100
AcDbEntity
  8
ROGO
 62
     4
100
AcDbLine
 10
325.608885624884
 20
306.3930330142635
 30
0.0
 11
326.8090541677358
 21
306.3930330142635
 31
0.0
  0
LINE
  5
62B
102
{ACAD_REACTORS
330
612
102
}
330
18
100
AcDbEntity
  8
ROGO
 62
     4
100
AcDbLine
 10
325.608885624884
 20
306.3930330142635
 30
0.0
 11
325.4592672513571
 21
306.0906458158838
 31
0.0
  0
LINE
  5
62C
102
{ACAD_REACTORS
330
612
102
}
330
18
100
AcDbEntity
  8
ROGO
 62
     4
100
AcDbLine
 10
323.8815073580093
 20
305.0914496715794
 30
0.0
 11
326.1650428346314
 21
305.0914496715794
 31
0.0
  0
LINE
  5
62D
102
{ACAD_REACTORS
330
612
102
}
330
18
100
AcDbEntity
  8
ROGO
 62
     4
100
AcDbLine
 10
327.0004124193945
 20
306.7797788680104
 30
0.0
 11
326.8090541677358
 21
306.3930330142635
 31
0.0
  0
LINE
  5
62E
102
{ACAD_REACTORS
330
612
102
}
330
18
100
AcDbEntity
  8
ROGO
 62
     4
100
AcDbLine
 10
324.7168769427723
 20
306.7797788680104
 30
0.0
 11
323.8815073580093
 21
305.0914496715794
 31
0.0
  0
HATCH
  5
62F
330
18
100
AcDbEntity
  8
ROGO
 62
     4
100
AcDbHatch
 10
0.0
 20
0.0
 30
0.0
210
0.0
220
0.0
230
1.0
  2
SOLID
 70
     1
 71
     1
 91
        1
 92
        7
 72
     0
 73
     1
 93
       11
 10
339.0493428624686
 20
306.304141912446
 10
339.2865108101568
 20
306.7797788680104
 10
338.3144031412229
 20
306.7797788680104
 10
336.9989463862189
 20
304.1416490017027
 10
337.9710540551528
 20
304.1416490017027
 10
338.3144031412229
 20
304.8302307244278
 10
338.6577522272931
 20
304.1416490017027
 10
339.6298386272931
 20
304.1416490017027
 10
338.9721102497909
 20
305.4607139348566
 10
340.5701357795027
 20
306.7797788680104
 10
339.5980493795026
 20
306.7797788680104
 97
       11
330
634
330
630
330
639
330
63B
330
63A
330
5FC
330
636
330
638
330
633
330
637
330
635
 75
     0
 76
     1
 47
0.015942268611278
 98
        1
 10
338.8391540230126
 20
305.9239187922167
450
        0
451
        0
460
0.0
461
0.0
452
        0
462
0.0
453
        0
470

  0
LINE
  5
630
102
{ACAD_REACTORS
330
62F
102
}
330
18
100
AcDbEntity
  8
ROGO
 62
     4
100
AcDbLine
 10
339.049342862469
 20
306.3041419124463
 30
0.0
 11
339.5980493795026
 21
306.7797788680104
 31
0.0
  0
SPLINE
  5
631
102
{ACAD_REACTORS
330
606
102
}
330
18
100
AcDbEntity
  8
ROGO
 62
     4
100
AcDbSpline
210
0.0
220
0.0
230
1.0
 70
     8
 71
     3
 72
    25
 73
    21
 74
     0
 42
0.0000000001
 43
0.0000000001
 40
0.0
 40
0.0
 40
0.0
 40
0.0
 40
0.4087168505087288
 40
0.6887487002771746
 40
0.9415836120477687
 40
1.17452070575514
 40
1.41154617586699
 40
1.599156012919487
 40
1.80099909059943
 40
2.178735911501585
 40
2.521686161369157
 40
2.762704659361267
 40
3.06256558063785
 40
3.222432137207705
 40
3.399493810628493
 40
3.567459719866414
 40
3.743172740007509
 40
3.995988754699505
 40
4.17170091132118
 40
4.337226830236035
 40
4.337226830236035
 40
4.337226830236035
 40
4.337226830236035
 10
334.4232945967376
 20
306.7868210069463
 30
0.0
 10
334.4865775187133
 20
306.7847877919313
 30
0.0
 10
334.5932186572086
 20
306.7813615221379
 30
0.0
 10
334.7077110754357
 20
306.6918723500836
 30
0.0
 10
334.7953173592691
 20
306.6176789699643
 30
0.0
 10
334.8575013869471
 20
306.5279826475347
 30
0.0
 10
334.9120074294873
 20
306.4455116570926
 30
0.0
 10
334.9479227790478
 20
306.3584412668078
 30
0.0
 10
334.9967747503439
 20
306.253964772546
 30
0.0
 10
335.0169970530331
 20
306.1141907451347
 30
0.0
 10
335.0033344830289
 20
305.969721391219
 30
0.0
 10
334.9676815545321
 20
305.841662597886
 30
0.0
 10
334.9302844990607
 20
305.7434188998435
 30
0.0
 10
334.8862076175955
 20
305.6578916658556
 30
0.0
 10
334.8336623424901
 20
305.602512775214
 30
0.0
 10
334.7972085425115
 20
305.5320990556243
 30
0.0
 10
334.7271854558751
 20
305.4745044133584
 30
0.0
 10
334.670420964695
 20
305.403440708489
 30
0.0
 10
334.6060050890155
 20
305.3424459749108
 30
0.0
 10
334.5696871327676
 20
305.30481295934
 30
0.0
 10
334.5505394304042
 20
305.2889900028384
 30
0.0
  0
HATCH
  5
632
330
18
100
AcDbEntity
  8
ROGO
 62
     4
100
AcDbHatch
 10
0.0
 20
0.0
 30
0.0
210
0.0
220
0.0
230
1.0
  2
SOLID
 70
     1
 71
     1
 91
        1
 92
        5
 93
        8
 72
     4
 94
        3
 73
     0
 74
     0
 95
       26
 96
       22
 40
0.0
 40
0.0
 40
0.0
 40
0.0
 40
0.306282258847545
 40
0.5113145150563467
 40
0.6591594689727181
 40
0.7695505122602936
 40
0.9127334891893321
 40
1.017243103820775
 40
1.205963108812882
 40
1.359578479722684
 40
1.464061546148625
 40
1.566512542290257
 40
1.74977745669044
 40
1.879367624743214
 40
1.949161942424609
 40
2.048302708997821
 40
2.119894481049017
 40
2.223607322578586
 40
2.282299819925649
 40
2.41002127769804
 40
2.468340004822995
 40
2.468340004822995
 40
2.468340004822995
 40
2.468340004822995
 10
336.270035821072
 20
306.7797788680104
 10
336.1660788900966
 20
306.773576619241
 10
335.9925308434404
 20
306.7632224451738
 10
335.8019761439539
 20
306.6474625116417
 10
335.6623646154264
 20
306.5801647733443
 10
335.5627938425952
 20
306.4886792315192
 10
335.48980806248
 20
306.394181349706
 10
335.3977957850115
 20
306.2815878164018
 10
335.3227624019898
 20
306.1504772030902
 10
335.2845524615899
 20
306.0059704502944
 10
335.2507064590352
 20
305.8907977298617
 10
335.2256056969271
 20
305.7624527632857
 10
335.2319920414009
 20
305.6237950499856
 10
335.2411375789666
 20
305.4950168644092
 10
335.2819701802975
 20
305.4030885206465
 10
335.3284712805131
 20
305.3376418745943
 10
335.3854112408982
 20
305.2655596496961
 10
335.4477160093063
 20
305.2178198255572
 10
335.4992471384485
 20
305.1313359260908
 10
335.589450641643
 20
305.1202999567927
 10
335.6467875768834
 20
305.0983350840938
 10
335.6647612049052
 20
305.0914496715794
 72
     1
 10
335.6647612049051
 20
305.0914496715794
 11
337.1189413670539
 21
305.0914496715794
 72
     1
 10
337.1189413670539
 20
305.0914496715794
 11
337.4321628650696
 21
305.7196109437316
 72
     1
 10
337.4321628650696
 20
305.7196109437316
 11
336.3525729810912
 21
305.7196109437316
 72
     4
 94
        3
 73
     0
 74
     0
 95
       16
 96
       12
 40
0.0
 40
0.0
 40
0.0
 40
0.0
 40
0.0924964283868937
 40
0.185946890240525
 40
0.2416858907028844
 40
0.2951281203562444
 40
0.3538203845089212
 40
0.3948066843497379
 40
0.4336991257335823
 40
0.5125674130988856
 40
0.6740411735369252
 40
0.6740411735369252
 40
0.6740411735369252
 40
0.6740411735369252
 10
336.3525729810912
 20
305.7196109437316
 10
336.3200087456561
 20
305.7291918192741
 10
336.2545443983531
 20
305.7484523901304
 10
336.2490655611202
 20
305.8418205618782
 10
336.2565296841997
 20
305.90835302454
 10
336.2877894483276
 20
305.9567925426036
 10
336.3257129641482
 20
305.9920386653636
 10
336.3398335710434
 20
306.0379412293124
 10
336.3813398084886
 20
306.0726034080048
 10
336.4549414888485
 20
306.1308656884023
 10
336.5363322061203
 20
306.1432742523408
 10
336.5910145444907
 20
306.1516109437316
 72
     1
 10
336.5910145444907
 20
306.1516109437316
 11
337.6475720173707
 21
306.1516109437316
 72
     1
 10
337.6475720173707
 20
306.1516109437316
 11
337.9607968323516
 21
306.7797788680104
 72
     1
 10
337.9607968323516
 20
306.7797788680104
 11
336.2700358210722
 21
306.7797788680105
 97
        8
330
642
330
640
330
643
330
63F
330
63E
330
641
330
63D
330
63C
 75
     0
 76
     1
 47
0.0514683685270805
 98
        1
 10
336.5617868020954
 20
306.4706400496374
450
        0
451
        0
460
0.0
461
0.0
452
        0
462
0.0
453
        0
470

  0
LINE
  5
633
102
{ACAD_REACTORS
330
62F
102
}
330
18
100
AcDbEntity
  8
ROGO
 62
     4
100
AcDbLine
 10
338.657752227293
 20
304.1416490017027
 30
0.0
 11
339.629838627293
 21
304.1416490017027
 31
0.0
  0
LINE
  5
634
102
{ACAD_REACTORS
330
62F
102
}
330
18
100
AcDbEntity
  8
ROGO
 62
     4
100
AcDbLine
 10
339.5980493795026
 20
306.7797788680104
 30
0.0
 11
340.5701357795026
 21
306.7797788680104
 31
0.0
  0
LINE
  5
635
102
{ACAD_REACTORS
330
62F
102
}
330
18
100
AcDbEntity
  8
ROGO
 62
     4
100
AcDbLine
 10
338.9721102497909
 20
305.4607139348566
 30
0.0
 11
340.5701357795026
 21
306.7797788680104
 31
0.0
  0
LINE
  5
636
102
{ACAD_REACTORS
330
62F
102
}
330
18
100
AcDbEntity
  8
ROGO
 62
     4
100
AcDbLine
 10
338.3144031412229
 20
304.8302307244279
 30
0.0
 11
337.9710540551528
 21
304.1416490017027
 31
0.0
  0
LINE
  5
637
102
{ACAD_REACTORS
330
62F
102
}
330
18
100
AcDbEntity
  8
ROGO
 62
     4
100
AcDbLine
 10
338.9721102497909
 20
305.4607139348566
 30
0.0
 11
339.629838627293
 21
304.1416490017027
 31
0.0
  0
LINE
  5
638
102
{ACAD_REACTORS
330
62F
102
}
330
18
100
AcDbEntity
  8
ROGO
 62
     4
100
AcDbLine
 10
338.3144031412229
 20
304.8302307244279
 30
0.0
 11
338.657752227293
 21
304.1416490017027
 31
0.0
  0
LINE
  5
639
102
{ACAD_REACTORS
330
62F
102
}
330
18
100
AcDbEntity
  8
ROGO
 62
     4
100
AcDbLine
 10
339.2865108101569
 20
306.7797788680104
 30
0.0
 11
339.049342862469
 21
306.3041419124463
 31
0.0
  0
LINE
  5
63A
102
{ACAD_REACTORS
330
62F
102
}
330
18
100
AcDbEntity
  8
ROGO
 62
     4
100
AcDbLine
 10
338.3144031412229
 20
306.7797788680104
 30
0.0
 11
336.9989463862188
 21
304.1416490017027
 31
0.0
  0
LINE
  5
63B
102
{ACAD_REACTORS
330
62F
102
}
330
18
100
AcDbEntity
  8
ROGO
 62
     4
100
AcDbLine
 10
338.3144031412229
 20
306.7797788680104
 30
0.0
 11
339.2865108101569
 21
306.7797788680104
 31
0.0
  0
LINE
  5
63C
102
{ACAD_REACTORS
330
632
102
}
330
18
100
AcDbEntity
  8
ROGO
 62
     4
100
AcDbLine
 10
337.9607968323516
 20
306.7797788680104
 30
0.0
 11
337.6475720173707
 21
306.1516109437316
 31
0.0
  0
LINE
  5
63D
102
{ACAD_REACTORS
330
632
102
}
330
18
100
AcDbEntity
  8
ROGO
 62
     4
100
AcDbLine
 10
336.5910145444906
 20
306.1516109437316
 30
0.0
 11
337.6475720173707
 21
306.1516109437316
 31
0.0
  0
LINE
  5
63E
102
{ACAD_REACTORS
330
632
102
}
330
18
100
AcDbEntity
  8
ROGO
 62
     4
100
AcDbLine
 10
336.352572981091
 20
305.7196109437316
 30
0.0
 11
337.4321628650696
 21
305.7196109437316
 31
0.0
  0
LINE
  5
63F
102
{ACAD_REACTORS
330
632
102
}
330
18
100
AcDbEntity
  8
ROGO
 62
     4
100
AcDbLine
 10
337.4321628650696
 20
305.7196109437316
 30
0.0
 11
337.1189413670539
 21
305.0914496715794
 31
0.0
  0
SPLINE
  5
640
102
{ACAD_REACTORS
330
632
102
}
330
18
100
AcDbEntity
  8
ROGO
 62
     4
100
AcDbSpline
210
0.0
220
0.0
230
1.0
 70
     8
 71
     3
 72
    26
 73
    22
 74
    20
 42
0.0000000001
 43
0.0000000001
 44
0.0000000001
 40
0.0
 40
0.0
 40
0.0
 40
0.0
 40
0.306282258847545
 40
0.5113145150563467
 40
0.6591594689727181
 40
0.7695505122602936
 40
0.9127334891893321
 40
1.017243103820775
 40
1.205963108812882
 40
1.359578479722684
 40
1.464061546148625
 40
1.566512542290257
 40
1.74977745669044
 40
1.879367624743214
 40
1.949161942424609
 40
2.048302708997821
 40
2.119894481049017
 40
2.223607322578586
 40
2.282299819925649
 40
2.41002127769804
 40
2.468340004822995
 40
2.468340004822995
 40
2.468340004822995
 40
2.468340004822995
 10
336.270035821072
 20
306.7797788680104
 30
0.0
 10
336.1660788900966
 20
306.773576619241
 30
0.0
 10
335.9925308434404
 20
306.7632224451738
 30
0.0
 10
335.8019761439539
 20
306.6474625116417
 30
0.0
 10
335.6623646154264
 20
306.5801647733443
 30
0.0
 10
335.5627938425952
 20
306.4886792315192
 30
0.0
 10
335.48980806248
 20
306.394181349706
 30
0.0
 10
335.3977957850115
 20
306.2815878164018
 30
0.0
 10
335.3227624019898
 20
306.1504772030902
 30
0.0
 10
335.2845524615899
 20
306.0059704502944
 30
0.0
 10
335.2507064590352
 20
305.8907977298617
 30
0.0
 10
335.2256056969271
 20
305.7624527632857
 30
0.0
 10
335.2319920414009
 20
305.6237950499856
 30
0.0
 10
335.2411375789666
 20
305.4950168644092
 30
0.0
 10
335.2819701802975
 20
305.4030885206465
 30
0.0
 10
335.3284712805131
 20
305.3376418745943
 30
0.0
 10
335.3854112408982
 20
305.2655596496961
 30
0.0
 10
335.4477160093063
 20
305.2178198255572
 30
0.0
 10
335.4992471384485
 20
305.1313359260908
 30
0.0
 10
335.589450641643
 20
305.1202999567927
 30
0.0
 10
335.6467875768834
 20
305.0983350840938
 30
0.0
 10
335.6647612049052
 20
305.0914496715794
 30
0.0
 11
336.270035821072
 21
306.7797788680104
 31
0.0
 11
335.9673985129886
 21
306.7326674910328
 31
0.0
 11
335.783981722935
 21
306.6410350338327
 31
0.0
 11
335.6555902335674
 21
306.5677291278189
 31
0.0
 11
335.5730530735483
 21
306.494422923074
 31
0.0
 11
335.4813449421917
 21
306.3844639146875
 31
0.0
 11
335.4171491975078
 21
306.3019947330807
 31
0.0
 11
335.325440538811
 21
306.1370560711356
 31
0.0
 11
335.2795867368026
 21
305.9904439603769
 31
0.0
 11
335.2520743501297
 21
305.8896482275836
 31
0.0
 11
335.2337324074542
 21
305.7888524947905
 31
0.0
 11
335.2337324074542
 21
305.6055875803903
 31
0.0
 11
335.2520743501297
 21
305.4773020208178
 31
0.0
 11
335.2795867368026
 21
305.413159091666
 31
0.0
 11
335.3346115101487
 21
305.330689910059
 31
0.0
 11
335.3804658394971
 21
305.2757102565002
 31
0.0
 11
335.4538320281784
 21
305.2024043504864
 31
0.0
 11
335.4905153861893
 21
305.1565879725208
 31
0.0
 11
335.6097364315591
 21
305.1107718932863
 31
0.0
 11
335.6647612049052
 21
305.0914496715794
 31
0.0
  0
SPLINE
  5
641
102
{ACAD_REACTORS
330
632
102
}
330
18
100
AcDbEntity
  8
ROGO
 62
     4
100
AcDbSpline
210
0.0
220
0.0
230
1.0
 70
     8
 71
     3
 72
    16
 73
    12
 74
    10
 42
0.0000000001
 43
0.0000000001
 44
0.0000000001
 40
0.0
 40
0.0
 40
0.0
 40
0.0
 40
0.1614737604380397
 40
0.2403420478033429
 40
0.2792344891871872
 40
0.320220789028004
 40
0.3789130531806808
 40
0.4323552828340408
 40
0.4880942832964002
 40
0.5815447451500316
 40
0.6740411735369252
 40
0.6740411735369252
 40
0.6740411735369252
 40
0.6740411735369252
 10
336.5910145444907
 20
306.1516109437316
 30
0.0
 10
336.5363322061203
 20
306.1432742523408
 30
0.0
 10
336.4549414888485
 20
306.1308656884023
 30
0.0
 10
336.3813398084886
 20
306.0726034080048
 30
0.0
 10
336.3398335710434
 20
306.0379412293124
 30
0.0
 10
336.3257129641482
 20
305.9920386653636
 30
0.0
 10
336.2877894483276
 20
305.9567925426036
 30
0.0
 10
336.2565296841997
 20
305.90835302454
 30
0.0
 10
336.2490655611202
 20
305.8418205618782
 30
0.0
 10
336.2545443983531
 20
305.7484523901304
 30
0.0
 10
336.3200087456561
 20
305.7291918192741
 30
0.0
 10
336.3525729810912
 20
305.7196109437316
 30
0.0
 11
336.5910145444907
 21
306.1516109437316
 31
0.0
 11
336.4351106684502
 21
306.1095662443564
 31
0.0
 11
336.3709149237664
 21
306.0637501651218
 31
0.0
 11
336.3434025370935
 21
306.0362603383425
 31
0.0
 11
336.325060594418
 21
305.9996072359699
 31
0.0
 11
336.2883772364073
 21
305.9537911567354
 31
0.0
 11
336.2608648497343
 21
305.9079747787699
 31
0.0
 11
336.2516938783965
 21
305.8529954239423
 31
0.0
 11
336.270035821072
 21
305.7613626680111
 31
0.0
 11
336.3525729810912
 21
305.7196109437316
 31
0.0
  0
LINE
  5
642
102
{ACAD_REACTORS
330
632
102
}
330
18
100
AcDbEntity
  8
ROGO
 62
     4
100
AcDbLine
 10
336.2700358210725
 20
306.7797788680104
 30
0.0
 11
337.9607968323516
 21
306.7797788680104
 31
0.0
  0
LINE
  5
643
102
{ACAD_REACTORS
330
632
102
}
330
18
100
AcDbEntity
  8
ROGO
 62
     4
100
AcDbLine
 10
335.6647612049051
 20
305.0914496715794
 30
0.0
 11
337.1189413670539
 21
305.0914496715794
 31
0.0
  0
INSERT
  5
687
330
18
100
AcDbEntity
  8
文字
100
AcDbBlockReference
  2
A$C3582528B
 10
327.8974791480475
 20
216.7466256798916
 30
0.0
  0
INSERT
  5
6A7
330
18
100
AcDbEntity
  8
文字
100
AcDbBlockReference
  2
A$C3582528B
 10
411.7735518472892
 20
216.7466256798916
 30
0.0
  0
LINE
  5
723
330
18
100
AcDbEntity
  8
外形線
100
AcDbLine
 10
317.8972872338881
 20
226.8368734683215
 30
0.0
 11
342.8972872338881
 21
226.8368734683215
 31
0.0
  0
LINE
  5
724
330
18
100
AcDbEntity
  8
外形線
100
AcDbLine
 10
318.3972872338882
 20
236.8368734683215
 30
0.0
 11
342.3972872338881
 21
236.8368734683215
 31
0.0
  0
LINE
  5
73B
330
18
100
AcDbEntity
  8
外形線
100
AcDbLine
 10
322.897287233888
 20
257.3368734683215
 30
0.0
 11
337.8972872338881
 21
257.3368734683215
 31
0.0
  0
LINE
  5
757
330
18
100
AcDbEntity
  8
外形線
100
AcDbLine
 10
338.3972872338881
 20
256.8368734683215
 30
0.0
 11
338.3972872338881
 21
236.8368734683215
 31
0.0
  0
LINE
  5
758
330
18
100
AcDbEntity
  8
外形線
100
AcDbLine
 10
322.397287233888
 20
256.8368734683215
 30
0.0
 11
322.397287233888
 21
236.8368734683215
 31
0.0
  0
LINE
  5
759
330
18
100
AcDbEntity
  8
外形線
100
AcDbLine
 10
342.8972872338881
 20
236.3368734683215
 30
0.0
 11
342.8972872338881
 21
226.8368734683215
 31
0.0
  0
LINE
  5
75A
330
18
100
AcDbEntity
  8
外形線
100
AcDbLine
 10
317.8972872338882
 20
236.3368734683215
 30
0.0
 11
317.8972872338881
 21
226.8368734683215
 31
0.0
  0
LINE
  5
75B
330
18
100
AcDbEntity
  8
外形線
100
AcDbLine
 10
317.8972872338882
 20
236.3368734683215
 30
0.0
 11
318.3972872338882
 21
236.8368734683215
 31
0.0
  0
LINE
  5
75C
330
18
100
AcDbEntity
  8
外形線
100
AcDbLine
 10
342.3972872338881
 20
236.8368734683215
 30
0.0
 11
342.8972872338881
 21
236.3368734683215
 31
0.0
  0
LINE
  5
7C0
330
18
100
AcDbEntity
  8
外形線
100
AcDbLine
 10
317.8972872338882
 20
236.3368734683215
 30
0.0
 11
342.8972872338881
 21
236.3368734683215
 31
0.0
  0
LINE
  5
7C1
330
18
100
AcDbEntity
  8
外形線
100
AcDbLine
 10
401.7733599331299
 20
236.3368734683215
 30
0.0
 11
426.7733599331299
 21
236.3368734683215
 31
0.0
  0
LINE
  5
7C2
330
18
100
AcDbEntity
  8
外形線
100
AcDbLine
 10
426.2733599331299
 20
236.8368734683215
 30
0.0
 11
426.7733599331299
 21
236.3368734683215
 31
0.0
  0
LINE
  5
7C3
330
18
100
AcDbEntity
  8
外形線
100
AcDbLine
 10
401.7733599331299
 20
226.8368734683215
 30
0.0
 11
426.7733599331299
 21
226.8368734683215
 31
0.0
  0
LINE
  5
7C4
330
18
100
AcDbEntity
  8
外形線
100
AcDbLine
 10
406.2733599331298
 20
256.8368734683215
 30
0.0
 11
406.2733599331298
 21
236.8368734683215
 31
0.0
  0
LINE
  5
7C5
330
18
100
AcDbEntity
  8
外形線
100
AcDbLine
 10
422.2733599331299
 20
256.8368734683215
 30
0.0
 11
422.2733599331299
 21
236.8368734683215
 31
0.0
  0
LINE
  5
7C6
330
18
100
AcDbEntity
  8
外形線
100
AcDbLine
 10
402.2733599331299
 20
236.8368734683215
 30
0.0
 11
426.2733599331299
 21
236.8368734683215
 31
0.0
  0
LINE
  5
7C7
330
18
100
AcDbEntity
  8
外形線
100
AcDbLine
 10
401.7733599331299
 20
236.3368734683215
 30
0.0
 11
401.7733599331299
 21
226.8368734683215
 31
0.0
  0
LINE
  5
7C8
330
18
100
AcDbEntity
  8
外形線
100
AcDbLine
 10
401.7733599331299
 20
236.3368734683215
 30
0.0
 11
402.2733599331299
 21
236.8368734683215
 31
0.0
  0
LINE
  5
7C9
330
18
100
AcDbEntity
  8
外形線
100
AcDbLine
 10
406.7733599331297
 20
257.3368734683215
 30
0.0
 11
421.7733599331299
 21
257.3368734683215
 31
0.0
  0
LINE
  5
7CA
330
18
100
AcDbEntity
  8
外形線
100
AcDbLine
 10
426.7733599331299
 20
236.3368734683215
 30
0.0
 11
426.7733599331299
 21
226.8368734683215
 31
0.0
  0
DIMENSION
  5
7D7
330
18
100
AcDbEntity
  8
外形線
100
AcDbDimension
  2
*D9
 10
295.5333250919699
 20
236.8368734683215
 30
0.0
 11
293.6583250919698
 21
247.0868734683215
 31
0.0
 70
    32
 71
     5
 42
20.49999999999991
  3
STYLE3
100
AcDbAlignedDimension
 13
322.897287233888
 23
257.3368734683215
 33
0.0
 14
318.3972872338882
 24
236.8368734683215
 34
0.0
 50
90.0
100
AcDbRotatedDimension
1001
ACAD
1000
DSTYLE
1002
{
1070
   271
1070
     2
1002
}
  0
DIMENSION
  5
7E3
330
18
100
AcDbEntity
  8
外形線
100
AcDbDimension
  2
*D10
 10
295.5333250919699
 20
226.8368734683215
 30
0.0
 11
293.6583250919698
 21
231.8368734683216
 31
0.0
 70
    32
 71
     5
 42
10.00000000000005
  3
STYLE3
100
AcDbAlignedDimension
 13
318.3972872338882
 23
236.8368734683215
 33
0.0
 14
317.8972872338881
 24
226.8368734683215
 34
0.0
 50
90.0
100
AcDbRotatedDimension
1001
ACAD
1000
DSTYLE
1002
{
1070
    75
1070
     1
1070
   271
1070
     2
1070
   279
1070
     1
1002
}
  0
DIMENSION
  5
7FC
330
18
100
AcDbEntity
  8
外形線
100
AcDbDimension
  2
*D11
 10
287.788937683849
 20
289.6368734683215
 30
0.0
 11
285.9139376838489
 21
316.3368734683215
 31
0.0
 70
    32
 71
     5
 42
53.39999999999998
  3
STYLE3
100
AcDbAlignedDimension
 13
326.897287233888
 23
343.0368734683215
 33
0.0
 14
293.3837023619951
 24
289.6368734683215
 34
0.0
 50
90.0
100
AcDbRotatedDimension
1001
ACAD
1000
DSTYLE
1002
{
1070
   271
1070
     2
1002
}
  0
DIMENSION
  5
808
330
18
100
AcDbEntity
  8
外形線
100
AcDbDimension
  2
*D12
 10
287.788937683849
 20
226.8368734683215
 30
0.0
 11
285.9139376838489
 21
258.2368734683216
 31
0.0
 70
    32
 71
     5
 42
62.79999999999998
  3
STYLE3
100
AcDbAlignedDimension
 13
293.3837023619951
 23
289.6368734683215
 33
0.0
 14
294.2833250919699
 24
226.8368734683215
 34
0.0
 50
90.0
100
AcDbRotatedDimension
1001
ACAD
1000
DSTYLE
1002
{
1070
    75
1070
     1
1070
   271
1070
     2
1070
   279
1070
     1
1002
}
  0
DIMENSION
  5
815
330
18
100
AcDbEntity
  8
外形線
100
AcDbDimension
  2
*D13
 10
280.4172960196993
 20
226.8368734683215
 30
0.0
 11
278.5422960196992
 21
284.9368734683216
 31
0.0
 70
    32
 71
     5
 42
116.1999999999999
  3
STYLE3
100
AcDbAlignedDimension
 13
286.538937683849
 23
343.0368734683215
 33
0.0
 14
286.538937683849
 24
226.8368734683215
 34
0.0
 50
90.0
100
AcDbRotatedDimension
1001
ACAD
1000
DSTYLE
1002
{
1070
   271
1070
     2
1002
}
  0
DIMENSION
  5
821
330
18
100
AcDbEntity
  8
外形線
100
AcDbDimension
  2
*D14
 10
280.4172960196993
 20
216.7368734683215
 30
0.0
 11
278.5422960196992
 21
221.7868734683215
 31
0.0
 70
    32
 71
     5
 42
10.09999999999999
  3
STYLE3
100
AcDbAlignedDimension
 13
286.538937683849
 23
226.8368734683215
 33
0.0
 14
330.3972872338881
 24
216.7368734683215
 34
0.0
 50
90.0
100
AcDbRotatedDimension
1001
ACAD
1000
DSTYLE
1002
{
1070
    75
1070
     1
1070
   271
1070
     2
1070
   279
1070
     1
1002
}
  0
DIMENSION
  5
82E
330
18
100
AcDbEntity
  8
外形線
100
AcDbDimension
  2
*D15
 10
406.2733599331298
 20
240.8201237987225
 30
0.0
 11
413.579251861719
 21
240.8201237987225
 31
0.0
 70
   160
  1
%%C<>
 71
     5
 42
16.00000000000006
  3
STYLE3
100
AcDbAlignedDimension
 13
422.2733599331299
 23
256.1939346275764
 33
0.0
 14
406.2733599331298
 24
256.1939346275764
 34
0.0
100
AcDbRotatedDimension
1001
ACAD
1000
DSTYLE
1002
{
1070
    76
1070
     1
1070
    75
1070
     1
1070
   271
1070
     2
1002
}
  0
DIMENSION
  5
83B
330
18
100
AcDbEntity
  8
外形線
100
AcDbDimension
  2
*D16
 10
401.7733599331299
 20
202.721893084589
 30
0.0
 11
414.2733599331299
 21
204.596893084589
 31
0.0
 70
    32
  1
φ25
 71
     5
 42
24.99999999999995
  3
STYLE3
100
AcDbAlignedDimension
 13
426.7733599331299
 23
226.8368734683215
 33
0.0
 14
401.7733599331299
 24
226.8368734683215
 34
0.0
100
AcDbRotatedDimension
1001
ACAD
1000
DSTYLE
1002
{
1070
   271
1070
     2
1002
}
  0
DIMENSION
  5
8D3
330
18
100
AcDbEntity
  8
外形線
100
AcDbDimension
  2
*D18
 10
295.5333250919699
 20
257.3368734683215
 30
0.0
 11
293.6583250919698
 21
273.4868734683216
 31
0.0
 70
    32
 71
     5
 42
32.30000000000001
  3
STYLE3
100
AcDbAlignedDimension
 13
297.5941029130579
 23
289.6368734683215
 33
0.0
 14
304.2104540504087
 24
257.3368734683215
 34
0.0
 50
90.0
100
AcDbRotatedDimension
1001
ACAD
1000
DSTYLE
1002
{
1070
   271
1070
     2
1002
}
  0
LINE
  5
8DE
330
18
100
AcDbEntity
  8
外形線
100
AcDbLine
 10
322.397287233888
 20
256.8368734683215
 30
0.0
 11
322.897287233888
 21
257.3368734683215
 31
0.0
  0
LINE
  5
8DF
330
18
100
AcDbEntity
  8
外形線
100
AcDbLine
 10
337.8972872338881
 20
257.3368734683215
 30
0.0
 11
338.3972872338881
 21
256.8368734683215
 31
0.0
  0
LINE
  5
8E0
330
18
100
AcDbEntity
  8
外形線
100
AcDbLine
 10
322.397287233888
 20
256.8368734683215
 30
0.0
 11
338.3972872338881
 21
256.8368734683215
 31
0.0
  0
LINE
  5
8EC
330
18
100
AcDbEntity
  8
外形線
100
AcDbLine
 10
406.2733599331298
 20
256.8368734683215
 30
0.0
 11
406.7733599331297
 21
257.3368734683215
 31
0.0
  0
LINE
  5
8ED
330
18
100
AcDbEntity
  8
外形線
100
AcDbLine
 10
421.7733599331299
 20
257.3368734683215
 30
0.0
 11
422.2733599331299
 21
256.8368734683215
 31
0.0
  0
LINE
  5
8EF
330
18
100
AcDbEntity
  8
外形線
100
AcDbLine
 10
406.2733599331298
 20
256.8368734683215
 30
0.0
 11
422.2733599331299
 21
256.8368734683215
 31
0.0
  0
TEXT
  5
B42
330
18
100
AcDbEntity
  8
寸法線
100
AcDbText
 10
320.4559550935556
 20
274.7473660654744
 30
0.0
 40
1.199999999999999
  1
MODE
  7
STYLE4
100
AcDbText
  0
TEXT
  5
B43
330
18
100
AcDbEntity
  8
寸法線
100
AcDbText
 10
334.6616426537429
 20
274.7473660654744
 30
0.0
 40
1.199999999999999
  1
ON/OFF
  7
STYLE4
100
AcDbText
  0
LINE
  5
B44
330
18
100
AcDbEntity
  8
外形線
100
AcDbLine
 10
314.397287233888
 20
276.1368734683215
 30
0.0
 11
314.397287233888
 21
265.9936926332477
 31
0.0
  0
LINE
  5
B45
330
18
100
AcDbEntity
  8
外形線
100
AcDbLine
 10
346.3972872338881
 20
276.1368734683215
 30
0.0
 11
346.3972872338881
 21
265.9936926332477
 31
0.0
  0
LINE
  5
B46
330
18
100
AcDbEntity
  8
外形線
100
AcDbLine
 10
315.3972872338881
 20
277.1368734683215
 30
0.0
 11
345.397287233888
 21
277.1368734683215
 31
0.0
  0
ARC
  5
B47
330
18
100
AcDbEntity
  8
外形線
100
AcDbCircle
 10
330.3972872338881
 20
289.6368734683215
 30
0.0
 40
29.0
100
AcDbArc
 50
237.6076345141535
 51
302.3923654858465
  0
ARC
  5
B48
330
18
100
AcDbEntity
  8
外形線
100
AcDbCircle
 10
315.3972872338881
 20
276.1368734683215
 30
0.0
 40
1.0
100
AcDbArc
 50
90.0
 51
180.0
  0
ARC
  5
B49
330
18
100
AcDbEntity
  8
外形線
100
AcDbCircle
 10
345.397287233888
 20
276.1368734683215
 30
0.0
 40
1.0
100
AcDbArc
 50
0.0
 51
90.0
  0
ARC
  5
B4A
330
18
100
AcDbEntity
  8
外形線
100
AcDbCircle
 10
345.397287233888
 20
265.9936926332477
 30
0.0
 40
1.0
100
AcDbArc
 50
302.3923654858421
 51
0.0
  0
ARC
  5
B4B
330
18
100
AcDbEntity
  8
外形線
100
AcDbCircle
 10
315.3972872338881
 20
265.9936926332477
 30
0.0
 40
1.0
100
AcDbArc
 50
180.0
 51
237.6076345141571
  0
ELLIPSE
  5
B4C
330
18
100
AcDbEntity
  8
外形線
100
AcDbEllipse
 10
338.2460691214968
 20
269.7285899951422
 30
0.0
 11
-4.089143464216689
 21
0.0
 31
0.0
210
0.0
220
0.0
230
1.0
 40
0.6358299782710266
 41
0.0
 42
6.283185307179586
  0
ELLIPSE
  5
B4D
330
18
100
AcDbEntity
  8
外形線
100
AcDbEllipse
 10
323.0698734244878
 20
269.7285899951422
 30
0.0
 11
-4.089143464216689
 21
0.0
 31
0.0
210
0.0
220
0.0
230
1.0
 40
0.6358299782710266
 41
0.0
 42
6.283185307179586
  0
TEXT
  5
B4E
330
18
100
AcDbEntity
  8
寸法線
100
AcDbText
 10
336.5517835425861
 20
263.594142302883
 30
0.0
 40
1.199999999999999
  1
SET
  7
STYLE4
100
AcDbText
  0
ELLIPSE
  5
B4F
330
18
100
AcDbEntity
  8
外形線
100
AcDbEllipse
 10
338.2460691214968
 20
269.7285899951422
 30
0.0
 11
-5.473687379191062
 21
0.0
 31
0.0
210
0.0
220
0.0
230
1.0
 40
0.7307688077339824
 41
0.0
 42
6.283185307179586
  0
ELLIPSE
  5
B50
330
18
100
AcDbEntity
  8
外形線
100
AcDbEllipse
 10
323.0698734244878
 20
269.7285899951422
 30
0.0
 11
-5.473687379191062
 21
0.0
 31
0.0
210
0.0
220
0.0
230
1.0
 40
0.7307688077339824
 41
0.0
 42
6.283185307179586
  0
LINE
  5
B51
330
18
100
AcDbEntity
  8
中心線
 48
0.3
100
AcDbLine
 10
316.1002853269216
 20
269.7285899951422
 30
0.0
 11
330.0394615220538
 21
269.7285899951422
 31
0.0
  0
LINE
  5
B52
330
18
100
AcDbEntity
  8
中心線
 48
0.3
100
AcDbLine
 10
323.0698734244878
 20
275.0461999789327
 30
0.0
 11
323.0698734244878
 21
264.4473512386925
 31
0.0
  0
LINE
  5
B53
330
18
100
AcDbEntity
  8
中心線
 48
0.3
100
AcDbLine
 10
338.2460691214968
 20
275.0461999789327
 30
0.0
 11
338.2460691214968
 21
264.4473512386925
 31
0.0
  0
LINE
  5
B54
330
18
100
AcDbEntity
  8
中心線
 48
0.3
100
AcDbLine
 10
331.2764810239306
 20
269.7285899951422
 30
0.0
 11
345.2156572190628
 21
269.7285899951422
 31
0.0
  0
LINE
  5
BCD
330
18
100
AcDbEntity
  8
隠れ線2
100
AcDbLine
 10
326.3972872338881
 20
257.3368734683215
 30
0.0
 11
326.3972872338881
 21
226.8368734683215
 31
0.0
  0
LINE
  5
BD0
330
18
100
AcDbEntity
  8
隠れ線2
100
AcDbLine
 10
334.3972872338881
 20
257.3368734683215
 30
0.0
 11
334.3972872338881
 21
226.8368734683215
 31
0.0
  0
DIMENSION
  5
BD1
330
18
100
AcDbEntity
  8
寸法線
100
AcDbDimension
  2
*D20
 10
334.3972872338881
 20
207.6177751795078
 30
0.0
 11
330.3972872338881
 21
209.4927751795077
 31
0.0
 70
    32
  1
φ<>
 71
     5
 42
8.000000000000056
  3
STYLE3
100
AcDbAlignedDimension
 13
326.3972872338881
 23
226.8368734683215
 33
0.0
 14
334.3972872338881
 24
226.8368734683215
 34
0.0
100
AcDbRotatedDimension
1001
ACAD
1000
DSTYLE
1002
{
1070
   271
1070
     2
1070
   341
1005
0
1002
}
  0
DIMENSION
  5
BE7
330
18
100
AcDbEntity
  8
寸法線
100
AcDbDimension
  2
*D21
 10
316.5245440360101
 20
216.7368734683215
 30
0.0
 11
314.6495440360101
 21
220.236873476018
 31
0.0
 70
    32
 71
     5
 42
7.000000015393055
  3
STYLE3
100
AcDbAlignedDimension
 13
327.8974794400419
 23
223.7368734837145
 33
0.0
 14
316.6949960844424
 24
216.7368734683215
 34
0.0
 50
90.0
100
AcDbRotatedDimension
1001
ACAD
1000
DSTYLE
1002
{
1070
   271
1070
     2
1070
   341
1005
0
1002
}
  0
LINE
  5
E4E
330
18
100
AcDbEntity
  8
中心線
 48
0.2
100
AcDbLine
 10
333.376968147485
 20
254.3368734683215
 30
0.0
 11
339.798789329973
 21
254.3368734683215
 31
0.0
  0
LINE
  5
E50
330
18
100
AcDbEntity
  8
中心線
 48
0.2
100
AcDbLine
 10
333.376968147485
 20
248.3368734683215
 30
0.0
 11
339.798789329973
 21
248.3368734683215
 31
0.0
  0
LINE
  5
E51
330
18
100
AcDbEntity
  8
中心線
 48
0.2
100
AcDbLine
 10
411.1080058462103
 20
254.3368734683215
 30
0.0
 11
417.5298270286982
 21
254.3368734683215
 31
0.0
  0
LINE
  5
E52
330
18
100
AcDbEntity
  8
中心線
 48
0.2
100
AcDbLine
 10
411.1080058462103
 20
248.3368734683215
 30
0.0
 11
417.5298270286982
 21
248.3368734683215
 31
0.0
  0
CIRCLE
  5
E53
330
18
100
AcDbEntity
  8
寸法線
100
AcDbCircle
 10
414.2733599331299
 20
254.3368734683215
 30
0.0
 40
1.0
  0
CIRCLE
  5
E54
330
18
100
AcDbEntity
  8
外形線
100
AcDbCircle
 10
414.2733599331299
 20
254.3368734683215
 30
0.0
 40
1.5
  0
CIRCLE
  5
E55
330
18
100
AcDbEntity
  8
寸法線
100
AcDbCircle
 10
414.2733599331299
 20
248.3368734683215
 30
0.0
 40
1.0
  0
CIRCLE
  5
E56
330
18
100
AcDbEntity
  8
外形線
100
AcDbCircle
 10
414.2733599331299
 20
248.3368734683215
 30
0.0
 40
1.5
  0
DIMENSION
  5
E94
330
18
100
AcDbEntity
  8
寸法線
100
AcDbDimension
  2
*D22
 10
416.7735521392838
 20
209.2246217532494
 30
0.0
 11
414.2735521392837
 21
209.2246217532494
 31
0.0
 70
   160
  1
%%C<>
 71
     5
 42
5.000000000000056
  3
STYLE3
100
AcDbAlignedDimension
 13
411.7735521392837
 23
221.7368734837145
 33
0.0
 14
416.7735521392838
 24
221.7368734837145
 34
0.0
100
AcDbRotatedDimension
1001
ACAD
1000
DSTYLE
1002
{
1070
   271
1070
     2
1070
   341
1005
0
1002
}
  0
LINE
  5
F00
330
18
100
AcDbEntity
  8
外形線
100
AcDbLine
 10
323.2473628482706
 20
356.5617165138897
 30
0.0
 11
422.2473628482706
 21
356.5617165138897
 31
0.0
  0
LINE
  5
F01
330
18
100
AcDbEntity
  8
外形線
100
AcDbLine
 10
323.2473628482706
 20
355.5617165138897
 30
0.0
 11
422.2473628482706
 21
355.5617165138897
 31
0.0
  0
TEXT
  5
F02
330
18
100
AcDbEntity
  8
文字
100
AcDbText
 10
323.4812228482706
 20
358.8465085138897
 30
0.0
 40
3.5
  1
Model No.T6-127 Digital Depth Gauge
  7
STYLE3
100
AcDbText
  0
LINE
  5
F04
330
18
100
AcDbEntity
  8
外形線
100
AcDbLine
 10
350.0690238610753
 20
192.8977040838793
 30
0.0
 11
490.8604418610752
 21
192.8977040838793
 31
0.0
  0
LINE
  5
F05
330
18
100
AcDbEntity
  8
外形線
100
AcDbLine
 10
350.0690238610753
 20
182.1174980838793
 30
0.0
 11
490.8604418610752
 21
182.1174980838793
 31
0.0
  0
TEXT
  5
F06
330
18
100
AcDbEntity
  8
0
  6
Continuous
100
AcDbText
 10
351.5264908610753
 20
184.0154880838793
 30
0.0
 40
2.1
  1
Design and specifications are subject to change without notice for future improvement.
  7
STYLE3
100
AcDbText
  0
TEXT
  5
F07
330
18
100
AcDbEntity
  8
0
  6
Continuous
100
AcDbText
 10
351.8179848610753
 20
187.9446360838793
 30
0.0
 40
3.5
  1
仕様及び外観は予告なく変更される場合がございますのでご了承下さい。
  7
STYLE3
100
AcDbText
  0
TEXT
  5
F08
330
18
100
AcDbEntity
  8
0
  6
Continuous
100
AcDbText
 10
351.2349998610753
 20
174.2508600838793
 30
0.0
 40
2.1
  1
3RD Angle Projection
  7
STYLE3
100
AcDbText
  0
TEXT
  5
F09
330
18
100
AcDbEntity
  8
0
  6
Continuous
100
AcDbText
 10
353.8584428610753
 20
177.7471430838793
 30
0.0
 40
3.0
  1
三　　角　　法
  7
STYLE3
100
AcDbText
  0
LINE
  5
F0A
330
18
100
AcDbEntity
  8
外形線
100
AcDbLine
 10
350.0690238610753
 20
172.5027200838793
 30
0.0
 11
350.0690238610753
 21
192.8977040838793
 31
0.0
  0
LINE
  5
F0B
330
18
100
AcDbEntity
  8
外形線
100
AcDbLine
 10
452.0917908610753
 20
182.1174980838793
 30
0.0
 11
452.0917908610753
 21
172.5027200838793
 31
0.0
  0
LINE
  5
F0C
330
18
100
AcDbEntity
  8
外形線
100
AcDbLine
 10
422.3594408610753
 20
182.1174980838793
 30
0.0
 11
422.3594408610753
 21
172.5027200838793
 31
0.0
  0
LINE
  5
F0D
330
18
100
AcDbEntity
  8
外形線
100
AcDbLine
 10
402.8293688610752
 20
182.1174980838793
 30
0.0
 11
402.8293688610752
 21
172.5027200838793
 31
0.0
  0
LINE
  5
F0E
330
18
100
AcDbEntity
  8
外形線
100
AcDbLine
 10
385.3397518610753
 20
182.1174980838793
 30
0.0
 11
385.3397518610753
 21
172.5027200838793
 31
0.0
  0
TEXT
  5
F0F
330
18
100
AcDbEntity
  8
0
  6
Continuous
100
AcDbText
 10
386.7972208610753
 20
177.7530980838793
 30
0.0
 40
3.0
  1
単位
  7
STYLE3
100
AcDbText
  0
TEXT
  5
F10
330
18
100
AcDbEntity
  8
0
  6
Continuous
100
AcDbText
 10
386.9689418610753
 20
174.2508610838793
 30
0.0
 40
2.1
  1
Unit
  7
STYLE3
100
AcDbText
  0
TEXT
  5
F11
330
18
100
AcDbEntity
  8
0
  6
Continuous
100
AcDbText
 10
404.1151168610753
 20
177.4617400838793
 30
0.0
 40
3.0
  1
尺 度
  7
STYLE3
100
AcDbText
  0
TEXT
  5
F12
330
18
100
AcDbEntity
  8
0
  6
Continuous
100
AcDbText
 10
394.8392688610753
 20
175.9990040838793
 30
0.0
 40
2.399999999999999
  1
mm
  7
STYLE3
100
AcDbText
  0
TEXT
  5
F13
330
18
100
AcDbEntity
  8
0
  6
Continuous
100
AcDbText
 10
404.5783318610753
 20
174.5422180838793
 30
0.0
 40
2.1
  1
Scale
  7
STYLE3
100
AcDbText
  0
TEXT
  5
F14
330
18
100
AcDbEntity
  8
0
  6
Continuous
100
AcDbText
 10
414.1976208610753
 20
176.2903610838793
 30
0.0
 40
2.399999999999999
  1
1/1
  7
STYLE3
100
AcDbText
  0
TEXT
  5
F15
330
18
100
AcDbEntity
  8
0
  6
Continuous
100
AcDbText
 10
424.2913918610753
 20
174.2508620838793
 30
0.0
 40
2.1
  1
Date
  7
STYLE3
100
AcDbText
  0
TEXT
  5
F16
330
18
100
AcDbEntity
  8
0
  6
Continuous
100
AcDbText
 10
423.9080308610753
 20
177.5839450838793
 30
0.0
 40
3.0
  1
日 付
  7
STYLE3
100
AcDbText
  0
TEXT
  5
F17
330
18
100
AcDbEntity
  8
0
  6
Continuous
100
AcDbText
 10
433.0361998610753
 20
175.9990030838793
 30
0.0
 40
2.1
  1
2010.07.01
  7
STYLE3
100
AcDbText
  0
TEXT
  5
F18
330
18
100
AcDbEntity
  8
0
  6
Continuous
100
AcDbText
 10
453.4407538610753
 20
178.0385000838793
 30
0.0
 40
3.0
  1
株式会社　尾崎製作所
  7
STYLE3
100
AcDbText
  0
TEXT
  5
F19
330
18
100
AcDbEntity
  8
0
  6
Continuous
100
AcDbText
 10
454.3152328610752
 20
174.2508610838793
 30
0.0
 40
2.1
  1
OZAKI MFG. CO., LTD.
  7
STYLE3
100
AcDbText
  0
ENDSEC
  0
SECTION
  2
OBJECTS
  0
DICTIONARY
  5
C
330
0
100
AcDbDictionary
281
     1
  3
ACAD_COLOR
350
969
  3
ACAD_GROUP
350
D
  3
ACAD_LAYOUT
350
96C
  3
ACAD_MATERIAL
350
968
  3
ACAD_MLINESTYLE
350
1B
  3
ACAD_PLOTSETTINGS
350
96D
  3
ACAD_PLOTSTYLENAME
350
966
  3
ACAD_TABLESTYLE
350
96A
  3
ACDBVARIABLEDICTIONARY
350
208
  0
DICTIONARY
  5
BCE
330
18
100
AcDbDictionary
280
     1
281
     1
  3
ACAD_SORTENTS
360
BCF
  0
DICTIONARY
  5
969
102
{ACAD_REACTORS
330
C
102
}
330
C
100
AcDbDictionary
281
     1
  0
DICTIONARY
  5
D
102
{ACAD_REACTORS
330
C
102
}
330
C
100
AcDbDictionary
281
     1
  0
DICTIONARY
  5
96C
102
{ACAD_REACTORS
330
C
102
}
330
C
100
AcDbDictionary
281
     1
  3
Model
350
96E
  3
レイアウト1
350
96F
  0
DICTIONARY
  5
968
102
{ACAD_REACTORS
330
C
102
}
330
C
100
AcDbDictionary
281
     1
  0
DICTIONARY
  5
1B
102
{ACAD_REACTORS
330
C
102
}
330
C
100
AcDbDictionary
281
     1
  3
STANDARD
350
1C
  0
DICTIONARY
  5
96D
102
{ACAD_REACTORS
330
C
102
}
330
C
100
AcDbDictionary
281
     1
  0
ACDBDICTIONARYWDFLT
  5
966
102
{ACAD_REACTORS
330
C
102
}
330
C
100
AcDbDictionary
281
     1
  3
Normal
350
967
100
AcDbDictionaryWithDefault
340
967
  0
DICTIONARY
  5
96A
102
{ACAD_REACTORS
330
C
102
}
330
C
100
AcDbDictionary
281
     1
  3
Standard
350
96B
  0
DICTIONARY
  5
208
102
{ACAD_REACTORS
330
C
102
}
330
C
100
AcDbDictionary
281
     1
  3
CTABLESTYLE
350
BC3
  3
SORTENTS
350
209
  0
SORTENTSTABLE
  5
BCF
102
{ACAD_REACTORS
330
BCE
102
}
330
BCE
100
AcDbSortentsTable
330
18
331
61E
  5
620
331
B42
  5
B44
331
B4A
  5
B4C
331
B52
  5
B54
331
119
  5
119
331
150
  5
150
331
483
  5
4E4
331
216
  5
218
331
121
  5
121
331
1AF
  5
1B4
331
170
  5
17A
331
129
  5
129
331
21E
  5
222
331
265
  5
3C3
331
226
  5
228
331
626
  5
628
331
62E
  5
630
331
636
  5
638
331
83B
  5
886
331
5FF
  5
601
331
63E
  5
640
331
8EC
  5
8EF
331
C01
  5
C01
331
98B
  5
98D
331
131
  5
131
331
188
  5
18A
331
190
  5
192
331
236
  5
238
331
23E
  5
240
331
198
  5
19A
331
141
  5
141
331
1FF
  5
201
331
246
  5
248
331
149
  5
149
331
112
  5
112
331
1A0
  5
1A2
331
24E
  5
250
331
88A
  5
88C
331
7FC
  5
815
331
607
  5
609
331
60F
  5
611
331
892
  5
894
331
89A
  5
89C
331
617
  5
619
331
7C5
  5
7C7
331
61F
  5
621
331
B43
  5
B45
331
B4B
  5
B4D
331
B53
  5
B55
331
151
  5
151
331
11A
  5
11A
331
1A8
  5
1AA
331
256
  5
262
331
122
  5
122
331
1B0
  5
1B8
331
217
  5
219
331
266
  5
3DD
331
21F
  5
224
331
12A
  5
12A
331
171
  5
17B
331
1B8
  5
1BA
331
4AC
  5
4E5
331
4E4
  5
4E6
331
227
  5
229
331
3DD
  5
483
331
627
  5
629
331
62F
  5
631
331
637
  5
639
331
5F8
  5
5FA
331
63F
  5
641
331
8ED
  5
987
331
C02
  5
C02
331
98C
  5
A93
331
132
  5
132
331
189
  5
18B
331
237
  5
239
331
13A
  5
13A
331
191
  5
193
331
200
  5
202
331
142
  5
142
331
10B
  5
10B
331
199
  5
19B
331
23F
  5
241
331
1A1
  5
1A3
331
113
  5
113
331
14A
  5
14A
331
247
  5
249
331
24F
  5
251
331
600
  5
602
331
608
  5
60A
331
88B
  5
88D
331
610
  5
612
331
893
  5
895
331
7C6
  5
7C8
331
618
  5
61A
331
815
  5
82E
331
89B
  5
89D
331
B44
  5
B46
331
B4C
  5
B4E
331
8DE
  5
8E0
331
B54
  5
B56
331
1A9
  5
1AB
331
11B
  5
11B
331
257
  5
263
331
16A
  5
16A
331
123
  5
123
331
218
  5
21A
331
1B9
  5
1BB
331
12B
  5
12B
331
4E5
  5
4E7
331
17A
  5
17C
331
228
  5
22D
331
620
  5
622
331
628
  5
62A
331
687
  5
723
331
630
  5
632
331
6A7
  5
724
331
5F9
  5
5FB
331
638
  5
63A
331
98D
  5
A94
331
1C9
  5
1FF
331
133
  5
133
331
18A
  5
18F
331
230
  5
232
331
192
  5
194
331
13B
  5
13B
331
238
  5
23A
331
240
  5
242
331
201
  5
203
331
143
  5
143
331
19A
  5
19C
331
248
  5
24A
331
14B
  5
14B
331
114
  5
114
331
1A2
  5
1A4
331
640
  5
642
331
601
  5
603
331
757
  5
759
331
609
  5
60B
331
88C
  5
88E
331
611
  5
613
331
894
  5
896
331
89C
  5
89E
331
619
  5
61B
331
7C7
  5
7C9
331
B45
  5
B47
331
B4D
  5
B4F
331
8DF
  5
8EC
331
11C
  5
11C
331
1AA
  5
1AC
331
250
  5
253
331
124
  5
124
331
16B
  5
16B
331
219
  5
21D
331
1BA
  5
1C9
331
12C
  5
12C
331
17B
  5
17D
331
229
  5
230
331
4E6
  5
4E8
331
621
  5
623
331
7D7
  5
7FC
331
629
  5
62B
331
631
  5
633
331
82E
  5
885
331
639
  5
63B
331
5FA
  5
5FC
331
885
  5
887
331
BCD
  5
16D
331
8EF
  5
988
331
231
  5
233
331
1CA
  5
200
331
134
  5
134
331
18B
  5
190
331
13C
  5
13C
331
193
  5
195
331
239
  5
23B
331
202
  5
204
331
144
  5
144
331
19B
  5
19D
331
241
  5
243
331
1A3
  5
1A5
331
115
  5
115
331
14C
  5
14C
331
249
  5
24B
331
641
  5
643
331
602
  5
604
331
88D
  5
88F
331
60A
  5
60C
331
758
  5
75A
331
895
  5
897
331
7C0
  5
7C2
331
612
  5
614
331
7C8
  5
7CA
331
61A
  5
61C
331
89D
  5
8D3
331
B46
  5
B48
331
B4E
  5
B50
331
8E0
  5
8ED
331
251
  5
254
331
11D
  5
11D
331
1AB
  5
1AF
331
16C
  5
16E
331
125
  5
125
331
21A
  5
21E
331
222
  5
226
331
1BB
  5
1CA
331
12D
  5
12D
331
17C
  5
17E
331
4E7
  5
4EE
331
622
  5
624
331
62A
  5
62C
331
632
  5
634
331
5FB
  5
5FD
331
63A
  5
63C
331
886
  5
888
331
987
  5
989
331
232
  5
234
331
135
  5
135
331
194
  5
197
331
13D
  5
13D
331
23A
  5
23C
331
242
  5
244
331
203
  5
205
331
145
  5
145
331
19C
  5
19E
331
14D
  5
14D
331
116
  5
116
331
1A4
  5
1A6
331
24A
  5
24C
331
642
  5
687
331
603
  5
605
331
808
  5
821
331
60B
  5
60D
331
759
  5
75B
331
88E
  5
890
331
896
  5
898
331
613
  5
615
331
7C1
  5
7C3
331
89E
  5
8DE
331
61B
  5
61D
331
7C9
  5
7D7
331
B47
  5
B49
331
B4F
  5
B51
331
BFE
  5
BFE
331
213
  5
215
331
11E
  5
11E
331
1AC
  5
1B0
331
1B4
  5
1B9
331
126
  5
126
331
16D
  5
16F
331
262
  5
264
331
12E
  5
12E
331
17D
  5
17F
331
623
  5
625
331
62B
  5
62D
331
633
  5
635
331
63B
  5
63D
331
5FC
  5
5FE
331
887
  5
889
331
C1E
  5
C1E
331
988
  5
98A
331
BE7
  5
BE7
331
233
  5
235
331
136
  5
136
331
13E
  5
13E
331
195
  5
198
331
23B
  5
23D
331
204
  5
206
331
19D
  5
19F
331
146
  5
146
331
243
  5
245
331
1A5
  5
1A7
331
117
  5
117
331
14E
  5
14E
331
24B
  5
24D
331
643
  5
6A7
331
604
  5
606
331
88F
  5
891
331
60C
  5
60E
331
75A
  5
75C
331
897
  5
899
331
7C2
  5
7C4
331
614
  5
616
331
61C
  5
61E
331
7CA
  5
7E3
331
B48
  5
B4A
331
B50
  5
B52
331
253
  5
256
331
214
  5
216
331
11F
  5
11F
331
16E
  5
170
331
127
  5
127
331
263
  5
265
331
224
  5
227
331
12F
  5
12F
331
17E
  5
188
331
624
  5
626
331
821
  5
83B
331
62C
  5
62E
331
723
  5
73B
331
634
  5
636
331
73B
  5
758
331
5FD
  5
5FF
331
63C
  5
63E
331
BD0
  5
16C
331
989
  5
98B
331
234
  5
236
331
23C
  5
23E
331
13F
  5
13F
331
244
  5
246
331
205
  5
213
331
147
  5
147
331
19E
  5
1A0
331
47A
  5
4AC
331
14F
  5
14F
331
1A6
  5
1A8
331
24C
  5
24E
331
888
  5
88A
331
605
  5
607
331
890
  5
892
331
60D
  5
60F
331
75B
  5
7C0
331
898
  5
89A
331
615
  5
617
331
7C3
  5
7C5
331
61D
  5
61F
331
B49
  5
B4B
331
8D3
  5
8DF
331
B51
  5
B53
331
118
  5
118
331
3C3
  5
47A
331
215
  5
217
331
120
  5
120
331
254
  5
257
331
264
  5
266
331
128
  5
128
331
16F
  5
171
331
21D
  5
21F
331
17F
  5
189
331
22D
  5
231
331
4E8
  5
5F8
331
625
  5
627
331
62D
  5
62F
331
724
  5
757
331
635
  5
637
331
7E3
  5
808
331
63D
  5
63F
331
5FE
  5
600
331
BD1
  5
BD1
331
98A
  5
98C
331
130
  5
130
331
235
  5
237
331
18F
  5
191
331
140
  5
140
331
197
  5
199
331
23D
  5
23F
331
245
  5
247
331
19F
  5
1A1
331
206
  5
214
331
1A7
  5
1A9
331
24D
  5
24F
331
606
  5
608
331
889
  5
88B
331
891
  5
893
331
60E
  5
610
331
75C
  5
7C1
331
7C4
  5
7C6
331
616
  5
618
331
899
  5
89B
  0
LAYOUT
  5
96E
102
{ACAD_REACTORS
330
96C
102
}
330
96C
100
AcDbPlotSettings
  1

  2
A4 EPSON LP-6100.pc3
  4
A4
  6

 40
5.873749732971191
 41
5.873747825622558
 42
5.873748779296875
 43
5.873748779296875
 44
209.9733276367187
 45
297.0106506347656
 46
1.5
 47
25.0
 48
0.0
 49
0.0
140
0.0
141
0.0
142
1.0
143
1.0
 70
 28336
 72
     1
 73
     1
 74
     1
  7
AutoCAD LT 98.ctb
 75
    16
147
1.0
 76
     1
 77
     2
 78
   300
148
-236.4583261120649
149
-171.6287515666504
100
AcDbLayout
  1
Model
 70
     1
 71
     0
 10
0.0
 20
0.0
 11
12.0
 21
9.0
 12
0.0
 22
0.0
 32
0.0
 14
0.0
 24
0.0
 34
0.0
 15
0.0
 25
0.0
 35
0.0
146
0.0
 13
0.0
 23
0.0
 33
0.0
 16
1.0
 26
0.0
 36
0.0
 17
0.0
 27
1.0
 37
0.0
 76
     0
330
18
1001
ACAD_PSEXT
1000
A4 EPSON LP-6100.pc3
1000
EPSON LP-6100
1000
USB002
1000

1070
     0
  0
LAYOUT
  5
96F
102
{ACAD_REACTORS
330
96C
102
}
330
96C
100
AcDbPlotSettings
  1

  2
C:\Documents and Settings\佐藤\Application Data\Autodesk\AutoCAD LT 2005\R10\jpn\plotters\PEACOCK EPSON LP-6100.pc3
  4

  6

 40
0.0
 41
0.0
 42
0.0
 43
0.0
 44
0.0
 45
0.0
 46
0.0
 47
0.0
 48
0.0
 49
0.0
140
0.0
141
0.0
142
1.0
143
1.0
 70
   688
 72
     0
 73
     0
 74
     5
  7
AutoCAD LT 98.ctb
 75
    16
147
1.0
 76
     0
 77
     2
 78
   300
148
0.0
149
0.0
100
AcDbLayout
  1
レイアウト1
 70
     1
 71
     1
 10
0.0
 20
0.0
 11
420.0
 21
297.0
 12
0.0
 22
0.0
 32
0.0
 14
1.000000000000000E+20
 24
1.000000000000000E+20
 34
1.000000000000000E+20
 15
-1.000000000000000E+20
 25
-1.000000000000000E+20
 35
-1.000000000000000E+20
146
0.0
 13
0.0
 23
0.0
 33
0.0
 16
1.0
 26
0.0
 36
0.0
 17
0.0
 27
1.0
 37
0.0
 76
     0
330
15
  0
MLINESTYLE
  5
1C
102
{ACAD_REACTORS
330
1B
102
}
330
1B
100
AcDbMlineStyle
  2
STANDARD
 70
     0
  3

 62
   256
 51
90.0
 52
90.0
 71
     2
 49
0.5
 62
   256
  6
BYLAYER
 49
-0.5
 62
   256
  6
BYLAYER
  0
ACDBPLACEHOLDER
  5
967
102
{ACAD_REACTORS
330
966
102
}
330
966
  0
ACAD_PROXY_OBJECT
  5
96B
102
{ACAD_REACTORS
330
96A
102
}
330
96A
100
AcDbProxyObject
 90
      499
 91
      504
 95
  2555929
 70
     0
 93
     1849
310
4214DD185B99185C992420000000000000F83F0000000000003E0FC00000000000004901028000000C1008070000C3001FDFF8000000C1003FBFF000000182007F7FE00000030400FEFFC00000060801FDFF8000000C1003FBFF000000182000000000000000C2020B0000001820100E000186003FBFF000000182007F7FE0
310
0000030400FEFFC00000060801FDFF8000000C1003FBFF000000182007F7FE0000003040000000000000012404160000003040201C00030C007F7FE00000030400FEFFC00000060801FDFF8000000C1003FBFF000000182007F7FE00000030400FEFFC000000608000
340
F
340
F
340
F
 94
        0
  0
DICTIONARYVAR
  5
BC3
102
{ACAD_REACTORS
330
208
102
}
330
208
100
DictionaryVariables
280
     0
  1
STANDARD
  0
DICTIONARYVAR
  5
209
102
{ACAD_REACTORS
330
208
102
}
330
208
100
DictionaryVariables
280
     0
  1
96
  0
ENDSEC
  0
EOF
