  0
SECTION
  2
HEADER
  9
$ACADVER
  1
AC1018
  9
$ACADMAINTVER
 70
     0
  9
$DWGCODEPAGE
  3
ANSI_932
  9
$INSBASE
 10
0.0
 20
0.0
 30
0.0
  9
$EXTMIN
 10
117.2982799230357
 20
-0.4045308316445926
 30
-0.0000610330594526
  9
$EXTMAX
 10
377.907715772637
 20
195.9424553994328
 30
0.0000152690345416
  9
$LIMMIN
 10
0.0
 20
0.0
  9
$LIMMAX
 10
420.0
 20
297.0
  9
$ORTHOMODE
 70
     1
  9
$REGENMODE
 70
     1
  9
$FILLMODE
 70
     1
  9
$QTEXTMODE
 70
     0
  9
$MIRRTEXT
 70
     1
  9
$LTSCALE
 40
1.0
  9
$ATTMODE
 70
     1
  9
$TEXTSIZE
 40
3.0
  9
$TRACEWID
 40
1.0
  9
$TEXTSTYLE
  7
STYLE3
  9
$CLAYER
  8
寸法線
  9
$CELTYPE
  6
BYLAYER
  9
$CECOLOR
 62
   256
  9
$CELTSCALE
 40
1.0
  9
$DISPSILH
 70
     0
  9
$DIMSCALE
 40
1.0
  9
$DIMASZ
 40
2.5
  9
$DIMEXO
 40
0.0
  9
$DIMDLI
 40
3.75
  9
$DIMRND
 40
0.0
  9
$DIMDLE
 40
0.0
  9
$DIMEXE
 40
1.25
  9
$DIMTP
 40
0.0
  9
$DIMTM
 40
0.0
  9
$DIMTXT
 40
2.5
  9
$DIMCEN
 40
2.5
  9
$DIMTSZ
 40
0.0
  9
$DIMTOL
 70
     0
  9
$DIMLIM
 70
     0
  9
$DIMTIH
 70
     0
  9
$DIMTOH
 70
     0
  9
$DIMSE1
 70
     0
  9
$DIMSE2
 70
     0
  9
$DIMTAD
 70
     1
  9
$DIMZIN
 70
     8
  9
$DIMBLK
  1

  9
$DIMASO
 70
     1
  9
$DIMSHO
 70
     1
  9
$DIMPOST
  1

  9
$DIMAPOST
  1

  9
$DIMALT
 70
     0
  9
$DIMALTD
 70
     4
  9
$DIMALTF
 40
0.0394
  9
$DIMLFAC
 40
1.0
  9
$DIMTOFL
 70
     1
  9
$DIMTVP
 40
0.0
  9
$DIMTIX
 70
     0
  9
$DIMSOXD
 70
     0
  9
$DIMSAH
 70
     1
  9
$DIMBLK1
  1
OPEN
  9
$DIMBLK2
  1
OPEN
  9
$DIMSTYLE
  2
STYLE3
  9
$DIMCLRD
 70
     2
  9
$DIMCLRE
 70
     2
  9
$DIMCLRT
 70
     6
  9
$DIMTFAC
 40
1.0
  9
$DIMGAP
 40
0.625
  9
$DIMJUST
 70
     0
  9
$DIMSD1
 70
     0
  9
$DIMSD2
 70
     0
  9
$DIMTOLJ
 70
     1
  9
$DIMTZIN
 70
     0
  9
$DIMALTZ
 70
     0
  9
$DIMALTTZ
 70
     0
  9
$DIMUPT
 70
     0
  9
$DIMDEC
 70
     2
  9
$DIMTDEC
 70
     4
  9
$DIMALTU
 70
     8
  9
$DIMALTTD
 70
     4
  9
$DIMTXSTY
  7
STYLE3
  9
$DIMAUNIT
 70
     0
  9
$DIMADEC
 70
     0
  9
$DIMALTRND
 40
0.0
  9
$DIMAZIN
 70
     0
  9
$DIMDSEP
 70
    46
  9
$DIMATFIT
 70
     3
  9
$DIMFRAC
 70
     0
  9
$DIMLDRBLK
  1

  9
$DIMLUNIT
 70
     2
  9
$DIMLWD
 70
    -2
  9
$DIMLWE
 70
    -2
  9
$DIMTMOVE
 70
     0
  9
$LUNITS
 70
     2
  9
$LUPREC
 70
     4
  9
$SKETCHINC
 40
1.0
  9
$FILLETRAD
 40
0.0
  9
$AUNITS
 70
     0
  9
$AUPREC
 70
     0
  9
$MENU
  1
.
  9
$ELEVATION
 40
0.0
  9
$PELEVATION
 40
0.0
  9
$THICKNESS
 40
0.0
  9
$LIMCHECK
 70
     0
  9
$CHAMFERA
 40
0.4
  9
$CHAMFERB
 40
0.4
  9
$CHAMFERC
 40
20.0
  9
$CHAMFERD
 40
0.0
  9
$SKPOLY
 70
     0
  9
$TDCREATE
 40
2451324.632665393
  9
$TDUCREATE
 40
2451324.257665393
  9
$TDUPDATE
 40
2455364.474764711
  9
$TDUUPDATE
 40
2455364.099764711
  9
$TDINDWG
 40
0.6367582639
  9
$TDUSRTIMER
 40
0.6367582639
  9
$USRTIMER
 70
     1
  9
$ANGBASE
 50
0.0
  9
$ANGDIR
 70
     0
  9
$PDMODE
 70
     0
  9
$PDSIZE
 40
0.0
  9
$PLINEWID
 40
0.0
  9
$SPLFRAME
 70
     0
  9
$SPLINETYPE
 70
     6
  9
$SPLINESEGS
 70
     8
  9
$HANDSEED
  5
1AA3
  9
$SURFTAB1
 70
     6
  9
$SURFTAB2
 70
     6
  9
$SURFTYPE
 70
     6
  9
$SURFU
 70
     6
  9
$SURFV
 70
     6
  9
$UCSBASE
  2

  9
$UCSNAME
  2

  9
$UCSORG
 10
0.0
 20
0.0
 30
0.0
  9
$UCSXDIR
 10
1.0
 20
0.0
 30
0.0
  9
$UCSYDIR
 10
0.0
 20
1.0
 30
0.0
  9
$UCSORTHOREF
  2

  9
$UCSORTHOVIEW
 70
     0
  9
$UCSORGTOP
 10
0.0
 20
0.0
 30
0.0
  9
$UCSORGBOTTOM
 10
0.0
 20
0.0
 30
0.0
  9
$UCSORGLEFT
 10
0.0
 20
0.0
 30
0.0
  9
$UCSORGRIGHT
 10
0.0
 20
0.0
 30
0.0
  9
$UCSORGFRONT
 10
0.0
 20
0.0
 30
0.0
  9
$UCSORGBACK
 10
0.0
 20
0.0
 30
0.0
  9
$PUCSBASE
  2

  9
$PUCSNAME
  2

  9
$PUCSORG
 10
0.0
 20
0.0
 30
0.0
  9
$PUCSXDIR
 10
1.0
 20
0.0
 30
0.0
  9
$PUCSYDIR
 10
0.0
 20
1.0
 30
0.0
  9
$PUCSORTHOREF
  2

  9
$PUCSORTHOVIEW
 70
     0
  9
$PUCSORGTOP
 10
0.0
 20
0.0
 30
0.0
  9
$PUCSORGBOTTOM
 10
0.0
 20
0.0
 30
0.0
  9
$PUCSORGLEFT
 10
0.0
 20
0.0
 30
0.0
  9
$PUCSORGRIGHT
 10
0.0
 20
0.0
 30
0.0
  9
$PUCSORGFRONT
 10
0.0
 20
0.0
 30
0.0
  9
$PUCSORGBACK
 10
0.0
 20
0.0
 30
0.0
  9
$USERI1
 70
     0
  9
$USERI2
 70
     0
  9
$USERI3
 70
     0
  9
$USERI4
 70
     0
  9
$USERI5
 70
     0
  9
$USERR1
 40
0.0
  9
$USERR2
 40
0.0
  9
$USERR3
 40
0.0
  9
$USERR4
 40
0.0
  9
$USERR5
 40
0.0
  9
$WORLDVIEW
 70
     1
  9
$SHADEDGE
 70
     3
  9
$SHADEDIF
 70
    70
  9
$TILEMODE
 70
     1
  9
$MAXACTVP
 70
    48
  9
$PINSBASE
 10
0.0
 20
0.0
 30
0.0
  9
$PLIMCHECK
 70
     0
  9
$PEXTMIN
 10
1.000000000000000E+20
 20
1.000000000000000E+20
 30
1.000000000000000E+20
  9
$PEXTMAX
 10
-1.000000000000000E+20
 20
-1.000000000000000E+20
 30
-1.000000000000000E+20
  9
$PLIMMIN
 10
0.0
 20
0.0
  9
$PLIMMAX
 10
420.0
 20
297.0
  9
$UNITMODE
 70
     0
  9
$VISRETAIN
 70
     1
  9
$PLINEGEN
 70
     0
  9
$PSLTSCALE
 70
     1
  9
$TREEDEPTH
 70
  3020
  9
$CMLSTYLE
  2
STANDARD
  9
$CMLJUST
 70
     0
  9
$CMLSCALE
 40
20.0
  9
$PROXYGRAPHICS
 70
     1
  9
$MEASUREMENT
 70
     1
  9
$CELWEIGHT
370
    -1
  9
$ENDCAPS
280
     0
  9
$JOINSTYLE
280
     0
  9
$LWDISPLAY
290
     0
  9
$INSUNITS
 70
     0
  9
$HYPERLINKBASE
  1

  9
$STYLESHEET
  1

  9
$XEDIT
290
     1
  9
$CEPSNTYPE
380
     0
  9
$PSTYLEMODE
290
     1
  9
$FINGERPRINTGUID
  2
{0000DBB9-2FB5-4C5A-88BF-42D332C76FD0}
  9
$VERSIONGUID
  2
{8DC3EC21-A649-43F7-A20E-DA52A92457FA}
  9
$EXTNAMES
290
     1
  9
$PSVPSCALE
 40
0.0
  9
$OLESTARTUP
290
     0
  9
$SORTENTS
280
    96
  9
$INDEXCTL
280
     0
  9
$HIDETEXT
280
     0
  9
$XCLIPFRAME
290
     0
  9
$HALOGAP
280
     0
  9
$OBSCOLOR
 70
   257
  9
$OBSLTYPE
280
     0
  9
$INTERSECTIONDISPLAY
280
     0
  9
$INTERSECTIONCOLOR
 70
   257
  9
$DIMASSOC
280
     1
  9
$PROJECTNAME
  1

  0
ENDSEC
  0
SECTION
  2
CLASSES
  0
CLASS
  1
HATCH
  2
AcDbHatch
  3
ObjectDBX Classes
 90
        0
 91
       13
280
     0
281
     1
  0
CLASS
  1
LWPOLYLINE
  2
AcDbPolyline
  3
ObjectDBX Classes
 90
        0
 91
        1
280
     0
281
     1
  0
CLASS
  1
DICTIONARYVAR
  2
AcDbDictionaryVar
  3
ObjectDBX Classes
 90
        0
 91
        2
280
     0
281
     0
  0
CLASS
  1
ACDBDICTIONARYWDFLT
  2
AcDbDictionaryWithDefault
  3
ObjectDBX Classes
 90
        0
 91
        1
280
     0
281
     0
  0
CLASS
  1
TABLESTYLE
  2
AcDbTableStyle
  3
ObjectDBX Classes
 90
     2047
 91
        1
280
     0
281
     0
  0
CLASS
  1
SORTENTSTABLE
  2
AcDbSortentsTable
  3
ObjectDBX Classes
 90
        0
 91
        1
280
     0
281
     0
  0
ENDSEC
  0
SECTION
  2
TABLES
  0
TABLE
  2
VPORT
  5
8
330
0
100
AcDbSymbolTable
 70
     3
  0
VPORT
  5
1AA2
330
8
100
AcDbSymbolTableRecord
100
AcDbViewportTableRecord
  2
*Active
 70
     0
 10
0.0
 20
0.0
 11
1.0
 21
1.0
 12
247.6029978478364
 22
97.76896228389411
 13
0.0
 23
0.0
 14
10.0
 24
10.0
 15
10.0
 25
10.0
 16
0.0
 26
0.0
 36
1.0
 17
0.0
 27
0.0
 37
0.0
 40
197.8401192062186
 41
1.530456852791878
 42
50.0
 43
0.0
 44
0.0
 50
0.0
 51
0.0
 71
     0
 72
   100
 73
     1
 74
     1
 75
     0
 76
     0
 77
     0
 78
     0
281
     0
 65
     1
110
0.0
120
0.0
130
0.0
111
1.0
121
0.0
131
0.0
112
0.0
122
1.0
132
0.0
 79
     0
146
0.0
  0
ENDTAB
  0
TABLE
  2
LTYPE
  5
5
330
0
100
AcDbSymbolTable
 70
     3
  0
LTYPE
  5
12
330
5
100
AcDbSymbolTableRecord
100
AcDbLinetypeTableRecord
  2
BYBLOCK
 70
     0
  3

 72
    65
 73
     0
 40
0.0
  0
LTYPE
  5
13
330
5
100
AcDbSymbolTableRecord
100
AcDbLinetypeTableRecord
  2
BYLAYER
 70
     0
  3

 72
    65
 73
     0
 40
0.0
  0
LTYPE
  5
14
330
5
100
AcDbSymbolTableRecord
100
AcDbLinetypeTableRecord
  2
CONTINUOUS
 70
     0
  3
Solid line
 72
    65
 73
     0
 40
0.0
  0
LTYPE
  5
22
330
5
100
AcDbSymbolTableRecord
100
AcDbLinetypeTableRecord
  2
CENTER2
 70
     0
  3
Center (.5x) ___ _ ___ _ ___ _ ___ _ ___ _ ___
 72
    65
 73
     4
 40
28.575
 49
19.05
 74
     0
 49
-3.174999999999999
 74
     0
 49
3.174999999999999
 74
     0
 49
-3.174999999999999
 74
     0
  0
LTYPE
  5
23
330
5
100
AcDbSymbolTableRecord
100
AcDbLinetypeTableRecord
  2
HIDDEN2
 70
     0
  3
Hidden (.5x) _ _ _ _ _ _ _ _ _ _ _ _ _ _ _ _ _
 72
    65
 73
     2
 40
4.762499999999999
 49
3.174999999999999
 74
     0
 49
-1.587499999999999
 74
     0
  0
ENDTAB
  0
TABLE
  2
LAYER
  5
2
330
0
100
AcDbSymbolTable
 70
    12
  0
LAYER
  5
E
330
2
100
AcDbSymbolTableRecord
100
AcDbLayerTableRecord
  2
0
 70
     0
 62
     7
  6
CONTINUOUS
370
    -3
390
12B3
  0
LAYER
  5
25
330
2
100
AcDbSymbolTableRecord
100
AcDbLayerTableRecord
  2
外形線
 70
     0
 62
     7
  6
CONTINUOUS
370
    -3
390
12B3
  0
LAYER
  5
26
330
2
100
AcDbSymbolTableRecord
100
AcDbLayerTableRecord
  2
寸法線
 70
     0
 62
     2
  6
CONTINUOUS
370
    -3
390
12B3
  0
LAYER
  5
27
330
2
100
AcDbSymbolTableRecord
100
AcDbLayerTableRecord
  2
中心線
 70
     0
 62
     4
  6
CENTER2
370
    -3
390
12B3
  0
LAYER
  5
2A
330
2
100
AcDbSymbolTableRecord
100
AcDbLayerTableRecord
  2
ﾊｯﾁﾝｸ
 70
     0
 62
     6
  6
CONTINUOUS
370
    -3
390
12B3
  0
LAYER
  5
2B
330
2
100
AcDbSymbolTableRecord
100
AcDbLayerTableRecord
  2
文字
 70
     0
 62
     6
  6
CONTINUOUS
370
    -3
390
12B3
  0
LAYER
  5
2C
330
2
100
AcDbSymbolTableRecord
100
AcDbLayerTableRecord
  2
目盛
 70
     0
 62
    72
  6
CONTINUOUS
370
    -3
390
12B3
  0
LAYER
  5
2D
330
2
100
AcDbSymbolTableRecord
100
AcDbLayerTableRecord
  2
針
 70
     0
 62
     5
  6
CONTINUOUS
370
    -3
390
12B3
  0
LAYER
  5
53
330
2
100
AcDbSymbolTableRecord
100
AcDbLayerTableRecord
  2
DEFPOINTS
 70
     0
 62
     7
  6
CONTINUOUS
290
     0
370
    -3
390
12B3
  0
LAYER
  5
A5
330
2
100
AcDbSymbolTableRecord
100
AcDbLayerTableRecord
  2
C
 70
     0
 62
     7
  6
CONTINUOUS
370
    -3
390
12B3
  0
LAYER
  5
1FE
330
2
100
AcDbSymbolTableRecord
100
AcDbLayerTableRecord
  2
隠れ線2
 70
     0
 62
     1
  6
HIDDEN2
370
    -3
390
12B3
  0
LAYER
  5
295
330
2
100
AcDbSymbolTableRecord
100
AcDbLayerTableRecord
  2
ROGO
 70
     0
 62
     6
  6
CONTINUOUS
370
    -3
390
12B3
  0
ENDTAB
  0
TABLE
  2
STYLE
  5
3
330
0
100
AcDbSymbolTable
 70
     3
  0
STYLE
  5
F
330
3
100
AcDbSymbolTableRecord
100
AcDbTextStyleTableRecord
  2
STANDARD
 70
     0
 40
0.0
 41
1.0
 50
0.0
 71
     0
 42
2.5
  3
txt
  4

  0
STYLE
  5
3F
330
3
100
AcDbSymbolTableRecord
100
AcDbTextStyleTableRecord
  2
STYLE3
 70
     0
 40
0.0
 41
1.0
 50
0.0
 71
     0
 42
3.0
  3
romans.shx
  4
bigfont.shx
  0
ENDTAB
  0
TABLE
  2
VIEW
  5
6
330
0
100
AcDbSymbolTable
 70
     0
  0
ENDTAB
  0
TABLE
  2
UCS
  5
7
330
0
100
AcDbSymbolTable
 70
     0
  0
ENDTAB
  0
TABLE
  2
APPID
  5
9
330
0
100
AcDbSymbolTable
 70
     1
  0
APPID
  5
10
330
9
100
AcDbSymbolTableRecord
100
AcDbRegAppTableRecord
  2
ACAD
 70
     0
  0
ENDTAB
  0
TABLE
  2
DIMSTYLE
  5
A
330
0
100
AcDbSymbolTable
 70
     2
100
AcDbDimStyleTable
 71
     1
340
8F
  0
DIMSTYLE
105
1D
330
A
100
AcDbSymbolTableRecord
100
AcDbDimStyleTableRecord
  2
STANDARD
 70
     0
 41
2.5
 42
0.625
 43
3.75
 44
1.25
 73
     0
 74
     0
 77
     1
 78
     8
140
2.5
141
2.5
143
0.0394
147
0.625
171
     4
172
     1
273
     8
274
     4
277
     6
340
F
  0
DIMSTYLE
105
8F
102
{ACAD_REACTORS
330
F25
330
FBC
330
1045
330
1052
330
1061
330
1087
330
11A5
330
11F9
330
1231
102
}
330
A
100
AcDbSymbolTableRecord
100
AcDbDimStyleTableRecord
  2
STYLE3
 70
     0
 41
2.5
 42
0.0
 43
3.75
 44
1.25
 73
     0
 74
     0
 77
     1
 78
     8
140
2.5
141
2.5
143
0.0394
147
0.625
171
     4
172
     1
173
     1
176
     2
177
     2
178
     6
271
     1
273
     8
274
     4
340
3F
341
45
343
45
344
45
  0
ENDTAB
  0
TABLE
  2
BLOCK_RECORD
  5
1
330
0
100
AcDbSymbolTable
 70
    34
  0
BLOCK_RECORD
  5
18
102
{ACAD_XDICTIONARY
360
186C
102
}
330
1
100
AcDbSymbolTableRecord
100
AcDbBlockTableRecord
  2
*MODEL_SPACE
340
12BA
  0
BLOCK_RECORD
  5
15
330
1
100
AcDbSymbolTableRecord
100
AcDbBlockTableRecord
  2
*PAPER_SPACE
340
12BB
  0
BLOCK_RECORD
  5
45
330
1
100
AcDbSymbolTableRecord
100
AcDbBlockTableRecord
  2
_OPEN
340
0
102
{BLKREFS
331
AF1
331
C25
331
C26
331
10FB
331
10FC
331
127B
331
127C
331
12C5
331
12C6
331
12D1
331
12D2
331
12DC
331
12DD
331
12E8
331
12E9
331
12F4
331
12F5
331
1300
331
1301
331
130E
331
130F
331
131A
331
131B
331
1326
331
1327
331
17CB
331
17CC
331
17D4
331
17D5
331
17DC
331
17DD
331
17E5
331
17E6
331
17EE
331
17EF
331
17F7
331
17F8
331
1802
331
1803
331
180B
331
180C
331
1814
331
1815
331
184B
331
184C
331
1854
331
1855
331
1869
331
186A
331
1871
331
1872
331
18FB
331
18FC
331
1A45
331
1A46
331
1A4E
331
1A4F
331
1A57
331
1A58
331
1A60
331
1A61
331
1A69
331
1A6A
331
1A74
331
1A75
331
1A7D
331
1A7E
331
1A86
331
1A87
331
1A91
331
1A92
102
}
  0
BLOCK_RECORD
  5
F19
330
1
100
AcDbSymbolTableRecord
100
AcDbBlockTableRecord
  2
*D3
340
0
  0
BLOCK_RECORD
  5
FB0
330
1
100
AcDbSymbolTableRecord
100
AcDbBlockTableRecord
  2
*D4
340
0
  0
BLOCK_RECORD
  5
1039
330
1
100
AcDbSymbolTableRecord
100
AcDbBlockTableRecord
  2
*D5
340
0
  0
BLOCK_RECORD
  5
1046
330
1
100
AcDbSymbolTableRecord
100
AcDbBlockTableRecord
  2
*D6
340
0
  0
BLOCK_RECORD
  5
1053
330
1
100
AcDbSymbolTableRecord
100
AcDbBlockTableRecord
  2
*D7
340
0
  0
BLOCK_RECORD
  5
107B
330
1
100
AcDbSymbolTableRecord
100
AcDbBlockTableRecord
  2
*D8
340
0
  0
BLOCK_RECORD
  5
1199
330
1
100
AcDbSymbolTableRecord
100
AcDbBlockTableRecord
  2
*D9
340
0
  0
BLOCK_RECORD
  5
11ED
330
1
100
AcDbSymbolTableRecord
100
AcDbBlockTableRecord
  2
*D10
340
0
  0
BLOCK_RECORD
  5
1223
330
1
100
AcDbSymbolTableRecord
100
AcDbBlockTableRecord
  2
*D13
340
0
  0
ENDTAB
  0
ENDSEC
  0
SECTION
  2
BLOCKS
  0
BLOCK
  5
19
330
18
100
AcDbEntity
  8
0
100
AcDbBlockBegin
  2
*MODEL_SPACE
 70
     0
 10
0.0
 20
0.0
 30
0.0
  3
*MODEL_SPACE
  1

  0
ENDBLK
  5
1A
330
18
100
AcDbEntity
  8
0
100
AcDbBlockEnd
  0
BLOCK
  5
16
330
15
100
AcDbEntity
 67
     1
  8
0
100
AcDbBlockBegin
  2
*PAPER_SPACE
 70
     0
 10
0.0
 20
0.0
 30
0.0
  3
*PAPER_SPACE
  1

  0
ENDBLK
  5
17
330
15
100
AcDbEntity
 67
     1
  8
0
100
AcDbBlockEnd
  0
BLOCK
  5
46
330
45
100
AcDbEntity
  8
0
100
AcDbBlockBegin
  2
_OPEN
 70
     0
 10
0.0
 20
0.0
 30
0.0
  3
_OPEN
  1

  0
LINE
  5
47
330
45
100
AcDbEntity
  8
0
  6
ByBlock
 62
     0
100
AcDbLine
 10
-1.0
 20
0.1666666666666666
 30
0.0
 11
0.0
 21
0.0
 31
0.0
  0
LINE
  5
48
330
45
100
AcDbEntity
  8
0
  6
ByBlock
 62
     0
100
AcDbLine
 10
0.0
 20
0.0
 30
0.0
 11
-1.0
 21
-0.1666666666666666
 31
0.0
  0
LINE
  5
49
330
45
100
AcDbEntity
  8
0
  6
ByBlock
 62
     0
100
AcDbLine
 10
0.0
 20
0.0
 30
0.0
 11
-1.0
 21
0.0
 31
0.0
  0
ENDBLK
  5
4A
330
45
100
AcDbEntity
  8
0
100
AcDbBlockEnd
  0
BLOCK
  5
116F
330
F19
100
AcDbEntity
  8
0
100
AcDbBlockBegin
  2
*D3
 70
     1
 10
0.0
 20
0.0
 30
0.0
  3
*D3
  1

  0
LINE
  5
1A5D
330
F19
100
AcDbEntity
  8
寸法線
 62
     2
370
    -2
100
AcDbLine
 10
242.1511298874462
 20
137.6086252449489
 30
0.0
 11
242.1511298874462
 21
164.3311504991827
 31
0.0
  0
LINE
  5
1A5E
330
F19
100
AcDbEntity
  8
寸法線
 62
     2
370
    -2
100
AcDbLine
 10
273.1511298874462
 20
137.6086252449489
 30
0.0
 11
273.1511298874462
 21
164.3311504991827
 31
0.0
  0
LINE
  5
1A5F
330
F19
100
AcDbEntity
  8
寸法線
 62
     2
370
    -2
100
AcDbLine
 10
244.6511298874462
 20
163.0811504991827
 30
0.0
 11
270.6511298874462
 21
163.0811504991827
 31
0.0
  0
INSERT
  5
1A60
330
F19
100
AcDbEntity
  8
寸法線
 62
     2
370
    -2
100
AcDbBlockReference
  2
_OPEN
 10
242.1511298874462
 20
163.0811504991827
 30
0.0
 41
2.5
 42
2.5
 43
2.5
 50
180.0
  0
INSERT
  5
1A61
330
F19
100
AcDbEntity
  8
寸法線
 62
     2
370
    -2
100
AcDbBlockReference
  2
_OPEN
 10
273.1511298874462
 20
163.0811504991827
 30
0.0
 41
2.5
 42
2.5
 43
2.5
  0
MTEXT
  5
1A62
330
F19
100
AcDbEntity
  8
寸法線
 62
     6
100
AcDbMText
 10
257.6511298874462
 20
164.9561504991827
 30
0.0
 40
2.5
 41
0.0
 71
     5
 72
     1
  1
\A1;φ31
  7
STYLE3
 73
     1
 44
1.0
  0
POINT
  5
1A63
330
F19
100
AcDbEntity
  8
DEFPOINTS
 62
     0
100
AcDbPoint
 10
242.1511298874462
 20
137.6086252449489
 30
0.0
  0
POINT
  5
1A64
330
F19
100
AcDbEntity
  8
DEFPOINTS
 62
     0
100
AcDbPoint
 10
273.1511298874462
 20
137.6086252449489
 30
0.0
  0
POINT
  5
1A65
330
F19
100
AcDbEntity
  8
DEFPOINTS
 62
     0
100
AcDbPoint
 10
273.1511298874462
 20
163.0811504991827
 30
0.0
  0
ENDBLK
  5
1179
330
F19
100
AcDbEntity
  8
0
100
AcDbBlockEnd
  0
BLOCK
  5
126D
330
FB0
100
AcDbEntity
  8
0
100
AcDbBlockBegin
  2
*D4
 70
     1
 10
0.0
 20
0.0
 30
0.0
  3
*D4
  1

  0
LINE
  5
1A83
330
FB0
100
AcDbEntity
  8
寸法線
 62
     2
370
    -2
100
AcDbLine
 10
221.6511298874462
 20
134.1086252449489
 30
0.0
 11
221.6511298874462
 21
106.4990934124114
 31
0.0
  0
LINE
  5
1A84
330
FB0
100
AcDbEntity
  8
寸法線
 62
     2
370
    -2
100
AcDbLine
 10
257.6511298874461
 20
116.1697398211984
 30
0.0
 11
257.6511298874461
 21
106.4990934124114
 31
0.0
  0
LINE
  5
1A85
330
FB0
100
AcDbEntity
  8
寸法線
 62
     2
370
    -2
100
AcDbLine
 10
224.1511298874462
 20
107.7490934124114
 30
0.0
 11
255.1511298874461
 21
107.7490934124114
 31
0.0
  0
INSERT
  5
1A86
330
FB0
100
AcDbEntity
  8
寸法線
 62
     2
370
    -2
100
AcDbBlockReference
  2
_OPEN
 10
221.6511298874462
 20
107.7490934124114
 30
0.0
 41
2.5
 42
2.5
 43
2.5
 50
180.0
  0
INSERT
  5
1A87
330
FB0
100
AcDbEntity
  8
寸法線
 62
     2
370
    -2
100
AcDbBlockReference
  2
_OPEN
 10
257.6511298874461
 20
107.7490934124114
 30
0.0
 41
2.5
 42
2.5
 43
2.5
  0
MTEXT
  5
1A88
330
FB0
100
AcDbEntity
  8
寸法線
 62
     6
100
AcDbMText
 10
239.6511298874461
 20
109.6240934124114
 30
0.0
 40
2.5
 41
0.0
 71
     5
 72
     1
  1
\A1;36
  7
STYLE3
 73
     1
 44
1.0
  0
POINT
  5
1A89
330
FB0
100
AcDbEntity
  8
DEFPOINTS
 62
     0
100
AcDbPoint
 10
221.6511298874462
 20
134.1086252449489
 30
0.0
  0
POINT
  5
1A8A
330
FB0
100
AcDbEntity
  8
DEFPOINTS
 62
     0
100
AcDbPoint
 10
257.6511298874461
 20
116.1697398211984
 30
0.0
  0
POINT
  5
1A8B
330
FB0
100
AcDbEntity
  8
DEFPOINTS
 62
     0
100
AcDbPoint
 10
257.6511298874461
 20
107.7490934124114
 30
0.0
  0
ENDBLK
  5
1277
330
FB0
100
AcDbEntity
  8
0
100
AcDbBlockEnd
  0
BLOCK
  5
10A9
330
1039
100
AcDbEntity
  8
0
100
AcDbBlockBegin
  2
*D5
 70
     1
 10
0.0
 20
0.0
 30
0.0
  3
*D5
  1

  0
LINE
  5
1A4B
330
1039
100
AcDbEntity
  8
寸法線
 62
     2
370
    -2
100
AcDbLine
 10
228.6511298874462
 20
42.02534753865665
 30
0.0
 11
192.2296641060007
 21
42.02534753865666
 31
0.0
  0
LINE
  5
1A4C
330
1039
100
AcDbEntity
  8
寸法線
 62
     2
370
    -2
100
AcDbLine
 10
228.6511298874462
 20
80.02534753865663
 30
0.0
 11
192.2296641060007
 21
80.02534753865665
 31
0.0
  0
LINE
  5
1A4D
330
1039
100
AcDbEntity
  8
寸法線
 62
     2
370
    -2
100
AcDbLine
 10
193.4796641060007
 20
44.52534753865666
 30
0.0
 11
193.4796641060007
 21
77.52534753865664
 31
0.0
  0
INSERT
  5
1A4E
330
1039
100
AcDbEntity
  8
寸法線
 62
     2
370
    -2
100
AcDbBlockReference
  2
_OPEN
 10
193.4796641060007
 20
42.02534753865666
 30
0.0
 41
2.5
 42
2.5
 43
2.5
 50
270.0
  0
INSERT
  5
1A4F
330
1039
100
AcDbEntity
  8
寸法線
 62
     2
370
    -2
100
AcDbBlockReference
  2
_OPEN
 10
193.4796641060007
 20
80.02534753865665
 30
0.0
 41
2.5
 42
2.5
 43
2.5
 50
90.0
  0
MTEXT
  5
1A50
330
1039
100
AcDbEntity
  8
寸法線
 62
     6
100
AcDbMText
 10
191.6046641060007
 20
61.02534753865668
 30
0.0
 40
2.5
 41
0.0
 71
     5
 72
     1
  1
\A1;φ38
  7
STYLE3
 11
0.0000000000000001
 21
1.0
 31
0.0
 73
     1
 44
1.0
  0
POINT
  5
1A51
330
1039
100
AcDbEntity
  8
DEFPOINTS
 62
     0
100
AcDbPoint
 10
228.6511298874462
 20
42.02534753865665
 30
0.0
  0
POINT
  5
1A52
330
1039
100
AcDbEntity
  8
DEFPOINTS
 62
     0
100
AcDbPoint
 10
228.6511298874462
 20
80.02534753865663
 30
0.0
  0
POINT
  5
1A53
330
1039
100
AcDbEntity
  8
DEFPOINTS
 62
     0
100
AcDbPoint
 10
193.4796641060007
 20
80.02534753865665
 30
0.0
  0
ENDBLK
  5
10B3
330
1039
100
AcDbEntity
  8
0
100
AcDbBlockEnd
  0
BLOCK
  5
10B4
330
1046
100
AcDbEntity
  8
0
100
AcDbBlockBegin
  2
*D6
 70
     1
 10
0.0
 20
0.0
 30
0.0
  3
*D6
  1

  0
LINE
  5
1A54
330
1046
100
AcDbEntity
  8
寸法線
 62
     2
370
    -2
100
AcDbLine
 10
207.1511298874462
 20
77.02534753865666
 30
0.0
 11
198.7394273294685
 21
77.02534753865666
 31
0.0
  0
LINE
  5
1A55
330
1046
100
AcDbEntity
  8
寸法線
 62
     2
370
    -2
100
AcDbLine
 10
207.1511298874462
 20
45.02534753865666
 30
0.0
 11
198.7394273294685
 21
45.02534753865666
 31
0.0
  0
LINE
  5
1A56
330
1046
100
AcDbEntity
  8
寸法線
 62
     2
370
    -2
100
AcDbLine
 10
199.9894273294685
 20
74.52534753865666
 30
0.0
 11
199.9894273294685
 21
47.52534753865666
 31
0.0
  0
INSERT
  5
1A57
330
1046
100
AcDbEntity
  8
寸法線
 62
     2
370
    -2
100
AcDbBlockReference
  2
_OPEN
 10
199.9894273294685
 20
77.02534753865666
 30
0.0
 41
2.5
 42
2.5
 43
2.5
 50
90.0
  0
INSERT
  5
1A58
330
1046
100
AcDbEntity
  8
寸法線
 62
     2
370
    -2
100
AcDbBlockReference
  2
_OPEN
 10
199.9894273294685
 20
45.02534753865666
 30
0.0
 41
2.5
 42
2.5
 43
2.5
 50
270.0
  0
MTEXT
  5
1A59
330
1046
100
AcDbEntity
  8
寸法線
 62
     6
100
AcDbMText
 10
198.1144273294685
 20
61.02534753865668
 30
0.0
 40
2.5
 41
0.0
 71
     5
 72
     1
  1
\A1;φ32
  7
STYLE3
 11
0.0000000000000001
 21
1.0
 31
0.0
 73
     1
 44
1.0
  0
POINT
  5
1A5A
330
1046
100
AcDbEntity
  8
DEFPOINTS
 62
     0
100
AcDbPoint
 10
207.1511298874462
 20
77.02534753865666
 30
0.0
  0
POINT
  5
1A5B
330
1046
100
AcDbEntity
  8
DEFPOINTS
 62
     0
100
AcDbPoint
 10
207.1511298874462
 20
45.02534753865666
 30
0.0
  0
POINT
  5
1A5C
330
1046
100
AcDbEntity
  8
DEFPOINTS
 62
     0
100
AcDbPoint
 10
199.9894273294685
 20
45.02534753865666
 30
0.0
  0
ENDBLK
  5
10BE
330
1046
100
AcDbEntity
  8
0
100
AcDbBlockEnd
  0
BLOCK
  5
118C
330
1053
100
AcDbEntity
  8
0
100
AcDbBlockBegin
  2
*D7
 70
     1
 10
0.0
 20
0.0
 30
0.0
  3
*D7
  1

  0
LINE
  5
1A6F
330
1053
100
AcDbEntity
  8
寸法線
 62
     2
370
    -2
100
AcDbLine
 10
231.2511298874462
 20
42.02534753865665
 30
0.0
 11
231.2511298874462
 21
33.6903425603241
 31
0.0
  0
LINE
  5
1A70
330
1053
100
AcDbEntity
  8
寸法線
 62
     2
370
    -2
100
AcDbLine
 10
228.1511298874463
 20
47.02534753865665
 30
0.0
 11
228.1511298874463
 21
33.6903425603241
 31
0.0
  0
LINE
  5
1A71
330
1053
100
AcDbEntity
  8
寸法線
 62
     2
370
    -2
100
AcDbLine
 10
233.7511298874462
 20
34.9403425603241
 30
0.0
 11
236.2511298874462
 21
34.9403425603241
 31
0.0
  0
LINE
  5
1A72
330
1053
100
AcDbEntity
  8
寸法線
 62
     2
370
    -2
100
AcDbLine
 10
225.6511298874463
 20
34.9403425603241
 30
0.0
 11
223.1511298874462
 21
34.9403425603241
 31
0.0
  0
LINE
  5
1A73
330
1053
100
AcDbEntity
  8
寸法線
 62
     2
370
    -2
100
AcDbLine
 10
231.2511298874462
 20
34.9403425603241
 30
0.0
 11
228.1511298874463
 21
34.9403425603241
 31
0.0
  0
INSERT
  5
1A74
330
1053
100
AcDbEntity
  8
寸法線
 62
     2
370
    -2
100
AcDbBlockReference
  2
_OPEN
 10
231.2511298874462
 20
34.9403425603241
 30
0.0
 41
2.5
 42
2.5
 43
2.5
 50
180.0
  0
INSERT
  5
1A75
330
1053
100
AcDbEntity
  8
寸法線
 62
     2
370
    -2
100
AcDbBlockReference
  2
_OPEN
 10
228.1511298874463
 20
34.9403425603241
 30
0.0
 41
2.5
 42
2.5
 43
2.5
  0
MTEXT
  5
1A76
330
1053
100
AcDbEntity
  8
寸法線
 62
     6
100
AcDbMText
 10
229.7011298874462
 20
36.8153425603241
 30
0.0
 40
2.5
 41
0.0
 71
     5
 72
     1
  1
\A1;3
  7
STYLE3
 73
     1
 44
1.0
  0
POINT
  5
1A77
330
1053
100
AcDbEntity
  8
DEFPOINTS
 62
     0
100
AcDbPoint
 10
231.2511298874462
 20
42.02534753865665
 30
0.0
  0
POINT
  5
1A78
330
1053
100
AcDbEntity
  8
DEFPOINTS
 62
     0
100
AcDbPoint
 10
228.1511298874463
 20
47.02534753865665
 30
0.0
  0
POINT
  5
1A79
330
1053
100
AcDbEntity
  8
DEFPOINTS
 62
     0
100
AcDbPoint
 10
228.1511298874463
 20
34.9403425603241
 30
0.0
  0
ENDBLK
  5
1198
330
1053
100
AcDbEntity
  8
0
100
AcDbBlockEnd
  0
BLOCK
  5
1181
330
107B
100
AcDbEntity
  8
0
100
AcDbBlockBegin
  2
*D8
 70
     1
 10
0.0
 20
0.0
 30
0.0
  3
*D8
  1

  0
LINE
  5
1A42
330
107B
100
AcDbEntity
  8
寸法線
 62
     2
370
    -2
100
AcDbLine
 10
207.1511298874462
 20
45.02534753865666
 30
0.0
 11
207.1511298874462
 21
33.6903425603241
 31
0.0
  0
LINE
  5
1A43
330
107B
100
AcDbEntity
  8
寸法線
 62
     2
370
    -2
100
AcDbLine
 10
228.1511298874463
 20
36.55263037800984
 30
0.0
 11
228.1511298874463
 21
33.6903425603241
 31
0.0
  0
LINE
  5
1A44
330
107B
100
AcDbEntity
  8
寸法線
 62
     2
370
    -2
100
AcDbLine
 10
209.6511298874462
 20
34.9403425603241
 30
0.0
 11
225.6511298874463
 21
34.9403425603241
 31
0.0
  0
INSERT
  5
1A45
330
107B
100
AcDbEntity
  8
寸法線
 62
     2
370
    -2
100
AcDbBlockReference
  2
_OPEN
 10
207.1511298874462
 20
34.9403425603241
 30
0.0
 41
2.5
 42
2.5
 43
2.5
 50
180.0
  0
INSERT
  5
1A46
330
107B
100
AcDbEntity
  8
寸法線
 62
     2
370
    -2
100
AcDbBlockReference
  2
_OPEN
 10
228.1511298874463
 20
34.9403425603241
 30
0.0
 41
2.5
 42
2.5
 43
2.5
  0
MTEXT
  5
1A47
330
107B
100
AcDbEntity
  8
寸法線
 62
     6
100
AcDbMText
 10
217.6511298874462
 20
36.8153425603241
 30
0.0
 40
2.5
 41
0.0
 71
     5
 72
     1
  1
\A1;21
  7
STYLE3
 73
     1
 44
1.0
  0
POINT
  5
1A48
330
107B
100
AcDbEntity
  8
DEFPOINTS
 62
     0
100
AcDbPoint
 10
207.1511298874462
 20
45.02534753865666
 30
0.0
  0
POINT
  5
1A49
330
107B
100
AcDbEntity
  8
DEFPOINTS
 62
     0
100
AcDbPoint
 10
228.1511298874463
 20
36.55263037800984
 30
0.0
  0
POINT
  5
1A4A
330
107B
100
AcDbEntity
  8
DEFPOINTS
 62
     0
100
AcDbPoint
 10
228.1511298874463
 20
34.9403425603241
 30
0.0
  0
ENDBLK
  5
118B
330
107B
100
AcDbEntity
  8
0
100
AcDbBlockEnd
  0
BLOCK
  5
119A
330
1199
100
AcDbEntity
  8
0
100
AcDbBlockBegin
  2
*D9
 70
     1
 10
0.0
 20
0.0
 30
0.0
  3
*D9
  1

  0
LINE
  5
1A66
330
1199
100
AcDbEntity
  8
寸法線
 62
     2
370
    -2
100
AcDbLine
 10
228.1511298874463
 20
151.6086252449489
 30
0.0
 11
228.1511298874463
 21
164.1042175293583
 31
0.0
  0
LINE
  5
1A67
330
1199
100
AcDbEntity
  8
寸法線
 62
     2
370
    -2
100
AcDbLine
 10
213.1511298874462
 20
141.6086252449489
 30
0.0
 11
213.1511298874462
 21
164.1042175293583
 31
0.0
  0
LINE
  5
1A68
330
1199
100
AcDbEntity
  8
寸法線
 62
     2
370
    -2
100
AcDbLine
 10
225.6511298874463
 20
162.8542175293583
 30
0.0
 11
215.6511298874462
 21
162.8542175293583
 31
0.0
  0
INSERT
  5
1A69
330
1199
100
AcDbEntity
  8
寸法線
 62
     2
370
    -2
100
AcDbBlockReference
  2
_OPEN
 10
228.1511298874463
 20
162.8542175293583
 30
0.0
 41
2.5
 42
2.5
 43
2.5
  0
INSERT
  5
1A6A
330
1199
100
AcDbEntity
  8
寸法線
 62
     2
370
    -2
100
AcDbBlockReference
  2
_OPEN
 10
213.1511298874462
 20
162.8542175293583
 30
0.0
 41
2.5
 42
2.5
 43
2.5
 50
180.0
  0
MTEXT
  5
1A6B
330
1199
100
AcDbEntity
  8
寸法線
 62
     6
100
AcDbMText
 10
220.6511298874462
 20
164.7292175293583
 30
0.0
 40
2.5
 41
0.0
 71
     5
 72
     1
  1
\A1;15
  7
STYLE3
 73
     1
 44
1.0
  0
POINT
  5
1A6C
330
1199
100
AcDbEntity
  8
DEFPOINTS
 62
     0
100
AcDbPoint
 10
228.1511298874463
 20
151.6086252449489
 30
0.0
  0
POINT
  5
1A6D
330
1199
100
AcDbEntity
  8
DEFPOINTS
 62
     0
100
AcDbPoint
 10
213.1511298874462
 20
141.6086252449489
 30
0.0
  0
POINT
  5
1A6E
330
1199
100
AcDbEntity
  8
DEFPOINTS
 62
     0
100
AcDbPoint
 10
213.1511298874462
 20
162.8542175293583
 30
0.0
  0
ENDBLK
  5
11A4
330
1199
100
AcDbEntity
  8
0
100
AcDbBlockEnd
  0
BLOCK
  5
11EE
330
11ED
100
AcDbEntity
  8
0
100
AcDbBlockBegin
  2
*D10
 70
     1
 10
0.0
 20
0.0
 30
0.0
  3
*D10
  1

  0
LINE
  5
1A7A
330
11ED
100
AcDbEntity
  8
寸法線
 62
     2
370
    -2
100
AcDbLine
 10
298.6511298874462
 20
111.5979395279067
 30
0.0
 11
298.6511298874462
 21
106.4990934124114
 31
0.0
  0
LINE
  5
1A7B
330
11ED
100
AcDbEntity
  8
寸法線
 62
     2
370
    -2
100
AcDbLine
 10
257.6511298874461
 20
109.9880125609391
 30
0.0
 11
257.6511298874461
 21
106.4990934124114
 31
0.0
  0
LINE
  5
1A7C
330
11ED
100
AcDbEntity
  8
寸法線
 62
     2
370
    -2
100
AcDbLine
 10
296.1511298874462
 20
107.7490934124114
 30
0.0
 11
260.1511298874461
 21
107.7490934124114
 31
0.0
  0
INSERT
  5
1A7D
330
11ED
100
AcDbEntity
  8
寸法線
 62
     2
370
    -2
100
AcDbBlockReference
  2
_OPEN
 10
298.6511298874462
 20
107.7490934124114
 30
0.0
 41
2.5
 42
2.5
 43
2.5
  0
INSERT
  5
1A7E
330
11ED
100
AcDbEntity
  8
寸法線
 62
     2
370
    -2
100
AcDbBlockReference
  2
_OPEN
 10
257.6511298874461
 20
107.7490934124114
 30
0.0
 41
2.5
 42
2.5
 43
2.5
 50
180.0
  0
MTEXT
  5
1A7F
330
11ED
100
AcDbEntity
  8
寸法線
 62
     6
100
AcDbMText
 10
278.1511298874461
 20
109.6240934124114
 30
0.0
 40
2.5
 41
0.0
 71
     5
 72
     1
  1
\A1;41
  7
STYLE3
 73
     1
 44
1.0
  0
POINT
  5
1A80
330
11ED
100
AcDbEntity
  8
DEFPOINTS
 62
     0
100
AcDbPoint
 10
298.6511298874462
 20
111.5979395279067
 30
0.0
  0
POINT
  5
1A81
330
11ED
100
AcDbEntity
  8
DEFPOINTS
 62
     0
100
AcDbPoint
 10
257.6511298874461
 20
109.9880125609391
 30
0.0
  0
POINT
  5
1A82
330
11ED
100
AcDbEntity
  8
DEFPOINTS
 62
     0
100
AcDbPoint
 10
257.6511298874461
 20
107.7490934124114
 30
0.0
  0
ENDBLK
  5
11F8
330
11ED
100
AcDbEntity
  8
0
100
AcDbBlockEnd
  0
BLOCK
  5
1232
330
1223
100
AcDbEntity
  8
0
100
AcDbBlockBegin
  2
*D13
 70
     1
 10
0.0
 20
0.0
 30
0.0
  3
*D13
  1

  0
LINE
  5
1A8C
330
1223
100
AcDbEntity
  8
寸法線
 62
     2
370
    -2
100
AcDbLine
 10
290.0113113705834
 20
59.02534753865666
 30
0.0
 11
288.4252551244629
 21
59.02534753865666
 31
0.0
  0
LINE
  5
1A8D
330
1223
100
AcDbEntity
  8
寸法線
 62
     2
370
    -2
100
AcDbLine
 10
289.6752551244629
 20
63.02534753865666
 30
0.0
 11
288.4252551244629
 21
63.02534753865666
 31
0.0
  0
LINE
  5
1A8E
330
1223
100
AcDbEntity
  8
寸法線
 62
     2
370
    -2
100
AcDbLine
 10
289.6752551244629
 20
56.52534753865666
 30
0.0
 11
289.6752551244629
 21
54.02534753865666
 31
0.0
  0
LINE
  5
1A8F
330
1223
100
AcDbEntity
  8
寸法線
 62
     2
370
    -2
100
AcDbLine
 10
289.6752551244629
 20
65.52534753865664
 30
0.0
 11
289.6752551244629
 21
73.91820468151379
 31
0.0
  0
LINE
  5
1A90
330
1223
100
AcDbEntity
  8
寸法線
 62
     2
370
    -2
100
AcDbLine
 10
289.6752551244629
 20
59.02534753865666
 30
0.0
 11
289.6752551244629
 21
63.02534753865666
 31
0.0
  0
INSERT
  5
1A91
330
1223
100
AcDbEntity
  8
寸法線
 62
     2
370
    -2
100
AcDbBlockReference
  2
_OPEN
 10
289.6752551244629
 20
59.02534753865666
 30
0.0
 41
2.5
 42
2.5
 43
2.5
 50
90.0
  0
INSERT
  5
1A92
330
1223
100
AcDbEntity
  8
寸法線
 62
     2
370
    -2
100
AcDbBlockReference
  2
_OPEN
 10
289.6752551244629
 20
63.02534753865666
 30
0.0
 41
2.5
 42
2.5
 43
2.5
 50
270.0
  0
MTEXT
  5
1A93
330
1223
100
AcDbEntity
  8
寸法線
 62
     6
100
AcDbMText
 10
287.8002551244629
 20
70.97177611008529
 30
0.0
 40
2.5
 41
0.0
 71
     5
 72
     1
  1
\A1;φ4
  7
STYLE3
 11
0.0000000000000001
 21
1.0
 31
0.0
 73
     1
 44
1.0
  0
POINT
  5
1A94
330
1223
100
AcDbEntity
  8
DEFPOINTS
 62
     0
100
AcDbPoint
 10
290.0113113705834
 20
59.02534753865666
 30
0.0
  0
POINT
  5
1A95
330
1223
100
AcDbEntity
  8
DEFPOINTS
 62
     0
100
AcDbPoint
 10
289.6752551244629
 20
63.02534753865666
 30
0.0
  0
POINT
  5
1A96
330
1223
100
AcDbEntity
  8
DEFPOINTS
 62
     0
100
AcDbPoint
 10
289.6752551244629
 20
63.02534753865666
 30
0.0
  0
ENDBLK
  5
123E
330
1223
100
AcDbEntity
  8
0
100
AcDbBlockEnd
  0
ENDSEC
  0
SECTION
  2
ENTITIES
  0
LWPOLYLINE
  5
1A0
330
18
100
AcDbEntity
  8
C
100
AcDbPolyline
 90
        5
 70
     0
 43
0.8
 10
117.7220883176633
 20
195.5341464693471
 10
377.4999999999999
 20
195.5341464693471
 10
377.4999999999999
 20
0.0
 10
117.7220883176633
 20
0.0
 10
117.7220883176633
 20
195.5341464693471
  0
LINE
  5
224
330
18
100
AcDbEntity
  8
外形線
100
AcDbLine
 10
207.1511298874462
 20
153.6086252449489
 30
0.0
 11
207.1511298874462
 21
121.6086252449489
 31
0.0
  0
LINE
  5
225
330
18
100
AcDbEntity
  8
中心線
 48
0.5
100
AcDbLine
 10
257.6511298874461
 20
158.203508391216
 30
0.0
 11
257.6511298874461
 21
116.1697398211984
 31
0.0
  0
LINE
  5
227
330
18
100
AcDbEntity
  8
中心線
 48
0.5
100
AcDbLine
 10
204.6365346050604
 20
137.6086252449489
 30
0.0
 11
300.732613092015
 21
137.6086252449489
 31
0.0
  0
CIRCLE
  5
228
330
18
100
AcDbEntity
  8
外形線
100
AcDbCircle
 10
257.6511298874461
 20
137.6086252449489
 30
0.0
 40
18.0
  0
LINE
  5
229
330
18
100
AcDbEntity
  8
外形線
100
AcDbLine
 10
228.6511298874462
 20
156.6086252449489
 30
0.0
 11
231.1511298874462
 21
156.6086252449489
 31
0.0
  0
LINE
  5
22A
330
18
100
AcDbEntity
  8
外形線
100
AcDbLine
 10
228.6511298874462
 20
118.6086252449489
 30
0.0
 11
231.1511298874462
 21
118.6086252449489
 31
0.0
  0
LINE
  5
22B
330
18
100
AcDbEntity
  8
外形線
100
AcDbLine
 10
228.1511298874462
 20
151.6086252449489
 30
0.0
 11
228.1511298874462
 21
123.6086252449489
 31
0.0
  0
LINE
  5
22C
330
18
100
AcDbEntity
  8
外形線
100
AcDbLine
 10
231.1511298874462
 20
156.6086252449489
 30
0.0
 11
231.1511298874462
 21
118.6086252449489
 31
0.0
  0
LINE
  5
22D
330
18
100
AcDbEntity
  8
外形線
100
AcDbLine
 10
228.6511298874462
 20
156.6086252449489
 30
0.0
 11
228.6511298874462
 21
118.6086252449489
 31
0.0
  0
LINE
  5
22E
330
18
100
AcDbEntity
  8
外形線
100
AcDbLine
 10
207.1511298874462
 20
153.6086252449489
 30
0.0
 11
226.1511298874462
 21
153.6086252449489
 31
0.0
  0
LINE
  5
22F
330
18
100
AcDbEntity
  8
外形線
100
AcDbLine
 10
207.1511298874462
 20
121.6086252449489
 30
0.0
 11
226.1511298874462
 21
121.6086252449489
 31
0.0
  0
ARC
  5
266
330
18
100
AcDbEntity
  8
外形線
100
AcDbCircle
 10
226.1511298874463
 20
151.6086252449489
 30
0.0
 40
2.0
100
AcDbArc
 50
0.0
 51
89.99999999999998
  0
ARC
  5
267
330
18
100
AcDbEntity
  8
外形線
100
AcDbCircle
 10
226.1511298874462
 20
123.6086252449489
 30
0.0
 40
2.0
100
AcDbArc
 50
270.0
 51
0.0
  0
LINE
  5
26A
330
18
100
AcDbEntity
  8
外形線
100
AcDbLine
 10
294.1511298874461
 20
141.1086252449488
 30
0.0
 11
294.1511298874461
 21
127.1086252449488
 31
0.0
  0
LINE
  5
26B
330
18
100
AcDbEntity
  8
外形線
100
AcDbLine
 10
295.1511298874461
 20
141.1086252449488
 30
0.0
 11
295.1511298874461
 21
127.1086252449488
 31
0.0
  0
LINE
  5
26D
330
18
100
AcDbEntity
  8
外形線
100
AcDbLine
 10
294.1511298874461
 20
127.1086252449488
 30
0.0
 11
295.1511298874461
 21
127.1086252449488
 31
0.0
  0
LINE
  5
26F
330
18
100
AcDbEntity
  8
外形線
100
AcDbLine
 10
294.1511298874461
 20
141.1086252449488
 30
0.0
 11
295.1511298874461
 21
141.1086252449488
 31
0.0
  0
ARC
  5
273
330
18
100
AcDbEntity
  8
外形線
100
AcDbCircle
 10
228.1511298874462
 20
145.1086252449488
 30
0.0
 40
0.5
100
AcDbArc
 50
270.0
 51
0.0000000000000127
  0
ARC
  5
274
330
18
100
AcDbEntity
  8
外形線
100
AcDbCircle
 10
228.1511298874462
 20
130.1086252449489
 30
0.0
 40
0.5
100
AcDbArc
 50
0.0
 51
89.99999999999998
  0
LINE
  5
275
330
18
100
AcDbEntity
  8
外形線
100
AcDbLine
 10
275.5658584647928
 20
139.3586252449489
 30
0.0
 11
280.1511298874461
 21
139.3586252449488
 31
0.0
  0
LINE
  5
276
330
18
100
AcDbEntity
  8
外形線
100
AcDbLine
 10
275.5658584647928
 20
135.8586252449488
 30
0.0
 11
280.1511298874461
 21
135.8586252449488
 31
0.0
  0
LINE
  5
277
330
18
100
AcDbEntity
  8
外形線
100
AcDbLine
 10
296.6511298874461
 20
139.8586252449488
 30
0.0
 11
296.6511298874461
 21
135.3586252449488
 31
0.0
  0
LINE
  5
278
330
18
100
AcDbEntity
  8
外形線
100
AcDbLine
 10
297.6511298874461
 20
138.9086252449488
 30
0.0
 11
297.6511298874461
 21
136.3086252449488
 31
0.0
  0
LINE
  5
279
330
18
100
AcDbEntity
  8
外形線
100
AcDbLine
 10
295.1511298874461
 20
139.8586252449488
 30
0.0
 11
296.6511298874461
 21
139.8586252449488
 31
0.0
  0
LINE
  5
27A
330
18
100
AcDbEntity
  8
外形線
100
AcDbLine
 10
295.1511298874461
 20
135.3586252449488
 30
0.0
 11
296.6511298874461
 21
135.3586252449488
 31
0.0
  0
LINE
  5
27D
330
18
100
AcDbEntity
  8
外形線
100
AcDbLine
 10
296.6511298874461
 20
139.8586252449488
 30
0.0
 11
297.6511298874461
 21
138.9086252449488
 31
0.0
  0
LINE
  5
27E
330
18
100
AcDbEntity
  8
外形線
100
AcDbLine
 10
296.6511298874461
 20
135.3586252449488
 30
0.0
 11
297.6511298874461
 21
136.3086252449488
 31
0.0
  0
ARC
  5
27F
330
18
100
AcDbEntity
  8
外形線
100
AcDbCircle
 10
297.4511298874462
 20
137.6086252449488
 30
0.0
 40
1.199999999999999
100
AcDbArc
 50
279.5940682268597
 51
80.40593177314011
  0
LINE
  5
284
330
18
100
AcDbEntity
  8
0
  6
ByBlock
 62
     2
100
AcDbLine
 10
295.1511298874461
 20
139.3586252449488
 30
0.0
 11
296.6511298874461
 21
139.3586252449488
 31
0.0
  0
LINE
  5
285
330
18
100
AcDbEntity
  8
0
  6
ByBlock
 62
     2
100
AcDbLine
 10
295.1511298874461
 20
138.7586252449489
 30
0.0
 11
296.6511298874461
 21
138.7586252449489
 31
0.0
  0
LINE
  5
286
330
18
100
AcDbEntity
  8
0
  6
ByBlock
 62
     2
100
AcDbLine
 10
295.1511298874461
 20
138.0586252449489
 30
0.0
 11
296.6511298874461
 21
138.0586252449489
 31
0.0
  0
LINE
  5
287
330
18
100
AcDbEntity
  8
0
  6
ByBlock
 62
     2
100
AcDbLine
 10
295.1511298874461
 20
137.1586252449488
 30
0.0
 11
296.6511298874461
 21
137.1586252449488
 31
0.0
  0
LINE
  5
288
330
18
100
AcDbEntity
  8
0
  6
ByBlock
 62
     2
100
AcDbLine
 10
295.1511298874461
 20
136.4586252449488
 30
0.0
 11
296.6511298874461
 21
136.4586252449488
 31
0.0
  0
LINE
  5
289
330
18
100
AcDbEntity
  8
0
  6
ByBlock
 62
     2
100
AcDbLine
 10
295.1511298874461
 20
135.8586252449488
 30
0.0
 11
296.6511298874461
 21
135.8586252449488
 31
0.0
  0
CIRCLE
  5
28A
330
18
100
AcDbEntity
  8
外形線
100
AcDbCircle
 10
257.6511298874462
 20
137.6086252449489
 30
0.0
 40
15.5
  0
LINE
  5
535
330
18
100
AcDbEntity
  8
外形線
100
AcDbLine
 10
239.6511298874461
 20
66.37534753865669
 30
0.0
 11
257.6511298874461
 21
66.37534753865662
 31
0.0
  0
LINE
  5
536
330
18
100
AcDbEntity
  8
外形線
100
AcDbLine
 10
239.6511298874461
 20
70.07534753865662
 30
0.0
 11
257.6511298874461
 21
70.07534753865662
 31
0.0
  0
LINE
  5
537
330
18
100
AcDbEntity
  8
外形線
100
AcDbLine
 10
240.6511298874461
 20
71.07534753865661
 30
0.0
 11
257.6511298874461
 21
71.07534753865661
 31
0.0
  0
LINE
  5
538
330
18
100
AcDbEntity
  8
外形線
100
AcDbLine
 10
240.1511298874461
 20
65.87534753865668
 30
0.0
 11
257.6511298874461
 21
65.87534753865663
 31
0.0
  0
LINE
  5
545
330
18
100
AcDbEntity
  8
中心線
 48
0.5
100
AcDbLine
 10
300.732613092015
 20
61.02534753865666
 30
0.0
 11
203.4812807700226
 21
61.02534753865666
 31
0.0
  0
LINE
  5
546
330
18
100
AcDbEntity
  8
外形線
100
AcDbLine
 10
273.6511298874461
 20
55.22534753865665
 30
0.0
 11
241.6511298874461
 21
55.22534753865665
 31
0.0
  0
ARC
  5
547
330
18
100
AcDbEntity
  8
外形線
100
AcDbCircle
 10
257.6511298874461
 20
29.11611800164811
 30
0.0
 40
44.90631295641367
100
AcDbArc
 50
69.12702348699953
 51
110.8729765130005
  0
LINE
  5
559
330
18
100
AcDbEntity
  8
外形線
100
AcDbLine
 10
241.6511298874461
 20
65.87534753865668
 30
0.0
 11
241.6511298874461
 21
55.22534753865665
 31
0.0
  0
LINE
  5
608
330
18
100
AcDbEntity
  8
ﾊｯﾁﾝｸ
100
AcDbLine
 10
243.8511298874462
 20
70.07534753865662
 30
0.0
 11
243.8511298874462
 21
66.37534753865662
 31
0.0
  0
LINE
  5
609
330
18
100
AcDbEntity
  8
ﾊｯﾁﾝｸ
100
AcDbLine
 10
242.6511298874461
 20
70.07534753865662
 30
0.0
 11
242.6511298874461
 21
66.37534753865662
 31
0.0
  0
LINE
  5
60A
330
18
100
AcDbEntity
  8
ﾊｯﾁﾝｸ
100
AcDbLine
 10
241.5511298874462
 20
70.07534753865662
 30
0.0
 11
241.5511298874462
 21
66.37534753865662
 31
0.0
  0
LINE
  5
60B
330
18
100
AcDbEntity
  8
ﾊｯﾁﾝｸ
100
AcDbLine
 10
240.5511298874461
 20
70.07534753865662
 30
0.0
 11
240.5511298874461
 21
66.37534753865669
 31
0.0
  0
LINE
  5
60C
330
18
100
AcDbEntity
  8
外形線
100
AcDbLine
 10
239.6511298874461
 20
70.07534753865662
 30
0.0
 11
239.6511298874461
 21
66.37534753865669
 31
0.0
  0
LINE
  5
60D
330
18
100
AcDbEntity
  8
外形線
100
AcDbLine
 10
240.6511298874461
 20
71.07534753865661
 30
0.0
 11
239.6511298874461
 21
70.07534753865662
 31
0.0
  0
POINT
  5
611
330
18
100
AcDbEntity
  8
DEFPOINTS
  6
ByBlock
 62
     0
100
AcDbPoint
 10
239.6511298874461
 20
70.07534753865662
 30
0.0
  0
POINT
  5
612
330
18
100
AcDbEntity
  8
DEFPOINTS
  6
ByBlock
 62
     0
100
AcDbPoint
 10
239.6511298874461
 20
70.07534753865662
 30
0.0
  0
LINE
  5
613
330
18
100
AcDbEntity
  8
外形線
100
AcDbLine
 10
240.1511298874461
 20
65.87534753865668
 30
0.0
 11
239.6511298874461
 21
66.37534753865669
 31
0.0
  0
POINT
  5
64D
330
18
100
AcDbEntity
  8
DEFPOINTS
  6
ByBlock
 62
     0
100
AcDbPoint
 10
241.6511298874461
 20
55.22534753865665
 30
0.0
  0
LINE
  5
660
330
18
100
AcDbEntity
  8
外形線
100
AcDbLine
 10
273.6511298874461
 20
65.87534753865663
 30
0.0
 11
273.6511298874461
 21
55.22534753865665
 31
0.0
  0
LINE
  5
661
330
18
100
AcDbEntity
  8
中心線
 48
0.5
100
AcDbLine
 10
257.6511298874461
 20
77.24021160803227
 30
0.0
 11
257.6511298874461
 21
52.56432422301202
 31
0.0
  0
HATCH
  5
67C
330
18
100
AcDbEntity
  8
ROGO
 62
     4
100
AcDbHatch
 10
0.0
 20
0.0
 30
0.0
210
0.0
220
0.0
230
1.0
  2
SOLID
 70
     1
 71
     1
 91
        2
 92
        5
 93
        6
 72
     1
 10
251.8319541286558
 20
142.7066119039916
 11
252.512308073995
 21
142.7066119039917
 72
     1
 10
252.512308073995
 20
142.7066119039917
 11
252.7507128671842
 21
143.2335567442472
 72
     1
 10
252.7507128671842
 20
143.2335567442472
 11
253.3867042647315
 21
143.2335567442472
 72
     4
 94
        3
 73
     0
 74
     0
 95
       18
 96
       14
 40
0.108740278791501
 40
0.108740278791501
 40
0.108740278791501
 40
0.108740278791501
 40
0.6623149649549278
 40
1.384304701649787
 40
2.097394834876493
 40
2.774073369849618
 40
3.428974823686337
 40
4.005208313035923
 40
4.455173659284313
 40
4.720999734343524
 40
5.086034088486724
 40
5.569973738255373
 40
6.060470601257719
 40
6.060470601257719
 40
6.060470601257719
 40
6.060470601257719
 10
253.3867042647315
 20
143.2335567442472
 10
253.4314642885743
 20
143.233890058592
 10
253.5346017610911
 20
143.2346580921208
 10
253.6788902780977
 20
143.3117401884393
 10
253.8157170181805
 20
143.4099371630224
 10
253.9259216491851
 20
143.5326240378513
 10
253.9945824546278
 20
143.6728954600249
 10
254.0052177963657
 20
143.8073327338782
 10
253.9987251815268
 20
143.9136709461578
 10
253.9523321874136
 20
143.9877913200669
 10
253.9041010087602
 20
144.063015919784
 10
253.8156613362653
 20
144.1281782620899
 10
253.7431978304481
 20
144.1567290544775
 10
253.7063486639356
 20
144.1702336564964
 72
     1
 10
253.7063486639356
 20
144.1702336564964
 11
252.5561405599658
 21
144.1702336564964
 72
     1
 10
252.5561405599658
 20
144.1702336564964
 11
251.8319541286558
 21
142.7066119039916
 97
        6
330
6D9
330
6F8
330
67F
330
680
330
6E8
330
6E7
 92
       20
 93
        4
 72
     1
 10
252.8979143306
 20
143.5589153521315
 11
253.0106154381398
 21
143.8080180078071
 72
     1
 10
253.0106154381398
 20
143.8080180078071
 11
253.300209252104
 21
143.8080180078071
 72
     4
 94
        3
 73
     0
 74
     0
 95
       15
 96
       11
 40
0.0
 40
0.0
 40
0.0
 40
0.0
 40
0.1098284065179782
 40
0.1599041188915469
 40
0.2167433860764834
 40
0.2554649376059976
 40
0.3167034729491553
 40
0.3533836827689055
 40
0.4163149030766253
 40
0.437291989900869
 40
0.437291989900869
 40
0.437291989900869
 40
0.437291989900869
 10
253.300209252104
 20
143.8080180078071
 10
253.3414586717707
 20
143.8082069521675
 10
253.4015155579235
 20
143.8084820447635
 10
253.4343568022567
 20
143.7341915029143
 10
253.4196357906704
 20
143.6863599831466
 10
253.4011302793252
 20
143.6372519203523
 10
253.3684268495561
 20
143.6038822510287
 10
253.3245340566391
 20
143.5717416341208
 10
253.2830532697869
 20
143.5678508685251
 10
253.2560746743151
 20
143.5607024560945
 10
253.2493300222187
 20
143.5589153521315
 72
     1
 10
253.2493300222186
 20
143.5589153521315
 11
252.8979143306
 21
143.5589153521315
 97
        4
330
6D7
330
6F9
330
6D8
330
6E6
 75
     0
 76
     1
 47
0.0514683685270805
 98
        2
 10
252.562288243829
 20
143.7150084484296
 10
252.562288243829
 20
143.7150084484296
450
        0
451
        0
460
0.0
461
0.0
452
        0
462
0.0
453
        0
470

  0
HATCH
  5
67D
330
18
100
AcDbEntity
  8
針
100
AcDbHatch
 10
0.0
 20
0.0
 30
0.0
210
0.0
220
0.0
230
1.0
  2
SOLID
 70
     1
 71
     0
 91
        1
 92
        7
 72
     1
 73
     1
 93
        7
 10
266.34415920078
 20
149.4629690208617
 42
0.0
 10
266.2915730961456
 20
149.5011750622607
 42
0.0
 10
266.2389869915113
 20
149.5393811036597
 42
0.0
 10
258.4414653169465
 20
139.1675653106817
 42
-0.1443545616784134
 10
258.2145214749383
 20
138.9988014636863
 42
-0.1222437615213236
 10
258.7991684640519
 20
138.574030562225
 42
-0.1443545616783651
 10
258.8895429165027
 20
138.8420178787575
 42
0.0
 97
        0
 75
     0
 76
     1
 47
0.0443407669343012
 98
        1
 10
259.3138304981303
 20
139.754532096691
450
        0
451
        0
460
0.0
461
0.0
452
        0
462
0.0
453
        0
470

  0
LINE
  5
67F
102
{ACAD_REACTORS
330
67C
102
}
330
18
100
AcDbEntity
  8
ROGO
 62
     4
100
AcDbLine
 10
252.5561405599658
 20
144.1702336564964
 30
0.0
 11
251.8319541286558
 21
142.7066119039915
 31
0.0
  0
LINE
  5
680
102
{ACAD_REACTORS
330
67C
330
6FF
102
}
330
18
100
AcDbEntity
  8
ROGO
 62
     4
100
AcDbLine
 10
251.8319541286558
 20
142.7066119039916
 30
0.0
 11
261.7392167418043
 21
142.7066119039916
 31
0.0
  0
LINE
  5
681
330
18
100
AcDbEntity
  8
針
100
AcDbLine
 10
258.4414653169464
 20
139.1675653106817
 30
0.0
 11
266.2389869915112
 21
149.5393811036596
 31
0.0
  0
LINE
  5
682
330
18
100
AcDbEntity
  8
針
100
AcDbLine
 10
258.8895429165027
 20
138.8420178787575
 30
0.0
 11
266.34415920078
 21
149.4629690208616
 31
0.0
  0
LINE
  5
6A8
330
18
100
AcDbEntity
  8
針
100
AcDbLine
 10
266.2915730961456
 20
149.5011750622607
 30
0.0
 11
266.2389869915112
 21
149.5393811036596
 31
0.0
  0
LINE
  5
6A9
330
18
100
AcDbEntity
  8
針
100
AcDbLine
 10
266.2915730961456
 20
149.5011750622607
 30
0.0
 11
266.34415920078
 21
149.4629690208616
 31
0.0
  0
CIRCLE
  5
6AA
330
18
100
AcDbEntity
  8
針
100
AcDbCircle
 10
257.6511298874462
 20
137.6086252449489
 30
0.0
 40
1.5
  0
CIRCLE
  5
6AB
330
18
100
AcDbEntity
  8
針
100
AcDbCircle
 10
257.6511298874462
 20
137.6086252449489
 30
0.0
 40
1.299999999999999
  0
CIRCLE
  5
6C0
330
18
100
AcDbEntity
  8
針
100
AcDbCircle
 10
257.6511298874462
 20
137.6086252449489
 30
0.0
 40
0.3
  0
HATCH
  5
6C2
330
18
100
AcDbEntity
  8
ROGO
 62
     4
100
AcDbHatch
 10
0.0
 20
0.0
 30
0.0
210
0.0
220
0.0
230
1.0
  2
SOLID
 70
     1
 71
     0
 91
        1
 92
        7
 72
     0
 73
     1
 93
        4
 10
252.5786821310487
 20
142.853318127568
 10
252.512308073995
 20
142.7066119039916
 10
261.1998960858352
 20
142.7066119039916
 10
261.2730485470803
 20
142.8533181275679
 97
        0
 75
     0
 76
     1
 47
0.0514683685270805
 98
        1
 10
258.0684690634415
 20
142.8145166891715
450
        0
451
        0
460
0.0
461
0.0
452
        0
462
0.0
453
        0
470

  0
SPLINE
  5
6C5
102
{ACAD_REACTORS
330
6FE
102
}
330
18
100
AcDbEntity
  8
ROGO
 62
     4
100
AcDbSpline
210
0.0
220
0.0
230
1.0
 70
     8
 71
     3
 72
    26
 73
    22
 74
    20
 42
0.0000000001
 43
0.0000000001
 44
0.0000000001
 40
0.0
 40
0.0
 40
0.0
 40
0.0
 40
0.169923923071684
 40
0.2836748319958191
 40
0.3656985008505316
 40
0.426942920354356
 40
0.5063801468146631
 40
0.5643615780072894
 40
0.6690625284671952
 40
0.7542875968970452
 40
0.8122542992729588
 40
0.8690936188356241
 40
0.9707681112905712
 40
1.04266411280859
 40
1.081385664338052
 40
1.136388484468192
 40
1.176107255030999
 40
1.233646640341432
 40
1.266208955382537
 40
1.337068205431096
 40
1.369423154551981
 40
1.369423154551981
 40
1.369423154551981
 40
1.369423154551981
 10
260.7955000125394
 20
144.1702336564964
 30
0.0
 10
260.7378252075791
 20
144.1667926787306
 30
0.0
 10
260.6415415865812
 20
144.1610482327928
 30
0.0
 10
260.5358227564461
 20
144.0968251788219
 30
0.0
 10
260.4583669523695
 20
144.0594887175186
 30
0.0
 10
260.4031255668373
 20
144.0087329792339
 30
0.0
 10
260.3626334073096
 20
143.9563060092225
 30
0.0
 10
260.3115854386257
 20
143.8938396588582
 30
0.0
 10
260.2699572788608
 20
143.8211001216285
 30
0.0
 10
260.2487585878316
 20
143.7409284706887
 30
0.0
 10
260.2299809885149
 20
143.6770311997189
 30
0.0
 10
260.2160552065074
 20
143.6058260299871
 30
0.0
 10
260.2195983196838
 20
143.5288993980079
 30
0.0
 10
260.224672219908
 20
143.4574538804598
 30
0.0
 10
260.247325950599
 20
143.4064524777914
 30
0.0
 10
260.2731245371888
 20
143.3701429935565
 30
0.0
 10
260.3047145531582
 20
143.3301521221148
 30
0.0
 10
260.3392809387981
 20
143.3036662974543
 30
0.0
 10
260.3678701612267
 20
143.2556854462775
 30
0.0
 10
260.4179146306496
 20
143.2495627436271
 30
0.0
 10
260.4497248863581
 20
143.2373767379707
 30
0.0
 10
260.4596965686776
 20
143.2335567442472
 30
0.0
 11
260.7955000125394
 21
144.1702336564964
 31
0.0
 11
260.6275982906084
 21
144.1440964912963
 31
0.0
 11
260.5258395382719
 21
144.0932592450689
 31
0.0
 11
260.4546085579193
 21
144.0525894812339
 31
0.0
 11
260.4088173387922
 21
144.0119195516642
 31
0.0
 11
260.3579381089068
 21
143.9509148230444
 31
0.0
 11
260.3223226187305
 21
143.9051613180131
 31
0.0
 11
260.2714430962794
 21
143.813654142216
 31
0.0
 11
260.2460036276195
 21
143.7323144488113
 31
0.0
 11
260.2307398879105
 21
143.6763934613876
 31
0.0
 11
260.220563866394
 21
143.620472473964
 31
0.0
 11
260.220563866394
 21
143.518797981509
 31
0.0
 11
260.2307398879105
 21
143.4476257704968
 31
0.0
 11
260.2460036276195
 21
143.4120395821234
 31
0.0
 11
260.2765311070375
 21
143.3662860770921
 31
0.0
 11
260.3019708682633
 21
143.3357836299148
 31
0.0
 11
260.342674076632
 21
143.2951138660798
 31
0.0
 11
260.3630258270993
 21
143.2696951600988
 31
0.0
 11
260.4291690892595
 21
143.2442766198524
 31
0.0
 11
260.4596965686776
 21
143.2335567442472
 31
0.0
  0
LINE
  5
6C6
330
18
100
AcDbEntity
  8
ROGO
 62
     4
100
AcDbLine
 10
252.5685078988638
 20
142.853318127568
 30
0.0
 11
261.2730485470804
 21
142.853318127568
 31
0.0
  0
HATCH
  5
6C8
330
18
100
AcDbEntity
  8
ROGO
 62
     4
100
AcDbHatch
 10
0.0
 20
0.0
 30
0.0
210
0.0
220
0.0
230
1.0
  2
SOLID
 70
     1
 71
     1
 91
        2
 92
        5
 93
        6
 72
     4
 94
        3
 73
     0
 74
     0
 95
       38
 96
       34
 40
0.0
 40
0.0
 40
0.0
 40
0.0
 40
0.1289432887572924
 40
0.1694386997662278
 40
0.2214725495874597
 40
0.2648341759812058
 40
0.3014202876682181
 40
0.3500149933853041
 40
0.3748449727639675
 40
0.4028100471116744
 40
0.4440253042547587
 40
0.4907132471595681
 40
0.5209992584847614
 40
0.5539000270224685
 40
0.5904729795074081
 40
0.6459742881243522
 40
0.6987063191840686
 40
0.7232211772574128
 40
0.7511770934373995
 40
0.7842956220194898
 40
0.8078717585222513
 40
0.8276353506511089
 40
0.8558532954253623
 40
0.8868599830266534
 40
0.917866497987717
 40
0.9449972417387188
 40
1.007131467490311
 40
1.031646325563656
 40
1.08067607083041
 40
1.124016184538856
 40
1.20698758300394
 40
1.309365697628525
 40
1.457214593109345
 40
1.457214593109345
 40
1.457214593109345
 40
1.457214593109345
 10
259.2356320807165
 20
144.1741406012842
 10
259.1926514176678
 20
144.1711043204112
 10
259.136172420333
 20
144.167114477371
 10
259.0644572997821
 20
144.1474666724546
 10
259.0253646246542
 20
144.1240598100074
 10
258.9846808823772
 20
144.1068546441471
 10
258.9499942029851
 20
144.0813772053694
 10
258.9149093590707
 20
144.0682489266233
 10
258.8903418773564
 20
144.0445762934863
 10
258.8619070212039
 20
144.0301160274371
 10
258.839263840403
 20
143.9977497481104
 10
258.8139551865256
 20
143.967488449793
 10
258.7845939640843
 20
143.9453990516241
 10
258.7604968147726
 20
143.9221987207568
 10
258.7383910309559
 20
143.8863936393221
 10
258.7253078387188
 20
143.8388192884884
 10
258.6884285158415
 20
143.8087825590858
 10
258.6828756444958
 20
143.7726694480375
 10
258.6624765663781
 20
143.7513633202135
 10
258.6536063337681
 20
143.723860170084
 10
258.6502281222227
 20
143.6986624264935
 10
258.6461734628334
 20
143.6751294783014
 10
258.6355672417663
 20
143.650373856325
 10
258.6390291489165
 20
143.6197941392156
 10
258.638042955503
 20
143.5901827841483
 10
258.6386233314845
 20
143.5502065327316
 10
258.6365286741902
 20
143.5112847359235
 10
258.6532327452593
 20
143.4689285894199
 10
258.6631176601694
 20
143.4311739445934
 10
258.6901891076489
 20
143.3788980605625
 10
258.7368867872322
 20
143.3185829935062
 10
258.825686331131
 20
143.2453719297877
 10
258.9110696888623
 20
143.2379450081626
 10
258.9615192191816
 20
143.2335567442472
 72
     1
 10
258.9615192191816
 20
143.2335567442472
 11
259.4968240081117
 21
143.2335567442472
 72
     4
 94
        3
 73
     0
 74
     0
 95
       11
 96
        7
 40
0.1647869275458135
 40
0.1647869275458135
 40
0.1647869275458135
 40
0.1647869275458135
 40
0.2545010798212315
 40
0.5111620267764023
 40
0.7602998271033902
 40
0.8850764140209603
 40
0.8850764140209603
 40
0.8850764140209603
 40
0.8850764140209603
 10
259.4968240081119
 20
143.2335567442472
 10
259.504293699407
 20
143.2334127875149
 10
259.5331332414186
 20
143.2328569886113
 10
259.58242036441
 20
143.2399376632582
 10
259.6342769836929
 20
143.2467229311919
 10
259.6651924781058
 20
143.2516644370814
 10
259.6751634858779
 20
143.2544398708952
 72
     4
 94
        3
 73
     0
 74
     0
 95
        9
 96
        5
 40
0.0
 40
0.0
 40
0.0
 40
0.0
 40
0.0810170589120836
 40
0.1899495518469247
 40
0.1899495518469247
 40
0.1899495518469247
 40
0.1899495518469247
 10
259.6751634858779
 20
143.2544398708952
 10
259.7011885092186
 20
143.2624020582076
 10
259.7622058009688
 20
143.2810699033753
 10
259.8126200614174
 20
143.3205246275391
 10
259.8415316909354
 20
143.3431511692679
 72
     4
 94
        3
 73
     0
 74
     0
 95
       25
 96
       21
 40
0.0
 40
0.0
 40
0.0
 40
0.0
 40
0.165525918914855
 40
0.3412380755365305
 40
0.5940540902285263
 40
0.7697671103696209
 40
0.9377330196075423
 40
1.11479469302833
 40
1.274661249598185
 40
1.574522170874768
 40
1.815540668866877
 40
2.15849091873445
 40
2.536227739636605
 40
2.738070817316548
 40
2.925680654369045
 40
3.162706124480894
 40
3.395643218188267
 40
3.648478129958861
 40
3.928509979727306
 40
4.337226830236035
 40
4.337226830236035
 40
4.337226830236035
 40
4.337226830236035
 10
259.8415316909354
 20
143.3431511692679
 10
259.8521547440486
 20
143.3519296693791
 10
259.8723037713766
 20
143.3728082852899
 10
259.90804138917
 20
143.4066478699114
 10
259.939534055669
 20
143.4460736713432
 10
259.9783825271137
 20
143.4780269016692
 10
259.9986069198898
 20
143.5170920943962
 10
260.0277587856177
 20
143.5478160363856
 10
260.0522124273124
 20
143.5952661341593
 10
260.0729601336959
 20
143.6497712649862
 10
260.0927402068283
 20
143.7208176671803
 10
260.1003201349088
 20
143.8009685694015
 10
260.0891008987066
 20
143.8785145270767
 10
260.0619980601562
 20
143.9364775832476
 10
260.0420723970807
 20
143.9847838167078
 10
260.0118327070171
 20
144.0305383252721
 10
259.9773333077532
 20
144.0803014132475
 10
259.9287297631315
 20
144.1214635434448
 10
259.8652099205513
 20
144.171111705389
 10
259.806045930178
 20
144.1730125833797
 10
259.7709368696467
 20
144.1741406012842
 72
     1
 10
259.7709368696467
 20
144.1741406012842
 11
259.2356320807165
 21
144.1741406012842
 97
        6
330
6D5
330
6FA
330
6D6
330
6EB
330
6EA
330
6E9
 92
       20
 93
        1
 72
     3
 10
259.3586480501004
 20
143.6907345623438
 11
0.1271719266505756
 21
0.111831795984511
 40
0.678808341743879
 50
0.0
 51
360.0
 73
     1
 97
        1
330
6CC
 75
     0
 76
     1
 47
0.088756267210375
 98
        2
 10
259.3960477036721
 20
143.914347570751
 10
259.3960477036721
 20
143.914347570751
450
        0
451
        0
460
0.0
461
0.0
452
        0
462
0.0
453
        0
470

  0
HATCH
  5
6C9
330
18
100
AcDbEntity
  8
ROGO
 62
     4
100
AcDbHatch
 10
0.0
 20
0.0
 30
0.0
210
0.0
220
0.0
230
1.0
  2
SOLID
 70
     1
 71
     1
 91
        1
 92
        1
 93
       12
 72
     1
 10
254.3858630722283
 20
144.1702336564964
 11
255.6527575639989
 21
144.1702336564964
 72
     1
 10
255.6527575639989
 20
144.1702336564964
 11
255.5465929269861
 21
143.9556689182459
 72
     1
 10
255.5465929269861
 20
143.9556689182459
 11
254.8807451958249
 21
143.9556689182459
 72
     1
 10
254.8807451958249
 20
143.9556689182459
 11
254.7977376423056
 21
143.7879059559749
 72
     1
 10
254.7977376423056
 20
143.7879059559749
 11
255.4635853734668
 21
143.7879059559749
 72
     1
 10
255.4635853734668
 20
143.7879059559749
 11
255.3784689034807
 21
143.6158807542009
 72
     1
 10
255.3784689034807
 20
143.6158807542009
 11
254.7126211723195
 21
143.6158807542009
 72
     1
 10
254.7126211723195
 20
143.6158807542009
 11
254.6296101046594
 21
143.4481106896526
 72
     1
 10
254.6296101046594
 20
143.4481106896526
 11
255.2954578358206
 21
143.4481106896526
 72
     1
 10
255.2954578358206
 20
143.4481106896526
 11
255.1892985390073
 21
143.2335567442472
 72
     1
 10
255.1892985390073
 20
143.2335567442472
 11
253.9224040472368
 21
143.2335567442472
 72
     1
 10
253.9224040472368
 20
143.2335567442472
 11
254.3858630722283
 21
144.1702336564964
 97
       12
330
6F5
330
6F7
330
6F6
330
6D3
330
6E3
330
6E0
330
6E1
330
6DE
330
6E2
330
6DF
330
6E4
330
6D4
 75
     0
 76
     1
 98
        1
 10
202.5639377822349
 20
79.40321650147095
450
        0
451
        0
460
0.0
461
0.0
452
        0
462
0.0
453
        0
470

  0
HATCH
  5
6CA
330
18
100
AcDbEntity
  8
ROGO
 62
     4
100
AcDbHatch
 10
0.0
 20
0.0
 30
0.0
210
0.0
220
0.0
230
1.0
  2
SOLID
 70
     1
 71
     1
 91
        2
 92
        7
 72
     0
 73
     1
 93
        8
 10
256.7690117994938
 20
144.1702336564964
 10
256.0197504895175
 20
144.1702336564964
 10
255.3442945639911
 20
143.2335567442472
 10
255.863045917558
 20
143.2335567442472
 10
255.9916485465988
 20
143.4118942329342
 10
256.5836065226855
 20
143.4118942329342
 10
256.6628311016286
 20
143.2335567442472
 10
257.1851207989257
 20
143.2335567442472
 97
        8
330
6F4
330
6D2
330
6E5
330
6DD
330
6DB
330
6EE
330
6EF
330
6D0
 92
       22
 72
     0
 73
     1
 93
        3
 10
256.3579497289363
 20
143.9198561109171
 10
256.5000459702698
 20
143.5999921599901
 10
256.1272896174394
 20
143.5999921599901
 97
        3
330
6DA
330
6D1
330
6CF
 75
     0
 76
     1
 47
0.0128389261915577
 98
        2
 10
256.7103387186118
 20
143.9455117061626
 10
256.7103387186118
 20
143.9455117061626
450
        0
451
        0
460
0.0
461
0.0
452
        0
462
0.0
453
        0
470

  0
HATCH
  5
6CB
330
18
100
AcDbEntity
  8
ROGO
 62
     4
100
AcDbHatch
 10
0.0
 20
0.0
 30
0.0
210
0.0
220
0.0
230
1.0
  2
SOLID
 70
     1
 71
     1
 91
        1
 92
        5
 93
        8
 72
     1
 10
258.5416941351773
 20
143.8217291154796
 11
258.7154697549772
 21
144.1702336564964
 72
     1
 10
258.7154697549772
 20
144.1702336564964
 11
257.7774436835543
 21
144.1702336564964
 72
     4
 94
        3
 73
     0
 74
     0
 95
       26
 96
       22
 40
0.0
 40
0.0
 40
0.0
 40
0.0
 40
0.169923923071684
 40
0.2836748319958191
 40
0.3656985008506303
 40
0.4269429203543698
 40
0.5063801468146404
 40
0.5643615780073365
 40
0.6690625284672147
 40
0.7542875968970275
 40
0.812254299272981
 40
0.869093618835636
 40
0.9707681112905831
 40
1.042664112808594
 40
1.081385664337981
 40
1.136388484468232
 40
1.17610725503093
 40
1.233646640341443
 40
1.266208955382583
 40
1.337068205431089
 40
1.369423154551975
 40
1.369423154551975
 40
1.369423154551975
 40
1.369423154551975
 10
257.7774436835543
 20
144.1702336564964
 10
257.719768878594
 20
144.1667926787306
 10
257.6234852575961
 20
144.1610482327928
 10
257.517766427461
 20
144.0968251788218
 10
257.4403106233844
 20
144.0594887175187
 10
257.3850692378522
 20
144.0087329792339
 10
257.3445770783247
 20
143.9563060092224
 10
257.2935291096405
 20
143.8938396588582
 10
257.2519009498758
 20
143.8211001216285
 10
257.2307022588464
 20
143.7409284706887
 10
257.2119246595299
 20
143.6770311997189
 10
257.1979988775224
 20
143.6058260299871
 10
257.201541990699
 20
143.5288993980079
 10
257.206615890923
 20
143.4574538804598
 10
257.2292696216138
 20
143.4064524777914
 10
257.2550682082038
 20
143.3701429935566
 10
257.286658224173
 20
143.3301521221147
 10
257.3212246098131
 20
143.3036662974545
 10
257.3498138322417
 20
143.2556854462774
 10
257.3998583016646
 20
143.2495627436272
 10
257.4316685573732
 20
143.2373767379707
 10
257.4416402396926
 20
143.2335567442472
 72
     1
 10
257.4416402396926
 20
143.2335567442472
 11
258.2484123946817
 21
143.2335567442472
 72
     1
 10
258.2484123946817
 20
143.2335567442472
 11
258.4221861742451
 21
143.5820575946962
 72
     1
 10
258.4221861742451
 20
143.5820575946962
 11
257.8232349026814
 21
143.5820575946962
 72
     4
 94
        3
 73
     0
 74
     0
 95
       16
 96
       12
 40
0.0
 40
0.0
 40
0.0
 40
0.0
 40
0.0513165732836104
 40
0.1031624397428017
 40
0.1340861689273908
 40
0.1637356607215318
 40
0.1962978463875485
 40
0.2190368482720252
 40
0.2406141875624815
 40
0.2843699337995687
 40
0.373954798917159
 40
0.373954798917159
 40
0.373954798917159
 40
0.373954798917159
 10
257.8232349026815
 20
143.5820575946962
 10
257.8051684215939
 20
143.5873730183344
 10
257.7688491167901
 20
143.5980586903443
 10
257.7658094842631
 20
143.6498589026489
 10
257.7699505438227
 20
143.6867707927129
 10
257.7872933105074
 20
143.713644804195
 10
257.808333094559
 20
143.7331991834627
 10
257.8161671393017
 20
143.7586657050123
 10
257.8391946000668
 20
143.7778961149218
 10
257.8800284580855
 20
143.8102197476698
 10
257.9251836362943
 20
143.8171039592204
 10
257.955521134436
 20
143.8217291154796
 72
     1
 10
257.955521134436
 20
143.8217291154796
 11
258.5416941351773
 21
143.8217291154796
 97
        8
330
6FB
330
6CE
330
6F2
330
6EC
330
6F3
330
6CD
330
6FC
330
6FD
 75
     0
 76
     1
 47
0.0514683685270805
 98
        1
 10
258.1055061305412
 20
143.9617183945908
450
        0
451
        0
460
0.0
461
0.0
452
        0
462
0.0
453
        0
470

  0
ELLIPSE
  5
6CC
102
{ACAD_REACTORS
330
6C8
102
}
330
18
100
AcDbEntity
  8
ROGO
 62
     4
100
AcDbEllipse
 10
259.3586480501004
 20
143.6907345623438
 30
0.0
 11
0.1271719266505756
 21
0.111831795984511
 31
0.0
210
0.0
220
0.0
230
1.0
 40
0.678808341743879
 41
0.0
 42
6.283185307179586
  0
SPLINE
  5
6CD
102
{ACAD_REACTORS
330
6CB
102
}
330
18
100
AcDbEntity
  8
ROGO
 62
     4
100
AcDbSpline
210
0.0
220
0.0
230
1.0
 70
     8
 71
     3
 72
    16
 73
    12
 74
    10
 42
0.0000000001
 43
0.0000000001
 44
0.0000000001
 40
0.0
 40
0.0
 40
0.0
 40
0.0
 40
0.0895848651175904
 40
0.1333406113546774
 40
0.1549179506451338
 40
0.1776569525296104
 40
0.2102191381956272
 40
0.2398686299897681
 40
0.2707923591743572
 40
0.3226382256335486
 40
0.373954798917159
 40
0.373954798917159
 40
0.373954798917159
 40
0.373954798917159
 10
257.955521134436
 20
143.8217291154796
 30
0.0
 10
257.9251836362943
 20
143.8171039592204
 30
0.0
 10
257.8800284580855
 20
143.8102197476698
 30
0.0
 10
257.8391946000668
 20
143.7778961149218
 30
0.0
 10
257.8161671393017
 20
143.7586657050123
 30
0.0
 10
257.808333094559
 20
143.7331991834627
 30
0.0
 10
257.7872933105074
 20
143.713644804195
 30
0.0
 10
257.7699505438227
 20
143.6867707927129
 30
0.0
 10
257.7658094842631
 20
143.6498589026489
 30
0.0
 10
257.7688491167901
 20
143.5980586903443
 30
0.0
 10
257.8051684215939
 20
143.5873730183344
 30
0.0
 10
257.8232349026815
 20
143.5820575946962
 30
0.0
 11
257.955521134436
 21
143.8217291154796
 31
0.0
 11
257.8690264143743
 21
143.7984029186274
 31
0.0
 11
257.8334109241979
 21
143.7729843783809
 31
0.0
 11
257.818147184489
 21
143.7577331547923
 31
0.0
 11
257.8079711629724
 21
143.7373981900075
 31
0.0
 11
257.7876194125051
 21
143.711979649761
 31
0.0
 11
257.772355672796
 21
143.6865609437801
 31
0.0
 11
257.7672676620378
 21
143.6560586623375
 31
0.0
 11
257.7774436835543
 21
143.6052212503754
 31
0.0
 11
257.8232349026815
 21
143.5820575946962
 31
0.0
  0
SPLINE
  5
6CE
102
{ACAD_REACTORS
330
6CB
102
}
330
18
100
AcDbEntity
  8
ROGO
 62
     4
100
AcDbSpline
210
0.0
220
0.0
230
1.0
 70
     8
 71
     3
 72
    26
 73
    22
 74
    20
 42
0.0000000001
 43
0.0000000001
 44
0.0000000001
 40
0.0
 40
0.0
 40
0.0
 40
0.0
 40
0.169923923071684
 40
0.2836748319958191
 40
0.3656985008506303
 40
0.4269429203543698
 40
0.5063801468146404
 40
0.5643615780073365
 40
0.6690625284672147
 40
0.7542875968970275
 40
0.812254299272981
 40
0.869093618835636
 40
0.9707681112905831
 40
1.042664112808594
 40
1.081385664337981
 40
1.136388484468232
 40
1.17610725503093
 40
1.233646640341443
 40
1.266208955382583
 40
1.337068205431089
 40
1.369423154551975
 40
1.369423154551975
 40
1.369423154551975
 40
1.369423154551975
 10
257.7774436835543
 20
144.1702336564964
 30
0.0
 10
257.719768878594
 20
144.1667926787306
 30
0.0
 10
257.6234852575961
 20
144.1610482327928
 30
0.0
 10
257.517766427461
 20
144.0968251788218
 30
0.0
 10
257.4403106233844
 20
144.0594887175187
 30
0.0
 10
257.3850692378522
 20
144.0087329792339
 30
0.0
 10
257.3445770783247
 20
143.9563060092224
 30
0.0
 10
257.2935291096405
 20
143.8938396588582
 30
0.0
 10
257.2519009498758
 20
143.8211001216285
 30
0.0
 10
257.2307022588464
 20
143.7409284706887
 30
0.0
 10
257.2119246595299
 20
143.6770311997189
 30
0.0
 10
257.1979988775224
 20
143.6058260299871
 30
0.0
 10
257.201541990699
 20
143.5288993980079
 30
0.0
 10
257.206615890923
 20
143.4574538804598
 30
0.0
 10
257.2292696216138
 20
143.4064524777914
 30
0.0
 10
257.2550682082038
 20
143.3701429935566
 30
0.0
 10
257.286658224173
 20
143.3301521221147
 30
0.0
 10
257.3212246098131
 20
143.3036662974545
 30
0.0
 10
257.3498138322417
 20
143.2556854462774
 30
0.0
 10
257.3998583016646
 20
143.2495627436272
 30
0.0
 10
257.4316685573732
 20
143.2373767379707
 30
0.0
 10
257.4416402396926
 20
143.2335567442472
 30
0.0
 11
257.7774436835543
 21
144.1702336564964
 31
0.0
 11
257.6095419616234
 21
144.1440964912963
 31
0.0
 11
257.5077832092869
 21
144.0932592450689
 31
0.0
 11
257.4365522289342
 21
144.0525894812339
 31
0.0
 11
257.3907610098071
 21
144.0119195516642
 31
0.0
 11
257.3398817799218
 21
143.9509148230444
 31
0.0
 11
257.3042662897454
 21
143.9051613180131
 31
0.0
 11
257.2533867672943
 21
143.813654142216
 31
0.0
 11
257.2279472986344
 21
143.7323144488113
 31
0.0
 11
257.2126835589255
 21
143.6763934613876
 31
0.0
 11
257.202507537409
 21
143.620472473964
 31
0.0
 11
257.202507537409
 21
143.518797981509
 31
0.0
 11
257.2126835589255
 21
143.4476257704968
 31
0.0
 11
257.2279472986344
 21
143.4120395821234
 31
0.0
 11
257.2584747780526
 21
143.3662860770921
 31
0.0
 11
257.2839145392781
 21
143.3357836299148
 31
0.0
 11
257.3246177476469
 21
143.2951138660798
 31
0.0
 11
257.3449694981143
 21
143.2696951600988
 31
0.0
 11
257.4111127602744
 21
143.2442766198524
 31
0.0
 11
257.4416402396926
 21
143.2335567442472
 31
0.0
  0
LINE
  5
6CF
102
{ACAD_REACTORS
330
6CA
102
}
330
18
100
AcDbEntity
  8
ROGO
 62
     4
100
AcDbLine
 10
256.3579497289363
 20
143.9198561109171
 30
0.0
 11
256.5000459702698
 21
143.59999215999
 31
0.0
  0
LINE
  5
6D0
102
{ACAD_REACTORS
330
6CA
102
}
330
18
100
AcDbEntity
  8
ROGO
 62
     4
100
AcDbLine
 10
256.7690117994938
 20
144.1702336564964
 30
0.0
 11
257.1851207989257
 21
143.2335567442472
 31
0.0
  0
LINE
  5
6D1
102
{ACAD_REACTORS
330
6CA
102
}
330
18
100
AcDbEntity
  8
ROGO
 62
     4
100
AcDbLine
 10
256.3579497289363
 20
143.9198561109171
 30
0.0
 11
256.1272896174394
 21
143.59999215999
 31
0.0
  0
LINE
  5
6D2
102
{ACAD_REACTORS
330
6CA
102
}
330
18
100
AcDbEntity
  8
ROGO
 62
     4
100
AcDbLine
 10
256.0197504895175
 20
144.1702336564964
 30
0.0
 11
255.3442945639911
 21
143.2335567442472
 31
0.0
  0
LINE
  5
6D3
102
{ACAD_REACTORS
330
6C9
102
}
330
18
100
AcDbEntity
  8
ROGO
 62
     4
100
AcDbLine
 10
254.8807451958249
 20
143.9556689182459
 30
0.0
 11
254.7977376423056
 21
143.7879059559749
 31
0.0
  0
LINE
  5
6D4
102
{ACAD_REACTORS
330
6C9
102
}
330
18
100
AcDbEntity
  8
ROGO
 62
     4
100
AcDbLine
 10
254.3858630722283
 20
144.1702336564964
 30
0.0
 11
253.9224040472368
 21
143.2335567442472
 31
0.0
  0
SPLINE
  5
6D5
102
{ACAD_REACTORS
330
6C8
102
}
330
18
100
AcDbEntity
  8
ROGO
 62
     4
100
AcDbSpline
210
0.0
220
0.0
230
1.0
 70
     8
 71
     3
 72
    25
 73
    21
 74
     0
 42
0.0000000001
 43
0.0000000001
 40
0.0
 40
0.0
 40
0.0
 40
0.0
 40
0.4087168505087288
 40
0.6887487002771746
 40
0.9415836120477687
 40
1.17452070575514
 40
1.41154617586699
 40
1.599156012919487
 40
1.80099909059943
 40
2.178735911501585
 40
2.521686161369157
 40
2.762704659361267
 40
3.06256558063785
 40
3.222432137207705
 40
3.399493810628493
 40
3.567459719866414
 40
3.743172740007509
 40
3.995988754699505
 40
4.17170091132118
 40
4.337226830236035
 40
4.337226830236035
 40
4.337226830236035
 40
4.337226830236035
 10
259.7709368696467
 20
144.1741406012842
 30
0.0
 10
259.806045930178
 20
144.1730125833797
 30
0.0
 10
259.8652099205513
 20
144.171111705389
 30
0.0
 10
259.9287297631315
 20
144.1214635434448
 30
0.0
 10
259.9773333077532
 20
144.0803014132475
 30
0.0
 10
260.0118327070171
 20
144.0305383252721
 30
0.0
 10
260.0420723970807
 20
143.9847838167078
 30
0.0
 10
260.0619980601562
 20
143.9364775832476
 30
0.0
 10
260.0891008987066
 20
143.8785145270767
 30
0.0
 10
260.1003201349088
 20
143.8009685694015
 30
0.0
 10
260.0927402068283
 20
143.7208176671803
 30
0.0
 10
260.0729601336959
 20
143.6497712649862
 30
0.0
 10
260.0522124273124
 20
143.5952661341593
 30
0.0
 10
260.0277587856177
 20
143.5478160363856
 30
0.0
 10
259.9986069198898
 20
143.5170920943962
 30
0.0
 10
259.9783825271137
 20
143.4780269016692
 30
0.0
 10
259.939534055669
 20
143.4460736713432
 30
0.0
 10
259.90804138917
 20
143.4066478699114
 30
0.0
 10
259.8723037713766
 20
143.3728082852899
 30
0.0
 10
259.8521547440486
 20
143.3519296693791
 30
0.0
 10
259.8415316909354
 20
143.3431511692679
 30
0.0
  0
SPLINE
  5
6D6
102
{ACAD_REACTORS
330
6C8
102
}
330
18
100
AcDbEntity
  8
ROGO
 62
     4
100
AcDbSpline
210
0.0
220
0.0
230
1.0
 70
     8
 71
     3
 72
    38
 73
    34
 74
    32
 42
0.0000000001
 43
0.0000000001
 44
0.0000000001
 40
0.0
 40
0.0
 40
0.0
 40
0.0
 40
0.1289432887572924
 40
0.1694386997662278
 40
0.2214725495874597
 40
0.2648341759812058
 40
0.3014202876682181
 40
0.3500149933853041
 40
0.3748449727639675
 40
0.4028100471116744
 40
0.4440253042547587
 40
0.4907132471595681
 40
0.5209992584847614
 40
0.5539000270224685
 40
0.5904729795074081
 40
0.6459742881243522
 40
0.6987063191840686
 40
0.7232211772574128
 40
0.7511770934373995
 40
0.7842956220194898
 40
0.8078717585222513
 40
0.8276353506511089
 40
0.8558532954253623
 40
0.8868599830266534
 40
0.917866497987717
 40
0.9449972417387188
 40
1.007131467490311
 40
1.031646325563656
 40
1.08067607083041
 40
1.124016184538856
 40
1.20698758300394
 40
1.309365697628525
 40
1.457214593109345
 40
1.457214593109345
 40
1.457214593109345
 40
1.457214593109345
 10
259.2356320807165
 20
144.1741406012842
 30
0.0
 10
259.1926514176678
 20
144.1711043204112
 30
0.0
 10
259.136172420333
 20
144.167114477371
 30
0.0
 10
259.0644572997821
 20
144.1474666724546
 30
0.0
 10
259.0253646246542
 20
144.1240598100074
 30
0.0
 10
258.9846808823772
 20
144.1068546441471
 30
0.0
 10
258.9499942029851
 20
144.0813772053694
 30
0.0
 10
258.9149093590707
 20
144.0682489266233
 30
0.0
 10
258.8903418773564
 20
144.0445762934863
 30
0.0
 10
258.8619070212039
 20
144.0301160274371
 30
0.0
 10
258.839263840403
 20
143.9977497481104
 30
0.0
 10
258.8139551865256
 20
143.967488449793
 30
0.0
 10
258.7845939640843
 20
143.9453990516241
 30
0.0
 10
258.7604968147726
 20
143.9221987207568
 30
0.0
 10
258.7383910309559
 20
143.8863936393221
 30
0.0
 10
258.7253078387188
 20
143.8388192884884
 30
0.0
 10
258.6884285158415
 20
143.8087825590858
 30
0.0
 10
258.6828756444958
 20
143.7726694480375
 30
0.0
 10
258.6624765663781
 20
143.7513633202135
 30
0.0
 10
258.6536063337681
 20
143.723860170084
 30
0.0
 10
258.6502281222227
 20
143.6986624264935
 30
0.0
 10
258.6461734628334
 20
143.6751294783014
 30
0.0
 10
258.6355672417663
 20
143.650373856325
 30
0.0
 10
258.6390291489165
 20
143.6197941392156
 30
0.0
 10
258.638042955503
 20
143.5901827841483
 30
0.0
 10
258.6386233314845
 20
143.5502065327316
 30
0.0
 10
258.6365286741902
 20
143.5112847359235
 30
0.0
 10
258.6532327452593
 20
143.4689285894199
 30
0.0
 10
258.6631176601694
 20
143.4311739445934
 30
0.0
 10
258.6901891076489
 20
143.3788980605625
 30
0.0
 10
258.7368867872322
 20
143.3185829935062
 30
0.0
 10
258.825686331131
 20
143.2453719297877
 30
0.0
 10
258.9110696888623
 20
143.2379450081626
 30
0.0
 10
258.9615192191816
 20
143.2335567442472
 30
0.0
 11
259.2356320807165
 21
144.1741406012842
 31
0.0
 11
259.1076242084193
 21
144.1586371711635
 31
0.0
 11
259.0688339533219
 21
144.1470098575333
 31
0.0
 11
259.0222858300585
 21
144.1237548849923
 31
0.0
 11
258.9834955749612
 21
144.1043758563017
 31
0.0
 11
258.9524634927856
 21
144.0849966549708
 31
0.0
 11
258.9097943036052
 21
144.0617418550701
 31
0.0
 11
258.8903990236785
 21
144.0462385975896
 31
0.0
 11
258.8671248096689
 21
144.0307351674688
 31
0.0
 11
258.8399716615763
 21
143.9997286525078
 31
0.0
 11
258.8089395794007
 21
143.9648463663365
 31
0.0
 11
258.785665365391
 21
143.9454671650058
 31
0.0
 11
258.7623914561373
 21
143.922212365105
 31
0.0
 11
258.7429961762106
 21
143.8912058501439
 31
0.0
 11
258.719722266957
 21
143.8408201338521
 31
0.0
 11
258.6886898800254
 21
143.7981861326205
 31
0.0
 11
258.6809320118595
 21
143.7749311600796
 31
0.0
 11
258.6654159707717
 21
143.7516763601789
 31
0.0
 11
258.6537788637669
 21
143.7206696725776
 31
0.0
 11
258.649899624928
 21
143.6974148726768
 31
0.0
 11
258.6460206908451
 21
143.6780356713461
 31
0.0
 11
258.6382628226791
 21
143.6509051002352
 31
0.0
 11
258.6382628226791
 21
143.6198984126339
 31
0.0
 11
258.6382628226791
 21
143.5888918976728
 31
0.0
 11
258.6382628226791
 21
143.5617611539218
 31
0.0
 11
258.6421417567621
 21
143.4997481239997
 31
0.0
 11
258.649899624928
 21
143.4764931514588
 31
0.0
 11
258.6654159707717
 21
143.4299833790171
 31
0.0
 11
258.6848109459424
 21
143.3912251489957
 31
0.0
 11
258.7352383080447
 21
143.3253363478634
 31
0.0
 11
258.8166977523226
 21
143.2633231453011
 31
0.0
 11
258.9615192191816
 21
143.2335567442472
 31
0.0
  0
LINE
  5
6D7
102
{ACAD_REACTORS
330
67C
102
}
330
18
100
AcDbEntity
  8
ROGO
 62
     4
100
AcDbLine
 10
253.0106154381398
 20
143.8080180078071
 30
0.0
 11
252.8979143305999
 21
143.5589153521315
 31
0.0
  0
SPLINE
  5
6D8
102
{ACAD_REACTORS
330
67C
102
}
330
18
100
AcDbEntity
  8
ROGO
 62
     4
100
AcDbSpline
210
0.0
220
0.0
230
1.0
 70
     8
 71
     3
 72
    15
 73
    11
 74
     9
 42
0.0000000001
 43
0.0000000001
 44
0.0000000001
 40
0.0
 40
0.0
 40
0.0
 40
0.0
 40
0.1098284065179782
 40
0.1599041188915469
 40
0.2167433860764834
 40
0.2554649376059976
 40
0.3167034729491553
 40
0.3533836827689055
 40
0.4163149030766253
 40
0.437291989900869
 40
0.437291989900869
 40
0.437291989900869
 40
0.437291989900869
 10
253.300209252104
 20
143.8080180078071
 30
0.0
 10
253.3414586717707
 20
143.8082069521675
 30
0.0
 10
253.4015155579235
 20
143.8084820447635
 30
0.0
 10
253.4343568022567
 20
143.7341915029143
 30
0.0
 10
253.4196357906704
 20
143.6863599831466
 30
0.0
 10
253.4011302793252
 20
143.6372519203523
 30
0.0
 10
253.3684268495561
 20
143.6038822510287
 30
0.0
 10
253.3245340566391
 20
143.5717416341208
 30
0.0
 10
253.2830532697869
 20
143.5678508685251
 30
0.0
 10
253.2560746743151
 20
143.5607024560945
 30
0.0
 10
253.2493300222187
 20
143.5589153521315
 30
0.0
 11
253.300209252104
 21
143.8080180078071
 31
0.0
 11
253.4070557226331
 21
143.782599301826
 31
0.0
 11
253.4274074731003
 21
143.7368457967948
 31
0.0
 11
253.4172317441496
 21
143.6809248093711
 31
0.0
 11
253.4019680044405
 21
143.6453386209977
 31
0.0
 11
253.3612645035059
 21
143.5995851159665
 31
0.0
 11
253.3307370240879
 21
143.5792501511817
 31
0.0
 11
253.269681772686
 21
143.5639990933276
 31
0.0
 11
253.2493300222187
 21
143.5589153521315
 31
0.0
  0
SPLINE
  5
6D9
102
{ACAD_REACTORS
330
67C
102
}
330
18
100
AcDbEntity
  8
ROGO
 62
     4
100
AcDbSpline
210
0.0
220
0.0
230
1.0
 70
     8
 71
     3
 72
    18
 73
    14
 74
     0
 42
0.0000000001
 43
0.0000000001
 40
0.1087402787915014
 40
0.1087402787915014
 40
0.1087402787915014
 40
0.1087402787915014
 40
0.5992371417938475
 40
1.083176791562496
 40
1.448211145705696
 40
1.714037220764907
 40
2.164002567013297
 40
2.740236056362883
 40
3.395137510199602
 40
4.071816045172726
 40
4.784906178399433
 40
5.506895915094292
 40
6.060470601257719
 40
6.060470601257719
 40
6.060470601257719
 40
6.060470601257719
 10
253.7063486639356
 20
144.1702336564964
 30
0.0
 10
253.7431978304481
 20
144.1567290544775
 30
0.0
 10
253.8156613362653
 20
144.1281782620899
 30
0.0
 10
253.9041010087602
 20
144.063015919784
 30
0.0
 10
253.9523321874136
 20
143.9877913200669
 30
0.0
 10
253.9987251815268
 20
143.9136709461578
 30
0.0
 10
254.0052177963657
 20
143.8073327338782
 30
0.0
 10
253.9945824546278
 20
143.6728954600249
 30
0.0
 10
253.9259216491851
 20
143.5326240378513
 30
0.0
 10
253.8157170181805
 20
143.4099371630224
 30
0.0
 10
253.6788902780977
 20
143.3117401884393
 30
0.0
 10
253.5346017610911
 20
143.2346580921208
 30
0.0
 10
253.4314642885743
 20
143.233890058592
 30
0.0
 10
253.3867042647315
 20
143.2335567442472
 30
0.0
  0
LINE
  5
6DA
102
{ACAD_REACTORS
330
6CA
102
}
330
18
100
AcDbEntity
  8
ROGO
 62
     4
100
AcDbLine
 10
256.1272896174394
 20
143.5999921599901
 30
0.0
 11
256.5000459702698
 21
143.5999921599901
 31
0.0
  0
LINE
  5
6DB
102
{ACAD_REACTORS
330
6CA
102
}
330
18
100
AcDbEntity
  8
ROGO
 62
     4
100
AcDbLine
 10
255.9916485465988
 20
143.4118942329342
 30
0.0
 11
256.5836065226855
 21
143.4118942329342
 31
0.0
  0
LINE
  5
6DD
102
{ACAD_REACTORS
330
6CA
102
}
330
18
100
AcDbEntity
  8
ROGO
 62
     4
100
AcDbLine
 10
255.9916485465988
 20
143.4118942329342
 30
0.0
 11
255.863045917558
 21
143.2335567442472
 31
0.0
  0
LINE
  5
6DE
102
{ACAD_REACTORS
330
6C9
102
}
330
18
100
AcDbEntity
  8
ROGO
 62
     4
100
AcDbLine
 10
254.7126211723195
 20
143.6158807542009
 30
0.0
 11
254.6296101046594
 21
143.4481106896526
 31
0.0
  0
LINE
  5
6DF
102
{ACAD_REACTORS
330
6C9
102
}
330
18
100
AcDbEntity
  8
ROGO
 62
     4
100
AcDbLine
 10
255.2954578358206
 20
143.4481106896526
 30
0.0
 11
255.1892985390073
 21
143.2335567442472
 31
0.0
  0
LINE
  5
6E0
102
{ACAD_REACTORS
330
6C9
102
}
330
18
100
AcDbEntity
  8
ROGO
 62
     4
100
AcDbLine
 10
255.4635853734668
 20
143.7879059559749
 30
0.0
 11
255.3784689034807
 21
143.6158807542009
 31
0.0
  0
LINE
  5
6E1
102
{ACAD_REACTORS
330
6C9
102
}
330
18
100
AcDbEntity
  8
ROGO
 62
     4
100
AcDbLine
 10
254.7126211723195
 20
143.6158807542009
 30
0.0
 11
255.3784689034807
 21
143.6158807542009
 31
0.0
  0
LINE
  5
6E2
102
{ACAD_REACTORS
330
6C9
102
}
330
18
100
AcDbEntity
  8
ROGO
 62
     4
100
AcDbLine
 10
254.6296101046594
 20
143.4481106896526
 30
0.0
 11
255.2954578358206
 21
143.4481106896526
 31
0.0
  0
LINE
  5
6E3
102
{ACAD_REACTORS
330
6C9
102
}
330
18
100
AcDbEntity
  8
ROGO
 62
     4
100
AcDbLine
 10
254.7977376423056
 20
143.7879059559749
 30
0.0
 11
255.4635853734668
 21
143.7879059559749
 31
0.0
  0
LINE
  5
6E4
102
{ACAD_REACTORS
330
6C9
102
}
330
18
100
AcDbEntity
  8
ROGO
 62
     4
100
AcDbLine
 10
253.9224040472368
 20
143.2335567442472
 30
0.0
 11
255.1892985390073
 21
143.2335567442472
 31
0.0
  0
LINE
  5
6E5
102
{ACAD_REACTORS
330
6CA
102
}
330
18
100
AcDbEntity
  8
ROGO
 62
     4
100
AcDbLine
 10
255.3442945639911
 20
143.2335567442472
 30
0.0
 11
255.863045917558
 21
143.2335567442472
 31
0.0
  0
LINE
  5
6E6
102
{ACAD_REACTORS
330
67C
102
}
330
18
100
AcDbEntity
  8
ROGO
 62
     4
100
AcDbLine
 10
253.2493300222187
 20
143.5589153521315
 30
0.0
 11
252.8979143305999
 21
143.5589153521315
 31
0.0
  0
LINE
  5
6E7
102
{ACAD_REACTORS
330
67C
102
}
330
18
100
AcDbEntity
  8
ROGO
 62
     4
100
AcDbLine
 10
253.386704264952
 20
143.2335567442472
 30
0.0
 11
252.7507128671842
 21
143.2335567442472
 31
0.0
  0
LINE
  5
6E8
102
{ACAD_REACTORS
330
67C
102
}
330
18
100
AcDbEntity
  8
ROGO
 62
     4
100
AcDbLine
 10
252.7507128671842
 20
143.2335567442472
 30
0.0
 11
252.512308073995
 21
142.7066119039916
 31
0.0
  0
SPLINE
  5
6E9
102
{ACAD_REACTORS
330
6C8
102
}
330
18
100
AcDbEntity
  8
ROGO
 62
     4
100
AcDbSpline
210
0.0
220
0.0
230
1.0
 70
     8
 71
     3
 72
     9
 73
     5
 74
     3
 42
0.0000000001
 43
0.0000000001
 44
0.0000000001
 40
0.0
 40
0.0
 40
0.0
 40
0.0
 40
0.0810170589120836
 40
0.1899495518469247
 40
0.1899495518469247
 40
0.1899495518469247
 40
0.1899495518469247
 10
259.6751634858779
 20
143.2544398708952
 30
0.0
 10
259.7011885092186
 20
143.2624020582076
 30
0.0
 10
259.7622058009688
 20
143.2810699033753
 30
0.0
 10
259.8126200614174
 20
143.3205246275391
 30
0.0
 10
259.8415316909354
 20
143.3431511692679
 30
0.0
 11
259.6751634858779
 21
143.2544398708952
 31
0.0
 11
259.751309670421
 21
143.2821079466195
 31
0.0
 11
259.8415316909354
 21
143.3431511692679
 31
0.0
  0
SPLINE
  5
6EA
102
{ACAD_REACTORS
330
6C8
102
}
330
18
100
AcDbEntity
  8
ROGO
 62
     4
100
AcDbSpline
210
0.0
220
0.0
230
1.0
 70
     8
 71
     3
 72
    11
 73
     7
 74
     0
 42
0.0000000001
 43
0.0000000001
 40
0.1647869275458134
 40
0.1647869275458134
 40
0.1647869275458134
 40
0.1647869275458134
 40
0.2895635144633836
 40
0.5387013147903714
 40
0.7953622617455423
 40
0.8850764140209602
 40
0.8850764140209602
 40
0.8850764140209602
 40
0.8850764140209602
 10
259.6751634858779
 20
143.2544398708952
 30
0.0
 10
259.6651924781058
 20
143.2516644370814
 30
0.0
 10
259.6342769836929
 20
143.2467229311919
 30
0.0
 10
259.58242036441
 20
143.2399376632582
 30
0.0
 10
259.5331332414186
 20
143.2328569886113
 30
0.0
 10
259.504293699407
 20
143.2334127875149
 30
0.0
 10
259.4968240081119
 20
143.2335567442472
 30
0.0
  0
LINE
  5
6EB
102
{ACAD_REACTORS
330
6C8
102
}
330
18
100
AcDbEntity
  8
ROGO
 62
     4
100
AcDbLine
 10
258.9615192191816
 20
143.2335567442472
 30
0.0
 11
259.4968240081119
 21
143.2335567442472
 31
0.0
  0
LINE
  5
6EC
102
{ACAD_REACTORS
330
6CB
102
}
330
18
100
AcDbEntity
  8
ROGO
 62
     4
100
AcDbLine
 10
258.4221861742451
 20
143.5820575946962
 30
0.0
 11
258.2484123946816
 21
143.2335567442472
 31
0.0
  0
LINE
  5
6EE
102
{ACAD_REACTORS
330
6CA
102
}
330
18
100
AcDbEntity
  8
ROGO
 62
     4
100
AcDbLine
 10
256.5836065226855
 20
143.4118942329342
 30
0.0
 11
256.6628311016286
 21
143.2335567442472
 31
0.0
  0
LINE
  5
6EF
102
{ACAD_REACTORS
330
6CA
102
}
330
18
100
AcDbEntity
  8
ROGO
 62
     4
100
AcDbLine
 10
257.1851207989257
 20
143.2335567442472
 30
0.0
 11
256.6628311016286
 21
143.2335567442472
 31
0.0
  0
ARC
  5
6F0
330
18
100
AcDbEntity
  8
針
100
AcDbCircle
 10
258.0418107086492
 20
139.4680252815045
 30
0.0
 40
0.5
100
AcDbArc
 50
290.207529799669
 51
323.0641879364476
  0
ARC
  5
6F1
330
18
100
AcDbEntity
  8
針
100
AcDbCircle
 10
259.2987973954837
 20
138.5547709963827
 30
0.0
 40
0.5
100
AcDbArc
 50
144.9358120635524
 51
177.792470200331
  0
LINE
  5
6F2
102
{ACAD_REACTORS
330
6CB
102
}
330
18
100
AcDbEntity
  8
ROGO
 62
     4
100
AcDbLine
 10
257.4416402396925
 20
143.2335567442472
 30
0.0
 11
258.2484123946816
 21
143.2335567442472
 31
0.0
  0
LINE
  5
6F3
102
{ACAD_REACTORS
330
6CB
102
}
330
18
100
AcDbEntity
  8
ROGO
 62
     4
100
AcDbLine
 10
257.8232349026815
 20
143.5820575946962
 30
0.0
 11
258.4221861742451
 21
143.5820575946962
 31
0.0
  0
LINE
  5
6F4
102
{ACAD_REACTORS
330
6CA
102
}
330
18
100
AcDbEntity
  8
ROGO
 62
     4
100
AcDbLine
 10
256.0197504895175
 20
144.1702336564964
 30
0.0
 11
256.7690117994938
 21
144.1702336564964
 31
0.0
  0
LINE
  5
6F5
102
{ACAD_REACTORS
330
6C9
102
}
330
18
100
AcDbEntity
  8
ROGO
 62
     4
100
AcDbLine
 10
254.3858630722283
 20
144.1702336564964
 30
0.0
 11
255.6527575639989
 21
144.1702336564964
 31
0.0
  0
LINE
  5
6F6
102
{ACAD_REACTORS
330
6C9
102
}
330
18
100
AcDbEntity
  8
ROGO
 62
     4
100
AcDbLine
 10
254.8807451958249
 20
143.9556689182459
 30
0.0
 11
255.5465929269861
 21
143.9556689182459
 31
0.0
  0
LINE
  5
6F7
102
{ACAD_REACTORS
330
6C9
102
}
330
18
100
AcDbEntity
  8
ROGO
 62
     4
100
AcDbLine
 10
255.6527575639989
 20
144.1702336564964
 30
0.0
 11
255.5465929269861
 21
143.9556689182459
 31
0.0
  0
LINE
  5
6F8
102
{ACAD_REACTORS
330
67C
102
}
330
18
100
AcDbEntity
  8
ROGO
 62
     4
100
AcDbLine
 10
252.5561405599658
 20
144.1702336564964
 30
0.0
 11
253.7063486639356
 21
144.1702336564964
 31
0.0
  0
LINE
  5
6F9
102
{ACAD_REACTORS
330
67C
102
}
330
18
100
AcDbEntity
  8
ROGO
 62
     4
100
AcDbLine
 10
253.300209252104
 20
143.8080180078071
 30
0.0
 11
253.0106154381398
 21
143.8080180078071
 31
0.0
  0
LINE
  5
6FA
102
{ACAD_REACTORS
330
6C8
102
}
330
18
100
AcDbEntity
  8
ROGO
 62
     4
100
AcDbLine
 10
259.2356320807165
 20
144.1741406012842
 30
0.0
 11
259.7709368696467
 21
144.1741406012842
 31
0.0
  0
LINE
  5
6FB
102
{ACAD_REACTORS
330
6CB
102
}
330
18
100
AcDbEntity
  8
ROGO
 62
     4
100
AcDbLine
 10
257.7774436835546
 20
144.1702336564964
 30
0.0
 11
258.7154697549772
 21
144.1702336564964
 31
0.0
  0
LINE
  5
6FC
102
{ACAD_REACTORS
330
6CB
102
}
330
18
100
AcDbEntity
  8
ROGO
 62
     4
100
AcDbLine
 10
257.955521134436
 20
143.8217291154796
 30
0.0
 11
258.5416941351772
 21
143.8217291154796
 31
0.0
  0
LINE
  5
6FD
102
{ACAD_REACTORS
330
6CB
102
}
330
18
100
AcDbEntity
  8
ROGO
 62
     4
100
AcDbLine
 10
258.7154697549772
 20
144.1702336564964
 30
0.0
 11
258.5416941351772
 21
143.8217291154796
 31
0.0
  0
HATCH
  5
6FE
330
18
100
AcDbEntity
  8
ROGO
 62
     4
100
AcDbHatch
 10
0.0
 20
0.0
 30
0.0
210
0.0
220
0.0
230
1.0
  2
SOLID
 70
     1
 71
     1
 91
        1
 92
        5
 93
        8
 72
     4
 94
        3
 73
     0
 74
     0
 95
       26
 96
       22
 40
0.0
 40
0.0
 40
0.0
 40
0.0
 40
0.169923923071684
 40
0.2836748319958191
 40
0.3656985008505316
 40
0.426942920354356
 40
0.5063801468146631
 40
0.5643615780072894
 40
0.6690625284671952
 40
0.7542875968970452
 40
0.8122542992729588
 40
0.8690936188356241
 40
0.9707681112905712
 40
1.04266411280859
 40
1.081385664338052
 40
1.136388484468192
 40
1.176107255030999
 40
1.233646640341432
 40
1.266208955382537
 40
1.337068205431096
 40
1.369423154551981
 40
1.369423154551981
 40
1.369423154551981
 40
1.369423154551981
 10
260.7955000125394
 20
144.1702336564964
 10
260.7378252075791
 20
144.1667926787306
 10
260.6415415865812
 20
144.1610482327928
 10
260.5358227564461
 20
144.0968251788219
 10
260.4583669523695
 20
144.0594887175186
 10
260.4031255668373
 20
144.0087329792339
 10
260.3626334073096
 20
143.9563060092225
 10
260.3115854386257
 20
143.8938396588582
 10
260.2699572788608
 20
143.8211001216285
 10
260.2487585878316
 20
143.7409284706887
 10
260.2299809885149
 20
143.6770311997189
 10
260.2160552065074
 20
143.6058260299871
 10
260.2195983196838
 20
143.5288993980079
 10
260.224672219908
 20
143.4574538804598
 10
260.247325950599
 20
143.4064524777914
 10
260.2731245371888
 20
143.3701429935565
 10
260.3047145531582
 20
143.3301521221148
 10
260.3392809387981
 20
143.3036662974543
 10
260.3678701612267
 20
143.2556854462775
 10
260.4179146306496
 20
143.2495627436271
 10
260.4497248863581
 20
143.2373767379707
 10
260.4596965686776
 20
143.2335567442472
 72
     1
 10
260.4596965686776
 20
143.2335567442472
 11
261.2664687236667
 21
143.2335567442472
 72
     1
 10
261.2664687236667
 20
143.2335567442472
 11
261.4402425032302
 21
143.5820575946962
 72
     1
 10
261.4402425032302
 20
143.5820575946962
 11
260.8412912316665
 21
143.5820575946962
 72
     4
 94
        3
 73
     0
 74
     0
 95
       16
 96
       12
 40
0.0
 40
0.0
 40
0.0
 40
0.0
 40
0.0513165732835848
 40
0.1031624397428207
 40
0.1340861689274098
 40
0.1637356607215507
 40
0.1962978463874965
 40
0.2190368482719732
 40
0.2406141875624697
 40
0.2843699337995436
 40
0.3739547989170791
 40
0.3739547989170791
 40
0.3739547989170791
 40
0.3739547989170791
 10
260.8412912316665
 20
143.5820575946962
 10
260.8232247505788
 20
143.5873730183343
 10
260.7869054457751
 20
143.5980586903443
 10
260.7838658132481
 20
143.6498589026489
 10
260.7880068728077
 20
143.6867707927128
 10
260.8053496394926
 20
143.713644804195
 10
260.8263894235439
 20
143.7331991834627
 10
260.8342234682867
 20
143.7586657050123
 10
260.8572509290519
 20
143.7778961149218
 10
260.8980847870706
 20
143.8102197476698
 10
260.9432399652793
 20
143.8171039592204
 10
260.973577463421
 20
143.8217291154796
 72
     1
 10
260.9735774634209
 20
143.8217291154796
 11
261.5597504641623
 21
143.8217291154795
 72
     1
 10
261.5597504641623
 20
143.8217291154795
 11
261.7335260839622
 21
144.1702336564964
 72
     1
 10
261.7335260839622
 20
144.1702336564964
 11
260.7955000125394
 21
144.1702336564964
 97
        8
330
72E
330
6C5
330
71B
330
71A
330
719
330
701
330
72F
330
730
 75
     0
 76
     1
 47
0.0514683685270805
 98
        1
 10
260.9573620526133
 20
143.9987249279486
450
        0
451
        0
460
0.0
461
0.0
452
        0
462
0.0
453
        0
470

  0
HATCH
  5
6FF
330
18
100
AcDbEntity
  8
ROGO
 62
     4
100
AcDbHatch
 10
0.0
 20
0.0
 30
0.0
210
0.0
220
0.0
230
1.0
  2
SOLID
 70
     1
 71
     1
 91
        1
 92
        7
 72
     0
 73
     1
 93
       11
 10
261.1998960858353
 20
142.7066119039917
 10
261.7392167418043
 20
142.7066119039917
 10
261.9297051622163
 20
143.0886337296147
 10
262.1201935826285
 20
142.7066119039917
 10
262.6595024386952
 20
142.7066119039916
 10
262.2945979005047
 20
143.4384227802439
 10
263.1811747730897
 20
144.1702336564964
 10
262.6418659170229
 20
144.1702336564964
 10
262.389345518217
 20
144.0104359449387
 10
262.4690258181854
 20
144.1702336564964
 10
261.9297051622163
 20
144.1702336564964
 97
       11
330
72B
330
72C
330
72D
330
731
330
702
330
680
330
718
330
720
330
706
330
707
330
700
 75
     0
 76
     1
 47
0.0514683685270805
 98
        1
 10
261.8832893152376
 20
143.5423114032495
450
        0
451
        0
460
0.0
461
0.0
452
        0
462
0.0
453
        0
470

  0
LINE
  5
700
102
{ACAD_REACTORS
330
6FF
102
}
330
18
100
AcDbEntity
  8
ROGO
 62
     4
100
AcDbLine
 10
262.2945979005048
 20
143.438422780244
 30
0.0
 11
263.1811747730897
 21
144.1702336564964
 31
0.0
  0
SPLINE
  5
701
102
{ACAD_REACTORS
330
6FE
102
}
330
18
100
AcDbEntity
  8
ROGO
 62
     4
100
AcDbSpline
210
0.0
220
0.0
230
1.0
 70
     8
 71
     3
 72
    16
 73
    12
 74
    10
 42
0.0000000001
 43
0.0000000001
 44
0.0000000001
 40
0.0
 40
0.0
 40
0.0
 40
0.0
 40
0.0895848651175355
 40
0.1333406113546093
 40
0.1549179506451059
 40
0.1776569525295826
 40
0.2102191381955283
 40
0.2398686299896692
 40
0.2707923591742583
 40
0.3226382256334943
 40
0.3739547989170791
 40
0.3739547989170791
 40
0.3739547989170791
 40
0.3739547989170791
 10
260.973577463421
 20
143.8217291154796
 30
0.0
 10
260.9432399652793
 20
143.8171039592204
 30
0.0
 10
260.8980847870706
 20
143.8102197476698
 30
0.0
 10
260.8572509290519
 20
143.7778961149218
 30
0.0
 10
260.8342234682867
 20
143.7586657050123
 30
0.0
 10
260.8263894235439
 20
143.7331991834627
 30
0.0
 10
260.8053496394926
 20
143.713644804195
 30
0.0
 10
260.7880068728077
 20
143.6867707927128
 30
0.0
 10
260.7838658132481
 20
143.6498589026489
 30
0.0
 10
260.7869054457751
 20
143.5980586903443
 30
0.0
 10
260.8232247505788
 20
143.5873730183343
 30
0.0
 10
260.8412912316665
 20
143.5820575946962
 30
0.0
 11
260.973577463421
 21
143.8217291154796
 31
0.0
 11
260.8870827433594
 21
143.7984029186274
 31
0.0
 11
260.8514672531831
 21
143.7729843783809
 31
0.0
 11
260.836203513474
 21
143.7577331547923
 31
0.0
 11
260.8260274919574
 21
143.7373981900075
 31
0.0
 11
260.8056757414902
 21
143.711979649761
 31
0.0
 11
260.7904120017811
 21
143.6865609437801
 31
0.0
 11
260.7853239910229
 21
143.6560586623375
 31
0.0
 11
260.7955000125394
 21
143.6052212503753
 31
0.0
 11
260.8412912316665
 21
143.5820575946962
 31
0.0
  0
LINE
  5
702
102
{ACAD_REACTORS
330
6FF
102
}
330
18
100
AcDbEntity
  8
ROGO
 62
     4
100
AcDbLine
 10
261.9297051622163
 20
144.1702336564964
 30
0.0
 11
261.1998960858352
 21
142.7066119039916
 31
0.0
  0
LINE
  5
706
102
{ACAD_REACTORS
330
6FF
102
}
330
18
100
AcDbEntity
  8
ROGO
 62
     4
100
AcDbLine
 10
262.1201935826285
 20
142.7066119039916
 30
0.0
 11
262.6595024386952
 21
142.7066119039916
 31
0.0
  0
LINE
  5
707
102
{ACAD_REACTORS
330
6FF
102
}
330
18
100
AcDbEntity
  8
ROGO
 62
     4
100
AcDbLine
 10
262.2945979005048
 20
143.438422780244
 30
0.0
 11
262.6595024386952
 21
142.7066119039916
 31
0.0
  0
LINE
  5
718
102
{ACAD_REACTORS
330
6FF
102
}
330
18
100
AcDbEntity
  8
ROGO
 62
     4
100
AcDbLine
 10
261.9297051622163
 20
143.0886337296147
 30
0.0
 11
261.7392167418043
 21
142.7066119039916
 31
0.0
  0
LINE
  5
719
102
{ACAD_REACTORS
330
6FE
102
}
330
18
100
AcDbEntity
  8
ROGO
 62
     4
100
AcDbLine
 10
260.8412912316665
 20
143.5820575946962
 30
0.0
 11
261.4402425032302
 21
143.5820575946962
 31
0.0
  0
LINE
  5
71A
102
{ACAD_REACTORS
330
6FE
102
}
330
18
100
AcDbEntity
  8
ROGO
 62
     4
100
AcDbLine
 10
261.4402425032302
 20
143.5820575946962
 30
0.0
 11
261.2664687236666
 21
143.2335567442472
 31
0.0
  0
LINE
  5
71B
102
{ACAD_REACTORS
330
6FE
102
}
330
18
100
AcDbEntity
  8
ROGO
 62
     4
100
AcDbLine
 10
260.4596965686775
 20
143.2335567442472
 30
0.0
 11
261.2664687236666
 21
143.2335567442472
 31
0.0
  0
LINE
  5
720
102
{ACAD_REACTORS
330
6FF
102
}
330
18
100
AcDbEntity
  8
ROGO
 62
     4
100
AcDbLine
 10
261.9297051622163
 20
143.0886337296147
 30
0.0
 11
262.1201935826285
 21
142.7066119039916
 31
0.0
  0
LINE
  5
72B
102
{ACAD_REACTORS
330
6FF
102
}
330
18
100
AcDbEntity
  8
ROGO
 62
     4
100
AcDbLine
 10
262.6418659170228
 20
144.1702336564964
 30
0.0
 11
263.1811747730897
 21
144.1702336564964
 31
0.0
  0
LINE
  5
72C
102
{ACAD_REACTORS
330
6FF
102
}
330
18
100
AcDbEntity
  8
ROGO
 62
     4
100
AcDbLine
 10
262.3893455182171
 20
144.0104359449388
 30
0.0
 11
262.6418659170228
 21
144.1702336564964
 31
0.0
  0
LINE
  5
72D
102
{ACAD_REACTORS
330
6FF
102
}
330
18
100
AcDbEntity
  8
ROGO
 62
     4
100
AcDbLine
 10
262.4690258181854
 20
144.1702336564964
 30
0.0
 11
262.3893455182171
 21
144.0104359449388
 31
0.0
  0
LINE
  5
72E
102
{ACAD_REACTORS
330
6FE
102
}
330
18
100
AcDbEntity
  8
ROGO
 62
     4
100
AcDbLine
 10
260.7955000125396
 20
144.1702336564964
 30
0.0
 11
261.7335260839622
 21
144.1702336564964
 31
0.0
  0
LINE
  5
72F
102
{ACAD_REACTORS
330
6FE
102
}
330
18
100
AcDbEntity
  8
ROGO
 62
     4
100
AcDbLine
 10
260.973577463421
 20
143.8217291154796
 30
0.0
 11
261.5597504641624
 21
143.8217291154796
 31
0.0
  0
LINE
  5
730
102
{ACAD_REACTORS
330
6FE
102
}
330
18
100
AcDbEntity
  8
ROGO
 62
     4
100
AcDbLine
 10
261.7335260839622
 20
144.1702336564964
 30
0.0
 11
261.5597504641624
 21
143.8217291154796
 31
0.0
  0
LINE
  5
731
102
{ACAD_REACTORS
330
6FF
102
}
330
18
100
AcDbEntity
  8
ROGO
 62
     4
100
AcDbLine
 10
261.9297051622163
 20
144.1702336564964
 30
0.0
 11
262.4690258181854
 21
144.1702336564964
 31
0.0
  0
LINE
  5
753
330
18
100
AcDbEntity
  8
外形線
100
AcDbLine
 10
275.1511298874461
 20
65.87534753865663
 30
0.0
 11
257.6511298874461
 21
65.87534753865663
 31
0.0
  0
LINE
  5
754
330
18
100
AcDbEntity
  8
外形線
100
AcDbLine
 10
274.6511298874461
 20
71.07534753865661
 30
0.0
 11
257.6511298874461
 21
71.07534753865661
 31
0.0
  0
LINE
  5
755
330
18
100
AcDbEntity
  8
外形線
100
AcDbLine
 10
275.6511298874461
 20
70.07534753865662
 30
0.0
 11
257.6511298874461
 21
70.07534753865662
 31
0.0
  0
LINE
  5
756
330
18
100
AcDbEntity
  8
外形線
100
AcDbLine
 10
275.6511298874461
 20
66.37534753865662
 30
0.0
 11
257.6511298874461
 21
66.37534753865662
 31
0.0
  0
LINE
  5
770
330
18
100
AcDbEntity
  8
ﾊｯﾁﾝｸ
100
AcDbLine
 10
257.6511298874461
 20
70.07534753865662
 30
0.0
 11
257.6511298874461
 21
66.37534753865662
 31
0.0
  0
LINE
  5
771
330
18
100
AcDbEntity
  8
ﾊｯﾁﾝｸ
100
AcDbLine
 10
256.5511298874461
 20
70.07534753865662
 30
0.0
 11
256.5511298874461
 21
66.37534753865662
 31
0.0
  0
LINE
  5
772
330
18
100
AcDbEntity
  8
ﾊｯﾁﾝｸ
100
AcDbLine
 10
255.5511298874461
 20
70.07534753865662
 30
0.0
 11
255.5511298874461
 21
66.37534753865662
 31
0.0
  0
POINT
  5
773
330
18
100
AcDbEntity
  8
DEFPOINTS
  6
ByBlock
 62
     0
100
AcDbPoint
 10
257.6511298874461
 20
74.02534753865672
 30
0.0
  0
LINE
  5
774
330
18
100
AcDbEntity
  8
ﾊｯﾁﾝｸ
100
AcDbLine
 10
258.7511298874462
 20
70.07534753865662
 30
0.0
 11
258.7511298874462
 21
66.37534753865662
 31
0.0
  0
LINE
  5
775
330
18
100
AcDbEntity
  8
ﾊｯﾁﾝｸ
100
AcDbLine
 10
259.7511298874461
 20
70.07534753865662
 30
0.0
 11
259.7511298874461
 21
66.37534753865662
 31
0.0
  0
LINE
  5
77B
330
18
100
AcDbEntity
  8
外形線
100
AcDbLine
 10
275.6511298874461
 20
70.07534753865662
 30
0.0
 11
275.6511298874461
 21
66.37534753865662
 31
0.0
  0
LINE
  5
77C
330
18
100
AcDbEntity
  8
ﾊｯﾁﾝｸ
100
AcDbLine
 10
274.7511298874461
 20
70.07534753865662
 30
0.0
 11
274.7511298874461
 21
66.37534753865662
 31
0.0
  0
LINE
  5
77D
330
18
100
AcDbEntity
  8
ﾊｯﾁﾝｸ
100
AcDbLine
 10
273.7511298874462
 20
70.07534753865662
 30
0.0
 11
273.7511298874462
 21
66.37534753865662
 31
0.0
  0
LINE
  5
77E
330
18
100
AcDbEntity
  8
ﾊｯﾁﾝｸ
100
AcDbLine
 10
272.6511298874461
 20
70.07534753865662
 30
0.0
 11
272.6511298874461
 21
66.37534753865662
 31
0.0
  0
LINE
  5
77F
330
18
100
AcDbEntity
  8
ﾊｯﾁﾝｸ
100
AcDbLine
 10
271.4511298874462
 20
70.07534753865662
 30
0.0
 11
271.4511298874462
 21
66.37534753865662
 31
0.0
  0
LINE
  5
780
330
18
100
AcDbEntity
  8
外形線
100
AcDbLine
 10
274.6511298874461
 20
71.07534753865661
 30
0.0
 11
275.6511298874461
 21
70.07534753865662
 31
0.0
  0
POINT
  5
781
330
18
100
AcDbEntity
  8
DEFPOINTS
  6
ByBlock
 62
     0
100
AcDbPoint
 10
275.6511298874461
 20
70.07534753865662
 30
0.0
  0
LINE
  5
787
330
18
100
AcDbEntity
  8
外形線
100
AcDbLine
 10
275.1511298874461
 20
65.87534753865663
 30
0.0
 11
275.6511298874461
 21
66.37534753865662
 31
0.0
  0
LINE
  5
7AA
330
18
100
AcDbEntity
  8
外形線
100
AcDbLine
 10
273.0011298874461
 20
55.22534753865665
 30
0.0
 11
273.0011298874461
 21
54.52534753865666
 31
0.0
  0
POINT
  5
7AB
330
18
100
AcDbEntity
  8
DEFPOINTS
  6
ByBlock
 62
     0
100
AcDbPoint
 10
273.6511298874461
 20
55.22534753865665
 30
0.0
  0
POINT
  5
7AC
330
18
100
AcDbEntity
  8
DEFPOINTS
  6
ByBlock
 62
     0
100
AcDbPoint
 10
273.6511298874461
 20
55.22534753865665
 30
0.0
  0
LINE
  5
7CE
330
18
100
AcDbEntity
  8
外形線
100
AcDbLine
 10
273.0011298874461
 20
54.52534753865666
 30
0.0
 11
242.3011298874461
 21
54.52534753865666
 31
0.0
  0
LINE
  5
7CF
330
18
100
AcDbEntity
  8
外形線
100
AcDbLine
 10
242.3011298874461
 20
55.22534753865665
 30
0.0
 11
242.3011298874461
 21
54.52534753865666
 31
0.0
  0
POINT
  5
7D0
330
18
100
AcDbEntity
  8
DEFPOINTS
  6
ByBlock
 62
     0
100
AcDbPoint
 10
241.6511298874461
 20
55.22534753865665
 30
0.0
  0
POINT
  5
7D1
330
18
100
AcDbEntity
  8
DEFPOINTS
  6
ByBlock
 62
     0
100
AcDbPoint
 10
241.6511298874461
 20
55.22534753865665
 30
0.0
  0
ARC
  5
92F
330
18
100
AcDbEntity
  8
外形線
100
AcDbCircle
 10
297.4511298874461
 20
61.02534753865661
 30
0.0
 40
1.199999999999999
100
AcDbArc
 50
279.5940682268597
 51
80.40593177314013
  0
LINE
  5
930
330
18
100
AcDbEntity
  8
外形線
100
AcDbLine
 10
297.6511298874461
 20
62.32534753865667
 30
0.0
 11
297.6511298874461
 21
59.72534753865659
 31
0.0
  0
LINE
  5
931
330
18
100
AcDbEntity
  8
外形線
100
AcDbLine
 10
296.6511298874461
 20
63.27534753865666
 30
0.0
 11
296.6511298874461
 21
58.77534753865666
 31
0.0
  0
LINE
  5
932
330
18
100
AcDbEntity
  8
外形線
100
AcDbLine
 10
275.6511298874461
 20
59.27534753865661
 30
0.0
 11
280.1511298874461
 21
59.27534753865661
 31
0.0
  0
LINE
  5
933
330
18
100
AcDbEntity
  8
0
  6
ByBlock
 62
     2
100
AcDbLine
 10
295.1511298874461
 20
59.27534753865666
 30
0.0
 11
296.6511298874461
 21
59.27534753865666
 31
0.0
  0
LINE
  5
934
330
18
100
AcDbEntity
  8
0
  6
ByBlock
 62
     2
100
AcDbLine
 10
295.1511298874461
 20
59.87534753865663
 30
0.0
 11
296.6511298874461
 21
59.87534753865663
 31
0.0
  0
LINE
  5
935
330
18
100
AcDbEntity
  8
0
  6
ByBlock
 62
     2
100
AcDbLine
 10
295.1511298874461
 20
60.57534753865661
 30
0.0
 11
296.6511298874461
 21
60.57534753865661
 31
0.0
  0
LINE
  5
936
330
18
100
AcDbEntity
  8
0
  6
ByBlock
 62
     2
100
AcDbLine
 10
295.1511298874461
 20
61.47534753865665
 30
0.0
 11
296.6511298874461
 21
61.47534753865665
 31
0.0
  0
LINE
  5
937
330
18
100
AcDbEntity
  8
0
  6
ByBlock
 62
     2
100
AcDbLine
 10
295.1511298874461
 20
62.17534753865663
 30
0.0
 11
296.6511298874461
 21
62.17534753865663
 31
0.0
  0
LINE
  5
938
330
18
100
AcDbEntity
  8
外形線
100
AcDbLine
 10
296.6511298874461
 20
58.77534753865666
 30
0.0
 11
297.6511298874461
 21
59.72534753865659
 31
0.0
  0
LINE
  5
939
330
18
100
AcDbEntity
  8
外形線
100
AcDbLine
 10
295.1511298874461
 20
58.77534753865666
 30
0.0
 11
296.6511298874461
 21
58.77534753865666
 31
0.0
  0
LINE
  5
93A
330
18
100
AcDbEntity
  8
外形線
100
AcDbLine
 10
294.1511298874461
 20
64.52534753865666
 30
0.0
 11
295.1511298874461
 21
64.52534753865666
 31
0.0
  0
LINE
  5
93B
330
18
100
AcDbEntity
  8
外形線
100
AcDbLine
 10
275.6511298874461
 20
62.77534753865666
 30
0.0
 11
280.1511298874461
 21
62.77534753865666
 31
0.0
  0
LINE
  5
93C
330
18
100
AcDbEntity
  8
0
  6
ByBlock
 62
     2
100
AcDbLine
 10
295.1511298874461
 20
62.77534753865666
 30
0.0
 11
296.6511298874461
 21
62.77534753865666
 31
0.0
  0
LINE
  5
93D
330
18
100
AcDbEntity
  8
外形線
100
AcDbLine
 10
296.6511298874461
 20
63.27534753865666
 30
0.0
 11
297.6511298874461
 21
62.32534753865667
 31
0.0
  0
LINE
  5
93E
330
18
100
AcDbEntity
  8
外形線
100
AcDbLine
 10
295.1511298874461
 20
63.27534753865666
 30
0.0
 11
296.6511298874461
 21
63.27534753865666
 31
0.0
  0
LINE
  5
93F
330
18
100
AcDbEntity
  8
外形線
100
AcDbLine
 10
294.1511298874461
 20
64.52534753865666
 30
0.0
 11
294.1511298874461
 21
57.52534753865666
 31
0.0
  0
LINE
  5
940
330
18
100
AcDbEntity
  8
外形線
100
AcDbLine
 10
295.1511298874461
 20
64.52534753865666
 30
0.0
 11
295.1511298874461
 21
57.52534753865666
 31
0.0
  0
LINE
  5
941
330
18
100
AcDbEntity
  8
外形線
100
AcDbLine
 10
294.1511298874461
 20
57.52534753865666
 30
0.0
 11
295.1511298874461
 21
57.52534753865666
 31
0.0
  0
LINE
  5
942
330
18
100
AcDbEntity
  8
隠れ線2
100
AcDbLine
 10
213.1511298874462
 20
141.6086252449489
 30
0.0
 11
231.1511298874462
 21
141.6086252449489
 31
0.0
  0
LINE
  5
943
330
18
100
AcDbEntity
  8
隠れ線2
100
AcDbLine
 10
213.1511298874462
 20
133.6086252449489
 30
0.0
 11
231.1511298874462
 21
133.6086252449489
 31
0.0
  0
LINE
  5
944
330
18
100
AcDbEntity
  8
隠れ線2
100
AcDbLine
 10
221.6511298874462
 20
141.1086252449489
 30
0.0
 11
221.6511298874462
 21
134.1086252449489
 31
0.0
  0
LINE
  5
945
330
18
100
AcDbEntity
  8
隠れ線2
100
AcDbLine
 10
221.6511298874462
 20
141.1086252449489
 30
0.0
 11
222.1511298874462
 21
141.6086252449489
 31
0.0
  0
LINE
  5
946
330
18
100
AcDbEntity
  8
隠れ線2
100
AcDbLine
 10
221.6511298874462
 20
134.1086252449489
 30
0.0
 11
222.1511298874462
 21
133.6086252449489
 31
0.0
  0
LINE
  5
947
330
18
100
AcDbEntity
  8
隠れ線2
100
AcDbLine
 10
211.4552573088732
 20
134.1086252449489
 30
0.0
 11
228.1511298874462
 21
134.1086252449488
 31
0.0
  0
LINE
  5
948
330
18
100
AcDbEntity
  8
隠れ線2
100
AcDbLine
 10
211.4552573088732
 20
141.108625244949
 30
0.0
 11
228.1511298874463
 21
141.1086252449489
 31
0.0
  0
LINE
  5
94A
330
18
100
AcDbEntity
  8
隠れ線2
 48
0.5
100
AcDbLine
 10
228.6511298874462
 20
141.1086252449489
 30
0.0
 11
231.1511298874462
 21
141.108625244949
 31
0.0
  0
LINE
  5
94B
330
18
100
AcDbEntity
  8
隠れ線2
 48
0.5
100
AcDbLine
 10
228.6511298874462
 20
134.1086252449488
 30
0.0
 11
231.1511298874462
 21
134.1086252449489
 31
0.0
  0
LINE
  5
94D
330
18
100
AcDbEntity
  8
外形線
100
AcDbLine
 10
231.1511298874462
 20
141.6086252449486
 30
0.0
 11
240.1012011126619
 21
141.6086252449489
 31
0.0
  0
LINE
  5
94E
330
18
100
AcDbEntity
  8
外形線
 62
     1
 48
0.5
100
AcDbLine
 10
231.1511298874462
 20
141.1086252449481
 30
0.0
 11
239.9946863044366
 21
141.1086252449489
 31
0.0
  0
LINE
  5
94F
330
18
100
AcDbEntity
  8
外形線
 62
     1
 48
0.5
100
AcDbLine
 10
231.1511298874462
 20
134.1086252449497
 30
0.0
 11
239.9946863044366
 21
134.1086252449488
 31
0.0
  0
LINE
  5
950
330
18
100
AcDbEntity
  8
外形線
100
AcDbLine
 10
231.1511298874462
 20
133.608625244949
 30
0.0
 11
240.1012011126619
 21
133.6086252449488
 31
0.0
  0
LINE
  5
952
330
18
100
AcDbEntity
  8
隠れ線2
 48
0.5
100
AcDbLine
 10
228.1511298874463
 20
141.1086252449489
 30
0.0
 11
228.6511298874462
 21
141.1086252449489
 31
0.0
  0
LINE
  5
953
330
18
100
AcDbEntity
  8
隠れ線2
 48
0.5
100
AcDbLine
 10
228.1511298874463
 20
134.1086252449488
 30
0.0
 11
228.6511298874462
 21
134.1086252449488
 31
0.0
  0
LINE
  5
955
330
18
100
AcDbEntity
  8
隠れ線2
100
AcDbLine
 10
222.1511298874462
 20
141.6086252449489
 30
0.0
 11
222.1511298874462
 21
133.6086252449489
 31
0.0
  0
LINE
  5
956
330
18
100
AcDbEntity
  8
外形線
100
AcDbLine
 10
228.6511298874462
 20
80.02534753865665
 30
0.0
 11
228.6511298874462
 21
42.02534753865665
 31
0.0
  0
LINE
  5
957
330
18
100
AcDbEntity
  8
外形線
100
AcDbLine
 10
231.2511298874462
 20
80.02534753865665
 30
0.0
 11
231.2511298874462
 21
42.02534753865665
 31
0.0
  0
LINE
  5
958
330
18
100
AcDbEntity
  8
外形線
100
AcDbLine
 10
228.1511298874463
 20
75.02534753865666
 30
0.0
 11
228.1511298874463
 21
47.02534753865665
 31
0.0
  0
LINE
  5
959
330
18
100
AcDbEntity
  8
外形線
100
AcDbLine
 10
207.1511298874462
 20
77.02534753865666
 30
0.0
 11
207.1511298874462
 21
45.02534753865666
 31
0.0
  0
LINE
  5
95A
330
18
100
AcDbEntity
  8
外形線
100
AcDbLine
 10
228.6511298874462
 20
42.02534753865665
 30
0.0
 11
231.2511298874462
 21
42.02534753865665
 31
0.0
  0
LINE
  5
95B
330
18
100
AcDbEntity
  8
外形線
100
AcDbLine
 10
207.1511298874462
 20
45.02534753865666
 30
0.0
 11
226.1511298874463
 21
45.02534753865666
 31
0.0
  0
ARC
  5
95C
330
18
100
AcDbEntity
  8
外形線
100
AcDbCircle
 10
226.1511298874463
 20
47.02534753865663
 30
0.0
 40
2.0
100
AcDbArc
 50
270.0
 51
0.0
  0
ARC
  5
95D
330
18
100
AcDbEntity
  8
外形線
100
AcDbCircle
 10
228.1511298874463
 20
53.52534753865663
 30
0.0
 40
0.5
100
AcDbArc
 50
0.0
 51
89.99999999999998
  0
ARC
  5
95E
330
18
100
AcDbEntity
  8
外形線
100
AcDbCircle
 10
228.1511298874463
 20
68.52534753865661
 30
0.0
 40
0.5
100
AcDbArc
 50
270.0
 51
0.0000000000000127
  0
LINE
  5
95F
330
18
100
AcDbEntity
  8
外形線
100
AcDbLine
 10
231.2511298874462
 20
57.02534753865666
 30
0.0
 11
241.6511298874461
 21
57.02534753865655
 31
0.0
  0
LINE
  5
960
330
18
100
AcDbEntity
  8
外形線
 62
     1
100
AcDbLine
 10
231.2511298874462
 20
57.52534753865666
 30
0.0
 11
241.6511298874461
 21
57.52534753865643
 31
0.0
  0
LINE
  5
961
330
18
100
AcDbEntity
  8
外形線
 62
     1
100
AcDbLine
 10
231.2511298874462
 20
64.52534753865666
 30
0.0
 11
241.6511298874461
 21
64.52534753865688
 31
0.0
  0
LINE
  5
962
330
18
100
AcDbEntity
  8
外形線
100
AcDbLine
 10
231.2511298874462
 20
65.02534753865666
 30
0.0
 11
241.6511298874461
 21
65.02534753865678
 31
0.0
  0
LINE
  5
963
330
18
100
AcDbEntity
  8
外形線
100
AcDbLine
 10
228.6511298874462
 20
80.02534753865663
 30
0.0
 11
231.2511298874462
 21
80.02534753865665
 31
0.0
  0
LINE
  5
964
330
18
100
AcDbEntity
  8
外形線
100
AcDbLine
 10
207.1511298874462
 20
77.02534753865666
 30
0.0
 11
226.1511298874463
 21
77.02534753865663
 31
0.0
  0
ARC
  5
965
330
18
100
AcDbEntity
  8
外形線
100
AcDbCircle
 10
226.1511298874463
 20
75.02534753865662
 30
0.0
 40
2.0
100
AcDbArc
 50
0.0
 51
89.99999999999998
  0
LINE
  5
967
330
18
100
AcDbEntity
  8
目盛
100
AcDbLine
 10
257.6511298874462
 20
153.1086252449488
 30
0.0
 11
257.6511298874462
 21
150.3586252449488
 31
0.0
  0
LINE
  5
968
330
18
100
AcDbEntity
  8
目盛
100
AcDbLine
 10
258.6243829401506
 20
153.078039535587
 30
0.0
 11
258.5301971608566
 21
151.5809994429446
 31
0.0
  0
LINE
  5
969
330
18
100
AcDbEntity
  8
目盛
100
AcDbLine
 10
259.593795007693
 20
152.9864031153232
 30
0.0
 11
259.4057951573465
 21
151.4982310633515
 31
0.0
  0
LINE
  5
96A
330
18
100
AcDbEntity
  8
目盛
100
AcDbLine
 10
260.555540263525
 20
152.8340776312435
 30
0.0
 11
260.2744682916464
 21
151.3606467551505
 31
0.0
  0
LINE
  5
96B
330
18
100
AcDbEntity
  8
目盛
100
AcDbLine
 10
261.5058231385015
 20
152.6216642424427
 30
0.0
 11
261.1327883077542
 21
151.1687895007496
 31
0.0
  0
LINE
  5
96C
330
18
100
AcDbEntity
  8
目盛
100
AcDbLine
 10
262.4408933002579
 20
152.3500012475237
 30
0.0
 11
261.8228593115081
 21
150.4478882149334
 31
0.0
  0
LINE
  5
96D
330
18
100
AcDbEntity
  8
目盛
100
AcDbLine
 10
263.3570604540588
 20
152.0201607762168
 30
0.0
 11
262.8048736250317
 21
150.6254960473844
 31
0.0
  0
LINE
  5
96E
330
18
100
AcDbEntity
  8
目盛
100
AcDbLine
 10
264.2507089067049
 20
151.6334445581721
 30
0.0
 11
263.6120399693572
 21
150.2762039794731
 31
0.0
  0
LINE
  5
96F
330
18
100
AcDbEntity
  8
目盛
100
AcDbLine
 10
265.1183118360228
 20
151.1913787856287
 30
0.0
 11
264.3956813248702
 21
149.8769187655629
 31
0.0
  0
LINE
  5
970
330
18
100
AcDbEntity
  8
目盛
100
AcDbLine
 10
265.9564452096207
 20
150.6957080902301
 30
0.0
 11
265.1527050171523
 21
149.4292162019771
 31
0.0
  0
LINE
  5
974
330
18
100
AcDbEntity
  8
目盛
100
AcDbLine
 10
256.6778768347419
 20
153.0780395355871
 30
0.0
 11
256.7720626140359
 21
151.5809994429447
 31
0.0
  0
LINE
  5
975
330
18
100
AcDbEntity
  8
目盛
100
AcDbLine
 10
255.7084647671995
 20
152.9864031153233
 30
0.0
 11
255.896464617546
 21
151.4982310633515
 31
0.0
  0
LINE
  5
976
330
18
100
AcDbEntity
  8
目盛
100
AcDbLine
 10
254.7467195113675
 20
152.8340776312435
 30
0.0
 11
255.0277914832461
 21
151.3606467551505
 31
0.0
  0
LINE
  5
977
330
18
100
AcDbEntity
  8
目盛
100
AcDbLine
 10
248.5404584769129
 20
150.1483886577606
 30
0.0
 11
250.1568679207172
 21
147.9235919232294
 31
0.0
  0
LINE
  5
978
330
18
100
AcDbEntity
  8
目盛
100
AcDbLine
 10
252.8613664746345
 20
152.3500012475238
 30
0.0
 11
253.4794004633845
 21
150.4478882149334
 31
0.0
  0
LINE
  5
979
330
18
100
AcDbEntity
  8
目盛
100
AcDbLine
 10
251.9451993208337
 20
152.0201607762168
 30
0.0
 11
252.4973861498608
 21
150.6254960473844
 31
0.0
  0
LINE
  5
97A
330
18
100
AcDbEntity
  8
目盛
100
AcDbLine
 10
251.0515508681876
 20
151.6334445581721
 30
0.0
 11
251.6902198055352
 21
150.2762039794731
 31
0.0
  0
LINE
  5
97B
330
18
100
AcDbEntity
  8
目盛
100
AcDbLine
 10
250.1839479388697
 20
151.1913787856287
 30
0.0
 11
250.9065784500223
 21
149.8769187655629
 31
0.0
  0
LINE
  5
97C
330
18
100
AcDbEntity
  8
目盛
100
AcDbLine
 10
249.3458145652718
 20
150.6957080902301
 30
0.0
 11
250.1495547577403
 21
149.4292162019771
 31
0.0
  0
LINE
  5
97D
330
18
100
AcDbEntity
  8
目盛
100
AcDbLine
 10
253.796436636391
 20
152.6216642424427
 30
0.0
 11
254.1694714671383
 21
151.1687895007497
 31
0.0
  0
LINE
  5
97E
330
18
100
AcDbEntity
  8
目盛
100
AcDbLine
 10
247.7710580463415
 20
149.5515805079735
 30
0.0
 11
248.7271940309646
 21
148.3958106438099
 31
0.0
  0
LINE
  5
97F
330
18
100
AcDbEntity
  8
目盛
100
AcDbLine
 10
247.0406497455515
 20
148.9076389699807
 30
0.0
 11
248.0674704044445
 21
147.8141860288486
 31
0.0
  0
LINE
  5
980
330
18
100
AcDbEntity
  8
目盛
100
AcDbLine
 10
246.3521161624143
 20
148.2191053868435
 30
0.0
 11
247.4455691035464
 21
147.1922847279504
 31
0.0
  0
LINE
  5
981
330
18
100
AcDbEntity
  8
目盛
100
AcDbLine
 10
242.9097538848713
 20
142.3983886577605
 30
0.0
 11
245.525159304683
 21
141.5485919232294
 31
0.0
  0
LINE
  5
982
330
18
100
AcDbEntity
  8
目盛
100
AcDbLine
 10
245.1113664746345
 20
146.7192966554821
 30
0.0
 11
246.7294004633844
 21
145.5437261508972
 31
0.0
  0
LINE
  5
983
330
18
100
AcDbEntity
  8
目盛
100
AcDbLine
 10
244.5640470421649
 20
145.9139405671233
 30
0.0
 11
245.830538930418
 21
145.1102003746548
 31
0.0
  0
LINE
  5
984
330
18
100
AcDbEntity
  8
目盛
100
AcDbLine
 10
244.0683763467663
 20
145.0758071935254
 30
0.0
 11
245.3828363668321
 21
144.3531766823728
 31
0.0
  0
LINE
  5
985
330
18
100
AcDbEntity
  8
目盛
100
AcDbLine
 10
243.6263105742229
 20
144.2082042642074
 30
0.0
 11
244.9835511529219
 21
143.5695353268599
 31
0.0
  0
LINE
  5
986
330
18
100
AcDbEntity
  8
目盛
100
AcDbLine
 10
243.2395943561783
 20
143.3145558115613
 30
0.0
 11
244.6342590850107
 21
142.7623689825343
 31
0.0
  0
LINE
  5
987
330
18
100
AcDbEntity
  8
目盛
100
AcDbLine
 10
245.7081746244215
 20
147.4886970860535
 30
0.0
 11
246.8639444885851
 21
146.5325611014305
 31
0.0
  0
LINE
  5
988
330
18
100
AcDbEntity
  8
目盛
100
AcDbLine
 10
242.6380908899524
 20
141.4633184960041
 30
0.0
 11
244.0909656316454
 21
141.0902836652568
 31
0.0
  0
LINE
  5
989
330
18
100
AcDbEntity
  8
目盛
100
AcDbLine
 10
242.4256775011515
 20
140.5130356210275
 30
0.0
 11
243.8991083772446
 21
140.231963649149
 31
0.0
  0
LINE
  5
98A
330
18
100
AcDbEntity
  8
目盛
100
AcDbLine
 10
242.2733520170718
 20
139.5512903651956
 30
0.0
 11
243.7615240690435
 21
139.3632905148491
 31
0.0
  0
LINE
  5
98B
330
18
100
AcDbEntity
  8
目盛
100
AcDbLine
 10
242.9097538848713
 20
132.8188618321372
 30
0.0
 11
245.525159304683
 21
133.6686585666682
 31
0.0
  0
LINE
  5
98C
330
18
100
AcDbEntity
  8
目盛
100
AcDbLine
 10
242.1511298874462
 20
137.6086252449488
 30
0.0
 11
244.1511298874462
 21
137.6086252449488
 31
0.0
  0
LINE
  5
98D
330
18
100
AcDbEntity
  8
目盛
100
AcDbLine
 10
242.1817155968079
 20
136.6353721922445
 30
0.0
 11
243.6787556894504
 21
136.7295579715384
 31
0.0
  0
LINE
  5
98E
330
18
100
AcDbEntity
  8
目盛
100
AcDbLine
 10
242.2733520170718
 20
135.6659601247021
 30
0.0
 11
243.7615240690435
 21
135.8539599750486
 31
0.0
  0
LINE
  5
98F
330
18
100
AcDbEntity
  8
目盛
100
AcDbLine
 10
242.4256775011515
 20
134.7042148688701
 30
0.0
 11
243.8991083772446
 21
134.9852868407487
 31
0.0
  0
LINE
  5
990
330
18
100
AcDbEntity
  8
目盛
100
AcDbLine
 10
242.6380908899524
 20
133.7539319938936
 30
0.0
 11
244.0909656316454
 21
134.1269668246409
 31
0.0
  0
LINE
  5
991
330
18
100
AcDbEntity
  8
目盛
100
AcDbLine
 10
242.181715596808
 20
138.5818782976532
 30
0.0
 11
243.6787556894504
 21
138.4876925183592
 31
0.0
  0
LINE
  5
992
330
18
100
AcDbEntity
  8
目盛
100
AcDbLine
 10
243.2395943561783
 20
131.9026946783363
 30
0.0
 11
244.6342590850107
 21
132.4548815073633
 31
0.0
  0
LINE
  5
993
330
18
100
AcDbEntity
  8
目盛
100
AcDbLine
 10
243.6263105742229
 20
131.0090462256902
 30
0.0
 11
244.983551152922
 21
131.6477151630378
 31
0.0
  0
LINE
  5
994
330
18
100
AcDbEntity
  8
目盛
100
AcDbLine
 10
244.0683763467664
 20
130.1414432963722
 30
0.0
 11
245.3828363668321
 21
130.8640738075248
 31
0.0
  0
LINE
  5
995
330
18
100
AcDbEntity
  8
目盛
100
AcDbLine
 10
248.5404584769129
 20
125.0688618321371
 30
0.0
 11
250.1568679207172
 21
127.2936585666682
 31
0.0
  0
LINE
  5
996
330
18
100
AcDbEntity
  8
目盛
100
AcDbLine
 10
245.1113664746345
 20
128.4979538344155
 30
0.0
 11
246.7294004633844
 21
129.6735243390005
 31
0.0
  0
LINE
  5
997
330
18
100
AcDbEntity
  8
目盛
100
AcDbLine
 10
245.7081746244214
 20
127.7285534038441
 30
0.0
 11
246.8639444885852
 21
128.6846893884672
 31
0.0
  0
LINE
  5
998
330
18
100
AcDbEntity
  8
目盛
100
AcDbLine
 10
246.3521161624143
 20
126.9981451030542
 30
0.0
 11
247.4455691035465
 21
128.0249657619472
 31
0.0
  0
LINE
  5
999
330
18
100
AcDbEntity
  8
目盛
100
AcDbLine
 10
247.0406497455515
 20
126.309611519917
 30
0.0
 11
248.0674704044446
 21
127.4030644610491
 31
0.0
  0
LINE
  5
99A
330
18
100
AcDbEntity
  8
目盛
100
AcDbLine
 10
247.7710580463415
 20
125.6656699819241
 30
0.0
 11
248.7271940309645
 21
126.8214398460878
 31
0.0
  0
LINE
  5
99B
330
18
100
AcDbEntity
  8
目盛
100
AcDbLine
 10
244.564047042165
 20
129.3033099227744
 30
0.0
 11
245.830538930418
 21
130.1070501152429
 31
0.0
  0
LINE
  5
99C
330
18
100
AcDbEntity
  8
目盛
100
AcDbLine
 10
249.3458145652718
 20
124.5215423996677
 30
0.0
 11
250.1495547577402
 21
125.7880342879207
 31
0.0
  0
LINE
  5
99D
330
18
100
AcDbEntity
  8
目盛
100
AcDbLine
 10
250.1839479388697
 20
124.025871704269
 30
0.0
 11
250.9065784500222
 21
125.3403317243348
 31
0.0
  0
LINE
  5
99E
330
18
100
AcDbEntity
  8
目盛
100
AcDbLine
 10
251.0515508681876
 20
123.5838059317256
 30
0.0
 11
251.6902198055352
 21
124.9410465104246
 31
0.0
  0
LINE
  5
99F
330
18
100
AcDbEntity
  8
目盛
100
AcDbLine
 10
257.6511298874462
 20
122.1086252449488
 30
0.0
 11
257.6511298874462
 21
124.8586252449489
 31
0.0
  0
LINE
  5
9A0
330
18
100
AcDbEntity
  8
目盛
100
AcDbLine
 10
252.8613664746345
 20
122.867249242374
 30
0.0
 11
253.4794004633844
 21
124.7693622749643
 31
0.0
  0
LINE
  5
9A1
330
18
100
AcDbEntity
  8
目盛
100
AcDbLine
 10
253.7964366363909
 20
122.5955862474551
 30
0.0
 11
254.1694714671383
 21
124.0484609891481
 31
0.0
  0
LINE
  5
9A2
330
18
100
AcDbEntity
  8
目盛
100
AcDbLine
 10
254.7467195113675
 20
122.3831728586542
 30
0.0
 11
255.0277914832461
 21
123.8566037347472
 31
0.0
  0
LINE
  5
9A3
330
18
100
AcDbEntity
  8
目盛
100
AcDbLine
 10
255.7084647671995
 20
122.2308473745745
 30
0.0
 11
255.8964646175459
 21
123.7190194265462
 31
0.0
  0
LINE
  5
9A4
330
18
100
AcDbEntity
  8
目盛
100
AcDbLine
 10
256.6778768347418
 20
122.1392109543106
 30
0.0
 11
256.7720626140358
 21
123.6362510469531
 31
0.0
  0
LINE
  5
9A5
330
18
100
AcDbEntity
  8
目盛
100
AcDbLine
 10
251.9451993208337
 20
123.197089713681
 30
0.0
 11
252.4973861498608
 21
124.5917544425134
 31
0.0
  0
LINE
  5
9A6
330
18
100
AcDbEntity
  8
目盛
100
AcDbLine
 10
258.6243829401506
 20
122.1392109543107
 30
0.0
 11
258.5301971608566
 21
123.6362510469531
 31
0.0
  0
LINE
  5
9A7
330
18
100
AcDbEntity
  8
目盛
100
AcDbLine
 10
259.593795007693
 20
122.2308473745744
 30
0.0
 11
259.4057951573465
 21
123.7190194265462
 31
0.0
  0
LINE
  5
9A8
330
18
100
AcDbEntity
  8
目盛
100
AcDbLine
 10
260.5555402635249
 20
122.3831728586542
 30
0.0
 11
260.2744682916464
 21
123.8566037347472
 31
0.0
  0
LINE
  5
9A9
330
18
100
AcDbEntity
  8
目盛
100
AcDbLine
 10
266.7618012979795
 20
125.0688618321372
 30
0.0
 11
265.1453918541753
 21
127.2936585666683
 31
0.0
  0
LINE
  5
9AA
330
18
100
AcDbEntity
  8
目盛
100
AcDbLine
 10
262.4408933002579
 20
122.867249242374
 30
0.0
 11
261.8228593115079
 21
124.7693622749643
 31
0.0
  0
LINE
  5
9AB
330
18
100
AcDbEntity
  8
目盛
100
AcDbLine
 10
263.3570604540587
 20
123.1970897136809
 30
0.0
 11
262.8048736250317
 21
124.5917544425134
 31
0.0
  0
LINE
  5
9AC
330
18
100
AcDbEntity
  8
目盛
100
AcDbLine
 10
264.2507089067049
 20
123.5838059317256
 30
0.0
 11
263.6120399693573
 21
124.9410465104246
 31
0.0
  0
LINE
  5
9AD
330
18
100
AcDbEntity
  8
目盛
100
AcDbLine
 10
265.1183118360228
 20
124.025871704269
 30
0.0
 11
264.3956813248702
 21
125.3403317243348
 31
0.0
  0
LINE
  5
9AE
330
18
100
AcDbEntity
  8
目盛
100
AcDbLine
 10
265.9564452096207
 20
124.5215423996677
 30
0.0
 11
265.1527050171521
 21
125.7880342879207
 31
0.0
  0
LINE
  5
9AF
330
18
100
AcDbEntity
  8
目盛
100
AcDbLine
 10
261.5058231385015
 20
122.5955862474551
 30
0.0
 11
261.1327883077542
 21
124.048460989148
 31
0.0
  0
LINE
  5
9B0
330
18
100
AcDbEntity
  8
目盛
100
AcDbLine
 10
267.5312017285508
 20
125.6656699819241
 30
0.0
 11
266.5750657439279
 21
126.8214398460878
 31
0.0
  0
LINE
  5
9B1
330
18
100
AcDbEntity
  8
目盛
100
AcDbLine
 10
268.2616100293409
 20
126.309611519917
 30
0.0
 11
267.2347893704479
 21
127.4030644610491
 31
0.0
  0
LINE
  5
9B2
330
18
100
AcDbEntity
  8
目盛
100
AcDbLine
 10
268.9501436124781
 20
126.9981451030542
 30
0.0
 11
267.856690671346
 21
128.0249657619473
 31
0.0
  0
LINE
  5
9B3
330
18
100
AcDbEntity
  8
目盛
100
AcDbLine
 10
272.3925058900211
 20
132.8188618321372
 30
0.0
 11
269.7771004702095
 21
133.6686585666682
 31
0.0
  0
LINE
  5
9B4
330
18
100
AcDbEntity
  8
目盛
100
AcDbLine
 10
270.1908933002579
 20
128.4979538344155
 30
0.0
 11
268.5728593115079
 21
129.6735243390005
 31
0.0
  0
LINE
  5
9B5
330
18
100
AcDbEntity
  8
目盛
100
AcDbLine
 10
270.7382127327274
 20
129.3033099227744
 30
0.0
 11
269.4717208444743
 21
130.1070501152429
 31
0.0
  0
LINE
  5
9B6
330
18
100
AcDbEntity
  8
目盛
100
AcDbLine
 10
271.2338834281261
 20
130.1414432963723
 30
0.0
 11
269.9194234080603
 21
130.8640738075249
 31
0.0
  0
LINE
  5
9B7
330
18
100
AcDbEntity
  8
目盛
100
AcDbLine
 10
271.6759492006695
 20
131.0090462256902
 30
0.0
 11
270.3187086219705
 21
131.6477151630378
 31
0.0
  0
LINE
  5
9B8
330
18
100
AcDbEntity
  8
目盛
100
AcDbLine
 10
272.0626654187141
 20
131.9026946783363
 30
0.0
 11
270.6680006898817
 21
132.4548815073633
 31
0.0
  0
LINE
  5
9B9
330
18
100
AcDbEntity
  8
目盛
100
AcDbLine
 10
269.594085150471
 20
127.7285534038442
 30
0.0
 11
268.4383152863073
 21
128.6846893884672
 31
0.0
  0
LINE
  5
9BA
330
18
100
AcDbEntity
  8
目盛
100
AcDbLine
 10
272.66416888494
 20
133.7539319938936
 30
0.0
 11
271.211294143247
 21
134.1269668246408
 31
0.0
  0
LINE
  5
9BB
330
18
100
AcDbEntity
  8
目盛
100
AcDbLine
 10
272.8765822737408
 20
134.7042148688701
 30
0.0
 11
271.4031513976479
 21
134.9852868407487
 31
0.0
  0
LINE
  5
9BC
330
18
100
AcDbEntity
  8
目盛
100
AcDbLine
 10
273.0289077578206
 20
135.6659601247021
 30
0.0
 11
271.5407357058489
 21
135.8539599750486
 31
0.0
  0
LINE
  5
9BD
330
18
100
AcDbEntity
  8
目盛
100
AcDbLine
 10
272.3925058900211
 20
142.3983886577605
 30
0.0
 11
269.7771004702094
 21
141.5485919232294
 31
0.0
  0
LINE
  5
9BE
330
18
100
AcDbEntity
  8
目盛
100
AcDbLine
 10
273.1511298874462
 20
137.6086252449488
 30
0.0
 11
271.1511298874462
 21
137.6086252449488
 31
0.0
  0
LINE
  5
9BF
330
18
100
AcDbEntity
  8
目盛
100
AcDbLine
 10
273.1205441780844
 20
138.5818782976532
 30
0.0
 11
271.623504085442
 21
138.4876925183592
 31
0.0
  0
LINE
  5
9C0
330
18
100
AcDbEntity
  8
目盛
100
AcDbLine
 10
273.0289077578206
 20
139.5512903651956
 30
0.0
 11
271.5407357058489
 21
139.3632905148491
 31
0.0
  0
LINE
  5
9C1
330
18
100
AcDbEntity
  8
目盛
100
AcDbLine
 10
272.8765822737408
 20
140.5130356210275
 30
0.0
 11
271.4031513976479
 21
140.231963649149
 31
0.0
  0
LINE
  5
9C2
330
18
100
AcDbEntity
  8
目盛
100
AcDbLine
 10
272.66416888494
 20
141.4633184960041
 30
0.0
 11
271.211294143247
 21
141.0902836652568
 31
0.0
  0
LINE
  5
9C3
330
18
100
AcDbEntity
  8
目盛
100
AcDbLine
 10
273.1205441780844
 20
136.6353721922445
 30
0.0
 11
271.623504085442
 21
136.7295579715384
 31
0.0
  0
LINE
  5
9C4
330
18
100
AcDbEntity
  8
目盛
100
AcDbLine
 10
272.0626654187141
 20
143.3145558115613
 30
0.0
 11
270.6680006898817
 21
142.7623689825343
 31
0.0
  0
LINE
  5
9C5
330
18
100
AcDbEntity
  8
目盛
100
AcDbLine
 10
271.6759492006695
 20
144.2082042642074
 30
0.0
 11
270.3187086219705
 21
143.5695353268599
 31
0.0
  0
LINE
  5
9C6
330
18
100
AcDbEntity
  8
目盛
100
AcDbLine
 10
271.2338834281261
 20
145.0758071935254
 30
0.0
 11
269.9194234080603
 21
144.3531766823729
 31
0.0
  0
LINE
  5
9C7
330
18
100
AcDbEntity
  8
目盛
100
AcDbLine
 10
266.7618012979795
 20
150.1483886577605
 30
0.0
 11
265.1453918541753
 21
147.9235919232294
 31
0.0
  0
LINE
  5
9C8
330
18
100
AcDbEntity
  8
目盛
100
AcDbLine
 10
270.1908933002579
 20
146.7192966554822
 30
0.0
 11
268.5728593115079
 21
145.5437261508972
 31
0.0
  0
LINE
  5
9C9
330
18
100
AcDbEntity
  8
目盛
100
AcDbLine
 10
269.594085150471
 20
147.4886970860536
 30
0.0
 11
268.4383152863073
 21
146.5325611014305
 31
0.0
  0
LINE
  5
9CA
330
18
100
AcDbEntity
  8
目盛
100
AcDbLine
 10
268.9501436124781
 20
148.2191053868435
 30
0.0
 11
267.856690671346
 21
147.1922847279505
 31
0.0
  0
LINE
  5
9CB
330
18
100
AcDbEntity
  8
目盛
100
AcDbLine
 10
268.2616100293409
 20
148.9076389699807
 30
0.0
 11
267.2347893704479
 21
147.8141860288486
 31
0.0
  0
LINE
  5
9CC
330
18
100
AcDbEntity
  8
目盛
100
AcDbLine
 10
267.531201728551
 20
149.5515805079736
 30
0.0
 11
266.5750657439279
 21
148.3958106438099
 31
0.0
  0
LINE
  5
9CD
330
18
100
AcDbEntity
  8
目盛
100
AcDbLine
 10
270.7382127327274
 20
145.9139405671233
 30
0.0
 11
269.4717208444745
 21
145.1102003746548
 31
0.0
  0
TEXT
  5
9D0
330
18
100
AcDbEntity
  8
文字
100
AcDbText
 10
256.6308474042933
 20
148.1490807444469
 30
0.0
 40
2.0
  1
0
  7
STYLE3
100
AcDbText
  0
TEXT
  5
9D1
330
18
100
AcDbEntity
  8
文字
100
AcDbText
 10
262.3404849066717
 20
145.414582101351
 30
0.0
 40
2.0
  1
10
  7
STYLE3
100
AcDbText
  0
TEXT
  5
9D2
330
18
100
AcDbEntity
  8
文字
100
AcDbText
 10
266.0977817346144
 20
140.0164713597958
 30
0.0
 40
2.0
  1
20
  7
STYLE3
100
AcDbText
  0
TEXT
  5
9D3
330
18
100
AcDbEntity
  8
文字
100
AcDbText
 10
266.0590138571294
 20
133.1496418642648
 30
0.0
 40
2.0
  1
30
  7
STYLE3
100
AcDbText
  0
TEXT
  5
9D4
330
18
100
AcDbEntity
  8
文字
100
AcDbText
 10
262.9274890679098
 20
127.5972106156719
 30
0.0
 40
2.0
  1
40
  7
STYLE3
100
AcDbText
  0
TEXT
  5
9D5
330
18
100
AcDbEntity
  8
文字
100
AcDbText
 10
255.7192648191168
 20
125.0929390468143
 30
0.0
 40
2.0
  1
50
  7
STYLE3
100
AcDbText
  0
TEXT
  5
9D6
330
18
100
AcDbEntity
  8
文字
100
AcDbText
 10
249.1451302379591
 20
127.3373423201612
 30
0.0
 40
2.0
  1
40
  7
STYLE3
100
AcDbText
  0
TEXT
  5
9D7
330
18
100
AcDbEntity
  8
文字
100
AcDbText
 10
245.2399830109668
 20
132.5646634504304
 30
0.0
 40
2.0
  1
30
  7
STYLE3
100
AcDbText
  0
TEXT
  5
9D8
330
18
100
AcDbEntity
  8
文字
100
AcDbText
 10
245.457990110048
 20
140.3522462225071
 30
0.0
 40
2.0
  1
20
  7
STYLE3
100
AcDbText
  0
TEXT
  5
9D9
330
18
100
AcDbEntity
  8
文字
100
AcDbText
 10
248.7959102702277
 20
145.5787836751409
 30
0.0
 40
2.0
  1
10
  7
STYLE3
100
AcDbText
  0
TEXT
  5
9DE
330
18
100
AcDbEntity
  8
文字
100
AcDbText
 10
254.4072543065762
 20
132.6544393966591
 30
0.0
 40
1.0
  1
0.01mm
  7
STYLE3
100
AcDbText
  0
TEXT
  5
A0C
330
18
100
AcDbEntity
  8
文字
100
AcDbText
 10
253.7285836970146
 20
148.1490807444469
 30
0.0
 40
2.0
  1
-
  7
STYLE3
100
AcDbText
  0
TEXT
  5
A0D
330
18
100
AcDbEntity
  8
文字
100
AcDbText
 10
258.9055950978683
 20
148.1490807444469
 30
0.0
 40
2.0
  1
+
  7
STYLE3
100
AcDbText
  0
LINE
  5
A0E
330
18
100
AcDbEntity
  8
文字
100
AcDbLine
 10
228.6511298874462
 20
154.1419931282277
 30
0.0
 11
231.1511298874462
 21
155.6431038281207
 31
0.0
  0
LINE
  5
A0F
330
18
100
AcDbEntity
  8
文字
100
AcDbLine
 10
228.6511298874462
 20
152.9872925898484
 30
0.0
 11
231.1511298874462
 21
154.4884032897414
 31
0.0
  0
LINE
  5
A10
330
18
100
AcDbEntity
  8
文字
100
AcDbLine
 10
228.6673759889187
 20
151.8419717425276
 30
0.0
 11
231.1511298874462
 21
153.3337027513622
 31
0.0
  0
LINE
  5
A11
330
18
100
AcDbEntity
  8
文字
100
AcDbLine
 10
228.6511298874462
 20
150.6778915130899
 30
0.0
 11
231.1511298874462
 21
152.1790022129829
 31
0.0
  0
LINE
  5
A12
330
18
100
AcDbEntity
  8
文字
100
AcDbLine
 10
228.6511298874462
 20
149.5231909747107
 30
0.0
 11
231.1511298874462
 21
151.0243016746037
 31
0.0
  0
LINE
  5
A13
330
18
100
AcDbEntity
  8
文字
100
AcDbLine
 10
231.1511298874462
 20
150.869351070265
 30
0.0
 11
228.6511298874462
 21
152.370461770158
 31
0.0
  0
LINE
  5
A14
330
18
100
AcDbEntity
  8
文字
100
AcDbLine
 10
231.1511298874462
 20
152.0240516086442
 30
0.0
 11
228.6511298874462
 21
153.5251623085373
 31
0.0
  0
LINE
  5
A15
330
18
100
AcDbEntity
  8
文字
100
AcDbLine
 10
231.1511298874462
 20
153.1787521470235
 30
0.0
 11
228.6511298874462
 21
154.6798628469165
 31
0.0
  0
LINE
  5
A16
330
18
100
AcDbEntity
  8
文字
100
AcDbLine
 10
231.1511298874462
 20
154.3334526854027
 30
0.0
 11
228.6511298874462
 21
155.8345633852958
 31
0.0
  0
LINE
  5
A17
330
18
100
AcDbEntity
  8
文字
100
AcDbLine
 10
231.1511298874462
 20
155.488153223782
 30
0.0
 11
229.3104154183258
 21
156.6086252449489
 31
0.0
  0
LINE
  5
A18
330
18
100
AcDbEntity
  8
文字
100
AcDbLine
 10
228.6511298874462
 20
155.2966936666069
 30
0.0
 11
230.8234620371886
 21
156.6086252449489
 31
0.0
  0
LINE
  5
A19
330
18
100
AcDbEntity
  8
文字
100
AcDbLine
 10
228.6511298874462
 20
156.4513942049862
 30
0.0
 11
228.9234620371885
 21
156.6086252449489
 31
0.0
  0
LINE
  5
A1A
330
18
100
AcDbEntity
  8
文字
100
AcDbLine
 10
231.1511298874462
 20
149.7146505318857
 30
0.0
 11
228.6511298874462
 21
151.2157612317788
 31
0.0
  0
LINE
  5
A1B
330
18
100
AcDbEntity
  8
文字
100
AcDbLine
 10
229.582747568068
 20
149.5231909747107
 30
0.0
 11
228.6511298874462
 21
150.0610606933995
 31
0.0
  0
POINT
  5
AE6
330
18
100
AcDbEntity
  8
DEFPOINTS
  6
ByBlock
 62
     0
100
AcDbPoint
 10
298.6511298874462
 20
116.9215378171504
 30
0.0
  0
LINE
  5
AE8
330
18
100
AcDbEntity
  8
0
  6
ByBlock
 62
     2
100
AcDbLine
 10
298.6511298874462
 20
137.6086252449489
 30
0.0
 11
298.6511298874462
 21
116.9215378171504
 31
0.0
  0
MTEXT
  5
AED
330
18
100
AcDbEntity
  8
0
  6
ByBlock
 62
     6
100
AcDbMText
 10
301.6348922762676
 20
120.0639514532268
 30
0.0
 40
2.5
 41
0.0
 71
     4
 72
     1
  1
\A1;3.5
  7
STYLE3
 73
     1
 44
1.0
  0
LINE
  5
AEE
330
18
100
AcDbEntity
  8
0
  6
ByBlock
 62
     2
100
AcDbLine
 10
295.1511298874461
 20
118.1715378171504
 30
0.0
 11
298.6511298874462
 21
118.1715378171504
 31
0.0
  0
LINE
  5
AEF
330
18
100
AcDbEntity
  8
0
  6
ByBlock
 62
     2
100
AcDbLine
 10
295.1511298874461
 20
118.1715378171504
 30
0.0
 11
298.6511298874462
 21
118.1715378171504
 31
0.0
  0
INSERT
  5
AF1
330
18
100
AcDbEntity
  8
0
  6
ByBlock
 62
     2
100
AcDbBlockReference
  2
_OPEN
 10
298.6511298874463
 20
118.1715378171504
 30
0.0
 41
2.5
 42
2.5
 43
2.5
 50
180.0
  0
POINT
  5
AF2
330
18
100
AcDbEntity
  8
DEFPOINTS
  6
ByBlock
 62
     0
100
AcDbPoint
 10
295.1511298874461
 20
127.1086252449488
 30
0.0
  0
POINT
  5
AF3
330
18
100
AcDbEntity
  8
DEFPOINTS
  6
ByBlock
 62
     0
100
AcDbPoint
 10
298.6511298874462
 20
137.6086252449489
 30
0.0
  0
POINT
  5
AF4
330
18
100
AcDbEntity
  8
DEFPOINTS
  6
ByBlock
 62
     0
100
AcDbPoint
 10
298.6511298874462
 20
118.1715378171504
 30
0.0
  0
LINE
  5
AF5
330
18
100
AcDbEntity
  8
0
  6
ByBlock
 62
     2
100
AcDbLine
 10
295.1511298874461
 20
127.1086252449488
 30
0.0
 11
295.1511298874461
 21
116.9215378171504
 31
0.0
  0
LINE
  5
AF7
330
18
100
AcDbEntity
  8
0
  6
ByBlock
 62
     2
100
AcDbLine
 10
297.6511298874461
 20
118.1715378171504
 30
0.0
 11
300.1511298874461
 21
118.1715378171504
 31
0.0
  0
MTEXT
  5
AFA
330
18
100
AcDbEntity
  8
0
  6
ByBlock
 62
     6
100
AcDbMText
 10
294.1109963446347
 20
115.4954538624009
 30
0.0
 40
2.5
 41
0.0
 71
     4
 72
     1
  1
\A1;1
  7
STYLE3
 73
     1
 44
1.0
  0
LINE
  5
AFB
330
18
100
AcDbEntity
  8
外形線
100
AcDbLine
 10
294.1511298874461
 20
118.1715378171504
 30
0.0
 11
295.1511298874461
 21
118.1715378171504
 31
0.0
  0
LINE
  5
AFC
330
18
100
AcDbEntity
  8
外形線
100
AcDbLine
 10
294.1511298874461
 20
118.1715378171504
 30
0.0
 11
295.1511298874461
 21
118.1715378171504
 31
0.0
  0
POINT
  5
AFF
330
18
100
AcDbEntity
  8
DEFPOINTS
  6
ByBlock
 62
     0
100
AcDbPoint
 10
294.1511298874461
 20
127.1086252449488
 30
0.0
  0
POINT
  5
B00
330
18
100
AcDbEntity
  8
DEFPOINTS
  6
ByBlock
 62
     0
100
AcDbPoint
 10
295.1511298874461
 20
127.1086252449488
 30
0.0
  0
POINT
  5
B01
330
18
100
AcDbEntity
  8
外形線
100
AcDbPoint
 10
295.1511298874461
 20
118.1715378171504
 30
0.0
  0
POINT
  5
B0C
330
18
100
AcDbEntity
  8
DEFPOINTS
  6
ByBlock
 62
     0
100
AcDbPoint
 10
228.1511298874462
 20
123.6086252449489
 30
0.0
  0
POINT
  5
B0D
330
18
100
AcDbEntity
  8
DEFPOINTS
  6
ByBlock
 62
     0
100
AcDbPoint
 10
231.1511298874462
 20
118.6086252449489
 30
0.0
  0
POINT
  5
B1B
330
18
100
AcDbEntity
  8
DEFPOINTS
  6
ByBlock
 62
     0
100
AcDbPoint
 10
231.1511298874462
 20
118.6086252449489
 30
0.0
  0
POINT
  5
B1C
330
18
100
AcDbEntity
  8
DEFPOINTS
  6
ByBlock
 62
     0
100
AcDbPoint
 10
294.5900153111966
 20
137.6086252449488
 30
0.0
  0
POINT
  5
B24
330
18
100
AcDbEntity
  8
DEFPOINTS
  6
ByBlock
 62
     0
100
AcDbPoint
 10
207.1511298874462
 20
121.6086252449489
 30
0.0
  0
POINT
  5
B25
330
18
100
AcDbEntity
  8
DEFPOINTS
  6
ByBlock
 62
     0
100
AcDbPoint
 10
228.1511298874462
 20
123.6086252449489
 30
0.0
  0
LINE
  5
B27
330
18
100
AcDbEntity
  8
0
  6
ByBlock
 62
     2
100
AcDbLine
 10
294.1511298874461
 20
127.1086252449488
 30
0.0
 11
294.1511298874461
 21
116.9215378171504
 31
0.0
  0
LINE
  5
B29
330
18
100
AcDbEntity
  8
0
  6
ByBlock
 62
     2
100
AcDbLine
 10
296.6511298874461
 20
118.1715378171504
 30
0.0
 11
299.1511298874461
 21
118.1715378171504
 31
0.0
  0
POINT
  5
B2E
330
18
100
AcDbEntity
  8
外形線
100
AcDbPoint
 10
275.6511298874461
 20
137.6086252449488
 30
0.0
  0
POINT
  5
B2F
330
18
100
AcDbEntity
  8
DEFPOINTS
  6
ByBlock
 62
     0
100
AcDbPoint
 10
294.1511298874461
 20
127.1086252449488
 30
0.0
  0
POINT
  5
B36
330
18
100
AcDbEntity
  8
DEFPOINTS
  6
ByBlock
 62
     0
100
AcDbPoint
 10
294.5900153111966
 20
137.6086252449488
 30
0.0
  0
POINT
  5
B37
330
18
100
AcDbEntity
  8
外形線
100
AcDbPoint
 10
275.6511298874461
 20
137.6086252449488
 30
0.0
  0
POINT
  5
BBE
330
18
100
AcDbEntity
  8
DEFPOINTS
  6
ByBlock
 62
     0
100
AcDbPoint
 10
295.1511298874461
 20
64.52534753865666
 30
0.0
  0
LINE
  5
C22
330
18
100
AcDbEntity
  8
0
  6
ByBlock
 62
     2
100
AcDbLine
 10
239.6511298874461
 20
70.07534753865662
 30
0.0
 11
239.6511298874461
 21
82.45954121449072
 31
0.0
  0
LINE
  5
C23
330
18
100
AcDbEntity
  8
0
  6
ByBlock
 62
     2
100
AcDbLine
 10
275.6511298874461
 20
70.07534753865662
 30
0.0
 11
275.6511298874461
 21
82.45954121449072
 31
0.0
  0
LINE
  5
C24
330
18
100
AcDbEntity
  8
0
  6
ByBlock
 62
     2
100
AcDbLine
 10
242.1511298874461
 20
81.20954121449072
 30
0.0
 11
273.1511298874461
 21
81.20954121449072
 31
0.0
  0
INSERT
  5
C25
330
18
100
AcDbEntity
  8
0
  6
ByBlock
 62
     2
100
AcDbBlockReference
  2
_OPEN
 10
239.6511298874461
 20
81.2095412144907
 30
0.0
 41
2.5
 42
2.5
 43
2.5
 50
180.0
  0
INSERT
  5
C26
330
18
100
AcDbEntity
  8
0
  6
ByBlock
 62
     2
100
AcDbBlockReference
  2
_OPEN
 10
275.6511298874461
 20
81.2095412144907
 30
0.0
 41
2.5
 42
2.5
 43
2.5
  0
MTEXT
  5
C27
330
18
100
AcDbEntity
  8
0
  6
ByBlock
 62
     6
100
AcDbMText
 10
257.6511298874461
 20
83.08454121449072
 30
0.0
 40
2.5
 41
0.0
 71
     5
 72
     1
  1
\A1;φ36
  7
STYLE3
 73
     1
 44
1.0
  0
POINT
  5
C28
330
18
100
AcDbEntity
  8
DEFPOINTS
  6
ByBlock
 62
     0
100
AcDbPoint
 10
239.6511298874461
 20
71.22534753865664
 30
0.0
  0
POINT
  5
C29
330
18
100
AcDbEntity
  8
DEFPOINTS
  6
ByBlock
 62
     0
100
AcDbPoint
 10
275.6511298874461
 20
70.07534753865662
 30
0.0
  0
POINT
  5
C2A
330
18
100
AcDbEntity
  8
DEFPOINTS
  6
ByBlock
 62
     0
100
AcDbPoint
 10
275.6511298874461
 20
81.20954121449072
 30
0.0
  0
LEADER
  5
C2D
330
18
100
AcDbEntity
  8
寸法線
 62
     2
100
AcDbLeader
  3
STYLE3
 73
     0
 75
     1
 40
2.5
 41
15.73809523809523
 76
     3
 10
219.9375021613923
 20
141.6086252449489
 30
0.0
 10
207.1302805732412
 20
163.1466375760905
 30
0.0
 10
204.6302805732412
 20
163.1466375760905
 30
0.0
340
C2E
211
1.0
221
-0.0000000000000005
231
0.0
1001
ACAD
1000
DSTYLE
1002
{
1070
   271
1070
     2
1002
}
  0
MTEXT
  5
C2E
102
{ACAD_REACTORS
330
C2D
102
}
330
18
100
AcDbEntity
  8
寸法線
 62
     6
100
AcDbMText
 10
204.0052805732412
 20
165.0216375760905
 30
0.0
 40
2.5
 41
0.0
 71
     6
 72
     1
  1
\A1;M8×0.75
  7
STYLE3
 73
     1
 44
1.0
  0
POINT
  5
C4D
330
18
100
AcDbEntity
  8
DEFPOINTS
  6
ByBlock
 62
     0
100
AcDbPoint
 10
275.1511298874461
 20
65.87534753865663
 30
0.0
  0
MTEXT
  5
D42
330
18
100
AcDbEntity
  8
寸法線
 62
     6
100
AcDbMText
 10
156.8020542294098
 20
125.2316377791516
 30
0.0
 40
2.5
 41
0.0
 71
     4
 72
     1
  1
\A1;
  7
STYLE3
 73
     1
 44
1.0
  0
MTEXT
  5
D49
330
18
100
AcDbEntity
  8
寸法線
 62
     6
100
AcDbMText
 10
157.9828971517251
 20
118.25642576602
 30
0.0
 40
2.5
 41
0.0
 71
     4
 72
     1
  1
\A1;
  7
STYLE3
 73
     1
 44
1.0
  0
CIRCLE
  5
D4F
102
{ACAD_REACTORS
330
D52
102
}
330
18
100
AcDbEntity
  8
外形線
100
AcDbCircle
 10
295.1511298874461
 20
118.1715378171504
 30
0.0
 40
0.2568595749982947
  0
HATCH
  5
D52
330
18
100
AcDbEntity
  8
外形線
100
AcDbHatch
 10
0.0
 20
0.0
 30
0.0
210
0.0
220
0.0
230
1.0
  2
SOLID
 70
     1
 71
     1
 91
        1
 92
        1
 93
        1
 72
     2
 10
295.1511298874461
 20
118.1715378171504
 40
0.2568595749982947
 50
0.0
 51
360.0
 73
     1
 97
        1
330
D4F
 75
     0
 76
     1
 98
        1
 10
140.8689586317474
 20
-44.64574851744044
450
        0
451
        0
460
0.0
461
0.0
452
        0
462
0.0
453
        0
470

  0
DIMENSION
  5
F25
330
18
100
AcDbEntity
  8
寸法線
100
AcDbDimension
  2
*D3
 10
273.1511298874462
 20
163.0811504991827
 30
0.0
 11
257.6511298874462
 21
164.9561504991827
 31
0.0
 70
    32
  1
φ31
 71
     5
 42
31.0
  3
STYLE3
100
AcDbAlignedDimension
 13
242.1511298874462
 23
137.6086252449489
 33
0.0
 14
273.1511298874462
 24
137.6086252449489
 34
0.0
100
AcDbRotatedDimension
1001
ACAD
1000
DSTYLE
1002
{
1070
   271
1070
     2
1002
}
  0
LINE
  5
F3D
330
18
100
AcDbEntity
  8
外形線
100
AcDbLine
 10
275.6511298874461
 20
64.52534753865666
 30
0.0
 11
275.6511298874461
 21
57.52534753865667
 31
0.0
  0
LINE
  5
F3E
330
18
100
AcDbEntity
  8
外形線
100
AcDbLine
 10
275.1511298874461
 20
65.02534753865666
 30
0.0
 11
273.6511298874461
 21
65.02534753865666
 31
0.0
  0
LINE
  5
F3F
330
18
100
AcDbEntity
  8
外形線
100
AcDbLine
 10
275.1511298874461
 20
57.02534753865666
 30
0.0
 11
273.6511298874461
 21
57.02534753865667
 31
0.0
  0
ARC
  5
F40
330
18
100
AcDbEntity
  8
外形線
100
AcDbCircle
 10
275.1511298874461
 20
64.52534753865666
 30
0.0
 40
0.5
100
AcDbArc
 50
360.0
 51
90.0
  0
ARC
  5
F41
330
18
100
AcDbEntity
  8
外形線
100
AcDbCircle
 10
275.1511298874461
 20
57.52534753865667
 30
0.0
 40
0.5
100
AcDbArc
 50
270.0
 51
359.9999999999997
  0
LINE
  5
F5B
330
18
100
AcDbEntity
  8
外形線
100
AcDbLine
 10
275.6511298874461
 20
134.1086252449488
 30
0.0
 11
275.6511298874461
 21
141.1086252449489
 31
0.0
  0
ARC
  5
F5E
330
18
100
AcDbEntity
  8
外形線
100
AcDbCircle
 10
275.1511298874461
 20
141.1086252449489
 30
0.0
 40
0.5
100
AcDbArc
 50
0.0
 51
89.99999999999994
  0
ARC
  5
F5F
330
18
100
AcDbEntity
  8
外形線
100
AcDbCircle
 10
275.1511298874461
 20
134.1086252449488
 30
0.0
 40
0.5
100
AcDbArc
 50
269.9999999999999
 51
0.0
  0
LINE
  5
FAC
330
18
100
AcDbEntity
  8
隠れ線2
100
AcDbLine
 10
209.4345313667095
 20
137.6086252449489
 30
0.0
 11
211.4552573088732
 21
141.108625244949
 31
0.0
  0
LINE
  5
FAD
330
18
100
AcDbEntity
  8
隠れ線2
100
AcDbLine
 10
209.4345313667095
 20
137.6086252449489
 30
0.0
 11
211.4552573088732
 21
134.1086252449489
 31
0.0
  0
LINE
  5
FAE
330
18
100
AcDbEntity
  8
隠れ線2
100
AcDbLine
 10
213.1511298874462
 20
141.6086252449489
 30
0.0
 11
213.1511298874462
 21
133.6086252449489
 31
0.0
  0
DIMENSION
  5
FBC
330
18
100
AcDbEntity
  8
寸法線
100
AcDbDimension
  2
*D4
 10
257.6511298874461
 20
107.7490934124114
 30
0.0
 11
239.6511298874461
 21
109.6240934124114
 31
0.0
 70
    32
 71
     5
 42
35.99999999999997
  3
STYLE3
100
AcDbAlignedDimension
 13
221.6511298874462
 23
134.1086252449489
 33
0.0
 14
257.6511298874461
 24
116.1697398211984
 34
0.0
100
AcDbRotatedDimension
1001
ACAD
1000
DSTYLE
1002
{
1070
   271
1070
     2
1002
}
  0
DIMENSION
  5
1045
330
18
100
AcDbEntity
  8
寸法線
100
AcDbDimension
  2
*D5
 10
193.4796641060007
 20
80.02534753865665
 30
0.0
 11
191.6046641060007
 21
61.02534753865668
 31
0.0
 70
    32
  1
φ38
 71
     5
 42
37.99999999999998
  3
STYLE3
100
AcDbAlignedDimension
 13
228.6511298874462
 23
42.02534753865665
 33
0.0
 14
228.6511298874462
 24
80.02534753865663
 34
0.0
 50
90.0
100
AcDbRotatedDimension
1001
ACAD
1000
DSTYLE
1002
{
1070
   271
1070
     2
1002
}
  0
DIMENSION
  5
1052
330
18
100
AcDbEntity
  8
寸法線
100
AcDbDimension
  2
*D6
 10
199.9894273294685
 20
45.02534753865666
 30
0.0
 11
198.1144273294685
 21
61.02534753865668
 31
0.0
 70
    32
  1
φ32
 71
     5
 42
32.0
  3
STYLE3
100
AcDbAlignedDimension
 13
207.1511298874462
 23
77.02534753865666
 33
0.0
 14
207.1511298874462
 24
45.02534753865666
 34
0.0
 50
90.0
100
AcDbRotatedDimension
1001
ACAD
1000
DSTYLE
1002
{
1070
   271
1070
     2
1002
}
  0
DIMENSION
  5
1061
330
18
100
AcDbEntity
  8
寸法線
100
AcDbDimension
  2
*D7
 10
228.1511298874463
 20
34.9403425603241
 30
0.0
 11
229.7011298874462
 21
36.8153425603241
 31
0.0
 70
    32
  1
3
 71
     5
 42
3.099999999999965
  3
STYLE3
100
AcDbAlignedDimension
 13
231.2511298874462
 23
42.02534753865665
 33
0.0
 14
228.1511298874463
 24
47.02534753865665
 34
0.0
100
AcDbRotatedDimension
1001
ACAD
1000
DSTYLE
1002
{
1070
   271
1070
     2
1002
}
  0
DIMENSION
  5
1087
330
18
100
AcDbEntity
  8
寸法線
100
AcDbDimension
  2
*D8
 10
228.1511298874463
 20
34.9403425603241
 30
0.0
 11
217.6511298874462
 21
36.8153425603241
 31
0.0
 70
    32
 71
     5
 42
21.00000000000006
  3
STYLE3
100
AcDbAlignedDimension
 13
207.1511298874462
 23
45.02534753865666
 33
0.0
 14
228.1511298874463
 24
36.55263037800984
 34
0.0
100
AcDbRotatedDimension
1001
ACAD
1000
DSTYLE
1002
{
1070
   271
1070
     2
1002
}
  0
LINE
  5
10F8
330
18
100
AcDbEntity
  8
0
  6
ByBlock
 62
     2
100
AcDbLine
 10
279.111804533344
 20
56.77534753865661
 30
0.0
 11
279.111804533344
 21
47.99474512720155
 31
0.0
  0
LINE
  5
10F9
330
18
100
AcDbEntity
  8
0
  6
ByBlock
 62
     2
100
AcDbLine
 10
279.111804533344
 20
65.27534753865666
 30
0.0
 11
279.111804533344
 21
68.11443849884895
 31
0.0
  0
LINE
  5
10FA
330
18
100
AcDbEntity
  8
0
  6
ByBlock
 62
     2
100
AcDbLine
 10
279.111804533344
 20
59.27534753865661
 30
0.0
 11
279.111804533344
 21
62.77534753865666
 31
0.0
  0
INSERT
  5
10FB
330
18
100
AcDbEntity
  8
0
  6
ByBlock
 62
     2
100
AcDbBlockReference
  2
_OPEN
 10
279.111804533344
 20
59.27534753865661
 30
0.0
 41
2.5
 42
2.5
 43
2.5
 50
90.0
  0
INSERT
  5
10FC
330
18
100
AcDbEntity
  8
0
  6
ByBlock
 62
     2
100
AcDbBlockReference
  2
_OPEN
 10
279.111804533344
 20
62.77534753865666
 30
0.0
 41
2.5
 42
2.5
 43
2.5
 50
270.0
  0
MTEXT
  5
10FD
330
18
100
AcDbEntity
  8
0
  6
ByBlock
 62
     6
100
AcDbMText
 10
277.236804533344
 20
52.36188822472747
 30
0.0
 40
2.5
 41
0.0
 71
     5
 72
     1
  1
\A1;φ3.5
  7
STYLE3
 11
0.0000000000000001
 21
1.0
 31
0.0
 73
     1
 44
1.0
  0
LINE
  5
1152
330
18
100
AcDbEntity
  8
隠れ線2
100
AcDbLine
 10
211.4552573088732
 20
141.108625244949
 30
0.0
 11
211.4552573088732
 21
134.1086252449489
 31
0.0
  0
DIMENSION
  5
11A5
330
18
100
AcDbEntity
  8
寸法線
100
AcDbDimension
  2
*D9
 10
213.1511298874462
 20
162.8542175293583
 30
0.0
 11
220.6511298874462
 21
164.7292175293583
 31
0.0
 70
    32
 71
     5
 42
15.00000000000003
  3
STYLE3
100
AcDbAlignedDimension
 13
228.1511298874463
 23
151.6086252449489
 33
0.0
 14
213.1511298874462
 24
141.6086252449489
 34
0.0
100
AcDbRotatedDimension
1001
ACAD
1000
DSTYLE
1002
{
1070
   271
1070
     2
1002
}
  0
LINE
  5
11D1
330
18
100
AcDbEntity
  8
外形線
100
AcDbLine
 10
294.1511298874461
 20
63.02534753865666
 30
0.0
 11
280.151129887446
 21
63.02534753865666
 31
0.0
  0
LINE
  5
11D2
330
18
100
AcDbEntity
  8
外形線
100
AcDbLine
 10
294.1511298874461
 20
59.02534753865666
 30
0.0
 11
280.151129887446
 21
59.02534753865666
 31
0.0
  0
LINE
  5
11D3
330
18
100
AcDbEntity
  8
外形線
100
AcDbLine
 10
280.151129887446
 20
59.02534753865666
 30
0.0
 11
280.151129887446
 21
63.02534753865666
 31
0.0
  0
LINE
  5
11D4
330
18
100
AcDbEntity
  8
寸法線
100
AcDbLine
 10
301.1511298874463
 20
118.1715378171504
 30
0.0
 11
307.6359321636257
 21
118.1715378171504
 31
0.0
  0
LINE
  5
11D5
330
18
100
AcDbEntity
  8
外形線
100
AcDbLine
 10
280.151129887446
 20
139.6086252449488
 30
0.0
 11
280.1511298874461
 21
135.6086252449488
 31
0.0
  0
LINE
  5
11D6
330
18
100
AcDbEntity
  8
外形線
100
AcDbLine
 10
280.151129887446
 20
139.6086252449488
 30
0.0
 11
294.1511298874461
 21
139.6086252449488
 31
0.0
  0
LINE
  5
11D7
330
18
100
AcDbEntity
  8
外形線
100
AcDbLine
 10
280.1511298874461
 20
135.6086252449488
 30
0.0
 11
294.1511298874461
 21
135.6086252449488
 31
0.0
  0
MTEXT
  5
11E8
330
18
100
AcDbEntity
  8
0
  6
ByBlock
 62
     6
100
AcDbMText
 10
252.1011298874462
 20
102.2227785199909
 30
0.0
 40
2.5
 41
0.0
 71
     5
 72
     1
  1
\A1;80～92
  7
STYLE3
 73
     1
 44
1.0
  0
POINT
  5
11E9
330
18
100
AcDbEntity
  8
DEFPOINTS
  6
ByBlock
 62
     0
100
AcDbPoint
 10
207.1511298874462
 20
121.6086252449489
 30
0.0
  0
LINE
  5
11EC
330
18
100
AcDbEntity
  8
寸法線
100
AcDbLine
 10
298.6511298874462
 20
116.9215378171504
 30
0.0
 11
298.6511298874462
 21
99.17352336757966
 31
0.0
  0
DIMENSION
  5
11F9
330
18
100
AcDbEntity
  8
寸法線
100
AcDbDimension
  2
*D10
 10
257.6511298874461
 20
107.7490934124114
 30
0.0
 11
278.1511298874461
 21
109.6240934124114
 31
0.0
 70
    32
 71
     5
 42
41.00000000000005
  3
STYLE3
100
AcDbAlignedDimension
 13
298.6511298874462
 23
111.5979395279067
 33
0.0
 14
257.6511298874461
 24
109.9880125609391
 34
0.0
100
AcDbRotatedDimension
1001
ACAD
1000
DSTYLE
1002
{
1070
   271
1070
     2
1002
}
  0
DIMENSION
  5
1231
330
18
100
AcDbEntity
  8
寸法線
100
AcDbDimension
  2
*D13
 10
289.6752551244629
 20
63.02534753865666
 30
0.0
 11
287.8002551244629
 21
70.97177611008529
 31
0.0
 70
    32
  1
φ<>
 71
     5
 42
3.999999999999992
  3
STYLE3
100
AcDbAlignedDimension
 13
290.0113113705834
 23
59.02534753865666
 33
0.0
 14
289.6752551244629
 24
63.02534753865666
 34
0.0
 50
90.0
100
AcDbRotatedDimension
1001
ACAD
1000
DSTYLE
1002
{
1070
   271
1070
     2
1002
}
  0
LINE
  5
1278
330
18
100
AcDbEntity
  8
0
  6
ByBlock
 62
     2
100
AcDbLine
 10
207.1511298874462
 20
121.6086252449489
 30
0.0
 11
207.1511298874462
 21
99.23441057645101
 31
0.0
  0
LINE
  5
1279
330
18
100
AcDbEntity
  8
0
  6
ByBlock
 62
     2
100
AcDbLine
 10
298.6511298874462
 20
101.5274621558623
 30
0.0
 11
298.6511298874462
 21
99.23441057645101
 31
0.0
  0
LINE
  5
127A
330
18
100
AcDbEntity
  8
0
  6
ByBlock
 62
     2
100
AcDbLine
 10
209.6511298874462
 20
100.484410576451
 30
0.0
 11
296.1511298874462
 21
100.484410576451
 31
0.0
  0
INSERT
  5
127B
330
18
100
AcDbEntity
  8
0
  6
ByBlock
 62
     2
100
AcDbBlockReference
  2
_OPEN
 10
207.1511298874462
 20
100.484410576451
 30
0.0
 41
2.5
 42
2.5
 43
2.5
 50
180.0
  0
INSERT
  5
127C
330
18
100
AcDbEntity
  8
0
  6
ByBlock
 62
     2
100
AcDbBlockReference
  2
_OPEN
 10
298.6511298874462
 20
100.484410576451
 30
0.0
 41
2.5
 42
2.5
 43
2.5
  0
POINT
  5
127E
330
18
100
AcDbEntity
  8
DEFPOINTS
  6
ByBlock
 62
     0
100
AcDbPoint
 10
207.1511298874462
 20
121.6086252449489
 30
0.0
  0
POINT
  5
127F
330
18
100
AcDbEntity
  8
DEFPOINTS
  6
ByBlock
 62
     0
100
AcDbPoint
 10
298.6511298874462
 20
101.5274621558623
 30
0.0
  0
POINT
  5
1280
330
18
100
AcDbEntity
  8
DEFPOINTS
  6
ByBlock
 62
     0
100
AcDbPoint
 10
298.6511298874462
 20
100.484410576451
 30
0.0
  0
LINE
  5
1864
330
18
100
AcDbEntity
  8
寸法線
 62
     2
100
AcDbLine
 10
275.6511298874461
 20
134.1086252449488
 30
0.0
 11
275.6511298874461
 21
116.9215378171504
 31
0.0
  0
LINE
  5
1865
330
18
100
AcDbEntity
  8
寸法線
 62
     2
100
AcDbLine
 10
280.1511298874461
 20
120.2542418457011
 30
0.0
 11
280.1511298874461
 21
116.9215378171504
 31
0.0
  0
LINE
  5
1866
330
18
100
AcDbEntity
  8
寸法線
 62
     2
100
AcDbLine
 10
273.1511298874461
 20
118.1715378171504
 30
0.0
 11
267.2564545589513
 21
118.1715378171504
 31
0.0
  0
LINE
  5
1867
330
18
100
AcDbEntity
  8
寸法線
 62
     2
100
AcDbLine
 10
282.6511298874461
 20
118.1715378171504
 30
0.0
 11
291.6392251255413
 21
118.1715378171504
 31
0.0
  0
LINE
  5
1868
330
18
100
AcDbEntity
  8
寸法線
 62
     2
100
AcDbLine
 10
275.6511298874461
 20
118.1715378171504
 30
0.0
 11
280.1511298874461
 21
118.1715378171504
 31
0.0
  0
INSERT
  5
1869
330
18
100
AcDbEntity
  8
寸法線
 62
     2
100
AcDbBlockReference
  2
_OPEN
 10
275.6511298874461
 20
118.1715378171504
 30
0.0
 41
2.5
 42
2.5
 43
2.5
  0
INSERT
  5
186A
330
18
100
AcDbEntity
  8
寸法線
 62
     2
100
AcDbBlockReference
  2
_OPEN
 10
280.1511298874461
 20
118.1715378171504
 30
0.0
 41
2.5
 42
2.5
 43
2.5
 50
180.0
  0
MTEXT
  5
186B
330
18
100
AcDbEntity
  8
寸法線
 62
     6
100
AcDbMText
 10
270.0404406615497
 20
120.0465378171504
 30
0.0
 40
2.5
 41
0.0
 71
     5
 72
     1
  1
\A1;4.5
  7
STYLE3
 73
     1
 44
1.0
  0
LINE
  5
186E
330
18
100
AcDbEntity
  8
寸法線
 62
     2
100
AcDbLine
 10
280.1511298874461
 20
135.6086252449488
 30
0.0
 11
280.1511298874461
 21
116.9215378171504
 31
0.0
  0
LINE
  5
186F
330
18
100
AcDbEntity
  8
寸法線
 62
     2
100
AcDbLine
 10
294.1511298874461
 20
121.0592053291848
 30
0.0
 11
294.1511298874461
 21
116.9215378171504
 31
0.0
  0
LINE
  5
1870
330
18
100
AcDbEntity
  8
寸法線
 62
     2
100
AcDbLine
 10
282.6511298874461
 20
118.1715378171504
 30
0.0
 11
291.6511298874461
 21
118.1715378171504
 31
0.0
  0
INSERT
  5
1871
330
18
100
AcDbEntity
  8
寸法線
 62
     2
100
AcDbBlockReference
  2
_OPEN
 10
280.1511298874461
 20
118.1715378171504
 30
0.0
 41
2.5
 42
2.5
 43
2.5
 50
180.0
  0
INSERT
  5
1872
330
18
100
AcDbEntity
  8
寸法線
 62
     2
100
AcDbBlockReference
  2
_OPEN
 10
294.1511298874461
 20
118.1715378171504
 30
0.0
 41
2.5
 42
2.5
 43
2.5
  0
MTEXT
  5
1873
330
18
100
AcDbEntity
  8
寸法線
 62
     6
100
AcDbMText
 10
287.1511298874461
 20
120.0465378171504
 30
0.0
 40
2.5
 41
0.0
 71
     5
 72
     1
  1
\A1;14
  7
STYLE3
 73
     1
 44
1.0
  0
HATCH
  5
1928
330
18
100
AcDbEntity
  8
針
100
AcDbHatch
 10
0.0
 20
0.0
 30
0.0
210
0.0
220
0.0
230
1.0
  2
SOLID
 70
     1
 71
     0
 91
        1
 92
        7
 72
     1
 73
     1
 93
        7
 10
266.34415920078
 20
149.4629690208617
 42
0.0
 10
266.2915730961456
 20
149.5011750622607
 42
0.0
 10
266.2389869915113
 20
149.5393811036597
 42
0.0
 10
258.4414653169465
 20
139.1675653106817
 42
-0.1443545616784134
 10
258.2145214749383
 20
138.9988014636863
 42
-0.1222437615213236
 10
258.7991684640519
 20
138.574030562225
 42
-0.1443545616783651
 10
258.8895429165027
 20
138.8420178787575
 42
0.0
 97
        0
 75
     0
 76
     1
 47
0.0443407669343012
 98
        1
 10
259.3138304981303
 20
139.754532096691
450
        0
451
        0
460
0.0
461
0.0
452
        0
462
0.0
453
        0
470

  0
LINE
  5
1929
330
18
100
AcDbEntity
  8
針
100
AcDbLine
 10
258.4414653169464
 20
139.1675653106817
 30
0.0
 11
266.2389869915112
 21
149.5393811036596
 31
0.0
  0
LINE
  5
192A
330
18
100
AcDbEntity
  8
針
100
AcDbLine
 10
258.8895429165027
 20
138.8420178787575
 30
0.0
 11
266.34415920078
 21
149.4629690208616
 31
0.0
  0
HATCH
  5
193C
330
18
100
AcDbEntity
  8
針
100
AcDbHatch
 10
0.0
 20
0.0
 30
0.0
210
0.0
220
0.0
230
1.0
  2
SOLID
 70
     1
 71
     0
 91
        1
 92
        7
 72
     1
 73
     1
 93
        7
 10
266.34415920078
 20
149.4629690208617
 42
0.0
 10
266.2915730961456
 20
149.5011750622607
 42
0.0
 10
266.2389869915113
 20
149.5393811036597
 42
0.0
 10
258.4414653169465
 20
139.1675653106817
 42
-0.1443545616784134
 10
258.2145214749383
 20
138.9988014636863
 42
-0.1222437615213236
 10
258.7991684640519
 20
138.574030562225
 42
-0.1443545616783651
 10
258.8895429165027
 20
138.8420178787575
 42
0.0
 97
        0
 75
     0
 76
     1
 47
0.0443407669343012
 98
        1
 10
259.3138304981303
 20
139.754532096691
450
        0
451
        0
460
0.0
461
0.0
452
        0
462
0.0
453
        0
470

  0
LINE
  5
193D
330
18
100
AcDbEntity
  8
針
100
AcDbLine
 10
258.4414653169464
 20
139.1675653106817
 30
0.0
 11
266.2389869915112
 21
149.5393811036596
 31
0.0
  0
LINE
  5
193E
330
18
100
AcDbEntity
  8
針
100
AcDbLine
 10
258.8895429165027
 20
138.8420178787575
 30
0.0
 11
266.34415920078
 21
149.4629690208616
 31
0.0
  0
HATCH
  5
193F
330
18
100
AcDbEntity
  8
針
100
AcDbHatch
 10
0.0
 20
0.0
 30
0.0
210
0.0
220
0.0
230
1.0
  2
SOLID
 70
     1
 71
     0
 91
        1
 92
        7
 72
     1
 73
     1
 93
        7
 10
266.34415920078
 20
149.4629690208617
 42
0.0
 10
266.2915730961456
 20
149.5011750622607
 42
0.0
 10
266.2389869915113
 20
149.5393811036597
 42
0.0
 10
258.4414653169465
 20
139.1675653106817
 42
-0.1443545616784134
 10
258.2145214749383
 20
138.9988014636863
 42
-0.1222437615213236
 10
258.7991684640519
 20
138.574030562225
 42
-0.1443545616783651
 10
258.8895429165027
 20
138.8420178787575
 42
0.0
 97
        0
 75
     0
 76
     1
 47
0.0443407669343012
 98
        1
 10
259.3138304981303
 20
139.754532096691
450
        0
451
        0
460
0.0
461
0.0
452
        0
462
0.0
453
        0
470

  0
LINE
  5
1940
330
18
100
AcDbEntity
  8
針
100
AcDbLine
 10
258.4414653169464
 20
139.1675653106817
 30
0.0
 11
266.2389869915112
 21
149.5393811036596
 31
0.0
  0
LINE
  5
1941
330
18
100
AcDbEntity
  8
針
100
AcDbLine
 10
258.8895429165027
 20
138.8420178787575
 30
0.0
 11
266.34415920078
 21
149.4629690208616
 31
0.0
  0
TEXT
  5
1968
330
18
100
AcDbEntity
  8
0
100
AcDbText
 10
198.8506753535173
 20
184.6336910743794
 30
0.0
 40
4.0
  1
Model No.U2HB Dial Inside Gauge
  7
STYLE3
100
AcDbText
  0
LINE
  5
1969
330
18
100
AcDbEntity
  8
外形線
100
AcDbLine
 10
198.6674053535173
 20
181.2431490743794
 30
0.0
 11
297.6674053535174
 21
181.2431490743794
 31
0.0
  0
LINE
  5
196A
330
18
100
AcDbEntity
  8
外形線
100
AcDbLine
 10
198.6406153535173
 20
182.2386990743794
 30
0.0
 11
297.6406153535173
 21
182.2386990743794
 31
0.0
  0
TEXT
  5
196B
330
18
100
AcDbEntity
  8
0
  6
Continuous
100
AcDbText
 10
237.7811713535173
 20
16.1457600743794
 30
0.0
 40
3.5
  1
仕様及び外観は予告なく変更される場合がございますのでご了承下さい。
  7
STYLE3
100
AcDbText
  0
LINE
  5
196C
330
18
100
AcDbEntity
  8
外形線
100
AcDbLine
 10
236.0322093535173
 20
21.09882807437941
 30
0.0
 11
376.8236273535173
 21
21.09882807437941
 31
0.0
  0
TEXT
  5
196D
330
18
100
AcDbEntity
  8
0
  6
Continuous
100
AcDbText
 10
340.2784183535173
 20
2.451985074379406
 30
0.0
 40
2.1
  1
OZAKI MFG. CO., LTD.
  7
STYLE3
100
AcDbText
  0
TEXT
  5
196E
330
18
100
AcDbEntity
  8
0
  6
Continuous
100
AcDbText
 10
339.4039393535174
 20
6.239624074379406
 30
0.0
 40
3.0
  1
株式会社　尾崎製作所
  7
STYLE3
100
AcDbText
  0
LINE
  5
196F
330
18
100
AcDbEntity
  8
外形線
100
AcDbLine
 10
236.0322093535173
 20
10.3186220743794
 30
0.0
 11
376.8236273535173
 21
10.3186220743794
 31
0.0
  0
TEXT
  5
1970
330
18
100
AcDbEntity
  8
0
  6
Continuous
100
AcDbText
 10
237.4896773535173
 20
12.2166120743794
 30
0.0
 40
2.1
  1
Design and specifications are subject to change without notice for future improvement.
  7
STYLE3
100
AcDbText
  0
TEXT
  5
1971
330
18
100
AcDbEntity
  8
0
  6
Continuous
100
AcDbText
 10
272.9321273535173
 20
2.451985074379406
 30
0.0
 40
2.1
  1
Unit
  7
STYLE3
100
AcDbText
  0
TEXT
  5
1972
330
18
100
AcDbEntity
  8
0
  6
Continuous
100
AcDbText
 10
272.7604063535173
 20
5.954222074379406
 30
0.0
 40
3.0
  1
単位
  7
STYLE3
100
AcDbText
  0
LINE
  5
1973
330
18
100
AcDbEntity
  8
外形線
100
AcDbLine
 10
271.3029373535174
 20
10.3186220743794
 30
0.0
 11
271.3029373535174
 21
0.7038440743794067
 31
0.0
  0
LINE
  5
1974
330
18
100
AcDbEntity
  8
外形線
100
AcDbLine
 10
236.0322093535173
 20
0.7038440743794067
 30
0.0
 11
236.0322093535173
 21
21.09882807437941
 31
0.0
  0
TEXT
  5
1975
330
18
100
AcDbEntity
  8
0
  6
Continuous
100
AcDbText
 10
239.8216283535174
 20
5.948267074379406
 30
0.0
 40
3.0
  1
三　　角　　法
  7
STYLE3
100
AcDbText
  0
TEXT
  5
1976
330
18
100
AcDbEntity
  8
0
  6
Continuous
100
AcDbText
 10
237.1981853535173
 20
2.451984074379406
 30
0.0
 40
2.1
  1
3RD Angle Projection
  7
STYLE3
100
AcDbText
  0
LINE
  5
1977
330
18
100
AcDbEntity
  8
外形線
100
AcDbLine
 10
338.0549763535174
 20
10.3186220743794
 30
0.0
 11
338.0549763535174
 21
0.7038440743794067
 31
0.0
  0
LINE
  5
1978
330
18
100
AcDbEntity
  8
外形線
100
AcDbLine
 10
308.3226273535174
 20
10.3186220743794
 30
0.0
 11
308.3226273535174
 21
0.7038440743794067
 31
0.0
  0
LINE
  5
1979
330
18
100
AcDbEntity
  8
外形線
100
AcDbLine
 10
288.7925543535173
 20
10.3186220743794
 30
0.0
 11
288.7925543535173
 21
0.7038440743794067
 31
0.0
  0
TEXT
  5
197A
330
18
100
AcDbEntity
  8
0
  6
Continuous
100
AcDbText
 10
290.5415173535173
 20
2.743342074379406
 30
0.0
 40
2.1
  1
Scale
  7
STYLE3
100
AcDbText
  0
TEXT
  5
197B
330
18
100
AcDbEntity
  8
0
  6
Continuous
100
AcDbText
 10
290.0783023535174
 20
5.662864074379406
 30
0.0
 40
3.0
  1
尺 度
  7
STYLE3
100
AcDbText
  0
TEXT
  5
197C
330
18
100
AcDbEntity
  8
0
  6
Continuous
100
AcDbText
 10
280.8024543535174
 20
4.200128074379406
 30
0.0
 40
2.399999999999999
  1
mm
  7
STYLE3
100
AcDbText
  0
TEXT
  5
197D
330
18
100
AcDbEntity
  8
0
  6
Continuous
100
AcDbText
 10
300.1608063535173
 20
4.491485074379406
 30
0.0
 40
2.399999999999999
  1
1/1
  7
STYLE3
100
AcDbText
  0
TEXT
  5
197E
330
18
100
AcDbEntity
  8
0
  6
Continuous
100
AcDbText
 10
318.9993853535174
 20
4.200127074379406
 30
0.0
 40
2.1
  1
2005.03.25
  7
STYLE3
100
AcDbText
  0
TEXT
  5
197F
330
18
100
AcDbEntity
  8
0
  6
Continuous
100
AcDbText
 10
309.8712173535174
 20
5.785069074379406
 30
0.0
 40
3.0
  1
日 付
  7
STYLE3
100
AcDbText
  0
TEXT
  5
1980
330
18
100
AcDbEntity
  8
0
  6
Continuous
100
AcDbText
 10
310.2545783535174
 20
2.451986074379406
 30
0.0
 40
2.1
  1
Date
  7
STYLE3
100
AcDbText
  0
ENDSEC
  0
SECTION
  2
OBJECTS
  0
DICTIONARY
  5
C
330
0
100
AcDbDictionary
281
     1
  3
ACAD_COLOR
350
12B5
  3
ACAD_GROUP
350
D
  3
ACAD_LAYOUT
350
12B8
  3
ACAD_MATERIAL
350
12B4
  3
ACAD_MLINESTYLE
350
1B
  3
ACAD_PLOTSETTINGS
350
12B9
  3
ACAD_PLOTSTYLENAME
350
12B2
  3
ACAD_TABLESTYLE
350
12B6
  3
ACDBVARIABLEDICTIONARY
350
D50
  0
DICTIONARY
  5
186C
330
18
100
AcDbDictionary
280
     1
281
     1
  3
ACAD_SORTENTS
360
186D
  0
DICTIONARY
  5
12B5
102
{ACAD_REACTORS
330
C
102
}
330
C
100
AcDbDictionary
281
     1
  0
DICTIONARY
  5
D
102
{ACAD_REACTORS
330
C
102
}
330
C
100
AcDbDictionary
281
     1
  0
DICTIONARY
  5
12B8
102
{ACAD_REACTORS
330
C
102
}
330
C
100
AcDbDictionary
281
     1
  3
Model
350
12BA
  3
レイアウト1
350
12BB
  0
DICTIONARY
  5
12B4
102
{ACAD_REACTORS
330
C
102
}
330
C
100
AcDbDictionary
281
     1
  0
DICTIONARY
  5
1B
102
{ACAD_REACTORS
330
C
102
}
330
C
100
AcDbDictionary
281
     1
  3
STANDARD
350
1C
  0
DICTIONARY
  5
12B9
102
{ACAD_REACTORS
330
C
102
}
330
C
100
AcDbDictionary
281
     1
  0
ACDBDICTIONARYWDFLT
  5
12B2
102
{ACAD_REACTORS
330
C
102
}
330
C
100
AcDbDictionary
281
     1
  3
Normal
350
12B3
100
AcDbDictionaryWithDefault
340
12B3
  0
DICTIONARY
  5
12B6
102
{ACAD_REACTORS
330
C
102
}
330
C
100
AcDbDictionary
281
     1
  3
Standard
350
12B7
  0
DICTIONARY
  5
D50
102
{ACAD_REACTORS
330
C
102
}
330
C
100
AcDbDictionary
281
     1
  3
CTABLESTYLE
350
1879
  3
SORTENTS
350
D51
  0
SORTENTSTABLE
  5
186D
102
{ACAD_REACTORS
330
186C
102
}
330
186C
100
AcDbSortentsTable
330
18
331
9BA
  5
9BA
331
9D9
  5
9D9
331
97C
  5
97C
331
99B
  5
99B
331
185
  5
185
331
A18
  5
A18
331
1824
  5
1871
331
95E
  5
95E
331
93F
  5
93F
331
A19
  5
A19
331
99C
  5
99C
331
9BB
  5
9BB
331
186
  5
186
331
97D
  5
97D
331
1825
  5
1872
331
95F
  5
95F
331
A1A
  5
A1A
331
9BC
  5
9BC
331
97E
  5
97E
331
99D
  5
99D
331
187
  5
187
331
1826
  5
1873
331
A1B
  5
A1B
331
99E
  5
99E
331
9BD
  5
9BD
331
188
  5
188
331
97F
  5
97F
331
AFA
  5
AFA
331
9BE
  5
9BE
331
AFB
  5
AFB
331
980
  5
980
331
99F
  5
99F
331
189
  5
189
331
AFC
  5
AFC
331
9DE
  5
9DE
331
9A0
  5
9A0
331
9BF
  5
9BF
331
BFA
  5
BFA
331
18A
  5
18A
331
981
  5
981
331
BFB
  5
BFB
331
C12
  5
C12
331
9C0
  5
9C0
331
982
  5
982
331
9A1
  5
9A1
331
18B
  5
18B
331
B24
  5
B24
331
D49
  5
D49
331
C13
  5
C13
331
B25
  5
B25
331
983
  5
983
331
9A2
  5
9A2
331
18C
  5
18C
331
9C1
  5
9C1
331
BFC
  5
BFC
331
9C2
  5
9C2
331
AFF
  5
AFF
331
18D
  5
18D
331
984
  5
984
331
9A3
  5
9A3
331
B00
  5
B00
331
B27
  5
B27
331
1030
  5
1030
331
985
  5
985
331
9A4
  5
9A4
331
18E
  5
18E
331
9C3
  5
9C3
331
C4D
  5
C4D
331
9A5
  5
9A5
331
9C4
  5
9C4
331
18F
  5
18F
331
986
  5
986
331
B01
  5
B01
331
C00
  5
C00
331
1061
  5
1061
331
A0C
  5
A0C
331
B29
  5
B29
331
987
  5
987
331
9A6
  5
9A6
331
190
  5
190
331
9C5
  5
9C5
331
F3D
  5
F3D
331
C01
  5
C01
331
FAC
  5
FAC
331
9A7
  5
9A7
331
9C6
  5
9C6
331
191
  5
191
331
988
  5
988
331
A0D
  5
A0D
331
FAD
  5
FAD
331
C02
  5
C02
331
D4F
  5
D4F
331
9C7
  5
9C7
331
A0E
  5
A0E
331
989
  5
989
331
9A8
  5
9A8
331
192
  5
192
331
F3E
  5
F3E
331
F3F
  5
F3F
331
C1A
  5
C1A
331
AE6
  5
AE6
331
D21
  5
D21
331
FAE
  5
FAE
331
9A9
  5
9A9
331
9C8
  5
9C8
331
193
  5
193
331
98A
  5
98A
331
A0F
  5
A0F
331
F40
  5
F40
331
9C9
  5
9C9
331
A10
  5
A10
331
C1B
  5
C1B
331
98B
  5
98B
331
9AA
  5
9AA
331
194
  5
194
331
D22
  5
D22
331
F41
  5
F41
331
C1C
  5
C1C
331
D23
  5
D23
331
B2E
  5
B2E
331
A11
  5
A11
331
AE8
  5
AE8
331
9AB
  5
9AB
331
9CA
  5
9CA
331
C05
  5
C05
331
195
  5
195
331
98C
  5
98C
331
D52
  5
D52
331
11F9
  5
11F9
331
C06
  5
C06
331
9CB
  5
9CB
331
A12
  5
A12
331
98D
  5
98D
331
9AC
  5
9AC
331
196
  5
196
331
B2F
  5
B2F
331
D25
  5
D25
331
A13
  5
A13
331
9AD
  5
9AD
331
9CC
  5
9CC
331
C07
  5
C07
331
197
  5
197
331
98E
  5
98E
331
1116
  5
1116
331
9CD
  5
9CD
331
A14
  5
A14
331
98F
  5
98F
331
9AE
  5
9AE
331
1117
  5
1117
331
11A5
  5
11A5
331
A15
  5
A15
331
9AF
  5
9AF
331
990
  5
990
331
1118
  5
1118
331
198
  5
198
331
C0A
  5
C0A
331
AED
  5
AED
331
B0C
  5
B0C
331
A16
  5
A16
331
991
  5
991
331
9B0
  5
9B0
331
1B8
  5
1B8
331
199
  5
199
331
C22
  5
C22
331
B0D
  5
B0D
331
A17
  5
A17
331
AEE
  5
AEE
331
9B1
  5
9B1
331
9D0
  5
9D0
331
C0B
  5
C0B
331
992
  5
992
331
19A
  5
19A
331
1B9
  5
1B9
331
AEF
  5
AEF
331
9D1
  5
9D1
331
C23
  5
C23
331
993
  5
993
331
9B2
  5
9B2
331
11B9
  5
11B9
331
1BA
  5
1BA
331
19B
  5
19B
331
C24
  5
C24
331
B36
  5
B36
331
994
  5
994
331
9B3
  5
9B3
331
9D2
  5
9D2
331
C0D
  5
C0D
331
11BA
  5
11BA
331
19C
  5
19C
331
1BB
  5
1BB
331
278
  5
278
331
B37
  5
B37
331
AF1
  5
AF1
331
9D3
  5
9D3
331
C0E
  5
C0E
331
C25
  5
C25
331
995
  5
995
331
9B4
  5
9B4
331
1BC
  5
1BC
331
279
  5
279
331
19D
  5
19D
331
C26
  5
C26
331
F5B
  5
F5B
331
AF2
  5
AF2
331
996
  5
996
331
9B5
  5
9B5
331
9D4
  5
9D4
331
C0F
  5
C0F
331
608
  5
608
331
224
  5
224
331
19E
  5
19E
331
1BD
  5
1BD
331
27A
  5
27A
331
10F8
  5
10F8
331
AF3
  5
AF3
331
9B6
  5
9B6
331
9D5
  5
9D5
331
997
  5
997
331
C27
  5
C27
331
264
  5
264
331
609
  5
609
331
1BE
  5
1BE
331
225
  5
225
331
19F
  5
19F
331
FBC
  5
FBC
331
B1B
  5
B1B
331
C28
  5
C28
331
AF4
  5
AF4
331
10F9
  5
10F9
331
9B7
  5
9B7
331
9D6
  5
9D6
331
6C0
  5
6C0
331
265
  5
265
331
1A0
  5
1A0
331
1BF
  5
1BF
331
60A
  5
60A
331
F5E
  5
F5E
331
10FA
  5
10FA
331
AF5
  5
AF5
331
9D7
  5
9D7
331
B1C
  5
B1C
331
C29
  5
C29
331
60B
  5
60B
331
266
  5
266
331
27D
  5
27D
331
6E0
  5
6E0
331
1C0
  5
1C0
331
227
  5
227
331
C2A
  5
C2A
331
F5F
  5
F5F
331
1045
  5
1045
331
10FB
  5
10FB
331
1152
  5
1152
331
1294
  5
1553
331
6E1
  5
6E1
331
700
  5
700
331
6C2
  5
6C2
331
27E
  5
27E
331
535
  5
535
331
228
  5
228
331
267
  5
267
331
1C1
  5
1C1
331
60C
  5
60C
331
10FC
  5
10FC
331
AF7
  5
AF7
331
D42
  5
D42
331
11D1
  5
11D1
331
701
  5
701
331
730
  5
730
331
6E2
  5
6E2
331
536
  5
536
331
60D
  5
60D
331
268
  5
268
331
27F
  5
27F
331
1C2
  5
1C2
331
229
  5
229
331
67C
  5
67C
331
BBE
  5
BBE
331
10FD
  5
10FD
331
11D2
  5
11D2
331
731
  5
731
331
6E3
  5
6E3
331
67D
  5
67D
331
22A
  5
22A
331
537
  5
537
331
702
  5
702
331
1C3
  5
1C3
331
C2D
  5
C2D
331
1087
  5
1087
331
1231
  5
154A
331
1278
  5
154B
331
11D3
  5
11D3
331
7D0
  5
7D0
331
538
  5
538
331
26A
  5
26A
331
6C5
  5
6C5
331
6E4
  5
6E4
331
1C4
  5
1C4
331
22B
  5
22B
331
C2E
  5
C2E
331
1279
  5
154C
331
11D4
  5
11D4
331
940
  5
940
331
6E5
  5
6E5
331
67F
  5
67F
331
22C
  5
22C
331
26B
  5
26B
331
6C6
  5
6C6
331
7D1
  5
7D1
331
1052
  5
1052
331
F25
  5
F25
331
127A
  5
154D
331
11D5
  5
11D5
331
960
  5
960
331
77B
  5
77B
331
6E6
  5
6E6
331
941
  5
941
331
611
  5
611
331
1A7
  5
1A7
331
1C6
  5
1C6
331
22D
  5
22D
331
680
  5
680
331
127B
  5
154E
331
11D6
  5
11D6
331
942
  5
942
331
77C
  5
77C
331
6E7
  5
6E7
331
706
  5
706
331
961
  5
961
331
612
  5
612
331
284
  5
284
331
681
  5
681
331
1C7
  5
1C7
331
22E
  5
22E
331
1A8
  5
1A8
331
26D
  5
26D
331
6C8
  5
6C8
331
102D
  5
102D
331
11D7
  5
11D7
331
127C
  5
154F
331
962
  5
962
331
77D
  5
77D
331
707
  5
707
331
682
  5
682
331
6C9
  5
6C9
331
613
  5
613
331
285
  5
285
331
6E8
  5
6E8
331
943
  5
943
331
1A9
  5
1A9
331
1C8
  5
1C8
331
22F
  5
22F
331
102E
  5
102E
331
11E8
  5
11E8
331
944
  5
944
331
77E
  5
77E
331
6E9
  5
6E9
331
718
  5
718
331
963
  5
963
331
286
  5
286
331
1C9
  5
1C9
331
1AA
  5
1AA
331
26F
  5
26F
331
6CA
  5
6CA
331
102F
  5
102F
331
11E9
  5
11E9
331
127E
  5
1550
331
964
  5
964
331
77F
  5
77F
331
719
  5
719
331
6CB
  5
6CB
331
1AB
  5
1AB
331
1CA
  5
1CA
331
287
  5
287
331
6EA
  5
6EA
331
945
  5
945
331
127F
  5
1551
331
946
  5
946
331
780
  5
780
331
6CC
  5
6CC
331
288
  5
288
331
6EB
  5
6EB
331
1AC
  5
1AC
331
71A
  5
71A
331
965
  5
965
331
1280
  5
1552
331
947
  5
947
331
781
  5
781
331
71B
  5
71B
331
6CD
  5
6CD
331
1AD
  5
1AD
331
289
  5
289
331
6EC
  5
6EC
331
1864
  5
127E
331
11EC
  5
11EC
331
6CE
  5
6CE
331
753
  5
753
331
273
  5
273
331
28A
  5
28A
331
948
  5
948
331
1AE
  5
1AE
331
967
  5
967
331
1865
  5
127F
331
968
  5
968
331
6EE
  5
6EE
331
6A8
  5
6A8
331
1AF
  5
1AF
331
274
  5
274
331
6CF
  5
6CF
331
754
  5
754
331
1866
  5
1280
331
969
  5
969
331
755
  5
755
331
6D0
  5
6D0
331
6EF
  5
6EF
331
94A
  5
94A
331
275
  5
275
331
6A9
  5
6A9
331
1B0
  5
1B0
331
1867
  5
1294
331
94B
  5
94B
331
96A
  5
96A
331
6F0
  5
6F0
331
6AA
  5
6AA
331
1B1
  5
1B1
331
276
  5
276
331
6D1
  5
6D1
331
756
  5
756
331
1868
  5
1546
331
720
  5
720
331
96B
  5
96B
331
6D2
  5
6D2
331
6F1
  5
6F1
331
6AB
  5
6AB
331
277
  5
277
331
1B2
  5
1B2
331
545
  5
545
331
1869
  5
1547
331
94D
  5
94D
331
787
  5
787
331
96C
  5
96C
331
6F2
  5
6F2
331
6D3
  5
6D3
331
1B3
  5
1B3
331
546
  5
546
331
64D
  5
64D
331
770
  5
770
331
186A
  5
1548
331
96D
  5
96D
331
92F
  5
92F
331
771
  5
771
331
547
  5
547
331
6D4
  5
6D4
331
6F3
  5
6F3
331
94E
  5
94E
331
1B4
  5
1B4
331
186B
  5
1549
331
94F
  5
94F
331
96E
  5
96E
331
772
  5
772
331
6F4
  5
6F4
331
1B5
  5
1B5
331
6D5
  5
6D5
331
930
  5
930
331
96F
  5
96F
331
931
  5
931
331
950
  5
950
331
773
  5
773
331
6D6
  5
6D6
331
1B6
  5
1B6
331
559
  5
559
331
660
  5
660
331
6F5
  5
6F5
331
7AA
  5
7AA
331
970
  5
970
331
774
  5
774
331
6F6
  5
6F6
331
7AB
  5
7AB
331
661
  5
661
331
1B7
  5
1B7
331
6D7
  5
6D7
331
932
  5
932
331
186E
  5
1231
331
7AC
  5
7AC
331
933
  5
933
331
775
  5
775
331
6D8
  5
6D8
331
6F7
  5
6F7
331
952
  5
952
331
186F
  5
1278
331
953
  5
953
331
6F8
  5
6F8
331
6D9
  5
6D9
331
934
  5
934
331
1870
  5
1279
331
935
  5
935
331
6DA
  5
6DA
331
6F9
  5
6F9
331
1871
  5
127A
331
936
  5
936
331
6FA
  5
6FA
331
955
  5
955
331
974
  5
974
331
6DB
  5
6DB
331
1872
  5
127B
331
181C
  5
186E
331
975
  5
975
331
937
  5
937
331
6FB
  5
6FB
331
956
  5
956
331
181D
  5
186F
331
1873
  5
127C
331
938
  5
938
331
957
  5
957
331
6DD
  5
6DD
331
6FC
  5
6FC
331
72B
  5
72B
331
976
  5
976
331
181E
  5
1870
331
958
  5
958
331
977
  5
977
331
72C
  5
72C
331
939
  5
939
331
6DE
  5
6DE
331
6FD
  5
6FD
331
93A
  5
93A
331
959
  5
959
331
6DF
  5
6DF
331
6FE
  5
6FE
331
72D
  5
72D
331
978
  5
978
331
95A
  5
95A
331
6FF
  5
6FF
331
72E
  5
72E
331
93B
  5
93B
331
998
  5
998
331
979
  5
979
331
93C
  5
93C
331
95B
  5
95B
331
72F
  5
72F
331
9B8
  5
9B8
331
97A
  5
97A
331
999
  5
999
331
95C
  5
95C
331
7CE
  5
7CE
331
93D
  5
93D
331
9D8
  5
9D8
331
99A
  5
99A
331
9B9
  5
9B9
331
184
  5
184
331
97B
  5
97B
331
93E
  5
93E
331
95D
  5
95D
331
7CF
  5
7CF
  0
LAYOUT
  5
12BA
102
{ACAD_REACTORS
330
12B8
102
}
330
12B8
100
AcDbPlotSettings
  1

  2
Mytalk FAX
  4

  6

 40
0.0
 41
0.0
 42
0.0
 43
0.0
 44
0.0
 45
0.0
 46
0.0
 47
0.0
 48
0.0
 49
0.0
140
0.0
141
0.0
142
1.0
143
1.0
 70
  1712
 72
     0
 73
     0
 74
     0
  7
AutoCAD LT 98.ctb
 75
     0
147
1.0
 76
     0
 77
     2
 78
   300
148
0.0
149
0.0
100
AcDbLayout
  1
Model
 70
     1
 71
     0
 10
0.0
 20
0.0
 11
12.0
 21
9.0
 12
0.0
 22
0.0
 32
0.0
 14
0.0
 24
0.0
 34
0.0
 15
0.0
 25
0.0
 35
0.0
146
0.0
 13
0.0
 23
0.0
 33
0.0
 16
1.0
 26
0.0
 36
0.0
 17
0.0
 27
1.0
 37
0.0
 76
     0
330
18
  0
LAYOUT
  5
12BB
102
{ACAD_REACTORS
330
12B8
102
}
330
12B8
100
AcDbPlotSettings
  1

  2
Mytalk FAX
  4

  6

 40
0.0
 41
0.0
 42
0.0
 43
0.0
 44
0.0
 45
0.0
 46
0.0
 47
0.0
 48
0.0
 49
0.0
140
0.0
141
0.0
142
1.0
143
1.0
 70
   688
 72
     0
 73
     0
 74
     5
  7
AutoCAD LT 98.ctb
 75
    16
147
1.0
 76
     0
 77
     2
 78
   300
148
0.0
149
0.0
100
AcDbLayout
  1
レイアウト1
 70
     1
 71
     1
 10
0.0
 20
0.0
 11
420.0
 21
297.0
 12
0.0
 22
0.0
 32
0.0
 14
1.000000000000000E+20
 24
1.000000000000000E+20
 34
1.000000000000000E+20
 15
-1.000000000000000E+20
 25
-1.000000000000000E+20
 35
-1.000000000000000E+20
146
0.0
 13
0.0
 23
0.0
 33
0.0
 16
1.0
 26
0.0
 36
0.0
 17
0.0
 27
1.0
 37
0.0
 76
     0
330
15
  0
MLINESTYLE
  5
1C
102
{ACAD_REACTORS
330
1B
102
}
330
1B
100
AcDbMlineStyle
  2
STANDARD
 70
     0
  3

 62
   256
 51
90.0
 52
90.0
 71
     2
 49
0.5
 62
   256
  6
BYLAYER
 49
-0.5
 62
   256
  6
BYLAYER
  0
ACDBPLACEHOLDER
  5
12B3
102
{ACAD_REACTORS
330
12B2
102
}
330
12B2
  0
ACAD_PROXY_OBJECT
  5
12B7
102
{ACAD_REACTORS
330
12B6
102
}
330
12B6
100
AcDbProxyObject
 90
      499
 91
      504
 95
  2555929
 70
     0
 93
     1849
310
4214DD185B99185C992420000000000000F83F0000000000003E0FC00000000000004901028000000C1008070000C3001FDFF8000000C1003FBFF000000182007F7FE00000030400FEFFC00000060801FDFF8000000C1003FBFF000000182000000000000000C2020B0000001820100E000186003FBFF000000182007F7FE0
310
0000030400FEFFC00000060801FDFF8000000C1003FBFF000000182007F7FE0000003040000000000000012404160000003040201C00030C007F7FE00000030400FEFFC00000060801FDFF8000000C1003FBFF000000182007F7FE00000030400FEFFC000000608000
340
F
340
F
340
F
 94
        0
  0
DICTIONARYVAR
  5
1879
102
{ACAD_REACTORS
330
D50
102
}
330
D50
100
DictionaryVariables
280
     0
  1
STANDARD
  0
DICTIONARYVAR
  5
D51
102
{ACAD_REACTORS
330
D50
102
}
330
D50
100
DictionaryVariables
280
     0
  1
96
  0
ENDSEC
  0
EOF
